<?xml version="1.0" standalone="no"?>
<!DOCTYPE svg PUBLIC "-//W3C//DTD SVG 1.1//EN" "http://www.w3.org/Graphics/SVG/1.1/DTD/svg11.dtd" >
<svg>
<metadata>
Created by FontForge 20090914 at Wed Oct 19 00:54:00 2011
 By www-data
(c) by Abolfazl Seilsepour - +98 912 591 3420  -  seilsepor@yahoo.com
</metadata>
<defs>
<font id="FarBardiya" horiz-adv-x="0" >
  <font-face 
    font-family="Far.Bardiya"
    font-weight="400"
    font-stretch="normal"
    units-per-em="2048"
    panose-1="0 0 4 0 0 0 0 0 0 0"
    ascent="1638"
    descent="-410"
    bbox="-190 -1120 1938 2475"
    underline-thickness="100"
    underline-position="-550"
    unicode-range="U+0020-U+FEFC"
  />
<missing-glyph horiz-adv-x="1024" 
d="M128 0v1410h768v-1410h-768zM256 128h512v1154h-512v-1154z" />
    <glyph glyph-name="uE818" unicode="&#x651;&#x64b;" 
d="M381 1592c86.667 0 129.999 43.333 129.999 130c0 55.333 -18.667 124.333 -56 207h-110c37.333 -75.333 56 -140.333 56 -195c0 -27.333 -18.667 -41 -56 -41c-21.333 0 -43.333 7.33301 -66 22v134h-89v-134c-22.667 -14.667 -44.667 -22 -66 -22
c-37.333 0 -56 13.667 -56 41c0 54.667 18.667 119.667 56 195h-110c-37.333 -82.667 -56 -151.667 -56 -207c0 -86.667 43.333 -130 130 -130c15.333 0 40.333 4 75 12c42 10 66 20 72 30c6.66699 -10 30.334 -20 71.001 -30c34.667 -8 59.667 -12 75 -12zM386.999 2374
l-304 -147l-36 103l306 145zM400.999 2148l-306 -148l-34 104l306 145z" />
    <glyph glyph-name="uFC5E" unicode="&#x651;&#x64c;" arabic-form="isolated" 
d="M381 1592c86.667 0 129.999 43.333 129.999 130c0 55.333 -18.667 124.333 -56 207h-110c37.333 -75.333 56 -140.333 56 -195c0 -27.333 -18.667 -41 -56 -41c-21.333 0 -43.333 7.33301 -66 22v134h-89v-134c-22.667 -14.667 -44.667 -22 -66 -22
c-37.333 0 -56 13.667 -56 41c0 54.667 18.667 119.667 56 195h-110c-37.333 -82.667 -56 -151.667 -56 -207c0 -86.667 43.333 -130 130 -130c15.333 0 40.333 4 75 12c42 10 66 20 72 30c6.66699 -10 30.334 -20 71.001 -30c34.667 -8 59.667 -12 75 -12zM204.999 2118
c-27.333 32 -41 69 -41 111c0 31.333 9.66699 57.333 29 78l9 3c68 46.667 132 70 192 70c24 0 42.333 -6.33301 55 -19c22.667 -24 34 -51 34 -81c0 -61.333 -43.333 -121 -130 -179c-44.667 -30 -138.667 -68 -282 -114l-44 72l50 23l-42 106l62 13l38 -104zM398.999 2309
c-38 6 -93.667 -14.333 -167 -61c-2.66699 -3.33301 -4 -8.33301 -4 -15c0 -21.333 12.333 -55.333 37 -102c93.333 54.667 140 103.334 140 146c0 10.667 -2 21.334 -6 32z" />
    <glyph glyph-name="uFC5F" unicode="&#x651;&#x64d;" arabic-form="isolated" 
d="M329 1989c86 0 129.001 43.333 129.001 130c0 55.333 -18.333 124.333 -55 207h-110c36.667 -76 55 -141 55 -195c0 -27.333 -18.333 -41 -55 -41c-22 0 -44 7.33301 -66 22v134h-90v-134c-22 -14.667 -44 -22 -66 -22c-36.667 0 -55 13.667 -55 41
c0 54 18.333 119 55 195h-110c-36.667 -82.667 -55 -151.667 -55 -207c0 -86.667 43 -130 129 -130c15.333 0 40.666 4 75.999 12c41.333 9.33301 65.333 19.333 72 30c6 -10.667 29.667 -20.667 71 -30c34.667 -8 59.667 -12 75 -12zM332.001 1849l-305 -147l-36 103
l307 145zM345.001 1623l-305 -148l-34 104l305 145z" />
    <glyph glyph-name="uFC60" unicode="&#x651;&#x64e;" arabic-form="isolated" 
d="M381 1592c86.667 0 129.999 43.333 129.999 130c0 55.333 -18.667 124.333 -56 207h-110c37.333 -75.333 56 -140.333 56 -195c0 -27.333 -18.667 -41 -56 -41c-21.333 0 -43.333 7.33301 -66 22v134h-89v-134c-22.667 -14.667 -44.667 -22 -66 -22
c-37.333 0 -56 13.667 -56 41c0 54.667 18.667 119.667 56 195h-110c-37.333 -82.667 -56 -151.667 -56 -207c0 -86.667 43.333 -130 130 -130c15.333 0 40.333 4 75 12c42 10 66 20 72 30c6.66699 -10 30.334 -20 71.001 -30c34.667 -8 59.667 -12 75 -12zM372.999 2147
l-303 -149l-33 105l302 144z" />
    <glyph glyph-name="uFC61" unicode="&#x651;&#x64f;" arabic-form="isolated" 
d="M381 1592c86.667 0 129.999 43.333 129.999 130c0 55.333 -18.667 124.333 -56 207h-110c37.333 -75.333 56 -140.333 56 -195c0 -27.333 -18.667 -41 -56 -41c-21.333 0 -43.333 7.33301 -66 22v134h-89v-134c-22.667 -14.667 -44.667 -22 -66 -22
c-37.333 0 -56 13.667 -56 41c0 54.667 18.667 119.667 56 195h-110c-37.333 -82.667 -56 -151.667 -56 -207c0 -86.667 43.333 -130 130 -130c15.333 0 40.333 4 75 12c42 10 66 20 72 30c6.66699 -10 30.334 -20 71.001 -30c34.667 -8 59.667 -12 75 -12zM390.999 2353
c22.667 -23.333 34 -50 34 -80c0 -60 -37 -117.333 -111 -172c-44 -32.667 -121.333 -79 -232 -139l-42 76l114 62c-30.667 32.667 -46 73.334 -46 122c0 32 9 58 27 78l8 4c72.667 46 137 69 193 69c24.667 0 43 -6.66699 55 -20zM347.999 2309
c-38.667 6 -94.333 -14.667 -167 -62c-2.66699 -3.33301 -4 -8.33301 -4 -15c0 -21.333 12.333 -55 37 -101c93.333 54.667 140 103.334 140 146c0 10.667 -2 21.334 -6 32z" />
    <glyph glyph-name="uFC62" unicode="&#x651;&#x650;" arabic-form="isolated" 
d="M342 1800c86.667 0 129.999 43.333 129.999 130c0 56 -18.667 125.333 -56 208h-110c37.333 -76 56 -141.333 56 -196c0 -27.333 -18.667 -41 -56 -41c-21.333 0 -43.333 7.66699 -66 23v133h-89v-133c-22.667 -15.333 -44.667 -23 -66 -23c-37.333 0 -56 13.667 -56 41
c0 54.667 18.667 120 56 196h-110c-37.333 -82.667 -56 -152 -56 -208c0 -86.667 43.333 -130 130 -130c15.333 0 40.333 4 75 12c42 10 66 20 72 30c6.66699 -10 30.667 -20 72 -30c34.667 -8 59.334 -12 74.001 -12zM338.999 1649l-303 -148l-33 104l302 145z" />
    <glyph glyph-name="uFDF2" unicode="&#xfedf;&#xfee0;&#xfeea;" horiz-adv-x="1699" arabic-form="isolated" 
d="M1120 1544h-99v259h99v-259zM1699 278c0 -185.333 -97.332 -277.996 -291.999 -277.996h-137c-90 0 -154.333 18.333 -193 55c-39.333 -36.667 -104 -55 -194 -55h-103c-80 0 -138.333 13.667 -175 41c-51.333 38 -79 108.333 -83 211l-1 26
c-2.66699 71.333 3.66602 163.333 18.999 276c16 118.667 24 191.334 24 218.001c0 68.667 -22 103 -66 103c-58 0 -115.333 -84.667 -172 -254c-47.333 -142.667 -71 -246.334 -71 -311.001v-20c0 -42 21 -80 63 -114c39.333 -32 80.333 -48 123 -48h63v-128h-63
c-75.333 0 -145.666 26.333 -210.999 79c-72.667 58.667 -109 129.667 -109 213v22c0 93.333 28.333 217.666 85 372.999c77.333 211.333 174.666 317 291.999 317c124 0 186 -83.333 186 -250c0 -44.667 -5.5 -121.334 -16.5 -230.001s-16.5 -190.334 -16.5 -245.001v-27
c0 -47.333 9 -79.833 27 -97.5s51.667 -26.5 101 -26.5h104c52 0 86.333 9 103 27s25 51.667 25 101v802h129v-802c0 -48 8.83301 -81.333 26.5 -100s52.5 -28 104.5 -28h136c108.667 0 163 47.667 163 143v123c0 150.667 -12.333 309 -37 475
c-30 203.333 -72 359.666 -126 468.999h146c44 -98 80.333 -250.667 109 -458c24.667 -180 37 -341 37 -483v-119zM1222 1143c86.667 0 129.999 43.333 129.999 130c0 55.333 -18.667 124.333 -56 207h-110c37.333 -76 56 -141 56 -195c0 -27.333 -18.667 -41 -56 -41
c-21.333 0 -43.333 7.33301 -66 22v133h-89v-133c-22.667 -14.667 -44.667 -22 -66 -22c-37.333 0 -56 13.667 -56 41c0 54 18.667 119 56 195h-110c-37.333 -82.667 -56 -151.667 -56 -207c0 -86.667 43.333 -130 130 -130c15.333 0 40.333 4 75 12
c42 9.33301 66.333 19.333 73 30c6 -10.667 29.667 -20.667 71 -30c34.667 -8 59.334 -12 74.001 -12z" />
    <glyph glyph-name="uFEF5" unicode="&#xfedf;&#xfe82;" horiz-adv-x="825" arabic-form="isolated" 
d="M825 348c0 -127.333 -34 -219.334 -102 -276.001c-61.333 -51.333 -155.333 -77 -282 -77v139c38 -2.66699 64.667 -2.66699 80 0c-170.667 375.333 -256 738 -256 1088c0 90 7 172.333 21 247l140 -2c-19.333 -86.667 -29 -180 -29 -280
c0 -292 80.333 -628.333 241 -1009c39.333 44.667 59 105.334 59 182.001v1106l128 3v-1121zM432 1593l-198 2c-69.333 0.666992 -104 -30.333 -104 -93v-17c0 -96.667 31.667 -209.667 95 -339l-118 -65c-70.667 128 -106 261.333 -106 400v15c0 152 77.667 228 233 228
h193z" />
    <glyph glyph-name="uFEF6" unicode="&#xfee0;&#xfe82;" horiz-adv-x="1035" arabic-form="final" 
d="M1065 0h-95.001c-66 -0 -110 3.33301 -132 10c-28.667 9.33301 -55 31.666 -79 66.999c-61.333 -56 -159.666 -84 -294.999 -84v139c17.333 0.666992 43 3.66699 77 9c-68.667 146 -127 309.667 -175 491c-56 212.667 -84 404 -84 574c0 97.333 9.66699 184.333 29 261
h139c-20 -81.333 -30 -172 -30 -272c0 -317.333 81.333 -658.666 244 -1024c37.333 32 56 94.333 56 187v1107h129v-1186c0 -54 4 -89 12 -105c15.333 -30.667 52 -46 110 -46h94v-128zM451.999 1593l-198 2c-69.333 0.666992 -104 -30.333 -104 -93v-17
c0 -96.667 31.667 -209.667 95 -339l-118 -65c-70.667 128 -106 261.333 -106 400v15c0 152 77.667 228 233 228h193z" />
    <glyph glyph-name="uFEF7" unicode="&#xfedf;&#xfe84;" horiz-adv-x="745" arabic-form="isolated" 
d="M745 348c0 -127.333 -34 -219.334 -102 -276.001c-61.333 -51.333 -155.333 -77 -282 -77v139c38 -2.66699 64.667 -2.66699 80 0c-170.667 375.333 -256 738 -256 1088c0 90 7 172.333 21 247l140 -2c-19.333 -86.667 -29 -180 -29 -280
c0 -292 80.333 -628.333 241 -1009c39.333 44.667 59 105.334 59 182.001v1106l128 3v-1121zM380 1822c-54.667 30.667 -102.333 46 -143 46c-21.333 0 -32 -26 -32 -78c0 -42.667 8.66699 -69.667 26 -81h144v-94h-333v93h88c-11.333 28.667 -17 60 -17 94
c0 37.333 7.66699 70.333 23 99c24 44.667 61.667 67 113 67c36 0 79.667 -17 131 -51v-95z" />
    <glyph glyph-name="uFEF8" unicode="&#xfee0;&#xfe84;" horiz-adv-x="945" arabic-form="final" 
d="M975 0h-95.001c-66 -0 -110 3.33301 -132 10c-28.667 9.33301 -55 31.666 -79 66.999c-61.333 -56 -159.666 -84 -294.999 -84v139c17.333 0.666992 43 3.66699 77 9c-68.667 146 -127 309.667 -175 491c-56 212.667 -84 404 -84 574c0 97.333 9.66699 184.333 29 261
h139c-20 -81.333 -30 -172 -30 -272c0 -317.333 81.333 -658.666 244 -1024c37.333 32 56 94.333 56 187v1107h129v-1186c0 -54 4 -89 12 -105c15.333 -30.667 52 -46 110 -46h94v-128zM403.999 1803c-55.333 30.667 -103.001 46.001 -143.001 46.001
c-21.333 0 -32 -26 -32 -78c0 -42.667 8.66699 -69.334 26 -80.001h144v-95h-334v94h89c-12 28.667 -18 59.667 -18 93c0 37.333 7.66699 70.333 23 99c24.667 44.667 62.334 67 113.001 67c36 0 80 -16.667 132 -50v-96z" />
    <glyph glyph-name="uFEF9" unicode="&#xfedf;&#xfe88;" horiz-adv-x="735" arabic-form="isolated" 
d="M735 348c0 -127.333 -34 -219.334 -102 -276.001c-61.333 -51.333 -155.333 -77 -282 -77v139c38 -2.66699 64.667 -2.66699 80 0c-170.667 375.333 -256 738 -256 1088c0 90 7 172.333 21 247l140 -2c-19.333 -86.667 -29 -180 -29 -280
c0 -292 80.333 -628.333 241 -1009c39.333 44.667 59 105.334 59 182.001v1106l128 3v-1121zM485 -223.001c-54.667 30.667 -102.333 46 -143 46c-21.333 0 -32 -26 -32 -78c0 -42.667 8.66699 -69.667 26 -81h144v-94h-333v93h88c-12 28.667 -18 60 -18 94
c0 36.667 8 69.667 24 99c24 44.667 61.667 67 113 67c36 0 79.667 -17 131 -51v-95z" />
    <glyph glyph-name="uFEFA" unicode="&#xfee0;&#xfe88;" horiz-adv-x="945" arabic-form="final" 
d="M975 0h-95.001c-66 -0 -110 3.33301 -132 10c-28.667 9.33301 -55 31.666 -79 66.999c-61.333 -56 -159.666 -84 -294.999 -84v139c17.333 0.666992 43 3.66699 77 9c-68.667 146 -127 309.667 -175 491c-56 212.667 -84 404 -84 574c0 97.333 9.66699 184.333 29 261
h139c-20 -81.333 -30 -172 -30 -272c0 -317.333 81.333 -658.666 244 -1024c37.333 32 56 94.333 56 187v1107h129v-1186c0 -54 4 -89 12 -105c15.333 -30.667 52 -46 110 -46h94v-128zM484.999 -218c-54.667 30.667 -102.333 46 -143 46c-21.333 0 -32 -26 -32 -78
c0 -42.667 8.66699 -69.667 26 -81h144v-94h-333v93h88c-11.333 28.667 -17 60 -17 94c0 37.333 7.66699 70.333 23 99c24 44.667 61.667 67 113 67c36 0 79.667 -16.667 131 -50v-96z" />
    <glyph glyph-name="uFEFB" unicode="&#xfedf;&#xfe8e;" horiz-adv-x="735" arabic-form="isolated" 
d="M735 348c0 -127.333 -34 -219.334 -102 -276.001c-61.333 -51.333 -155.333 -77 -282 -77v139c38 -2.66699 64.667 -2.66699 80 0c-170.667 375.333 -256 738 -256 1088c0 90 7 172.333 21 247l140 -2c-19.333 -86.667 -29 -180 -29 -280
c0 -292 80.333 -628.333 241 -1009c39.333 44.667 59 105.334 59 182.001v1106l128 3v-1121z" />
    <glyph glyph-name="uFEFC" unicode="&#xfee0;&#xfe8e;" horiz-adv-x="946" arabic-form="final" 
d="M975 0h-95.001c-66 -0 -110 3.33301 -132 10c-28.667 9.33301 -55 31.666 -79 66.999c-61.333 -56 -159.666 -84 -294.999 -84v139c17.333 0.666992 43 3.66699 77 9c-68.667 146 -127 309.667 -175 491c-56 212.667 -84 404 -84 574c0 97.333 9.66699 184.333 29 261
h139c-20 -81.333 -30 -172 -30 -272c0 -317.333 81.333 -658.666 244 -1024c37.333 32 56 94.333 56 187v1107h129v-1186c0 -54 4 -89 12 -105c15.333 -30.667 52 -46 110 -46h94v-128z" />
    <glyph glyph-name="u0622" unicode="&#x622;" horiz-adv-x="523" arabic-form="isolated" 
d="M523 1358h-192c-69.333 0 -104 -31 -104 -93v-17c0 -96.667 31.333 -209.667 94 -339l-118 -65c-70.667 128 -106 261.333 -106 400v14c0 152.667 78 229 234 229h192v-129zM489 0h-128v1274h128v-1274z" />
    <glyph glyph-name="u0623" unicode="&#x623;" horiz-adv-x="438" arabic-form="isolated" 
d="M304 0h-128v1468h128v-1468zM438 1805c-55.333 30.667 -103 46 -143 46c-21.333 0 -32 -26 -32 -78c0 -42.667 8.66699 -69.667 26 -81h144v-94h-334v93h89c-12 28.667 -18 60 -18 94c0 36.667 8 69.667 24 99c24 44.667 61.333 67 112 67c36.667 0 80.667 -17 132 -51
v-95z" />
    <glyph glyph-name="u0624" unicode="&#x624;" horiz-adv-x="770" arabic-form="isolated" 
d="M767 252c0 -171.333 -80.333 -426.667 -241 -766h-151c30 52 57.667 105.333 83 160c62 132 109 259 141 381c-34 -11.333 -72 -17 -114 -17c-107.333 0 -193 48 -257 144c-54 81.333 -81 173 -81 275v22c0 92 21.667 192 65 300c65.333 162 160.333 243 285 243
c92.667 0 163 -77.333 211 -232c39.333 -126 59 -278.667 59 -458v-52zM640 257.999l-0.000976562 45c0 372.667 -47.667 559 -143 559c-68.667 0 -126 -57.667 -172 -173c-34.667 -88 -52 -164 -52 -228v-20c0 -66 14.667 -127.667 44 -185
c38.667 -76.667 94.667 -115 168 -115c50.667 0 91.334 17 122.001 51c22 24.667 33 46.667 33 66zM663.999 1433c-54.667 30.667 -102.333 46.001 -143 46.001c-21.333 0 -32 -26 -32 -78c0 -42.667 8.66699 -69.334 26 -80.001h144v-95h-333v94h88
c-11.333 28.667 -17 59.667 -17 93c0 37.333 7.66699 70.333 23 99c24 44.667 61.667 67 113 67c36 0 79.667 -16.667 131 -50v-96z" />
    <glyph glyph-name="u0625" unicode="&#x625;" horiz-adv-x="379" arabic-form="isolated" 
d="M304 0h-128v1468h128v-1468zM342 -239c-55.333 30 -103 45.001 -143 45.001c-21.333 0 -32 -26 -32 -78c0 -42.667 8.66699 -69.334 26 -80.001h144v-95h-334v94h89c-12 28.667 -18 59.667 -18 93c0 37.333 8 70.333 24 99c24 44.667 61.667 67 113 67
c36 0 79.667 -16.667 131 -50v-95z" />
    <glyph glyph-name="u0626" unicode="&#x626;" horiz-adv-x="967" arabic-form="isolated" 
d="M967 855c-48.667 23.333 -91.665 33.0039 -128.998 29.0039c-38 0 -70 -20 -96 -60c-28 -43.333 -42 -101 -42 -173c0 -96 24.333 -198.667 73 -308l115 -232c21.333 -48.667 32 -105.334 32 -170.001c0 -94.667 -25 -171.334 -75 -230.001
c-63.333 -75.333 -161.333 -113 -294 -113s-235.334 34 -308.001 102c-64 60.667 -96 137.334 -96 230.001v14c0 179.333 21.333 371 64 575c41.333 197.333 93 360.333 155 489h145c-63.333 -133.333 -117.333 -294.333 -162 -483c-49.333 -209.333 -74 -402.333 -74 -579
v-11c0 -54.667 21.667 -101.334 65 -140.001c50.667 -44.667 121 -67 211 -67c81.333 0 143.666 25.333 186.999 76c37.333 43.333 56 96.666 56 159.999c0 39.333 -7.66699 74 -23 104l-127 252c-47.333 112.667 -71 225.667 -71 339c0 102.667 22.333 186.667 67 252
c48.667 70 114 105 196 105c45.333 3.33301 89 -3.33398 131 -20.001v-141zM507.002 1333c-54.667 30.667 -102.333 46.001 -143 46.001c-21.333 0 -32 -26 -32 -78c0 -42.667 8.66699 -69.334 26 -80.001h144v-95h-333v94h88c-11.333 28.667 -17 59.667 -17 93
c0 37.333 7.66699 70.333 23 99c24 44.667 61.667 67 113 67c36 0 79.667 -16.667 131 -50v-96z" />
    <glyph glyph-name="u0627" unicode="&#x627;" horiz-adv-x="304" arabic-form="isolated" 
d="M304 0h-128v1468h128v-1468z" />
    <glyph glyph-name="u0628" unicode="&#x628;" horiz-adv-x="1412" arabic-form="isolated" 
d="M1414 263c0 -110 -26.666 -184.332 -79.999 -222.999c-36 -26.667 -95.333 -40 -178 -40h-751c-82.667 0 -142.334 13.333 -179.001 40c-52.667 38.667 -79 113 -79 223v48c0 206.667 51.333 437.667 154 693h145c-113.333 -252.667 -170 -484.667 -170 -696v-52
c0 -50 8.83301 -83.833 26.5 -101.5s52.5 -26.5 104.5 -26.5h749c52 0 86.5 9 103.5 27s25.5 51.667 25.5 101v52c0 89.333 -13.333 193.666 -40 312.999c-32.667 147.333 -78 275 -136 383h148c104.667 -246 157 -477 157 -693v-48zM897.001 -239.999
c0 -31.333 -11 -57.833 -33 -79.5s-48.333 -32.5 -79 -32.5c-31.333 0 -57.833 10.833 -79.5 32.5s-32.5 48.167 -32.5 79.5c0 30.667 10.833 57 32.5 79s48.167 33 79.5 33c30.667 0 57 -11 79 -33s33 -48.333 33 -79z" />
    <glyph glyph-name="u0629" unicode="&#x629;" horiz-adv-x="807" arabic-form="isolated" 
d="M805 291c0 -194.667 -111.333 -291.999 -334 -291.999h-39c-67.333 0 -129 22.667 -185 68c-66.667 54.667 -100 127.667 -100 219v27c0 189.333 27.333 348.666 82 477.999c60 141.333 140.333 212 241 212c111.333 0 197 -72.333 257 -217c52 -125.333 78 -283 78 -473
v-22zM671 288.001v20.999c0 151.333 -13.667 276.333 -41 375c-34.667 124.667 -87 187 -157 187c-66 0 -116.667 -63.667 -152 -191c-29.333 -104 -44 -227 -44 -369v-19c0 -43.333 13 -80.666 39 -111.999c29.333 -35.333 70 -53 122 -53h33c133.333 0 200 53.667 200 161
zM654 1433c-54.667 30.667 -102.001 46.001 -142.001 46.001c-21.333 0 -32 -26 -32 -78c0 -42.667 8.66699 -69.334 26 -80.001h144v-95h-334v94h89c-12 28.667 -18 59.667 -18 93c0 37.333 7.66699 70.333 23 99c24.667 44.667 62.334 67 113.001 67
c36 0 79.667 -16.667 131 -50v-96z" />
    <glyph glyph-name="u062A" unicode="&#x62a;" horiz-adv-x="1420" arabic-form="isolated" 
d="M1414 263c0 -110 -26.666 -184.332 -79.999 -222.999c-36 -26.667 -95.333 -40 -178 -40h-751c-82.667 0 -142.334 13.333 -179.001 40c-52.667 38.667 -79 113 -79 223v48c0 206.667 51.333 437.667 154 693h145c-113.333 -252.667 -170 -484.667 -170 -696v-52
c0 -50 8.83301 -83.833 26.5 -101.5s52.5 -26.5 104.5 -26.5h749c52 0 86.5 9 103.5 27s25.5 51.667 25.5 101v52c0 89.333 -13.333 193.666 -40 312.999c-32.667 147.333 -78 275 -136 383h148c104.667 -246 157 -477 157 -693v-48zM1043 1258
c0 -30.667 -11 -56.834 -33 -78.501s-48.333 -32.5 -79 -32.5s-57 10.833 -79 32.5s-33 47.834 -33 78.501c0 31.333 11 57.833 33 79.5s48.333 32.5 79 32.5s57 -10.833 79 -32.5s33 -48.167 33 -79.5zM766.001 1258c0 -30.667 -11 -56.833 -33 -78.5
s-48.333 -32.5 -79 -32.5s-57 11 -79 33s-33 48 -33 78c0 30.667 11 57 33 79s48.333 33 79 33s57 -10.833 79 -32.5s33 -48.167 33 -79.5z" />
    <glyph glyph-name="u062B" unicode="&#x62b;" horiz-adv-x="1410" arabic-form="isolated" 
d="M1414 263c0 -110 -26.666 -184.332 -79.999 -222.999c-36 -26.667 -95.333 -40 -178 -40h-751c-82.667 0 -142.334 13.333 -179.001 40c-52.667 38.667 -79 113 -79 223v48c0 206.667 51.333 437.667 154 693h145c-113.333 -252.667 -170 -484.667 -170 -696v-52
c0 -50 8.83301 -83.833 26.5 -101.5s52.5 -26.5 104.5 -26.5h749c52 0 86.5 9 103.5 27s25.5 51.667 25.5 101v52c0 89.333 -13.333 193.666 -40 312.999c-32.667 147.333 -78 275 -136 383h148c104.667 -246 157 -477 157 -693v-48zM913.001 1484
c0 -30.667 -11 -57.167 -33 -79.5s-48.333 -33.5 -79 -33.5s-57 11.167 -79 33.5s-33 48.833 -33 79.5c0 30 11.167 56.167 33.5 78.5s48.5 33.5 78.5 33.5s56.167 -11.167 78.5 -33.5s33.5 -48.5 33.5 -78.5zM1050 1258c0 -30 -10.833 -56 -32.5 -78s-48.167 -33 -79.5 -33
c-30 0 -56 11 -78 33s-33 48 -33 78c0 30.667 11 57.167 33 79.5s48 33.5 78 33.5c30.667 0 57 -11.167 79 -33.5s33 -48.833 33 -79.5zM774.001 1258c0 -30 -11.167 -56 -33.5 -78s-48.5 -33 -78.5 -33c-30.667 0 -57.167 11 -79.5 33s-33.5 48 -33.5 78
c0 30.667 11.167 57.167 33.5 79.5s48.833 33.5 79.5 33.5c30 0 56.167 -11.167 78.5 -33.5s33.5 -48.833 33.5 -79.5z" />
    <glyph glyph-name="u062C" unicode="&#x62c;" horiz-adv-x="803" arabic-form="isolated" 
d="M803 263c0 -110 -26.332 -184.332 -78.999 -222.999c-36.667 -26.667 -96 -40 -178 -40h-62c-137.333 0 -206 -60 -206 -180c0 -101.333 44 -228.333 132 -381h-145c-78 152 -117 286.667 -117 404c0 190 112 285 336 285h62c51.333 0 86 9.33301 104 28
c16 17.333 24 50.666 24 99.999v44c0 122.667 -13 239.667 -39 351c-34 146 -81.333 219 -142 219c-81.333 0 -122 -115 -122 -345c0 -82 4.66699 -165.667 14 -251h-130c-3.33301 42.667 -5 89.667 -5 141c0 392 84 588 252 588c91.333 0 165.666 -73.333 222.999 -220
c52 -134.667 78 -294.667 78 -480v-40zM636.001 -233.999c0 -31.333 -10.833 -57.833 -32.5 -79.5s-48.167 -32.5 -79.5 -32.5s-57.833 10.833 -79.5 32.5s-32.5 48.167 -32.5 79.5c0 30.667 10.833 56.834 32.5 78.501s48.167 32.5 79.5 32.5s57.833 -10.833 79.5 -32.5
s32.5 -47.834 32.5 -78.501z" />
    <glyph glyph-name="u062D" unicode="&#x62d;" horiz-adv-x="803" arabic-form="isolated" 
d="M803 263c0 -110 -26.332 -184.332 -78.999 -222.999c-36.667 -26.667 -96 -40 -178 -40h-62c-137.333 0 -206 -60 -206 -180c0 -101.333 44 -228.333 132 -381h-145c-78 152 -117 286.667 -117 404c0 190 112 285 336 285h62c51.333 0 86 9.33301 104 28
c16 17.333 24 50.666 24 99.999v44c0 122.667 -13 239.667 -39 351c-34 146 -81.333 219 -142 219c-81.333 0 -122 -115 -122 -345c0 -82 4.66699 -165.667 14 -251h-130c-3.33301 42.667 -5 89.667 -5 141c0 392 84 588 252 588c91.333 0 165.666 -73.333 222.999 -220
c52 -134.667 78 -294.667 78 -480v-40z" />
    <glyph glyph-name="u062E" unicode="&#x62e;" horiz-adv-x="802" arabic-form="isolated" 
d="M803 263c0 -110 -26.332 -184.332 -78.999 -222.999c-36.667 -26.667 -96 -40 -178 -40h-62c-137.333 0 -206 -60 -206 -180c0 -101.333 44 -228.333 132 -381h-145c-78 152 -117 286.667 -117 404c0 190 112 285 336 285h62c51.333 0 86 9.33301 104 28
c16 17.333 24 50.666 24 99.999v44c0 122.667 -13 239.667 -39 351c-34 146 -81.333 219 -142 219c-81.333 0 -122 -115 -122 -345c0 -82 4.66699 -165.667 14 -251h-130c-3.33301 42.667 -5 89.667 -5 141c0 392 84 588 252 588c91.333 0 165.666 -73.333 222.999 -220
c52 -134.667 78 -294.667 78 -480v-40zM596.001 1259c0 -30.667 -10.833 -56.834 -32.5 -78.501s-48.167 -32.5 -79.5 -32.5c-30.667 0 -57 10.833 -79 32.5s-33 47.834 -33 78.501c0 31.333 11 57.833 33 79.5s48.333 32.5 79 32.5c31.333 0 57.833 -10.833 79.5 -32.5
s32.5 -48.167 32.5 -79.5z" />
    <glyph glyph-name="u062F" unicode="&#x62f;" horiz-adv-x="664" arabic-form="isolated" 
d="M664 228c0 -152 -77.668 -228 -233.001 -228h-290v128h290c69.333 0 104 31 104 93v17c0 87.333 -28.667 204 -86 350c-72 184.667 -155.333 281 -250 289v127c92.667 0 178.334 -56.667 257.001 -170c61.333 -88 113.333 -201 156 -339c34.667 -113.333 52 -198 52 -254
v-13z" />
    <glyph glyph-name="u0630" unicode="&#x630;" horiz-adv-x="661" arabic-form="isolated" 
d="M664 228c0 -152 -77.668 -228 -233.001 -228h-290v128h290c69.333 0 104 31 104 93v17c0 87.333 -28.667 204 -86 350c-72 184.667 -155.333 281 -250 289v127c92.667 0 178.334 -56.667 257.001 -170c61.333 -88 113.333 -201 156 -339c34.667 -113.333 52 -198 52 -254
v-13zM401.999 1259c0 -30.667 -11 -56.834 -33 -78.501s-48.333 -32.5 -79 -32.5c-31.333 0 -57.833 10.833 -79.5 32.5s-32.5 47.834 -32.5 78.501c0 31.333 10.833 57.833 32.5 79.5s48.167 32.5 79.5 32.5c30.667 0 57 -10.833 79 -32.5s33 -48.167 33 -79.5z" />
    <glyph glyph-name="u0631" unicode="&#x631;" horiz-adv-x="557" arabic-form="isolated" 
d="M396 86c-28.667 -146 -100.667 -345.332 -216 -597.999h-146c37.333 76.667 70.333 149 99 217c70.667 164 115.667 294 135 390c16 76.667 24 171 24 283c0 187.333 -19.333 395.666 -58 624.999h131c36 -226 54 -433.333 54 -622c0 -116 -7.66699 -214.333 -23 -295z
" />
    <glyph glyph-name="u0632" unicode="&#x632;" horiz-adv-x="557" arabic-form="isolated" 
d="M396 86c-28.667 -146 -100.667 -345.332 -216 -597.999h-146c37.333 76.667 70.333 149 99 217c70.667 164 115.667 294 135 390c16 76.667 24 171 24 283c0 187.333 -19.333 395.666 -58 624.999h131c36 -226 54 -433.333 54 -622c0 -116 -7.66699 -214.333 -23 -295z
M409 1259c0 -30.667 -10.833 -56.834 -32.5 -78.501s-47.834 -32.5 -78.501 -32.5c-31.333 0 -57.833 10.833 -79.5 32.5s-32.5 47.834 -32.5 78.501c0 31.333 10.833 57.833 32.5 79.5s48.167 32.5 79.5 32.5c30.667 0 56.834 -10.833 78.501 -32.5
s32.5 -48.167 32.5 -79.5z" />
    <glyph glyph-name="u0633" unicode="&#x633;" horiz-adv-x="1649" arabic-form="isolated" 
d="M1649 263c0 -175.333 -76.6699 -262.998 -230.003 -262.998h-44c-72.667 0 -127 18 -163 54c-38 -36 -98.333 -54 -181 -54h-18c-46 0 -82 5.33301 -108 16v-65c0 -124.667 -33 -217 -99 -277c-52.667 -48 -120.667 -72 -204 -72h-68c-124 0 -221 33.333 -291 100
c-64 60.667 -96 136.667 -96 228v14c0 292 99 645.333 297 1060h145c-209.333 -443.333 -314 -796 -314 -1058v-11c0 -53.333 21.333 -99.333 64 -138c48 -44 113 -66 195 -66h68c116.667 0 175 73.333 175 220v1053h128v-752c0 -46.667 6.33301 -78 19 -94
c14.667 -20 44.334 -30 89.001 -30h31c38.667 0 65.667 9.66699 81 29s23 52.333 23 99v748h128v-748c0 -86.667 32.667 -129.334 98 -128.001l44 1c38.667 1.33301 65.334 11.166 80.001 29.499s22 50.833 22 97.5v52c0 130 -14.333 264.667 -43 404
c-27.333 136.667 -59.333 234 -96 292h154c24.667 -66.667 48.334 -159 71.001 -277c28.667 -150 43 -288.667 43 -416v-48z" />
    <glyph glyph-name="u0634" unicode="&#x634;" horiz-adv-x="1649" arabic-form="isolated" 
d="M1649 263c0 -175.333 -76.6699 -262.998 -230.003 -262.998h-44c-72.667 0 -127 18 -163 54c-38 -36 -98.333 -54 -181 -54h-18c-46 0 -82 5.33301 -108 16v-65c0 -124.667 -33 -217 -99 -277c-52.667 -48 -120.667 -72 -204 -72h-68c-124 0 -221 33.333 -291 100
c-64 60.667 -96 136.667 -96 228v14c0 292 99 645.333 297 1060h145c-209.333 -443.333 -314 -796 -314 -1058v-11c0 -53.333 21.333 -99.333 64 -138c48 -44 113 -66 195 -66h68c116.667 0 175 73.333 175 220v1053h128v-752c0 -46.667 6.33301 -78 19 -94
c14.667 -20 44.334 -30 89.001 -30h31c38.667 0 65.667 9.66699 81 29s23 52.333 23 99v748h128v-748c0 -86.667 32.667 -129.334 98 -128.001l44 1c38.667 1.33301 65.334 11.166 80.001 29.499s22 50.833 22 97.5v52c0 130 -14.333 264.667 -43 404
c-27.333 136.667 -59.333 234 -96 292h154c24.667 -66.667 48.334 -159 71.001 -277c28.667 -150 43 -288.667 43 -416v-48zM1326 1424c0 -30.667 -11 -57.167 -33 -79.5s-48 -33.5 -78 -33.5c-30.667 0 -57.167 11.167 -79.5 33.5s-33.5 48.833 -33.5 79.5
c0 29.333 11.167 55.333 33.5 78s48.833 34 79.5 34c30 0 56 -11.333 78 -34s33 -48.667 33 -78zM1464 1198c0 -30 -11 -56.167 -33 -78.5s-48.333 -33.5 -79 -33.5c-30 0 -56.167 11.167 -78.5 33.5s-33.5 48.5 -33.5 78.5s11.167 56.333 33.5 79s48.5 34 78.5 34
s56.167 -11.167 78.5 -33.5s33.5 -48.833 33.5 -79.5zM1187 1198c0 -30 -11 -56.167 -33 -78.5s-48 -33.5 -78 -33.5c-30.667 0 -57.167 11.167 -79.5 33.5s-33.5 48.5 -33.5 78.5c0 30.667 11.167 57.167 33.5 79.5s48.833 33.5 79.5 33.5c30 0 56 -11.333 78 -34
s33 -49 33 -79z" />
    <glyph glyph-name="u0635" unicode="&#x635;" horiz-adv-x="1729" arabic-form="isolated" 
d="M1729 263c0 -110.667 -26.332 -185.332 -78.999 -223.999c-36 -26 -95.333 -39 -178 -39h-435c-56 0 -100 6 -132 18v-67c0 -124.667 -33 -217 -99 -277c-52.667 -48 -120.667 -72 -204 -72h-69c-123.333 0 -220.333 33.333 -291 100c-63.333 60.667 -95 136.667 -95 228
v14c0 271.333 107 624.666 321 1060h148c-227.333 -434 -341 -786.667 -341 -1058v-11c0 -54 21 -100 63 -138c48 -44 113 -66 195 -66h69c116.667 0 175 73.333 175 220v1053h128v-568c196.667 363.333 360 545 490 545h25c71.333 0 136.666 -49 195.999 -147
c75.333 -124.667 113 -299 113 -523v-48zM1601 256.002l-0.000976562 52.001c0 195.333 -28 343.666 -84 444.999c-36 66.667 -69.333 100 -100 100h-29c-61.333 0 -153 -102 -275 -306c-70 -116.667 -135.667 -240 -197 -370c10 -28 34 -44.333 72 -49h484
c50.667 0 84.834 9.33301 102.501 28s26.5 52 26.5 100z" />
    <glyph glyph-name="u0636" unicode="&#x636;" horiz-adv-x="1729" arabic-form="isolated" 
d="M1729 263c0 -110.667 -26.332 -185.332 -78.999 -223.999c-36 -26 -95.333 -39 -178 -39h-435c-56 0 -100 6 -132 18v-67c0 -124.667 -33 -217 -99 -277c-52.667 -48 -120.667 -72 -204 -72h-69c-123.333 0 -220.333 33.333 -291 100c-63.333 60.667 -95 136.667 -95 228
v14c0 271.333 107 624.666 321 1060h148c-227.333 -434 -341 -786.667 -341 -1058v-11c0 -54 21 -100 63 -138c48 -44 113 -66 195 -66h69c116.667 0 175 73.333 175 220v1053h128v-568c196.667 363.333 360 545 490 545h25c71.333 0 136.666 -49 195.999 -147
c75.333 -124.667 113 -299 113 -523v-48zM1601 256.002l-0.000976562 52.001c0 195.333 -28 343.666 -84 444.999c-36 66.667 -69.333 100 -100 100h-29c-61.333 0 -153 -102 -275 -306c-70 -116.667 -135.667 -240 -197 -370c10 -28 34 -44.333 72 -49h484
c50.667 0 84.834 9.33301 102.501 28s26.5 52 26.5 100zM1501 1259c0 -30.667 -11 -56.834 -33 -78.501s-48.333 -32.5 -79 -32.5c-31.333 0 -57.833 10.833 -79.5 32.5s-32.5 47.834 -32.5 78.501c0 31.333 10.833 57.833 32.5 79.5s48.167 32.5 79.5 32.5
c30.667 0 57 -10.833 79 -32.5s33 -48.167 33 -79.5z" />
    <glyph glyph-name="u0637" unicode="&#x637;" horiz-adv-x="1121" arabic-form="isolated" 
d="M1121 263c0 -110.667 -26.332 -185.333 -78.999 -224c-36 -26 -95 -39 -177 -39h-689v1468h128v-1023c191.333 357.333 352.333 536 483 536h25c71.333 0 136.666 -49 195.999 -147c75.333 -124.667 113 -299 113 -523v-48zM993.001 256.001v52.001
c0 195.333 -28 343.666 -84 444.999c-36 66.667 -69.333 100 -100 100h-29c-92 0 -234.333 -198.333 -427 -595c-23.333 -48 -35 -83.333 -35 -106c0 -16 6 -24 18 -24h529c50 0 83.833 9.33301 101.5 28s26.5 52 26.5 100z" />
    <glyph glyph-name="u0638" unicode="&#x638;" horiz-adv-x="1121" arabic-form="isolated" 
d="M1121 263c0 -110.667 -26.332 -185.333 -78.999 -224c-36 -26 -95 -39 -177 -39h-689v1468h128v-1023c191.333 357.333 352.333 536 483 536h25c71.333 0 136.666 -49 195.999 -147c75.333 -124.667 113 -299 113 -523v-48zM993.001 256.001v52.001
c0 195.333 -28 343.666 -84 444.999c-36 66.667 -69.333 100 -100 100h-29c-92 0 -234.333 -198.333 -427 -595c-23.333 -48 -35 -83.333 -35 -106c0 -16 6 -24 18 -24h529c50 0 83.833 9.33301 101.5 28s26.5 52 26.5 100zM914.001 1259
c0 -30.667 -10.833 -56.834 -32.5 -78.501s-48.167 -32.5 -79.5 -32.5c-30.667 0 -57 10.833 -79 32.5s-33 47.834 -33 78.501c0 31.333 11 57.833 33 79.5s48.333 32.5 79 32.5c31.333 0 57.833 -10.833 79.5 -32.5s32.5 -48.167 32.5 -79.5z" />
    <glyph glyph-name="u0639" unicode="&#x639;" horiz-adv-x="854" arabic-form="isolated" 
d="M854 741c-148.667 89.333 -260.334 134 -335.001 134h-10c-51.333 0 -96.666 -20.667 -135.999 -62c-46 -48.667 -69 -113.667 -69 -195v-315c0 -69.333 5.66699 -113.666 17 -132.999c16 -28 53 -42 111 -42h364v-128h-273c-137.333 0 -206 -60 -206 -180
c0 -101.333 44 -228.333 132 -381h-146c-76.667 155.333 -115 291.666 -115 408.999c0 86 24 151.667 72 197c-56 36.667 -84 122.667 -84 258v315c0 121.333 33.333 217.333 100 288c61.333 65.333 137.333 98 228 98h14c96 0 208 -41 336 -123v-140z" />
    <glyph glyph-name="u063A" unicode="&#x63a;" horiz-adv-x="856" arabic-form="isolated" 
d="M854 741c-148.667 89.333 -260.334 134 -335.001 134h-10c-51.333 0 -96.666 -20.667 -135.999 -62c-46 -48.667 -69 -113.667 -69 -195v-315c0 -69.333 5.66699 -113.666 17 -132.999c16 -28 53 -42 111 -42h364v-128h-273c-137.333 0 -206 -60 -206 -180
c0 -101.333 44 -228.333 132 -381h-146c-76.667 155.333 -115 291.666 -115 408.999c0 86 24 151.667 72 197c-56 36.667 -84 122.667 -84 258v315c0 121.333 33.333 217.333 100 288c61.333 65.333 137.333 98 228 98h14c96 0 208 -41 336 -123v-140zM606 1259
c0 -30.667 -10.833 -56.834 -32.5 -78.501s-48.167 -32.5 -79.5 -32.5s-57.833 10.833 -79.5 32.5s-32.5 47.834 -32.5 78.501c0 31.333 10.833 57.833 32.5 79.5s48.167 32.5 79.5 32.5s57.833 -10.833 79.5 -32.5s32.5 -48.167 32.5 -79.5z" />
    <glyph glyph-name="u0641" unicode="&#x641;" horiz-adv-x="1406" arabic-form="isolated" 
d="M1225 1259c0 -30.667 -10.833 -56.834 -32.5 -78.501s-47.834 -32.5 -78.501 -32.5c-31.333 0 -57.833 10.833 -79.5 32.5s-32.5 47.834 -32.5 78.501c0 31.333 10.833 57.833 32.5 79.5s48.167 32.5 79.5 32.5c30.667 0 56.834 -10.833 78.501 -32.5
s32.5 -48.167 32.5 -79.5zM1406 282c0 -90 -26.667 -160.999 -80 -212.999c-48 -46.667 -107 -70 -177 -70l-744 1c-82.667 0 -142.334 13.333 -179.001 40c-52.667 38.667 -79 113 -79 223v48c0 99.333 14.5 213.166 43.5 341.499s66.5 245.5 112.5 351.5h143
c-114 -243.333 -171 -475.333 -171 -696v-52c0 -48.667 8.33301 -81.667 25 -99c18.667 -19.333 54.334 -29 107.001 -29l475 -1c-63.333 76.667 -95 181.667 -95 315c0 125.333 29 244 87 356c67.333 129.333 151.333 194 252 194c91.333 0 163 -67 215 -201
c43.333 -111.333 65 -239.333 65 -384v-125zM1280 299.001v120.001c0 112.667 -11.333 209.667 -34 291c-27.333 102 -67.333 153 -120 153c-53.333 0 -102.666 -49.333 -147.999 -148c-42 -92 -63 -183 -63 -273c0 -88 18 -160.667 54 -218
c43.333 -68.667 106.666 -102 189.999 -100c80.667 1.33301 121 59.666 121 174.999z" />
    <glyph glyph-name="u0642" unicode="&#x642;" horiz-adv-x="1099" arabic-form="isolated" 
d="M1038 1259c0 -30.667 -10.833 -56.834 -32.5 -78.501s-48.167 -32.5 -79.5 -32.5c-30.667 0 -57 10.833 -79 32.5s-33 47.834 -33 78.501c0 31.333 11 57.833 33 79.5s48.333 32.5 79 32.5c31.333 0 57.833 -10.833 79.5 -32.5s32.5 -48.167 32.5 -79.5zM761 1259
c0 -30.667 -11 -56.833 -33 -78.5s-48 -32.5 -78 -32.5c-30.667 0 -57.167 11 -79.5 33s-33.5 48 -33.5 78c0 30.667 11.167 57 33.5 79s48.833 33 79.5 33c30 0 56 -10.833 78 -32.5s33 -48.167 33 -79.5zM1099 -48.999c0 -124 -32.998 -216.332 -98.998 -276.999
c-51.333 -48 -117 -72 -197 -72c-6 -4 -46.333 -6.33301 -121 -7c-76.667 0 -127.334 2.33301 -152.001 7c-122 0 -218.333 33.667 -289 101c-62.667 60 -94 135.667 -94 227v14c0 171.333 27.667 357.666 83 558.999c47.333 174.667 108.666 338 183.999 490h146
c-190 -386 -285 -735 -285 -1047v-11c0 -53.333 21.333 -99.333 64 -138c48.667 -44 114 -66 196 -66c104 -15.333 189.667 -15.333 257 0c119.333 0 179 73.333 179 220v82c-34.667 -19.333 -74.667 -31.666 -120 -36.999c-122 0 -217 46 -285 138
c-60 81.333 -90 184 -90 308c0 126 29 245 87 357c67.333 129.333 151.333 194 252 194c104 0 180.667 -84.333 230 -253c36 -122.667 54 -269.334 54 -440.001v-349zM971.002 257.002l-0.000976562 40c0 378 -52 567 -156 567c-53.333 0 -102.666 -49.333 -147.999 -148
c-42 -92 -63 -183.333 -63 -274c0 -87.333 18 -159.333 54 -216c43.333 -68 107.333 -102 192 -102c32 0 60.167 13.667 84.5 41s36.5 58 36.5 92z" />
    <glyph glyph-name="u0643" unicode="&#x643;" horiz-adv-x="1761" arabic-form="isolated" 
d="M1789 1522c-100.667 -11.333 -216.999 -44.333 -348.999 -99c-99.333 -41.333 -185 -84.333 -257 -129c156 -238 234 -506 234 -804v-227c0 -110 -26.667 -184.333 -80 -223c-36 -26.667 -95.333 -40 -178 -40h-752c-83.333 -0 -143.333 13.333 -180 40
c-53.333 38.667 -80 113 -80 223v48c0 206.667 51.333 437.667 154 693h145c-113.333 -252.667 -170 -484.667 -170 -696v-52c0 -50 8.83301 -83.833 26.5 -101.5s52.5 -26.5 104.5 -26.5h752c51.333 0 85.666 9 102.999 27s26 51.667 26 101v231
c0 262.667 -81.667 515 -245 757v115c90 63.333 200.333 123.333 331 180c136 59.333 245 93 327 101z" />
    <glyph glyph-name="u0644" unicode="&#x644;" horiz-adv-x="905" arabic-form="isolated" 
d="M905 -49c0 -235.333 -117.998 -353 -353.998 -353c-132.667 0 -235.334 34 -308.001 102c-64 60.667 -96 137.334 -96 230.001v14c0 264.667 105.667 618 317 1060h145c-100.667 -213.333 -171 -374 -211 -482c-82 -222.667 -123 -414.667 -123 -576v-11
c0 -54.667 21.667 -101.334 65 -140.001c50.667 -44.667 121 -67 211 -67c87.333 0 148.666 22.333 183.999 67c28 36 42 92 42 168v1504h128v-1516z" />
    <glyph glyph-name="u0645" unicode="&#x645;" horiz-adv-x="887" arabic-form="isolated" 
d="M887 263c0 -110 -26.667 -184.332 -80 -222.999c-36 -26.667 -95.333 -40 -178 -40h-119c-157.333 0 -236 -78 -236 -234c0 -97.333 28 -209.333 84 -336h-142c-46 123.333 -69 238.666 -69 345.999c0 175.333 67 285.333 201 330c-29.333 88.667 -44 199.667 -44 333
c0 138 19.333 249.667 58 335c47.333 104.667 119.333 157 216 157c93.333 0 169 -64.667 227 -194c54.667 -122 82 -273 82 -453v-21zM758 256.001l-0.000976562 24.001c0 113.333 -14.333 221.666 -43 324.999c-36 128.667 -84.667 193 -146 193
c-49.333 0 -87.666 -37.667 -114.999 -113c-23.333 -66.667 -35 -149.667 -35 -249c0 -146 20.333 -248.667 61 -308h149c52 0 86.5 9 103.5 27s25.5 51.667 25.5 101z" />
    <glyph glyph-name="u0646" unicode="&#x646;" horiz-adv-x="905" arabic-form="isolated" 
d="M779 1259c0 -30.667 -10.833 -56.834 -32.5 -78.501s-48.167 -32.5 -79.5 -32.5s-57.833 10.833 -79.5 32.5s-32.5 47.834 -32.5 78.501c0 31.333 10.833 57.833 32.5 79.5s48.167 32.5 79.5 32.5s57.833 -10.833 79.5 -32.5s32.5 -48.167 32.5 -79.5zM905 -49
c0 -235.333 -117.998 -353 -353.998 -353c-132.667 0 -235.334 34 -308.001 102c-64 60.667 -96 137.334 -96 230.001v14c0 292 99 645.333 297 1060h145c-209.333 -443.333 -314 -796 -314 -1058v-11c0 -54.667 21.667 -101.334 65 -140.001
c50.667 -44.667 121 -67 211 -67c87.333 0 148.666 22.333 183.999 67c28 36 42 92 42 168v1041h128v-1053z" />
    <glyph glyph-name="u0647" unicode="&#x647;" horiz-adv-x="805" arabic-form="isolated" 
d="M805 291c0 -194.667 -111.333 -291.999 -334 -291.999h-39c-67.333 0 -129 22.667 -185 68c-66.667 54.667 -100 127.667 -100 219v27c0 189.333 27.333 348.666 82 477.999c60 141.333 140.333 212 241 212c111.333 0 197 -72.333 257 -217c52 -125.333 78 -283 78 -473
v-22zM671 288.001v20.999c0 151.333 -13.667 276.333 -41 375c-34.667 124.667 -87 187 -157 187c-66 0 -116.667 -63.667 -152 -191c-29.333 -104 -44 -227 -44 -369v-19c0 -43.333 13 -80.666 39 -111.999c29.333 -35.333 70 -53 122 -53h33c133.333 0 200 53.667 200 161
z" />
    <glyph glyph-name="u0648" unicode="&#x648;" horiz-adv-x="767" arabic-form="isolated" 
d="M767 252c0 -171.333 -80.333 -426.667 -241 -766h-151c30 52 57.667 105.333 83 160c62 132 109 259 141 381c-34 -11.333 -72 -17 -114 -17c-107.333 0 -193 48 -257 144c-54 81.333 -81 173 -81 275v22c0 92 21.667 192 65 300c65.333 162 160.333 243 285 243
c92.667 0 163 -77.333 211 -232c39.333 -126 59 -278.667 59 -458v-52zM640 257.999l-0.000976562 45c0 372.667 -47.667 559 -143 559c-68.667 0 -126 -57.667 -172 -173c-34.667 -88 -52 -164 -52 -228v-20c0 -66 14.667 -127.667 44 -185
c38.667 -76.667 94.667 -115 168 -115c50.667 0 91.334 17 122.001 51c22 24.667 33 46.667 33 66z" />
    <glyph glyph-name="u0649" unicode="&#x649;" horiz-adv-x="967" arabic-form="isolated" 
d="M967 855c-48.667 23.333 -91.665 33.0039 -128.998 29.0039c-38 0 -70 -20 -96 -60c-28 -43.333 -42 -101 -42 -173c0 -96 24.333 -198.667 73 -308l115 -232c21.333 -48.667 32 -105.334 32 -170.001c0 -94.667 -25 -171.334 -75 -230.001
c-63.333 -75.333 -161.333 -113 -294 -113s-235.334 34 -308.001 102c-64 60.667 -96 137.334 -96 230.001v14c0 179.333 21.333 371 64 575c41.333 197.333 93 360.333 155 489h145c-63.333 -133.333 -117.333 -294.333 -162 -483c-49.333 -209.333 -74 -402.333 -74 -579
v-11c0 -54.667 21.667 -101.334 65 -140.001c50.667 -44.667 121 -67 211 -67c81.333 0 143.666 25.333 186.999 76c37.333 43.333 56 96.666 56 159.999c0 39.333 -7.66699 74 -23 104l-127 252c-47.333 112.667 -71 225.667 -71 339c0 102.667 22.333 186.667 67 252
c48.667 70 114 105 196 105c45.333 3.33301 89 -3.33398 131 -20.001v-141z" />
    <glyph glyph-name="u064A" unicode="&#x64a;" horiz-adv-x="967" arabic-form="isolated" 
d="M967 855c-48.667 23.333 -91.665 33.0039 -128.998 29.0039c-38 0 -70 -20 -96 -60c-28 -43.333 -42 -101 -42 -173c0 -96 24.333 -198.667 73 -308l115 -232c21.333 -48.667 32 -105.334 32 -170.001c0 -94.667 -25 -171.334 -75 -230.001
c-63.333 -75.333 -161.333 -113 -294 -113s-235.334 34 -308.001 102c-64 60.667 -96 137.334 -96 230.001v14c0 179.333 21.333 371 64 575c41.333 197.333 93 360.333 155 489h145c-63.333 -133.333 -117.333 -294.333 -162 -483c-49.333 -209.333 -74 -402.333 -74 -579
v-11c0 -54.667 21.667 -101.334 65 -140.001c50.667 -44.667 121 -67 211 -67c81.333 0 143.666 25.333 186.999 76c37.333 43.333 56 96.666 56 159.999c0 39.333 -7.66699 74 -23 104l-127 252c-47.333 112.667 -71 225.667 -71 339c0 102.667 22.333 186.667 67 252
c48.667 70 114 105 196 105c45.333 3.33301 89 -3.33398 131 -20.001v-141z" />
    <glyph glyph-name="u067E" unicode="&#x67e;" horiz-adv-x="1420" arabic-form="isolated" 
d="M1414 263c0 -110 -26.666 -184.332 -79.999 -222.999c-36 -26.667 -95.333 -40 -178 -40h-751c-82.667 0 -142.334 13.333 -179.001 40c-52.667 38.667 -79 113 -79 223v48c0 206.667 51.333 437.667 154 693h145c-113.333 -252.667 -170 -484.667 -170 -696v-52
c0 -50 8.83301 -83.833 26.5 -101.5s52.5 -26.5 104.5 -26.5h749c52 0 86.5 9 103.5 27s25.5 51.667 25.5 101v52c0 89.333 -13.333 193.666 -40 312.999c-32.667 147.333 -78 275 -136 383h148c104.667 -246 157 -477 157 -693v-48zM1023 -239.999
c0 -30.667 -10.833 -57 -32.5 -79s-48.167 -33 -79.5 -33c-30 0 -56.167 11.167 -78.5 33.5s-33.5 48.5 -33.5 78.5c0 30.667 11.167 57 33.5 79s48.5 33 78.5 33c31.333 0 57.833 -11 79.5 -33s32.5 -48.333 32.5 -79zM747.001 -239.999c0 -30 -11.167 -56.167 -33.5 -78.5
s-48.5 -33.5 -78.5 -33.5c-30.667 0 -57.167 11 -79.5 33s-33.5 48.333 -33.5 79s11.167 57 33.5 79s48.833 33 79.5 33s57 -11 79 -33s33 -48.333 33 -79zM886.001 -454.999c0 -30.667 -11 -57 -33 -79s-48.333 -33 -79 -33s-57.167 11.167 -79.5 33.5
s-33.5 48.5 -33.5 78.5c0 30.667 11.167 57 33.5 79s48.833 33 79.5 33s57 -11 79 -33s33 -48.333 33 -79z" />
    <glyph glyph-name="u0686" unicode="&#x686;" horiz-adv-x="864" arabic-form="isolated" 
d="M803 263c0 -110 -26.332 -184.332 -78.999 -222.999c-36.667 -26.667 -96 -40 -178 -40h-62c-137.333 0 -206 -60 -206 -180c0 -101.333 44 -228.333 132 -381h-145c-78 152 -117 286.667 -117 404c0 190 112 285 336 285h62c51.333 0 86 9.33301 104 28
c16 17.333 24 50.666 24 99.999v44c0 122.667 -13 239.667 -39 351c-34 146 -81.333 219 -142 219c-81.333 0 -122 -115 -122 -345c0 -82 4.66699 -165.667 14 -251h-130c-3.33301 42.667 -5 89.667 -5 141c0 392 84 588 252 588c91.333 0 165.666 -73.333 222.999 -220
c52 -134.667 78 -294.667 78 -480v-40zM883.001 -211.999c0 -30.667 -10.833 -57 -32.5 -79s-48.167 -33 -79.5 -33c-30 0 -56.167 11.167 -78.5 33.5s-33.5 48.5 -33.5 78.5c0 30.667 11.167 57 33.5 79s48.5 33 78.5 33c31.333 0 57.833 -10.833 79.5 -32.5
s32.5 -48.167 32.5 -79.5zM607.001 -211.999c0 -30 -11.167 -56.167 -33.5 -78.5s-48.5 -33.5 -78.5 -33.5c-30.667 0 -57.167 11.167 -79.5 33.5s-33.5 48.5 -33.5 78.5c0 30.667 11.167 57 33.5 79s48.833 33 79.5 33s57 -11 79 -33s33 -48.333 33 -79zM746.001 -426.999
c0 -30 -11 -56.167 -33 -78.5s-48.333 -33.5 -79 -33.5s-57.167 11.167 -79.5 33.5s-33.5 48.5 -33.5 78.5c0 30.667 11.167 57 33.5 79s48.833 33 79.5 33s57 -11 79 -33s33 -48.333 33 -79z" />
    <glyph glyph-name="u0698" unicode="&#x698;" horiz-adv-x="573" arabic-form="isolated" 
d="M396 86c-28.667 -146 -100.667 -345.332 -216 -597.999h-146c37.333 76.667 70.333 149 99 217c70.667 164 115.667 294 135 390c16 76.667 24 171 24 283c0 187.333 -19.333 395.666 -58 624.999h131c36 -226 54 -433.333 54 -622c0 -116 -7.66699 -214.333 -23 -295z
M400 1424c0 -30.667 -11.167 -57.167 -33.5 -79.5s-48.5 -33.5 -78.5 -33.5c-30.667 0 -57.167 11.167 -79.5 33.5s-33.5 48.833 -33.5 79.5c0 29.333 11.167 55.333 33.5 78s48.833 34 79.5 34c30 0 56.167 -11.333 78.5 -34s33.5 -48.667 33.5 -78zM537 1198
c0 -30 -11 -56.167 -33 -78.5s-48.333 -33.5 -79 -33.5c-30 0 -56.167 11.167 -78.5 33.5s-33.5 48.5 -33.5 78.5s11.167 56.333 33.5 79s48.5 34 78.5 34c30.667 0 57 -11.167 79 -33.5s33 -48.833 33 -79.5zM261 1198c0 -30 -11.167 -56.167 -33.5 -78.5
s-48.5 -33.5 -78.5 -33.5c-30.667 0 -57.167 11.167 -79.5 33.5s-33.5 48.5 -33.5 78.5c0 30.667 11.167 57.167 33.5 79.5s48.833 33.5 79.5 33.5c30 0 56.167 -11.333 78.5 -34s33.5 -49 33.5 -79z" />
    <glyph glyph-name="u06AF" unicode="&#x6af;" horiz-adv-x="1777" arabic-form="isolated" 
d="M1522 1677c-70.667 -15.333 -147.667 -45 -231 -89c-29.333 -16 -100.333 -58.667 -213 -128v80c34 26.667 70 51.667 108 75c91.333 55.333 185.333 98 282 128zM1788 1524c-100.667 -12 -217 -45 -349 -99c-99.333 -41.333 -185 -84.333 -257 -129
c156 -238 234 -506 234 -804v-227c0 -110 -26.667 -184.333 -80 -223c-36 -26.667 -95.333 -40 -178 -40h-751c-84 0 -144.333 13.333 -181 40c-53.333 38.667 -80 113 -80 223v48c0 206.667 51.667 437.667 155 693h144c-113.333 -252.667 -170 -484.667 -170 -696v-52
c0 -50 8.83301 -83.833 26.5 -101.5s52.834 -26.5 105.501 -26.5h751c51.333 0 85.666 9 102.999 27s26 51.667 26 101v231c0 262.667 -81.667 515 -245 757v115c90 63.333 200.333 123.333 331 180c136 59.333 245 93 327 101z" />
    <glyph glyph-name="uFB57" unicode="&#x67e;" horiz-adv-x="1605" arabic-form="final" 
d="M1636 0h-93.999c-88.667 -0 -152.667 18.333 -192 55c-39.333 -36.667 -104 -55 -194 -55h-751c-82.667 -0 -142.334 13.333 -179.001 40c-52.667 38.667 -79 113 -79 223v48c0 98 14.667 212 44 342c29.333 127.333 66.333 244.333 111 351h146
c-114.667 -236.667 -172 -468.667 -172 -696v-52c0 -50 8.83301 -83.833 26.5 -101.5s52.5 -26.5 104.5 -26.5h749c52 0 86.5 9 103.5 27s25.5 51.667 25.5 101v748h128v-748c0 -48 8.83301 -81.333 26.5 -100s52.5 -28 104.5 -28h92v-128zM1023 -240
c0 -30.667 -10.833 -57 -32.5 -79s-48.167 -33 -79.5 -33c-30 0 -56.167 11.167 -78.5 33.5s-33.5 48.5 -33.5 78.5c0 30.667 11.167 57 33.5 79s48.5 33 78.5 33c31.333 0 57.833 -11 79.5 -33s32.5 -48.333 32.5 -79zM747.001 -240c0 -30 -11.167 -56.167 -33.5 -78.5
s-48.5 -33.5 -78.5 -33.5c-30.667 0 -57.167 11 -79.5 33s-33.5 48.333 -33.5 79s11.167 57 33.5 79s48.833 33 79.5 33s57 -11 79 -33s33 -48.333 33 -79zM886.001 -455c0 -30.667 -11 -57 -33 -79s-48.333 -33 -79 -33s-57.167 11.167 -79.5 33.5s-33.5 48.5 -33.5 78.5
c0 30.667 11.167 57 33.5 79s48.833 33 79.5 33s57 -11 79 -33s33 -48.333 33 -79z" />
    <glyph glyph-name="uFB58" unicode="&#x67e;" horiz-adv-x="568" arabic-form="initial" 
d="M433 263c0 -110 -26.667 -184.333 -80 -223c-36 -26.667 -95.333 -40 -178 -40h-210v128h210c52 0 86.333 9 103 27s25 51.667 25 101v52c0 208.667 -57 440.667 -171 696h146c103.333 -250.667 155 -481.667 155 -693v-48zM493 -246c0 -30 -11 -56 -33 -78
s-48.333 -33 -79 -33s-57 11 -79 33s-33 48 -33 78c0 31.333 11 57.833 33 79.5s48.333 32.5 79 32.5s57 -10.833 79 -32.5s33 -48.167 33 -79.5zM216 -246c0 -30 -11 -56 -33 -78s-48 -33 -78 -33c-30.667 0 -57.167 11 -79.5 33s-33.5 48 -33.5 78c0 30.667 11 57 33 79
s48.667 33 80 33c30 0 56 -10.833 78 -32.5s33 -48.167 33 -79.5zM355 -461c0 -30 -10.832 -56 -32.499 -78s-47.834 -33 -78.501 -33s-57.167 11 -79.5 33s-33.5 48 -33.5 78c0 30.667 11.167 57 33.5 79s48.833 33 79.5 33c30 0 56 -10.833 78 -32.5s33 -48.167 33 -79.5z
" />
    <glyph glyph-name="uFB59" unicode="&#x67e;" horiz-adv-x="556" arabic-form="medial" 
d="M598 0h-114.001c-89.333 -0 -153.666 18.333 -192.999 55c-39.333 -36.667 -103.666 -55 -192.999 -55h-131v128h131c51.333 0 85.666 9 102.999 27s26 51.667 26 101v748h128v-748c0 -48 8.66699 -81.333 26 -100s52 -28 104 -28h113v-128zM496.999 -251
c0 -30.667 -11 -57 -33 -79s-48.333 -33 -79 -33c-30 0 -56.167 11.167 -78.5 33.5s-33.5 48.5 -33.5 78.5c0 30.667 11.167 57 33.5 79s48.5 33 78.5 33c31.333 0 57.833 -11 79.5 -33s32.5 -48.333 32.5 -79zM220.999 -251c0 -30 -11.167 -56.167 -33.5 -78.5
s-48.5 -33.5 -78.5 -33.5c-30.667 0 -57.167 11 -79.5 33s-33.5 48.333 -33.5 79s11.167 57 33.5 79s48.833 33 79.5 33c30 0 56.167 -11 78.5 -33s33.5 -48.333 33.5 -79zM359.999 -466c0 -30.667 -11 -57 -33 -79s-48.333 -33 -79 -33s-57.167 11.167 -79.5 33.5
s-33.5 48.5 -33.5 78.5c0 30.667 11.167 57 33.5 79s48.833 33 79.5 33s57 -11 79 -33s33 -48.333 33 -79z" />
    <glyph glyph-name="uFB7B" unicode="&#x686;" horiz-adv-x="1011" arabic-form="final" 
d="M1042 0h-114c-89.333 -0 -153.666 18.333 -192.999 55c-38.667 -36.667 -103 -55 -193 -55h-61c-136 -0 -204 -59.667 -204 -179c0 -101.333 44.333 -228.666 133 -381.999h-145c-78 152 -117 286.667 -117 404c0 190 112 285 336 285h58c52 0 86.667 9.33301 104 28
c16.667 16.667 25 50 25 100v44c0 124.667 -12.333 241.667 -37 351c-34 146 -82.667 219 -146 219c-76 0 -114 -101 -114 -303c0 -90.667 7.33301 -188.334 22 -293.001h-131c-5.33301 59.333 -8 122.333 -8 189c0 360 79.667 540 239 540
c93.333 0 168.666 -73.333 225.999 -220c52 -134 78 -294 78 -480v-40c0 -51.333 8 -86 24 -104c17.333 -20.667 52.333 -31 105 -31h113v-128zM883 -212c0 -30.667 -10.833 -57 -32.5 -79s-48.167 -33 -79.5 -33c-30 0 -56.167 11.167 -78.5 33.5s-33.5 48.5 -33.5 78.5
c0 30.667 11.167 57 33.5 79s48.5 33 78.5 33c31.333 0 57.833 -10.833 79.5 -32.5s32.5 -48.167 32.5 -79.5zM607 -212c0 -30 -11.167 -56.167 -33.5 -78.5s-48.5 -33.5 -78.5 -33.5c-30.667 0 -57.167 11.167 -79.5 33.5s-33.5 48.5 -33.5 78.5
c0 30.667 11.167 57 33.5 79s48.833 33 79.5 33s57 -11 79 -33s33 -48.333 33 -79zM746 -427c0 -30 -11 -56.167 -33 -78.5s-48.333 -33.5 -79 -33.5s-57.167 11.167 -79.5 33.5s-33.5 48.5 -33.5 78.5c0 30.667 11.167 57 33.5 79s48.833 33 79.5 33s57 -11 79 -33
s33 -48.333 33 -79z" />
    <glyph glyph-name="uFB7C" unicode="&#x686;" horiz-adv-x="676" arabic-form="initial" 
d="M677 263c0 -110.667 -26.666 -185.333 -79.999 -224c-36 -26 -95.333 -39 -178 -39h-458v128h458c51.333 0 85.666 9 102.999 27s26 51.667 26 101v44c0 131.333 -9.66699 244 -29 338c-32 154.667 -86.333 232 -163 232c-68 0 -102 -104.333 -102 -313
c0 -89.333 5.66699 -183.666 17 -282.999h-130c-4 51.333 -6 106.666 -6 165.999c0 375.333 76.333 563 229 563c104.667 0 185 -73.333 241 -220c48 -126.667 72 -286.667 72 -480v-40zM617.001 -239.999c0 -30.667 -11 -57 -33 -79s-48.333 -33 -79 -33
c-30 0 -56.167 11.167 -78.5 33.5s-33.5 48.5 -33.5 78.5c0 30.667 11 57 33 79s48.333 33 79 33s57 -11 79 -33s33 -48.333 33 -79zM340.001 -239.999c0 -30 -11 -56.167 -33 -78.5s-48 -33.5 -78 -33.5c-30.667 0 -57.167 11 -79.5 33s-33.5 48.333 -33.5 79s11 57 33 79
s48.667 33 80 33c30 0 56 -11 78 -33s33 -48.333 33 -79zM479.001 -454.999c0 -30.667 -10.832 -57 -32.499 -79s-47.834 -33 -78.501 -33s-57.167 11.167 -79.5 33.5s-33.5 48.5 -33.5 78.5c0 30.667 11.167 57 33.5 79s48.833 33 79.5 33c30 0 56 -11 78 -33
s33 -48.333 33 -79z" />
    <glyph glyph-name="uFB7D" unicode="&#x686;" horiz-adv-x="890" arabic-form="medial" 
d="M921 0l-113.999 -0.000976562c-88.667 0 -152.667 18.333 -192 55c-38.667 -36.667 -103.334 -55 -194.001 -55h-455v128h455c52 0 87 9.33301 105 28c16 16.667 24 50 24 100v44c0 128.667 -12 245.667 -36 351c-34.667 146 -86.667 219 -156 219
s-104 -101.333 -104 -304c0 -91.333 6.33301 -188.666 19 -291.999h-130c-4.66699 54.667 -7 113.667 -7 177c0 368 77 552 231 552c98.667 0 177 -73.333 235 -220c51.333 -131.333 77 -291.333 77 -480v-47c0 -48 8 -81 24 -99c18.667 -19.333 54 -29 106 -29h112v-128z
M646.001 -240.001c0 -30.667 -11 -57 -33 -79s-48.333 -33 -79 -33c-30 0 -56.167 11.167 -78.5 33.5s-33.5 48.5 -33.5 78.5c0 30.667 11 57 33 79s48.333 33 79 33c31.333 0 57.833 -11 79.5 -33s32.5 -48.333 32.5 -79zM370.001 -240.001
c0 -30 -11.167 -56.167 -33.5 -78.5s-48.5 -33.5 -78.5 -33.5c-30.667 0 -57.167 11 -79.5 33s-33.5 48.333 -33.5 79s11.167 57 33.5 79s48.833 33 79.5 33c30 0 56.167 -11 78.5 -33s33.5 -48.333 33.5 -79zM509.001 -455.001c0 -30.667 -11 -57 -33 -79
s-48.333 -33 -79 -33s-57.167 11.167 -79.5 33.5s-33.5 48.5 -33.5 78.5c0 30.667 11.167 57 33.5 79s48.833 33 79.5 33c30 0 56.167 -11 78.5 -33s33.5 -48.333 33.5 -79z" />
    <glyph glyph-name="uFB8B" unicode="&#x698;" horiz-adv-x="593" arabic-form="final" 
d="M628 0h-110c-62 0 -107 9 -135 27c-55.333 -186 -122.666 -365.667 -201.999 -539h-144c45.333 94.667 84.666 184.334 117.999 269.001c80 204.667 124.333 370 133 496c2 32.667 3 69.667 3 111c0 171.333 -17.333 384.333 -52 639h130
c34 -252.667 51 -465.334 51 -638.001c0 -15.333 -0.833008 -38.833 -2.5 -70.5s-2.5 -55.5 -2.5 -71.5c0 -63.333 34.333 -95 103 -95h110v-128zM400 1424c0 -30.667 -11.167 -57.167 -33.5 -79.5s-48.5 -33.5 -78.5 -33.5c-30.667 0 -57.167 11.167 -79.5 33.5
s-33.5 48.833 -33.5 79.5c0 29.333 11.167 55.333 33.5 78s48.833 34 79.5 34c30 0 56.167 -11.333 78.5 -34s33.5 -48.667 33.5 -78zM537 1198c0 -30 -11 -56.167 -33 -78.5s-48.333 -33.5 -79 -33.5c-30 0 -56.167 11.167 -78.5 33.5s-33.5 48.5 -33.5 78.5
s11.167 56.333 33.5 79s48.5 34 78.5 34c30.667 0 57 -11.167 79 -33.5s33 -48.833 33 -79.5zM261 1198c0 -30 -11.167 -56.167 -33.5 -78.5s-48.5 -33.5 -78.5 -33.5c-30.667 0 -57.167 11.167 -79.5 33.5s-33.5 48.5 -33.5 78.5c0 30.667 11.167 57.167 33.5 79.5
s48.833 33.5 79.5 33.5c30 0 56.167 -11.333 78.5 -34s33.5 -49 33.5 -79z" />
    <glyph glyph-name="uFEDA" unicode="&#x6a9;" horiz-adv-x="1789" arabic-form="final" 
d="M1789 1522c-100.667 -11.333 -216.998 -44.333 -348.998 -99c-99.333 -41.333 -185 -84.333 -257 -129c156 -238 234 -506 234 -804v-227c0 -52 8 -87 24 -105c17.333 -20 52.333 -30 105 -30h275v-128h-276c-90.667 -0 -155.334 18.333 -194.001 55
c-42.667 -36.667 -106.667 -55 -192 -55h-752c-83.333 -0 -143.333 13.333 -180 40c-53.333 38.667 -80 113 -80 223v48c0 206.667 51.333 437.667 154 693h145c-113.333 -252.667 -170 -484.667 -170 -696v-52c0 -50 8.83301 -83.833 26.5 -101.5s52.5 -26.5 104.5 -26.5
h752c51.333 0 85.666 9 102.999 27s26 51.667 26 101v231c0 262.667 -81.667 515 -245 757v115c90 63.333 200.333 123.333 331 180c136 59.333 245 93 327 101z" />
    <glyph glyph-name="uFEDB" unicode="&#x6a9;" horiz-adv-x="887" arabic-form="initial" 
d="M827 1522c-101.333 -11.333 -217.998 -44.333 -349.998 -99c-98.667 -41.333 -184.334 -84.333 -257.001 -129c156 -238 234 -506 234 -804v-227c0 -110 -26.333 -184.333 -79 -223c-36.667 -26.667 -96.334 -40 -179.001 -40h-225v128h225c52 0 86.5 9 103.5 27
s25.5 51.667 25.5 101v231c0 262.667 -81.667 515 -245 757v115c90 63.333 200.333 123.333 331 180c136.667 59.333 245.667 93 327 101z" />
    <glyph glyph-name="uFEDC" unicode="&#x6a9;" horiz-adv-x="897" arabic-form="medial" 
d="M897 1522c-101.333 -11.333 -217.998 -44.333 -349.998 -99c-98.667 -41.333 -184.334 -84.333 -257.001 -129c156 -238 234 -506 234 -804v-227c0 -52 8 -87 24 -105c17.333 -20 52.666 -30 105.999 -30h272v-128h-273c-91.333 -0 -156.333 18.333 -195 55
c-42.667 -36.667 -106.667 -55 -192 -55h-301v128h301c52 0 86.5 9 103.5 27s25.5 51.667 25.5 101v231c0 262.667 -81.667 515 -245 757v115c90 63.333 200.333 123.333 331 180c136.667 59.333 245.667 93 327 101z" />
    <glyph glyph-name="uFB93" unicode="&#x6af;" horiz-adv-x="1777" arabic-form="final" 
d="M1516 1688c-70.667 -14.667 -147.667 -44.334 -231 -89.001c-29.333 -16 -100.333 -58.667 -213 -128v81c34 26.667 70 51.334 108 74.001c91.333 55.333 185.333 98 282 128zM1790 1522c-100.667 -11.333 -216.999 -44.333 -348.999 -99
c-99.333 -41.333 -185 -84.333 -257 -129c156 -238 234 -506 234 -804v-227c0 -52 8 -87 24 -105c17.333 -20 52.333 -30 105 -30h274v-128h-275c-91.333 -0 -156 18.333 -194 55c-42.667 -36.667 -106.667 -55 -192 -55h-752c-83.333 -0 -143.333 13.333 -180 40
c-53.333 38.667 -80 113 -80 223v48c0 206.667 51.333 437.667 154 693h145c-113.333 -252.667 -170 -484.667 -170 -696v-52c0 -50 8.83301 -83.833 26.5 -101.5s52.5 -26.5 104.5 -26.5h752c51.333 0 85.666 9 102.999 27s26 51.667 26 101v231
c0 262.667 -82 515 -246 757v115c90 63.333 200.667 123.333 332 180c136 59.333 245 93 327 101z" />
    <glyph glyph-name="uFB94" unicode="&#x6af;" horiz-adv-x="854" arabic-form="initial" 
d="M532 1677c-70.667 -15.333 -147.667 -45 -231 -89c-29.333 -16 -100.333 -58.667 -213 -128v80c34 26.667 70 51.667 108 75c91.333 55.333 185 98 281 128zM827 1522c-101.333 -11.333 -217.998 -44.333 -349.998 -99c-98.667 -41.333 -184.334 -84.333 -257.001 -129
c156 -238 234 -506 234 -804v-227c0 -110 -26.333 -184.333 -79 -223c-36.667 -26.667 -96.334 -40 -179.001 -40h-225v128h225c52 0 86.5 9 103.5 27s25.5 51.667 25.5 101v231c0 262.667 -81.667 515 -245 757v115c90 63.333 200.333 123.333 331 180
c136.667 59.333 245.667 93 327 101z" />
    <glyph glyph-name="uFB95" unicode="&#x6af;" horiz-adv-x="895" arabic-form="medial" 
d="M592 1680c-70.667 -14.667 -147.667 -44.335 -231 -89.002c-29.333 -15.333 -100.333 -57.666 -213 -126.999v80c34 26.667 70 51.334 108 74.001c91.333 56 185.333 99 282 129zM897 1522c-101.333 -11.333 -217.998 -44.333 -349.998 -99
c-98.667 -41.333 -184.334 -84.333 -257.001 -129c156 -238 234 -506 234 -804v-227c0 -52 8 -87 24 -105c17.333 -20 52.666 -30 105.999 -30h272v-128h-273c-91.333 0 -156.333 18.333 -195 55c-42.667 -36.667 -106.667 -55 -192 -55h-301v128h301c52 0 86.5 9 103.5 27
s25.5 51.667 25.5 101v231c0 262.667 -81.667 515 -245 757v115c90 63.333 200.333 123.333 331 180c136.667 59.333 245.667 93 327 101z" />
    <glyph glyph-name="uFE94" unicode="&#x6c0;" horiz-adv-x="866" arabic-form="final" 
d="M899 0l-94.999 0.00195312c-79.333 0 -137.333 13.667 -174 41c-50.667 38 -78 108.333 -82 211v26c-2.66699 71.333 2.66602 163 15.999 275c14.667 118.667 22 191.334 22 218.001c0 69.333 -20.667 104 -62 104c-54 0 -110 -84.667 -168 -254
c-50 -145.333 -75 -249 -75 -311v-20c0 -42 21 -80 63 -114c40 -32 81 -48 123 -48h63v-128h-63c-74.667 0 -145 26.333 -211 79c-72.667 58.667 -109 129.667 -109 213v22c0 93.333 28.333 217.666 85 372.999c78 211.333 175.333 317 292 317
c124.667 0 187 -83.333 187 -250c0 -44.667 -5.66699 -121.334 -17 -230.001s-17 -190.334 -17 -245.001v-27c0 -47.333 9 -79.833 27 -97.5s51.667 -26.5 101 -26.5h94v-128zM674.001 1433c-55.333 30.667 -103 46.001 -143 46.001c-21.333 0 -32 -26 -32 -78
c0 -42.667 8.66699 -69.334 26 -80.001h144v-95h-333v94h88c-12 28.667 -18 59.667 -18 93c0 37.333 8 70.333 24 99c24 44.667 61.667 67 113 67c36 0 79.667 -16.667 131 -50v-96z" />
    <glyph glyph-name="uFEF2" unicode="&#x6cc;" horiz-adv-x="1009" arabic-form="final" 
d="M1043 0l-120.999 -0.000976562c16 -28 24 -61.333 24 -100c0 -66.667 -33.667 -131 -101 -193c-78.667 -72.667 -176.667 -109 -294 -109c-132.667 0 -235.334 34 -308.001 102c-64 60.667 -96 137.334 -96 230.001v14c0 264.667 105.667 618 317 1060h145
c-100.667 -213.333 -171 -374 -211 -482c-82 -222.667 -123 -414.667 -123 -576v-11c0 -54.667 21.667 -101.334 65 -140.001c50.667 -44.667 121 -67 211 -67c90.667 0 160 25.333 208 76c32.667 34.667 49 66.667 49 96c0 42.667 -35.333 79.834 -106 111.501
s-106 70.5 -106 116.5h447v-128z" />
    <glyph glyph-name="uFEF3" unicode="&#x6cc;" horiz-adv-x="538" arabic-form="initial" 
d="M433 263c0 -110 -26.667 -184.333 -80 -223c-36 -26.667 -95.333 -40 -178 -40h-210v128h210c52 0 86.333 9 103 27s25 51.667 25 101v52c0 208.667 -57 440.667 -171 696h146c103.333 -250.667 155 -481.667 155 -693v-48zM488 -240c0 -31.333 -11 -57.833 -33 -79.5
s-48.333 -32.5 -79 -32.5s-57 10.833 -79 32.5s-33 48.167 -33 79.5c0 30.667 11 57 33 79s48.333 33 79 33s57 -11 79 -33s33 -48.333 33 -79zM211 -240c0 -31.333 -11 -57.833 -33 -79.5s-48.333 -32.5 -79 -32.5s-57 11 -79 33s-33 48.333 -33 79s11 57 33 79
s48.333 33 79 33s57 -11 79 -33s33 -48.333 33 -79z" />
    <glyph glyph-name="uFEF4" unicode="&#x6cc;" horiz-adv-x="570" arabic-form="medial" 
d="M598 0h-114.001c-89.333 -0 -153.666 18.333 -192.999 55c-39.333 -36.667 -103.666 -55 -192.999 -55h-131v128h131c51.333 0 85.666 9 102.999 27s26 51.667 26 101v748h128v-748c0 -48 8.66699 -81.333 26 -100s52 -28 104 -28h113v-128zM487.999 -240
c0 -31.333 -11 -57.833 -33 -79.5s-48.333 -32.5 -79 -32.5s-57 10.833 -79 32.5s-33 48.167 -33 79.5c0 30.667 11 57 33 79s48.333 33 79 33s57 -11 79 -33s33 -48.333 33 -79zM210.999 -240c0 -31.333 -11 -57.833 -33 -79.5s-48.333 -32.5 -79 -32.5s-57 11 -79 33
s-33 48.333 -33 79s11 57 33 79s48.333 33 79 33s57 -11 79 -33s33 -48.333 33 -79z" />
    <glyph glyph-name="Hcircumflex" unicode="&#x622;" horiz-adv-x="655" arabic-form="final" 
d="M685 0h-66c-83.333 0 -143 13 -179 39c-52.667 38.667 -79 113 -79 223v1002h128v-1008c0 -48 8.83301 -81.333 26.5 -100s52.5 -28 104.5 -28h65v-128zM523 1356h-192c-69.333 0 -104 -31 -104 -93v-17c0 -96.667 31.333 -209.667 94 -339l-118 -65
c-70.667 128 -106 261.333 -106 400v14c0 152.667 78 229 234 229h192v-129z" />
    <glyph glyph-name="uFE84" unicode="&#x623;" horiz-adv-x="473" arabic-form="final" 
d="M500 0h-66.001c-82.667 0 -142 13 -178 39c-53.333 38.667 -80 113 -80 223v1206h128v-1212c0 -48 8.83301 -81.333 26.5 -100s52.834 -28 105.501 -28h64v-128zM437.999 1805c-55.333 30.667 -103 46 -143 46c-21.333 0 -32 -26 -32 -78
c0 -42.667 8.66699 -69.667 26 -81h144v-94h-334v93h89c-12 28.667 -18 60 -18 94c0 36.667 8 69.667 24 99c24 44.667 61.333 67 112 67c36.667 0 80.667 -17 132 -51v-95z" />
    <glyph glyph-name="uFE86" unicode="&#x624;" horiz-adv-x="875" arabic-form="final" 
d="M905 0l-180 -0.000976562c-38 -130 -76 -239 -114 -327l-83 -187h-138c0.666992 1.33301 25.5 56.5 74.5 165.5s90.5 225.5 124.5 349.5c-294.667 11.333 -442 154 -442 428v22c0 91.333 22 191.333 66 300c65.333 162 160 243 284 243c82 0 149 -62 201 -186
c48 -114.667 72 -252 72 -412c0 -27.333 -1 -54.666 -3 -81.999c0 -37.333 -3.66699 -99.333 -11 -186h149v-128zM645 312.999c0 136.667 -11.332 256.999 -33.999 360.999c-27.333 125.333 -65.333 188 -114 188c-68.667 0 -126 -57.667 -172 -173
c-34.667 -88 -52 -164 -52 -228v-20c0 -103.333 25.667 -179.666 77 -228.999c55.333 -52.667 146.666 -80.667 273.999 -84c14 76 21 137.667 21 185zM664.001 1433c-54.667 30.667 -102.333 46.001 -143 46.001c-21.333 0 -32 -26 -32 -78
c0 -42.667 8.66699 -69.334 26 -80.001h144v-95h-333v94h88c-11.333 28.667 -17 59.667 -17 93c0 37.333 7.66699 70.333 23 99c24 44.667 61.667 67 113 67c36 0 79.667 -16.667 131 -50v-96z" />
    <glyph glyph-name="uFE88" unicode="&#x625;" horiz-adv-x="473" arabic-form="final" 
d="M500 0h-66.001c-82.667 0 -142 13 -178 39c-53.333 38.667 -80 113 -80 223v1206h128v-1212c0 -48 8.83301 -81.333 26.5 -100s52.834 -28 105.501 -28h64v-128zM431.999 -204c-55.333 30 -103.001 45 -143.001 45c-21.333 0 -32 -25.667 -32 -77
c0 -42.667 8.66699 -69.667 26 -81h144v-94h-334v93h89c-12 28.667 -18 59.667 -18 93c0 37.333 7.66699 70.333 23 99c24.667 45.333 62.334 68 113.001 68c36 0 80 -17 132 -51v-95z" />
    <glyph glyph-name="uFE8A" unicode="&#x626;" horiz-adv-x="1009" arabic-form="final" 
d="M1043 0l-120.999 -0.000976562c16 -28 24 -61.333 24 -100c0 -66.667 -33.667 -131 -101 -193c-78.667 -72.667 -176.667 -109 -294 -109c-132.667 0 -235.334 34 -308.001 102c-64 60.667 -96 137.334 -96 230.001v14c0 264.667 105.667 618 317 1060h145
c-100.667 -213.333 -171 -374 -211 -482c-82 -222.667 -123 -414.667 -123 -576v-11c0 -54.667 21.667 -101.334 65 -140.001c50.667 -44.667 121 -67 211 -67c90.667 0 160 25.333 208 76c32.667 34.667 49 66.667 49 96c0 42.667 -35.333 79.834 -106 111.501
s-106 70.5 -106 116.5h447v-128zM520.001 1272c-55.333 30 -103 45 -143 45c-21.333 0 -32 -25.667 -32 -77c0 -43.333 8.66699 -70.333 26 -81h144v-95h-334v94h89c-12 28.667 -18 59.667 -18 93c0 37.333 8 70.333 24 99c24 44.667 61.667 67 113 67
c36 0 79.667 -16.667 131 -50v-95z" />
    <glyph glyph-name="uFE8B" unicode="&#x626;" horiz-adv-x="434" arabic-form="initial" 
d="M433 263c0 -110 -26.667 -184.333 -80 -223c-36 -26.667 -95.333 -40 -178 -40h-210v128h210c52 0 86.333 9 103 27s25 51.667 25 101v52c0 208.667 -57 440.667 -171 696h146c103.333 -250.667 155 -481.667 155 -693v-48zM384 1433
c-54.667 30.667 -102.333 46.001 -143 46.001c-21.333 0 -32 -26 -32 -78c0 -42.667 8.66699 -69.334 26 -80.001h144v-95h-333v94h88c-11.333 28.667 -17 59.667 -17 93c0 37.333 7.66699 70.333 23 99c24 44.667 61.667 67 113 67c36 0 79.667 -16.667 131 -50v-96z" />
    <glyph glyph-name="uFE8C" unicode="&#x626;" horiz-adv-x="565" arabic-form="medial" 
d="M598 0h-114.001c-89.333 -0 -153.666 18.333 -192.999 55c-39.333 -36.667 -103.666 -55 -192.999 -55h-131v128h131c51.333 0 85.666 9 102.999 27s26 51.667 26 101v748h128v-748c0 -48 8.66699 -81.333 26 -100s52 -28 104 -28h113v-128zM480.999 1433
c-54.667 30.667 -102.333 46.001 -143 46.001c-20.667 0 -31 -26 -31 -78c0 -42.667 8.66699 -69.334 26 -80.001h144v-95h-334v94h88c-11.333 28.667 -17 59.667 -17 93c0 37.333 7.66699 70.333 23 99c24 44.667 61.667 67 113 67c36 0 79.667 -16.667 131 -50v-96z" />
    <glyph glyph-name="uFE8E" unicode="&#x627;" horiz-adv-x="465" arabic-form="final" 
d="M500 0h-66.001c-82.667 0 -142 13 -178 39c-53.333 38.667 -80 113 -80 223v1206h128v-1212c0 -48 8.83301 -81.333 26.5 -100s52.834 -28 105.501 -28h64v-128z" />
    <glyph glyph-name="uFE90" unicode="&#x628;" horiz-adv-x="1605" arabic-form="final" 
d="M1636 0h-93.999c-88.667 -0 -152.667 18.333 -192 55c-39.333 -36.667 -104 -55 -194 -55h-751c-82.667 -0 -142.334 13.333 -179.001 40c-52.667 38.667 -79 113 -79 223v48c0 98 14.667 212 44 342c29.333 127.333 66.333 244.333 111 351h146
c-114.667 -236.667 -172 -468.667 -172 -696v-52c0 -50 8.83301 -83.833 26.5 -101.5s52.5 -26.5 104.5 -26.5h749c52 0 86.5 9 103.5 27s25.5 51.667 25.5 101v748h128v-748c0 -48 8.83301 -81.333 26.5 -100s52.5 -28 104.5 -28h92v-128zM897.001 -240
c0 -31.333 -11 -57.833 -33 -79.5s-48.333 -32.5 -79 -32.5c-31.333 0 -57.833 10.833 -79.5 32.5s-32.5 48.167 -32.5 79.5c0 30.667 10.833 57 32.5 79s48.167 33 79.5 33c30.667 0 57 -11 79 -33s33 -48.333 33 -79z" />
    <glyph glyph-name="uFE91" unicode="&#x628;" horiz-adv-x="433" arabic-form="initial" 
d="M433 263c0 -110 -26.667 -184.333 -80 -223c-36 -26.667 -95.333 -40 -178 -40h-210v128h210c52 0 86.333 9 103 27s25 51.667 25 101v52c0 208.667 -57 440.667 -171 696h146c103.333 -250.667 155 -481.667 155 -693v-48zM233 -240c0 -31.333 -11 -57.833 -33 -79.5
s-48.333 -32.5 -79 -32.5c-31.333 0 -57.833 10.833 -79.5 32.5s-32.5 48.167 -32.5 79.5c0 30.667 10.833 57 32.5 79s48.167 33 79.5 33c30.667 0 57 -11 79 -33s33 -48.333 33 -79z" />
    <glyph glyph-name="uFE92" unicode="&#x628;" horiz-adv-x="556" arabic-form="medial" 
d="M233 -240c0 -31.333 -11 -57.833 -33 -79.5s-48.333 -32.5 -79 -32.5c-31.333 0 -57.833 10.833 -79.5 32.5s-32.5 48.167 -32.5 79.5c0 30.667 10.833 57 32.5 79s48.167 33 79.5 33c30.667 0 57 -11 79 -33s33 -48.333 33 -79zM598 0h-114.001
c-89.333 -0 -153.666 18.333 -192.999 55c-39.333 -36.667 -103.666 -55 -192.999 -55h-131v128h131c51.333 0 85.666 9 102.999 27s26 51.667 26 101v748h128v-748c0 -48 8.66699 -81.333 26 -100s52 -28 104 -28h113v-128z" />
    <glyph glyph-name="uFE96" unicode="&#x62a;" horiz-adv-x="1605" arabic-form="final" 
d="M1636 0h-93.999c-88.667 -0 -152.667 18.333 -192 55c-39.333 -36.667 -104 -55 -194 -55h-751c-82.667 -0 -142.334 13.333 -179.001 40c-52.667 38.667 -79 113 -79 223v48c0 98 14.667 212 44 342c29.333 127.333 66.333 244.333 111 351h146
c-114.667 -236.667 -172 -468.667 -172 -696v-52c0 -50 8.83301 -83.833 26.5 -101.5s52.5 -26.5 104.5 -26.5h749c52 0 86.5 9 103.5 27s25.5 51.667 25.5 101v748h128v-748c0 -48 8.83301 -81.333 26.5 -100s52.5 -28 104.5 -28h92v-128zM1072 1258
c0 -30.667 -10.833 -56.834 -32.5 -78.501s-48.167 -32.5 -79.5 -32.5c-30.667 0 -57 10.833 -79 32.5s-33 47.834 -33 78.501c0 31.333 11 57.833 33 79.5s48.333 32.5 79 32.5c31.333 0 57.833 -10.833 79.5 -32.5s32.5 -48.167 32.5 -79.5zM796.001 1258
c0 -30.667 -11.167 -56.833 -33.5 -78.5s-48.5 -32.5 -78.5 -32.5c-30.667 0 -57.167 11 -79.5 33s-33.5 48 -33.5 78c0 30.667 11.167 57 33.5 79s48.833 33 79.5 33c30 0 56.167 -10.833 78.5 -32.5s33.5 -48.167 33.5 -79.5z" />
    <glyph glyph-name="uFE97" unicode="&#x62a;" horiz-adv-x="560" arabic-form="initial" 
d="M556 1258c0 -30.667 -10.833 -56.834 -32.5 -78.501s-48.167 -32.5 -79.5 -32.5c-30 0 -56 10.833 -78 32.5s-33 47.834 -33 78.501c0 31.333 11 57.833 33 79.5s48 32.5 78 32.5c31.333 0 57.833 -10.833 79.5 -32.5s32.5 -48.167 32.5 -79.5zM280 1258
c0 -30.667 -11 -56.833 -33 -78.5s-48.333 -32.5 -79 -32.5s-57.167 11 -79.5 33s-33.5 48 -33.5 78c0 30.667 11.167 57 33.5 79s48.833 33 79.5 33s57 -10.833 79 -32.5s33 -48.167 33 -79.5zM530 263.001c0 -110 -26.667 -184.333 -80 -223
c-36 -26.667 -95.333 -40 -178 -40h-307v128h307c52 0 86.5 9 103.5 27s25.5 51.667 25.5 101v52c0 208.667 -57 440.667 -171 696h145c103.333 -250.667 155 -481.667 155 -693v-48z" />
    <glyph glyph-name="uFE98" unicode="&#x62a;" horiz-adv-x="574" arabic-form="medial" 
d="M598 0h-114.001c-89.333 -0 -153.666 18.333 -192.999 55c-39.333 -36.667 -103.666 -55 -192.999 -55h-131v128h131c51.333 0 85.666 9 102.999 27s26 51.667 26 101v748h128v-748c0 -48 8.66699 -81.333 26 -100s52 -28 104 -28h113v-128zM536.999 1258
c0 -30.667 -10.833 -56.834 -32.5 -78.501s-48.167 -32.5 -79.5 -32.5c-30.667 0 -57 10.833 -79 32.5s-33 47.834 -33 78.501c0 31.333 11 57.833 33 79.5s48.333 32.5 79 32.5c31.333 0 57.833 -10.833 79.5 -32.5s32.5 -48.167 32.5 -79.5zM260.999 1258
c0 -30.667 -11.167 -56.833 -33.5 -78.5s-48.5 -32.5 -78.5 -32.5c-30.667 0 -57.167 11 -79.5 33s-33.5 48 -33.5 78c0 30.667 11.167 57 33.5 79s48.833 33 79.5 33c30 0 56.167 -10.833 78.5 -32.5s33.5 -48.167 33.5 -79.5z" />
    <glyph glyph-name="uFE9A" unicode="&#x62b;" horiz-adv-x="1605" arabic-form="final" 
d="M1636 0h-93.999c-88.667 -0 -152.667 18.333 -192 55c-39.333 -36.667 -104 -55 -194 -55h-751c-82.667 -0 -142.334 13.333 -179.001 40c-52.667 38.667 -79 113 -79 223v48c0 98 14.667 212 44 342c29.333 127.333 66.333 244.333 111 351h146
c-114.667 -236.667 -172 -468.667 -172 -696v-52c0 -50 8.83301 -83.833 26.5 -101.5s52.5 -26.5 104.5 -26.5h749c52 0 86.5 9 103.5 27s25.5 51.667 25.5 101v748h128v-748c0 -48 8.83301 -81.333 26.5 -100s52.5 -28 104.5 -28h92v-128zM942.001 1484
c0 -30.667 -11 -57.167 -33 -79.5s-48 -33.5 -78 -33.5c-30.667 0 -57.167 11.167 -79.5 33.5s-33.5 48.833 -33.5 79.5c0 30 11.167 56.167 33.5 78.5s48.833 33.5 79.5 33.5c30 0 56 -11.167 78 -33.5s33 -48.5 33 -78.5zM1079 1258c0 -30 -10.832 -56 -32.499 -78
s-47.834 -33 -78.501 -33s-57 11 -79 33s-33 48 -33 78c0 30.667 11.167 57.167 33.5 79.5s48.5 33.5 78.5 33.5s56 -11.167 78 -33.5s33 -48.833 33 -79.5zM803.002 1258c0 -30 -11 -56 -33 -78s-48.333 -33 -79 -33c-30 0 -56.167 11 -78.5 33s-33.5 48 -33.5 78
c0 30.667 11.167 57.167 33.5 79.5s48.5 33.5 78.5 33.5c30.667 0 57 -11.167 79 -33.5s33 -48.833 33 -79.5z" />
    <glyph glyph-name="uFE9B" unicode="&#x62b;" horiz-adv-x="560" arabic-form="initial" 
d="M417 1484c0 -30.667 -11 -57.167 -33 -79.5s-48.333 -33.5 -79 -33.5s-57 11.167 -79 33.5s-33 48.833 -33 79.5c0 30 11.167 56.167 33.5 78.5s48.5 33.5 78.5 33.5s56.167 -11.167 78.5 -33.5s33.5 -48.5 33.5 -78.5zM554 1258c0 -30 -10.833 -56 -32.5 -78
s-48.167 -33 -79.5 -33c-30 0 -56 11 -78 33s-33 48 -33 78c0 30.667 11 57.167 33 79.5s48 33.5 78 33.5c30.667 0 57 -11.167 79 -33.5s33 -48.833 33 -79.5zM278 1258c0 -30 -11 -56 -33 -78s-48.333 -33 -79 -33s-57.167 11 -79.5 33s-33.5 48 -33.5 78
c0 30.667 11.333 57.167 34 79.5s49 33.5 79 33.5s56.167 -11.167 78.5 -33.5s33.5 -48.833 33.5 -79.5zM530 263c0 -110 -26.667 -184.333 -80 -223c-36 -26.667 -95.333 -40 -178 -40h-307v128h307c52 0 86.5 9 103.5 27s25.5 51.667 25.5 101v52
c0 208.667 -57 440.667 -171 696h145c103.333 -250.667 155 -481.667 155 -693v-48z" />
    <glyph glyph-name="uFE9C" unicode="&#x62b;" horiz-adv-x="569" arabic-form="medial" 
d="M598 0h-114.001c-89.333 -0 -153.666 18.333 -192.999 55c-39.333 -36.667 -103.666 -55 -192.999 -55h-131v128h131c51.333 0 85.666 9 102.999 27s26 51.667 26 101v748h128v-748c0 -48 8.66699 -81.333 26 -100s52 -28 104 -28h113v-128zM406.999 1484
c0 -30.667 -11 -57.167 -33 -79.5s-48 -33.5 -78 -33.5c-30.667 0 -57.167 11.167 -79.5 33.5s-33.5 48.833 -33.5 79.5c0 30 11.167 56.167 33.5 78.5s48.833 33.5 79.5 33.5c30 0 56 -11.167 78 -33.5s33 -48.5 33 -78.5zM544.999 1258c0 -30 -11 -56 -33 -78
s-48.333 -33 -79 -33c-30 0 -56.167 11 -78.5 33s-33.5 48 -33.5 78c0 30.667 11.167 57.167 33.5 79.5s48.5 33.5 78.5 33.5s56.167 -11.167 78.5 -33.5s33.5 -48.833 33.5 -79.5zM267.999 1258c0 -30 -11 -56 -33 -78s-48 -33 -78 -33c-30.667 0 -57.167 11 -79.5 33
s-33.5 48 -33.5 78c0 30.667 11.167 57.167 33.5 79.5s48.833 33.5 79.5 33.5c30 0 56 -11.167 78 -33.5s33 -48.833 33 -79.5z" />
    <glyph glyph-name="uFE9E" unicode="&#x62c;" horiz-adv-x="1011" arabic-form="final" 
d="M1042 0h-114c-89.333 -0 -153.666 18.333 -192.999 55c-38.667 -36.667 -103 -55 -193 -55h-61c-136 -0 -204 -59.667 -204 -179c0 -101.333 44.333 -228.666 133 -381.999h-145c-78 152 -117 286.667 -117 404c0 190 112 285 336 285h58c52 0 86.667 9.33301 104 28
c16.667 16.667 25 50 25 100v44c0 124.667 -12.333 241.667 -37 351c-34 146 -82.667 219 -146 219c-76 0 -114 -101 -114 -303c0 -90.667 7.33301 -188.334 22 -293.001h-131c-5.33301 59.333 -8 122.333 -8 189c0 360 79.667 540 239 540
c93.333 0 168.666 -73.333 225.999 -220c52 -134 78 -294 78 -480v-40c0 -51.333 8 -86 24 -104c17.333 -20.667 52.333 -31 105 -31h113v-128zM636 -234c0 -31.333 -10.833 -57.833 -32.5 -79.5s-48.167 -32.5 -79.5 -32.5s-57.833 10.833 -79.5 32.5
s-32.5 48.167 -32.5 79.5c0 30.667 10.833 56.834 32.5 78.501s48.167 32.5 79.5 32.5s57.833 -10.833 79.5 -32.5s32.5 -47.834 32.5 -78.501z" />
    <glyph glyph-name="uFE9F" unicode="&#x62c;" horiz-adv-x="677" arabic-form="initial" 
d="M677 263c0 -110.667 -26.666 -185.333 -79.999 -224c-36 -26 -95.333 -39 -178 -39h-458v128h458c51.333 0 85.666 9 102.999 27s26 51.667 26 101v44c0 131.333 -9.66699 244 -29 338c-32 154.667 -86.333 232 -163 232c-68 0 -102 -104.333 -102 -313
c0 -89.333 5.66699 -183.666 17 -282.999h-130c-4 51.333 -6 106.666 -6 165.999c0 375.333 76.333 563 229 563c104.667 0 185 -73.333 241 -220c48 -126.667 72 -286.667 72 -480v-40zM424.001 -239.999c0 -31.333 -10.833 -57.833 -32.5 -79.5s-48.167 -32.5 -79.5 -32.5
s-57.833 10.833 -79.5 32.5s-32.5 48.167 -32.5 79.5c0 30.667 10.833 57 32.5 79s48.167 33 79.5 33s57.833 -11 79.5 -33s32.5 -48.333 32.5 -79z" />
    <glyph glyph-name="uFEA0" unicode="&#x62c;" horiz-adv-x="890" arabic-form="medial" 
d="M921 0l-113.999 -0.000976562c-88.667 0 -152.667 18.333 -192 55c-38.667 -36.667 -103.334 -55 -194.001 -55h-455v128h455c52 0 87 9.33301 105 28c16 16.667 24 50 24 100v44c0 128.667 -12 245.667 -36 351c-34.667 146 -86.667 219 -156 219
s-104 -101.333 -104 -304c0 -91.333 6.33301 -188.666 19 -291.999h-130c-4.66699 54.667 -7 113.667 -7 177c0 368 77 552 231 552c98.667 0 177 -73.333 235 -220c51.333 -131.333 77 -291.333 77 -480v-47c0 -48 8 -81 24 -99c18.667 -19.333 54 -29 106 -29h112v-128z
M463.001 -240.001c0 -31.333 -10.833 -57.833 -32.5 -79.5s-48.167 -32.5 -79.5 -32.5s-57.833 10.833 -79.5 32.5s-32.5 48.167 -32.5 79.5c0 30.667 10.833 57 32.5 79s48.167 33 79.5 33s57.833 -11 79.5 -33s32.5 -48.333 32.5 -79z" />
    <glyph glyph-name="uFEA2" unicode="&#x62d;" horiz-adv-x="1012" arabic-form="final" 
d="M1042 0h-114c-89.333 -0 -153.666 18.333 -192.999 55c-38.667 -36.667 -103 -55 -193 -55h-61c-136 -0 -204 -59.667 -204 -179c0 -101.333 44.333 -228.666 133 -381.999h-145c-78 152 -117 286.667 -117 404c0 190 112 285 336 285h58c52 0 86.667 9.33301 104 28
c16.667 16.667 25 50 25 100v44c0 124.667 -12.333 241.667 -37 351c-34 146 -82.667 219 -146 219c-76 0 -114 -101 -114 -303c0 -90.667 7.33301 -188.334 22 -293.001h-131c-5.33301 59.333 -8 122.333 -8 189c0 360 79.667 540 239 540
c93.333 0 168.666 -73.333 225.999 -220c52 -134 78 -294 78 -480v-40c0 -51.333 8 -86 24 -104c17.333 -20.667 52.333 -31 105 -31h113v-128z" />
    <glyph glyph-name="uFEA3" unicode="&#x62d;" horiz-adv-x="677" arabic-form="initial" 
d="M677 263c0 -110.667 -26.666 -185.333 -79.999 -224c-36 -26 -95.333 -39 -178 -39h-458v128h458c51.333 0 85.666 9 102.999 27s26 51.667 26 101v44c0 131.333 -9.66699 244 -29 338c-32 154.667 -86.333 232 -163 232c-68 0 -102 -104.333 -102 -313
c0 -89.333 5.66699 -183.666 17 -282.999h-130c-4 51.333 -6 106.666 -6 165.999c0 375.333 76.333 563 229 563c104.667 0 185 -73.333 241 -220c48 -126.667 72 -286.667 72 -480v-40z" />
    <glyph glyph-name="uFEA4" unicode="&#x62d;" horiz-adv-x="892" arabic-form="medial" 
d="M921 0l-113.999 -0.000976562c-88.667 0 -152.667 18.333 -192 55c-38.667 -36.667 -103.334 -55 -194.001 -55h-455v128h455c52 0 87 9.33301 105 28c16 16.667 24 50 24 100v44c0 128.667 -12 245.667 -36 351c-34.667 146 -86.667 219 -156 219
s-104 -101.333 -104 -304c0 -91.333 6.33301 -188.666 19 -291.999h-130c-4.66699 54.667 -7 113.667 -7 177c0 368 77 552 231 552c98.667 0 177 -73.333 235 -220c51.333 -131.333 77 -291.333 77 -480v-47c0 -48 8 -81 24 -99c18.667 -19.333 54 -29 106 -29h112v-128z
" />
    <glyph glyph-name="uFEA6" unicode="&#x62e;" horiz-adv-x="1013" arabic-form="final" 
d="M1042 0h-114c-89.333 -0 -153.666 18.333 -192.999 55c-38.667 -36.667 -103 -55 -193 -55h-61c-136 -0 -204 -59.667 -204 -179c0 -101.333 44.333 -228.666 133 -381.999h-145c-78 152 -117 286.667 -117 404c0 190 112 285 336 285h58c52 0 86.667 9.33301 104 28
c16.667 16.667 25 50 25 100v44c0 124.667 -12.333 241.667 -37 351c-34 146 -82.667 219 -146 219c-76 0 -114 -101 -114 -303c0 -90.667 7.33301 -188.334 22 -293.001h-131c-5.33301 59.333 -8 122.333 -8 189c0 360 79.667 540 239 540
c93.333 0 168.666 -73.333 225.999 -220c52 -134 78 -294 78 -480v-40c0 -51.333 8 -86 24 -104c17.333 -20.667 52.333 -31 105 -31h113v-128zM606 1259c0 -30.667 -10.833 -56.834 -32.5 -78.501s-48.167 -32.5 -79.5 -32.5s-57.833 10.833 -79.5 32.5
s-32.5 47.834 -32.5 78.501c0 31.333 10.833 57.833 32.5 79.5s48.167 32.5 79.5 32.5s57.833 -10.833 79.5 -32.5s32.5 -48.167 32.5 -79.5z" />
    <glyph glyph-name="uFEA7" unicode="&#x62e;" horiz-adv-x="677" arabic-form="initial" 
d="M677 263c0 -110.667 -26.666 -185.333 -79.999 -224c-36 -26 -95.333 -39 -178 -39h-458v128h458c51.333 0 85.666 9 102.999 27s26 51.667 26 101v44c0 131.333 -9.66699 244 -29 338c-32 154.667 -86.333 232 -163 232c-68 0 -102 -104.333 -102 -313
c0 -89.333 5.66699 -183.666 17 -282.999h-130c-4 51.333 -6 106.666 -6 165.999c0 375.333 76.333 563 229 563c104.667 0 185 -73.333 241 -220c48 -126.667 72 -286.667 72 -480v-40zM479.001 1259c0 -30.667 -10.833 -56.834 -32.5 -78.501s-47.834 -32.5 -78.501 -32.5
c-31.333 0 -57.833 10.833 -79.5 32.5s-32.5 47.834 -32.5 78.501c0 31.333 10.833 57.833 32.5 79.5s48.167 32.5 79.5 32.5c30.667 0 56.834 -10.833 78.501 -32.5s32.5 -48.167 32.5 -79.5z" />
    <glyph glyph-name="uFEA8" unicode="&#x62e;" horiz-adv-x="887" arabic-form="medial" 
d="M921 0l-113.999 -0.000976562c-88.667 0 -152.667 18.333 -192 55c-38.667 -36.667 -103.334 -55 -194.001 -55h-455v128h455c52 0 87 9.33301 105 28c16 16.667 24 50 24 100v44c0 128.667 -12 245.667 -36 351c-34.667 146 -86.667 219 -156 219
s-104 -101.333 -104 -304c0 -91.333 6.33301 -188.666 19 -291.999h-130c-4.66699 54.667 -7 113.667 -7 177c0 368 77 552 231 552c98.667 0 177 -73.333 235 -220c51.333 -131.333 77 -291.333 77 -480v-47c0 -48 8 -81 24 -99c18.667 -19.333 54 -29 106 -29h112v-128z
M479.001 1259c0 -30.667 -10.833 -56.834 -32.5 -78.501s-47.834 -32.5 -78.501 -32.5c-31.333 0 -57.833 10.833 -79.5 32.5s-32.5 47.834 -32.5 78.501c0 31.333 10.833 57.833 32.5 79.5s48.167 32.5 79.5 32.5c30.667 0 56.834 -10.833 78.501 -32.5
s32.5 -48.167 32.5 -79.5z" />
    <glyph glyph-name="uFEAA" unicode="&#x62f;" horiz-adv-x="871" arabic-form="final" 
d="M901 -1h-107.998c-89.333 0 -154 18.333 -194 55c-38.667 -36 -102.667 -54 -192 -54h-266v128h266c51.333 0 85.5 9 102.5 27s25.5 51.667 25.5 101v17c0 70 -30.333 177 -91 321c-74.667 178.667 -156.334 273 -245.001 283v126c89.333 0 173.666 -54.667 252.999 -164
c61.333 -84.667 114 -193 158 -325c36 -108.667 54 -188 54 -238v-14c0 -51.333 8 -86 24 -104c18 -20.667 53.333 -31 106 -31h107v-128z" />
    <glyph glyph-name="uFEAC" unicode="&#x630;" horiz-adv-x="870" arabic-form="final" 
d="M901 -1h-107.998c-89.333 0 -154 18.333 -194 55c-38.667 -36 -102.667 -54 -192 -54h-266v128h266c51.333 0 85.5 9 102.5 27s25.5 51.667 25.5 101v17c0 70 -30.333 177 -91 321c-74.667 178.667 -156.334 273 -245.001 283v126c89.333 0 173.666 -54.667 252.999 -164
c61.333 -84.667 114 -193 158 -325c36 -108.667 54 -188 54 -238v-14c0 -51.333 8 -86 24 -104c18 -20.667 53.333 -31 106 -31h107v-128zM402.002 1259c0 -30.667 -11 -56.834 -33 -78.501s-48.333 -32.5 -79 -32.5c-31.333 0 -57.833 10.833 -79.5 32.5
s-32.5 47.834 -32.5 78.501c0 31.333 10.833 57.833 32.5 79.5s48.167 32.5 79.5 32.5c30.667 0 57 -10.833 79 -32.5s33 -48.167 33 -79.5z" />
    <glyph glyph-name="uFEAE" unicode="&#x631;" horiz-adv-x="599" arabic-form="final" 
d="M628 0h-110c-62 0 -107 9 -135 27c-55.333 -186 -122.666 -365.667 -201.999 -539h-144c45.333 94.667 84.666 184.334 117.999 269.001c80 204.667 124.333 370 133 496c2 32.667 3 69.667 3 111c0 171.333 -17.333 384.333 -52 639h130
c34 -252.667 51 -465.334 51 -638.001c0 -15.333 -0.833008 -38.833 -2.5 -70.5s-2.5 -55.5 -2.5 -71.5c0 -63.333 34.333 -95 103 -95h110v-128z" />
    <glyph glyph-name="uFEB0" unicode="&#x632;" horiz-adv-x="598" arabic-form="final" 
d="M628 0h-110c-62 0 -107 9 -135 27c-55.333 -186 -122.666 -365.667 -201.999 -539h-144c45.333 94.667 84.666 184.334 117.999 269.001c80 204.667 124.333 370 133 496c2 32.667 3 69.667 3 111c0 171.333 -17.333 384.333 -52 639h130
c34 -252.667 51 -465.334 51 -638.001c0 -15.333 -0.833008 -38.833 -2.5 -70.5s-2.5 -55.5 -2.5 -71.5c0 -63.333 34.333 -95 103 -95h110v-128zM409 1259c0 -30.667 -10.833 -56.834 -32.5 -78.501s-47.834 -32.5 -78.501 -32.5c-31.333 0 -57.833 10.833 -79.5 32.5
s-32.5 47.834 -32.5 78.501c0 31.333 10.833 57.833 32.5 79.5s48.167 32.5 79.5 32.5c30.667 0 56.834 -10.833 78.501 -32.5s32.5 -48.167 32.5 -79.5z" />
    <glyph glyph-name="uFEB2" unicode="&#x633;" horiz-adv-x="1814" arabic-form="final" 
d="M1879 0l-104.001 0.00195312c-88 0 -152.333 18 -193 54c-34 -36 -85.667 -54 -155 -54h-49c-76.667 0 -132 17.667 -166 53c-36.667 -35.333 -94.667 -53 -174 -53h-28c-44 0 -79 6 -105 18v-67c0 -124.667 -33 -217 -99 -277c-52.667 -48 -120.667 -72 -204 -72h-68
c-124 0 -221 33.333 -291 100c-64 60.667 -96 136.667 -96 228v14c0 164.667 34.667 356.667 104 576c53.333 169.333 118.333 330.666 195 483.999h146c-211.333 -426.667 -317 -779.334 -317 -1058v-11c0 -53.333 21.333 -99.333 64 -138c48 -44 113 -66 195 -66h68
c116.667 0 175 73.333 175 220v1053h128v-752c0 -45.333 5.33301 -76 16 -92c14 -21.333 43.667 -32 89 -32h28c44.667 0 74.667 10.667 90 32c13.333 17.333 20 49.333 20 96v748h128v-748c0 -85.333 34 -128 102 -128h39c40.667 0 68 11 82 33c12 18 18 49.667 18 95v748
h128v-748c0 -48 8.83301 -81.333 26.5 -100s52.834 -28 105.501 -28h102v-128z" />
    <glyph glyph-name="uFEB3" unicode="&#x633;" horiz-adv-x="1067" arabic-form="initial" 
d="M1067 263c0 -109.333 -25.998 -184 -77.998 -224c-34.667 -26 -89.334 -39 -164.001 -39h-20c-80 0 -138.333 18 -175 54c-38 -36 -100 -54 -186 -54h-28c-76 0 -129.333 19 -160 57c-34.667 -38 -98.334 -57 -191.001 -57h-94v128h94c52 0 86.5 9 103.5 27
s25.5 51.667 25.5 101v748h128v-748c0 -44 5.33301 -75 16 -93c14 -23.333 40.667 -35 80 -35h26c50 0 83.333 10 100 30c14.667 16.667 22 49.334 22 98.001v748h128v-748c0 -47.333 7.66699 -80 23 -98c16 -20 45.667 -30 89 -30h19c45.333 0 76 10.333 92 31
c13.333 17.333 20 49.666 20 96.999v52c0 231.333 -38.333 463.333 -115 696h146c29.333 -76 54.333 -201 75 -375c16 -137.333 24 -243.333 24 -318v-48z" />
    <glyph glyph-name="uFEB4" unicode="&#x633;" horiz-adv-x="1270" arabic-form="medial" 
d="M1299 0l-108 0.00195312c-88.667 0 -152.667 18.333 -192 55c-36.667 -36.667 -96.667 -55 -180 -55h-36c-70.667 0 -122.334 17.667 -155.001 53c-37.333 -35.333 -96.666 -53 -177.999 -53h-24c-87.333 0 -144.333 17.667 -171 53c-32.667 -35.333 -91 -53 -175 -53
h-109v128h109c47.333 0 79 10.667 95 32c12.667 16.667 19 48.667 19 96v748h128v-748c0 -46.667 5 -78 15 -94c14 -22.667 44 -34 90 -34h23c48 0 80 10.333 96 31c12.667 17.333 19 49.666 19 96.999v748h128v-748c0 -85.333 30.333 -128 91 -128h35
c48 0 79.667 10.333 95 31c13.333 17.333 20 49.666 20 96.999v748h128v-748c0 -48 8.83301 -81.333 26.5 -100s52.167 -28 103.5 -28h107v-128z" />
    <glyph glyph-name="uFEB6" unicode="&#x634;" horiz-adv-x="1814" arabic-form="final" 
d="M1879 0l-104.001 0.00195312c-88 0 -152.333 18 -193 54c-34 -36 -85.667 -54 -155 -54h-49c-76.667 0 -132 17.667 -166 53c-36.667 -35.333 -94.667 -53 -174 -53h-28c-44 0 -79 6 -105 18v-67c0 -124.667 -33 -217 -99 -277c-52.667 -48 -120.667 -72 -204 -72h-68
c-124 0 -221 33.333 -291 100c-64 60.667 -96 136.667 -96 228v14c0 164.667 34.667 356.667 104 576c53.333 169.333 118.333 330.666 195 483.999h146c-211.333 -426.667 -317 -779.334 -317 -1058v-11c0 -53.333 21.333 -99.333 64 -138c48 -44 113 -66 195 -66h68
c116.667 0 175 73.333 175 220v1053h128v-752c0 -45.333 5.33301 -76 16 -92c14 -21.333 43.667 -32 89 -32h28c44.667 0 74.667 10.667 90 32c13.333 17.333 20 49.333 20 96v748h128v-748c0 -85.333 34 -128 102 -128h39c40.667 0 68 11 82 33c12 18 18 49.667 18 95v748
h128v-748c0 -48 8.83301 -81.333 26.5 -100s52.834 -28 105.501 -28h102v-128zM1333 1424c0 -30.667 -11 -57.167 -33 -79.5s-48.333 -33.5 -79 -33.5c-30 0 -56.167 11.167 -78.5 33.5s-33.5 48.833 -33.5 79.5c0 29.333 11.167 55.333 33.5 78s48.5 34 78.5 34
c30.667 0 57 -11.333 79 -34s33 -48.667 33 -78zM1470 1198c0 -30 -10.832 -56.167 -32.499 -78.5s-47.834 -33.5 -78.501 -33.5s-57 11.167 -79 33.5s-33 48.5 -33 78.5s11 56.333 33 79s48.333 34 79 34c30 0 56 -11.167 78 -33.5s33 -48.833 33 -79.5zM1194 1198
c0 -30 -11 -56.167 -33 -78.5s-48.333 -33.5 -79 -33.5c-30 0 -56.167 11.167 -78.5 33.5s-33.5 48.5 -33.5 78.5c0 30.667 11.167 57.167 33.5 79.5s48.5 33.5 78.5 33.5c30.667 0 57 -11.333 79 -34s33 -49 33 -79z" />
    <glyph glyph-name="uFEB7" unicode="&#x634;" horiz-adv-x="1067" arabic-form="initial" 
d="M1067 263c0 -109.333 -25.998 -184 -77.998 -224c-34.667 -26 -89.334 -39 -164.001 -39h-20c-80 0 -138.333 18 -175 54c-38 -36 -100 -54 -186 -54h-28c-76 0 -129.333 19 -160 57c-34.667 -38 -98.334 -57 -191.001 -57h-94v128h94c52 0 86.5 9 103.5 27
s25.5 51.667 25.5 101v748h128v-748c0 -44 5.33301 -75 16 -93c14 -23.333 40.667 -35 80 -35h26c50 0 83.333 10 100 30c14.667 16.667 22 49.334 22 98.001v748h128v-748c0 -47.333 7.66699 -80 23 -98c16 -20 45.667 -30 89 -30h19c45.333 0 76 10.333 92 31
c13.333 17.333 20 49.666 20 96.999v52c0 231.333 -38.333 463.333 -115 696h146c29.333 -76 54.333 -201 75 -375c16 -137.333 24 -243.333 24 -318v-48zM750.002 1424c0 -30.667 -11.167 -57.167 -33.5 -79.5s-48.5 -33.5 -78.5 -33.5
c-30.667 0 -57.167 11.167 -79.5 33.5s-33.5 48.833 -33.5 79.5c0 29.333 11.167 55.333 33.5 78s48.833 34 79.5 34c30 0 56.167 -11.333 78.5 -34s33.5 -48.667 33.5 -78zM887.002 1198c0 -30 -11 -56.167 -33 -78.5s-48.333 -33.5 -79 -33.5
c-30 0 -56.167 11.167 -78.5 33.5s-33.5 48.5 -33.5 78.5s11.167 56.333 33.5 79s48.5 34 78.5 34c30.667 0 57 -11.167 79 -33.5s33 -48.833 33 -79.5zM611.002 1198c0 -30 -11.167 -56.167 -33.5 -78.5s-48.5 -33.5 -78.5 -33.5c-30.667 0 -57.167 11.167 -79.5 33.5
s-33.5 48.5 -33.5 78.5c0 30.667 11.167 57.167 33.5 79.5s48.833 33.5 79.5 33.5c30 0 56.167 -11.333 78.5 -34s33.5 -49 33.5 -79z" />
    <glyph glyph-name="uFEB8" unicode="&#x634;" horiz-adv-x="1270" arabic-form="medial" 
d="M1299 0l-108 0.00195312c-88.667 0 -152.667 18.333 -192 55c-36.667 -36.667 -96.667 -55 -180 -55h-36c-70.667 0 -122.334 17.667 -155.001 53c-37.333 -35.333 -96.666 -53 -177.999 -53h-24c-87.333 0 -144.333 17.667 -171 53c-32.667 -35.333 -91 -53 -175 -53
h-109v128h109c47.333 0 79 10.667 95 32c12.667 16.667 19 48.667 19 96v748h128v-748c0 -46.667 5 -78 15 -94c14 -22.667 44 -34 90 -34h23c48 0 80 10.333 96 31c12.667 17.333 19 49.666 19 96.999v748h128v-748c0 -85.333 30.333 -128 91 -128h35
c48 0 79.667 10.333 95 31c13.333 17.333 20 49.666 20 96.999v748h128v-748c0 -48 8.83301 -81.333 26.5 -100s52.167 -28 103.5 -28h107v-128zM750 1424c0 -30.667 -11.167 -57.167 -33.5 -79.5s-48.5 -33.5 -78.5 -33.5c-30.667 0 -57.167 11.167 -79.5 33.5
s-33.5 48.833 -33.5 79.5c0 29.333 11.167 55.333 33.5 78s48.833 34 79.5 34c30 0 56.167 -11.333 78.5 -34s33.5 -48.667 33.5 -78zM887 1198c0 -30 -11 -56.167 -33 -78.5s-48.333 -33.5 -79 -33.5c-30 0 -56.167 11.167 -78.5 33.5s-33.5 48.5 -33.5 78.5
s11.167 56.333 33.5 79s48.5 34 78.5 34c30.667 0 57 -11.167 79 -33.5s33 -48.833 33 -79.5zM611 1198c0 -30 -11.167 -56.167 -33.5 -78.5s-48.5 -33.5 -78.5 -33.5c-30.667 0 -57.167 11.167 -79.5 33.5s-33.5 48.5 -33.5 78.5c0 30.667 11.167 57.167 33.5 79.5
s48.833 33.5 79.5 33.5c30 0 56.167 -11.333 78.5 -34s33.5 -49 33.5 -79z" />
    <glyph glyph-name="uFEBA" unicode="&#x635;" horiz-adv-x="1887" arabic-form="final" 
d="M1938 0l-79 0.000976562c-89.333 0 -154 18.333 -194 55c-39.333 -36.667 -103.666 -55 -192.999 -55h-435c-56 0 -100 6 -132 18v-67c0 -124.667 -33 -217 -99 -277c-52.667 -48 -120.667 -72 -204 -72h-69c-123.333 0 -220.333 33.333 -291 100
c-63.333 60.667 -95 136.667 -95 228v14c0 291.333 106.333 644.666 319 1060h148c-226 -429.333 -339 -782 -339 -1058v-11c0 -54 21 -100 63 -138c48 -44 113 -66 195 -66h69c116.667 0 175 73.333 175 220v1053h128v-568c196.667 363.333 360 545 490 545h25
c71.333 0 136.666 -49 195.999 -147c75.333 -124.667 113 -299 113 -523v-55c0 -48 8.83301 -81.333 26.5 -100s52.5 -28 104.5 -28h78v-128zM1601 256.001v52.001c0 195.333 -28 343.666 -84 444.999c-36 66.667 -69.333 100 -100 100h-29c-61.333 0 -153 -102 -275 -306
c-70 -116.667 -135.667 -240 -197 -370c10 -28 34 -44.333 72 -49h484c52 0 86.5 9 103.5 27s25.5 51.667 25.5 101z" />
    <glyph glyph-name="uFEBB" unicode="&#x635;" horiz-adv-x="1146" arabic-form="initial" 
d="M1146 263c0 -110.667 -26.667 -185.333 -80 -224c-35.333 -26 -94.333 -39 -177 -39h-436c-89.333 -0 -153.666 18.333 -192.999 55c-39.333 -36.667 -104 -55 -194 -55h-95v128h95c52 0 86.5 9 103.5 27s25.5 51.667 25.5 101v748h128v-568
c196 363.333 358.667 545 488 545h25c71.333 0 136.666 -49 195.999 -147c76 -124.667 114 -299 114 -523v-48zM1017 256.001v52.001c0 195.333 -27.667 343.666 -83 444.999c-36.667 66.667 -70.334 100 -101.001 100h-29c-61.333 0 -153 -102 -275 -306
c-69.333 -116.667 -134.666 -240 -195.999 -370c9.33301 -28 33.333 -44.333 72 -49h484c50.667 0 84.667 9.33301 102 28s26 52 26 100z" />
    <glyph glyph-name="uFEBC" unicode="&#x635;" horiz-adv-x="1328" arabic-form="medial" 
d="M1358 0h-82.001c-90 -0 -154.667 18.333 -194 55c-39.333 -36.667 -103.666 -55 -192.999 -55h-436c-89.333 -0 -153.666 18.333 -192.999 55c-39.333 -36.667 -104 -55 -194 -55h-95v128h95c52 0 86.5 9 103.5 27s25.5 51.667 25.5 101v748h128v-568
c196 363.333 358.667 545 488 545h25c71.333 0 136.666 -49 195.999 -147c76 -124.667 114 -299 114 -523v-55c0 -48 8.66699 -81.333 26 -100s52.333 -28 105 -28h81v-128zM1017 256v52.002c0 195.333 -27.667 343.666 -83 444.999
c-36.667 66.667 -70.334 100 -101.001 100h-29c-61.333 0 -153 -102 -275 -306c-69.333 -116.667 -134.666 -240 -195.999 -370c9.33301 -28 33.333 -44.333 72 -49h484c51.333 0 86 9.33301 104 28c16 17.333 24 50.666 24 99.999z" />
    <glyph glyph-name="uFEBE" unicode="&#x636;" horiz-adv-x="1887" arabic-form="final" 
d="M1938 0l-79 0.000976562c-89.333 0 -154 18.333 -194 55c-39.333 -36.667 -103.666 -55 -192.999 -55h-435c-56 0 -100 6 -132 18v-67c0 -124.667 -33 -217 -99 -277c-52.667 -48 -120.667 -72 -204 -72h-69c-123.333 0 -220.333 33.333 -291 100
c-63.333 60.667 -95 136.667 -95 228v14c0 291.333 106.333 644.666 319 1060h148c-226 -429.333 -339 -782 -339 -1058v-11c0 -54 21 -100 63 -138c48 -44 113 -66 195 -66h69c116.667 0 175 73.333 175 220v1053h128v-568c196.667 363.333 360 545 490 545h25
c71.333 0 136.666 -49 195.999 -147c75.333 -124.667 113 -299 113 -523v-55c0 -48 8.83301 -81.333 26.5 -100s52.5 -28 104.5 -28h78v-128zM1601 256.001v52.001c0 195.333 -28 343.666 -84 444.999c-36 66.667 -69.333 100 -100 100h-29c-61.333 0 -153 -102 -275 -306
c-70 -116.667 -135.667 -240 -197 -370c10 -28 34 -44.333 72 -49h484c52 0 86.5 9 103.5 27s25.5 51.667 25.5 101zM1501 1259c0 -30.667 -11 -56.834 -33 -78.501s-48.333 -32.5 -79 -32.5c-31.333 0 -57.833 10.833 -79.5 32.5s-32.5 47.834 -32.5 78.501
c0 31.333 10.833 57.833 32.5 79.5s48.167 32.5 79.5 32.5c30.667 0 57 -10.833 79 -32.5s33 -48.167 33 -79.5z" />
    <glyph glyph-name="uFEBF" unicode="&#x636;" horiz-adv-x="1146" arabic-form="initial" 
d="M924 1259c0 -30.667 -10.833 -56.834 -32.5 -78.501s-48.167 -32.5 -79.5 -32.5s-57.833 10.833 -79.5 32.5s-32.5 47.834 -32.5 78.501c0 31.333 10.833 57.833 32.5 79.5s48.167 32.5 79.5 32.5s57.833 -10.833 79.5 -32.5s32.5 -48.167 32.5 -79.5zM1146 263
c0 -110.667 -26.667 -185.333 -80 -224c-35.333 -26 -94.333 -39 -177 -39h-436c-89.333 -0 -153.666 18.333 -192.999 55c-39.333 -36.667 -104 -55 -194 -55h-95v128h95c52 0 86.5 9 103.5 27s25.5 51.667 25.5 101v748h128v-568c196 363.333 358.667 545 488 545h25
c71.333 0 136.666 -49 195.999 -147c76 -124.667 114 -299 114 -523v-48zM1017 256.001v52.001c0 195.333 -27.667 343.666 -83 444.999c-36.667 66.667 -70.334 100 -101.001 100h-29c-61.333 0 -153 -102 -275 -306c-69.333 -116.667 -134.666 -240 -195.999 -370
c9.33301 -28 33.333 -44.333 72 -49h484c50.667 0 84.667 9.33301 102 28s26 52 26 100z" />
    <glyph glyph-name="uFEC0" unicode="&#x636;" horiz-adv-x="1328" arabic-form="medial" 
d="M1358 0h-82.001c-90 -0 -154.667 18.333 -194 55c-39.333 -36.667 -103.666 -55 -192.999 -55h-436c-89.333 -0 -153.666 18.333 -192.999 55c-39.333 -36.667 -104 -55 -194 -55h-95v128h95c52 0 86.5 9 103.5 27s25.5 51.667 25.5 101v748h128v-568
c196 363.333 358.667 545 488 545h25c71.333 0 136.666 -49 195.999 -147c76 -124.667 114 -299 114 -523v-55c0 -48 8.66699 -81.333 26 -100s52.333 -28 105 -28h81v-128zM1017 256v52.002c0 195.333 -27.667 343.666 -83 444.999
c-36.667 66.667 -70.334 100 -101.001 100h-29c-61.333 0 -153 -102 -275 -306c-69.333 -116.667 -134.666 -240 -195.999 -370c9.33301 -28 33.333 -44.333 72 -49h484c51.333 0 86 9.33301 104 28c16 17.333 24 50.666 24 99.999zM923.999 1259
c0 -30.667 -10.833 -56.834 -32.5 -78.501s-48.167 -32.5 -79.5 -32.5s-57.833 10.833 -79.5 32.5s-32.5 47.834 -32.5 78.501c0 31.333 10.833 57.833 32.5 79.5s48.167 32.5 79.5 32.5s57.833 -10.833 79.5 -32.5s32.5 -48.167 32.5 -79.5z" />
    <glyph glyph-name="uFEC2" unicode="&#x637;" horiz-adv-x="1302" arabic-form="final" 
d="M1331 0h-80c-89.333 -0 -154 18.333 -194 55c-39.333 -36.667 -103.333 -55 -192 -55h-689v1468h128v-1023c191.333 357.333 352.333 536 483 536h25c71.333 0 136.666 -49 195.999 -147c75.333 -124.667 113 -299 113 -523v-55c0 -48 8.83301 -81.333 26.5 -100
s52.834 -28 105.501 -28h78v-128zM993 256v52.001c0 195.333 -28 343.666 -84 444.999c-36 66.667 -69.333 100 -100 100h-29c-92 0 -234.333 -198.333 -427 -595c-14.667 -40.667 -22 -72.667 -22 -96c0 -22.667 7.33301 -34 22 -34h512c51.333 0 85.5 9 102.5 27
s25.5 51.667 25.5 101z" />
    <glyph glyph-name="uFEC3" unicode="&#x637;" horiz-adv-x="1136" arabic-form="initial" 
d="M1136 263c0 -110.667 -26.332 -185.333 -78.999 -224c-36 -26 -95.333 -39 -178 -39h-431c-88.667 0 -152.667 18 -192 54c-36 -36 -100.667 -54 -194 -54h-91v128h91c51.333 0 85.666 9 102.999 27s26 51.667 26 101v1212h128v-1023c190.667 357.333 351 536 481 536h27
c70.667 0 135.667 -49 195 -147c76 -124.667 114 -299 114 -523v-48zM1008 256.001l0.00195312 52.001c0 195.333 -28 343.666 -84 444.999c-36.667 66.667 -70.334 100 -101.001 100h-29c-92 0 -234.667 -198.667 -428 -596c-20.667 -34 -31 -62.667 -31 -86
c0 -28.667 17.333 -43 52 -43h492c51.333 0 85.666 9 102.999 27s26 51.667 26 101z" />
    <glyph glyph-name="uFEC4" unicode="&#x637;" horiz-adv-x="1328" arabic-form="medial" 
d="M1358 0h-82.001c-90 -0 -154.667 18.333 -194 55c-39.333 -36.667 -103.666 -55 -192.999 -55h-436c-89.333 -0 -153.666 18.333 -192.999 55c-39.333 -36.667 -104 -55 -194 -55h-95v128h95c52 0 86.5 9 103.5 27s25.5 51.667 25.5 101v1205h128v-1025
c196 363.333 358.667 545 488 545h25c71.333 0 136.666 -49 195.999 -147c76 -124.667 114 -299 114 -523v-55c0 -48 8.66699 -81.333 26 -100s52.333 -28 105 -28h81v-128zM1017 256v52.002c0 195.333 -27.667 343.666 -83 444.999
c-36.667 66.667 -70.334 100 -101.001 100h-29c-61.333 0 -153 -102 -275 -306c-69.333 -116.667 -134.666 -240 -195.999 -370c9.33301 -28 33.333 -44.333 72 -49h484c51.333 0 86 9.33301 104 28c16 17.333 24 50.666 24 99.999z" />
    <glyph glyph-name="uFEC6" unicode="&#x638;" horiz-adv-x="1302" arabic-form="final" 
d="M1331 0h-80c-89.333 -0 -154 18.333 -194 55c-39.333 -36.667 -103.333 -55 -192 -55h-689v1468h128v-1023c191.333 357.333 352.333 536 483 536h25c71.333 0 136.666 -49 195.999 -147c75.333 -124.667 113 -299 113 -523v-55c0 -48 8.83301 -81.333 26.5 -100
s52.834 -28 105.501 -28h78v-128zM993 256v52.001c0 195.333 -28 343.666 -84 444.999c-36 66.667 -69.333 100 -100 100h-29c-92 0 -234.333 -198.333 -427 -595c-14.667 -40.667 -22 -72.667 -22 -96c0 -22.667 7.33301 -34 22 -34h512c51.333 0 85.5 9 102.5 27
s25.5 51.667 25.5 101zM914 1259c0 -30.667 -10.833 -56.834 -32.5 -78.501s-48.167 -32.5 -79.5 -32.5c-30.667 0 -57 10.833 -79 32.5s-33 47.834 -33 78.501c0 31.333 11 57.833 33 79.5s48.333 32.5 79 32.5c31.333 0 57.833 -10.833 79.5 -32.5
s32.5 -48.167 32.5 -79.5z" />
    <glyph glyph-name="uFEC7" unicode="&#x638;" horiz-adv-x="1136" arabic-form="initial" 
d="M1136 263c0 -110.667 -26.332 -185.333 -78.999 -224c-36 -26 -95.333 -39 -178 -39h-431c-88.667 0 -152.667 18 -192 54c-36 -36 -100.667 -54 -194 -54h-91v128h91c51.333 0 85.666 9 102.999 27s26 51.667 26 101v1212h128v-1023c190.667 357.333 351 536 481 536h27
c70.667 0 135.667 -49 195 -147c76 -124.667 114 -299 114 -523v-48zM1008 256.001l0.00195312 52.001c0 195.333 -28 343.666 -84 444.999c-36.667 66.667 -70.334 100 -101.001 100h-29c-92 0 -234.667 -198.667 -428 -596c-20.667 -34 -31 -62.667 -31 -86
c0 -28.667 17.333 -43 52 -43h492c51.333 0 85.666 9 102.999 27s26 51.667 26 101zM924.003 1259c0 -30.667 -10.833 -56.834 -32.5 -78.501s-48.167 -32.5 -79.5 -32.5s-57.833 10.833 -79.5 32.5s-32.5 47.834 -32.5 78.501c0 31.333 10.833 57.833 32.5 79.5
s48.167 32.5 79.5 32.5s57.833 -10.833 79.5 -32.5s32.5 -48.167 32.5 -79.5z" />
    <glyph glyph-name="uFEC8" unicode="&#x638;" horiz-adv-x="1328" arabic-form="medial" 
d="M1358 0h-82.001c-90 -0 -154.667 18.333 -194 55c-39.333 -36.667 -103.666 -55 -192.999 -55h-436c-89.333 -0 -153.666 18.333 -192.999 55c-39.333 -36.667 -104 -55 -194 -55h-95v128h95c52 0 86.5 9 103.5 27s25.5 51.667 25.5 101v1205h128v-1025
c196 363.333 358.667 545 488 545h25c71.333 0 136.666 -49 195.999 -147c76 -124.667 114 -299 114 -523v-55c0 -48 8.66699 -81.333 26 -100s52.333 -28 105 -28h81v-128zM1017 256v52.002c0 195.333 -27.667 343.666 -83 444.999
c-36.667 66.667 -70.334 100 -101.001 100h-29c-61.333 0 -153 -102 -275 -306c-69.333 -116.667 -134.666 -240 -195.999 -370c9.33301 -28 33.333 -44.333 72 -49h484c51.333 0 86 9.33301 104 28c16 17.333 24 50.666 24 99.999zM923.999 1259
c0 -30.667 -10.833 -56.834 -32.5 -78.501s-48.167 -32.5 -79.5 -32.5s-57.833 10.833 -79.5 32.5s-32.5 47.834 -32.5 78.501c0 31.333 10.833 57.833 32.5 79.5s48.167 32.5 79.5 32.5s57.833 -10.833 79.5 -32.5s32.5 -48.167 32.5 -79.5z" />
    <glyph glyph-name="uFECA" unicode="&#x639;" horiz-adv-x="1005" arabic-form="final" 
d="M1034 0h-181.997c-116.667 0 -201.667 27 -255 81c-34.667 -26 -98.334 -52.667 -191.001 -80c-88 -26 -132 -86.667 -132 -182c0 -103.333 46 -230 138 -380h-148c-78 147.333 -117 279.666 -117 396.999c0 157.333 76.667 254.333 230 291
c111.333 27.333 167 70.333 167 129v45c0 78.667 -39 174 -117 286c-73.333 105.333 -127.333 158 -162 158v129c20.667 28.667 68.5 57.667 143.5 87s138.5 44 190.5 44h12c29.333 0 73.333 -10 132 -30c71.333 -23.333 139.666 -54.666 204.999 -93.999v-136
c-34.667 0 -88.334 -55.667 -161.001 -167c-74.667 -114.667 -112 -207 -112 -277v-45c0 -85.333 59 -128 177 -128h182v-128zM808.003 810c-70 42.667 -135.333 64 -196 64h-14c-30.667 0 -65.667 -4.66699 -105 -14c-44.667 -11.333 -75 -25 -91 -41
c100 -104 171 -206 213 -306c56.667 121.333 121 220.333 193 297z" />
    <glyph glyph-name="uFECB" unicode="&#x639;" horiz-adv-x="798" arabic-form="initial" 
d="M798 739c-149.333 90.667 -262 136 -338 136h-11c-45.333 0 -87 -17.333 -125 -52c-52.667 -48.667 -79 -121 -79 -217v-303c0 -86 13 -137.667 39 -155c19.333 -13.333 80 -20 182 -20h270v-128h-765v128h165c-12.667 36 -19 81 -19 135v343
c0 141.333 38.667 247.333 116 318c58.667 53.333 129 80 211 80h15c96.667 0 209.667 -41.667 339 -125v-140z" />
    <glyph glyph-name="uFECC" unicode="&#x639;" horiz-adv-x="838" arabic-form="medial" 
d="M867 0l-194.998 -0.000976562c-112.667 0 -193.334 24.667 -242.001 74c-48 -49.333 -119 -74 -213 -74h-246v128h233c106.667 0 160 42.667 160 128v45c0 78.667 -39 174 -117 286c-73.333 105.333 -127 158 -161 158v129c20 28.667 67.5 57.667 142.5 87
s138.5 44 190.5 44h12c30 0 74 -10 132 -30c71.333 -23.333 139.666 -54.666 204.999 -93.999v-136c-34.667 0 -88 -55.667 -160 -167c-75.333 -114.667 -113 -207 -113 -277v-45c0 -85.333 59 -128 177 -128h195v-128zM431.002 943.999h-12h12zM628.002 810.999
c-70.667 42 -135.999 63.001 -195.999 63.001h-14c-30.667 0 -65.667 -4.66699 -105 -14c-44 -11.333 -74.333 -25 -91 -41c101.333 -105.333 172.666 -207.333 213.999 -306c56 119.333 120 218.666 192 297.999z" />
    <glyph glyph-name="uFECE" unicode="&#x63a;" horiz-adv-x="1007" arabic-form="final" 
d="M725 1259c0 -30.667 -11 -56.834 -33 -78.501s-48.333 -32.5 -79 -32.5c-31.333 0 -57.833 10.833 -79.5 32.5s-32.5 47.834 -32.5 78.501c0 31.333 10.833 57.833 32.5 79.5s48.167 32.5 79.5 32.5c30.667 0 57 -10.833 79 -32.5s33 -48.167 33 -79.5zM1034 0h-181.997
c-116.667 0 -201.667 27 -255 81c-34.667 -26 -98.334 -52.667 -191.001 -80c-88 -26 -132 -86.667 -132 -182c0 -103.333 46 -230 138 -380h-148c-78 147.333 -117 279.666 -117 396.999c0 157.333 76.667 254.333 230 291c111.333 27.333 167 70.333 167 129v45
c0 78.667 -39 174 -117 286c-73.333 105.333 -127.333 158 -162 158v129c20.667 28.667 68.5 57.667 143.5 87s138.5 44 190.5 44h12c29.333 0 73.333 -10 132 -30c71.333 -23.333 139.666 -54.666 204.999 -93.999v-136c-34.667 0 -88.334 -55.667 -161.001 -167
c-74.667 -114.667 -112 -207 -112 -277v-45c0 -85.333 59 -128 177 -128h182v-128zM808.003 810c-70 42.667 -135.333 64 -196 64h-14c-30.667 0 -65.667 -4.66699 -105 -14c-44.667 -11.333 -75 -25 -91 -41c100 -104 171 -206 213 -306
c56.667 121.333 121 220.333 193 297z" />
    <glyph glyph-name="uFECF" unicode="&#x63a;" horiz-adv-x="798" arabic-form="initial" 
d="M574 1259c0 -30.667 -10.833 -56.834 -32.5 -78.501s-48.167 -32.5 -79.5 -32.5s-57.833 10.833 -79.5 32.5s-32.5 47.834 -32.5 78.501c0 31.333 10.833 57.833 32.5 79.5s48.167 32.5 79.5 32.5s57.833 -10.833 79.5 -32.5s32.5 -48.167 32.5 -79.5zM798 739
c-149.333 90.667 -262 136 -338 136h-11c-45.333 0 -87 -17.333 -125 -52c-52.667 -48.667 -79 -121 -79 -217v-303c0 -86 13 -137.667 39 -155c19.333 -13.333 80 -20 182 -20h270v-128h-765v128h165c-12.667 36 -19 81 -19 135v343c0 141.333 38.667 247.333 116 318
c58.667 53.333 129 80 211 80h15c96.667 0 209.667 -41.667 339 -125v-140z" />
    <glyph glyph-name="uFED0" unicode="&#x63a;" horiz-adv-x="838" arabic-form="medial" 
d="M535 1259c0 -30.667 -10.833 -56.834 -32.5 -78.501s-48.167 -32.5 -79.5 -32.5s-57.833 10.833 -79.5 32.5s-32.5 47.834 -32.5 78.501c0 31.333 10.833 57.833 32.5 79.5s48.167 32.5 79.5 32.5s57.833 -10.833 79.5 -32.5s32.5 -48.167 32.5 -79.5zM867 0
l-194.998 -0.000976562c-112.667 0 -193.334 24.667 -242.001 74c-48 -49.333 -119 -74 -213 -74h-246v128h233c106.667 0 160 42.667 160 128v45c0 78.667 -39 174 -117 286c-73.333 105.333 -127 158 -161 158v129c20 28.667 67.5 57.667 142.5 87s138.5 44 190.5 44h12
c30 0 74 -10 132 -30c71.333 -23.333 139.666 -54.666 204.999 -93.999v-136c-34.667 0 -88 -55.667 -160 -167c-75.333 -114.667 -113 -207 -113 -277v-45c0 -85.333 59 -128 177 -128h195v-128zM431.002 943.999h-12h12zM628.002 810.999
c-70.667 42 -135.999 63.001 -195.999 63.001h-14c-30.667 0 -65.667 -4.66699 -105 -14c-44 -11.333 -74.333 -25 -91 -41c101.333 -105.333 172.666 -207.333 213.999 -306c56 119.333 120 218.666 192 297.999z" />
    </font>
</defs>
</svg>
