<?xml version="1.0" standalone="no"?>
<!DOCTYPE svg PUBLIC "-//W3C//DTD SVG 1.1//EN" "http://www.w3.org/Graphics/SVG/1.1/DTD/svg11.dtd" >
<svg>
<metadata>
Created by FontForge 20090914 at Wed Oct 19 01:04:12 2011
 By www-data
(c) by Abolfazl Seilsepour - +98 912 591 3420  -  seilsepor@yahoo.com
</metadata>
<defs>
<font id="FarDanesh" horiz-adv-x="0" >
  <font-face 
    font-family="Far.Danesh"
    font-weight="400"
    font-stretch="normal"
    units-per-em="2048"
    panose-1="0 0 4 0 0 0 0 0 0 0"
    ascent="1638"
    descent="-410"
    bbox="-183 -843 1548 1546"
    underline-thickness="60"
    underline-position="-970"
    unicode-range="U+0020-U+FEFC"
  />
<missing-glyph horiz-adv-x="1024" 
d="M128 0v1215h768v-1215h-768zM256 128h512v959h-512v-959z" />
    <glyph glyph-name="uE818" unicode="&#x651;&#x64b;" 
d="M452 1065c0 -28.667 -9.33398 -57.999 -28.001 -87.999c-22.667 -36.667 -50.667 -55 -84 -55c-14 0 -28.333 3.33301 -43 10c-37.333 -67.333 -82.333 -101 -135 -101c-21.333 0 -38 10.667 -50 32c-10.667 18 -16 38.333 -16 61c0 36.667 12.667 78 38 124
c4 7.33301 9 11.666 15 12.999c2.66699 -4 5.33398 -7.66699 8.00098 -11c-2 -19.333 -3 -36.333 -3 -51c0 -46.667 11 -70 33 -70c30 0 55.667 33.333 77 100s33 100 35 100c6 0 11.5 -17.667 16.5 -53s17.167 -53 36.5 -53c22 0 38.333 27.667 49 83s18 83 22 83
c19.333 0 29 -41.333 29 -124zM363.999 1424l20.001 0.000976562c18.667 0 36 -13.333 52 -40v-8c0 -34 -33.333 -60.667 -100 -80v4l-32 -24c-66.667 -37.333 -113.334 -56 -140.001 -56c-16 0 -32 13.333 -48 40v20c8.66699 19.333 22 32.666 40 39.999l4 -4h4l64 52
c52 8.66699 85.333 22 100 40zM380 1288l23.999 -0.00195312c24 0 36 -16 36 -48c0 -35.333 -41.333 -64.666 -124 -87.999c0 -14 -21.333 -27.333 -64 -40l-60 -16h-16c-26.667 0 -40 14.667 -40 44c0 28.667 26.667 51.334 80 68.001c98.667 53.333 153.334 80 164.001 80
z" />
    <glyph glyph-name="uFC5E" unicode="&#x651;&#x64c;" arabic-form="isolated" 
d="M438 1059c0 -28 -9 -56.6641 -27 -85.9971c-22.667 -36 -50.334 -54 -83.001 -54c-13.333 0 -27.333 3 -42 9c-36.667 -66 -80.667 -99 -132 -99c-43.333 0 -65 30.667 -65 92c0 35.333 12.333 75.666 37 120.999c4 7.33301 9 11.666 15 12.999
c2.66699 -4 5.33398 -7.66699 8.00098 -11c-2 -18.667 -3 -35.334 -3 -50.001c0 -45.333 10.667 -68 32 -68c29.333 0 54.5 32.667 75.5 98s32.5 98 34.5 98c6 0 11.5 -17.333 16.5 -52s16.833 -52 35.5 -52c22 0 38.167 27 48.5 81s17.5 81 21.5 81
c18.667 0 28 -40.333 28 -121zM476 1339c0 -63.333 -21.332 -115.999 -63.999 -157.999l52 -23l-9 -87c-36.667 6 -71.334 24.333 -104.001 55c-88.667 -68 -171.667 -108 -249 -120l-52 35c48 27.333 73 62.333 75 105c1.33301 23.333 -1 37.333 -7 42
c-14.667 10.667 -41.334 5.66699 -80.001 -15l-1 30c36.667 38.667 68.334 58 95.001 58c39.333 0 59 -20.333 59 -61c0 -35.333 -12.333 -74 -37 -116c77.333 32 123.333 59.667 138 83c-27.333 27.333 -41 59.666 -41 96.999c0 29.333 18.833 63.5 56.5 102.5
s71.5 58.5 101.5 58.5c44.667 0 67 -28.667 67 -86zM391.001 1345c-12.667 0 -27.666 -6.33301 -44.999 -19c-19.333 -13.333 -29 -26 -29 -38c0 -11.333 5.5 -25.5 16.5 -42.5s21.833 -25.5 32.5 -25.5c13.333 0 24.666 13 33.999 39c7.33301 20 11 38.667 11 56
c0 20 -6.66699 30 -20 30z" />
    <glyph glyph-name="uFC5F" unicode="&#x651;&#x64d;" arabic-form="isolated" 
d="M421 1308c0 -28.667 -9.33398 -57.999 -28.001 -87.999c-22.667 -36.667 -50.667 -55 -84 -55c-14 0 -28.333 3.33301 -43 10c-37.333 -67.333 -82.333 -101 -135 -101c-21.333 0 -38 10.667 -50 32c-10.667 18 -16 38.333 -16 61c0 36.667 12.667 78 38 124
c4 7.33301 9 11.666 15 12.999c2.66699 -4 5.33398 -7.66699 8.00098 -11c-2 -19.333 -3 -36.333 -3 -51c0 -46.667 11 -70 33 -70c30 0 55.667 33.333 77 100s33 100 35 100c6 0 11.5 -17.667 16.5 -53s17.167 -53 36.5 -53c22 0 38.333 27.667 49 83s18 83 22 83
c19.333 0 29 -41.333 29 -124zM327.999 1149l20.001 0.000976562c18.667 0 36 -13.333 52 -40v-8c0 -34 -33.333 -60.667 -100 -80v4l-32 -24c-66.667 -37.333 -113.334 -56 -140.001 -56c-16 0 -32 13.333 -48 40v20c8.66699 19.333 22 32.666 40 39.999l4 -4h4l64 52
c52 8.66699 85.333 22 100 40zM344 1013l23.999 -0.00195312c24 0 36 -16 36 -48c0 -35.333 -41.333 -64.666 -124 -87.999c0 -14 -21.333 -27.333 -64 -40l-60 -16h-16c-26.667 0 -40 14.667 -40 44c0 28.667 26.667 51.334 80 68.001c98.667 53.333 153.334 80 164.001 80
z" />
    <glyph glyph-name="uFC60" unicode="&#x651;&#x64e;" arabic-form="isolated" 
d="M462 1105c0 -28 -9 -56.6641 -27 -85.9971c-22.667 -36 -50.334 -54 -83.001 -54c-13.333 0 -27.333 3 -42 9c-36.667 -66 -80.667 -99 -132 -99c-43.333 0 -65 30.667 -65 92c0 35.333 12.333 75.666 37 120.999c4 7.33301 9 11.666 15 12.999
c2.66699 -4 5.33398 -7.66699 8.00098 -11c-2 -18.667 -3 -35.334 -3 -50.001c0 -45.333 10.667 -68 32 -68c29.333 0 54.5 32.667 75.5 98s32.5 98 34.5 98c6 0 11.5 -17.333 16.5 -52s16.833 -52 35.5 -52c22 0 38.167 27 48.5 81s17.5 81 21.5 81
c18.667 0 28 -40.333 28 -121zM416 1429l23.999 -0.00195312c24 0 36 -16 36 -48c0 -35.333 -41.333 -64.666 -124 -87.999c0 -14 -21.333 -27.333 -64 -40l-60 -16h-16c-26.667 0 -40 14.667 -40 44c0 28.667 26.667 51.334 80 68.001c98.667 53.333 153.334 80 164.001 80
z" />
    <glyph glyph-name="uFC61" unicode="&#x651;&#x64f;" arabic-form="isolated" 
d="M467 1010c0 -28.667 -9.33398 -57.999 -28.001 -87.999c-22.667 -36.667 -50.667 -55 -84 -55c-14 0 -28.333 3.33301 -43 10c-37.333 -67.333 -82.333 -101 -135 -101c-21.333 0 -38 10.667 -50 32c-10.667 18 -16 38.333 -16 61c0 36.667 12.667 78 38 124
c4 7.33301 9 11.666 15 12.999c2.66699 -4 5.33398 -7.66699 8.00098 -11c-2 -19.333 -3 -36.333 -3 -51c0 -46.667 11 -70 33 -70c30 0 55.667 33.333 77 100s33 100 35 100c6 0 11.5 -17.667 16.5 -53s17.167 -53 36.5 -53c22 0 38.333 27.667 49 83s18 83 22 83
c19.333 0 29 -41.333 29 -124zM491.999 1346c0 -61.333 -21.333 -113.668 -64 -157.001c11.333 -8.66699 28.333 -18 51 -28l-7 -85c-47.333 14.667 -85.333 35 -114 61c-87.333 -73.333 -174.666 -116.333 -261.999 -129c-30 4 -45.667 17 -47 39
c121.333 40 207.666 82.333 258.999 127c-30.667 29.333 -46 61 -46 95c0 30.667 19.167 65.834 57.5 105.501s72.5 59.5 102.5 59.5c46.667 0 70 -29.333 70 -88zM401.999 1352c-12 0 -27.167 -6.66797 -45.5 -20.001s-27.5 -25.666 -27.5 -36.999
c0 -12 5.5 -26.667 16.5 -44s22.167 -26 33.5 -26c12.667 0 23.667 13.333 33 40c7.33301 22 11 40.667 11 56c0 20.667 -7 31 -21 31z" />
    <glyph glyph-name="uFC62" unicode="&#x651;&#x650;" arabic-form="isolated" 
d="M484 1302c0 -28.667 -9.33398 -57.999 -28.001 -87.999c-22.667 -36.667 -50.667 -55 -84 -55c-14 0 -28.333 3.33301 -43 10c-37.333 -67.333 -82.333 -101 -135 -101c-21.333 0 -38 10.667 -50 32c-10.667 18 -16 38.333 -16 61c0 36.667 12.667 78 38 124
c4 7.33301 9 11.666 15 12.999c2.66699 -4 5.33398 -7.66699 8.00098 -11c-2 -19.333 -3 -36.333 -3 -51c0 -46.667 11 -70 33 -70c30 0 55.667 33.333 77 100s33 100 35 100c6 0 11.5 -17.667 16.5 -53s17.167 -53 36.5 -53c22 0 38.333 27.667 49 83s18 83 22 83
c19.333 0 29 -41.333 29 -124zM396.999 1079l23.999 -0.00195312c24 0 36 -16 36 -48c0 -35.333 -41.333 -64.666 -124 -87.999c0 -14 -21.333 -27.333 -64 -40l-60 -16h-16c-26.667 0 -40 14.667 -40 44c0 28.667 26.667 51.334 80 68.001
c98.667 53.333 153.334 80 164.001 80z" />
    <glyph glyph-name="uFDF2" unicode="&#xfedf;&#xfee0;&#xfeea;" horiz-adv-x="1281" arabic-form="isolated" 
d="M1156 846c10.667 -1.33301 38.667 -34.668 84 -100.001l4 -28c0 -6 -9.33301 -15.333 -28 -28l-8 -40c8 -6.66699 16 -56 24 -148c7.33301 0 15.333 -52 24 -156c5.33301 0 12 -49.333 20 -148c0 -51.333 -28 -108.666 -84 -171.999c-20.667 -18.667 -42 -28 -64 -28
l-8 -8l-48 4h-36l-4 4l-4 -4h-12l-24 8l-20 -4c-8 9.33301 -12 25.333 -12 48v20c0 18.667 6.66699 32 20 40l12 -4l24 4l68 -8c64 8.66699 96 20.667 96 36l8 40l-68 436l-4 12v24l4 4l-8 40h4c-13.333 30 -20 60.667 -20 92c12.667 42.667 32.667 64 60 64zM753 867.998
l16 0.000976562c16 -10.667 24 -26.667 24 -48l-4 -60l44 -468h-4c2 -34 7.33301 -67.333 16 -100c16.667 -43.333 37.667 -70.666 63 -81.999l31 -9c12 2 18 -6 18 -24v-56c0.666992 -14.667 -6.66602 -21.334 -21.999 -20.001l-24 1c-44 16 -86 56.667 -126 122h-8
l-72 -104c-29.333 -13.333 -49.333 -20 -60 -20v4l-4 -4h-8c-10.667 3.33301 -15.334 8 -14.001 14l-2 38v8v38c0.666992 5.33301 16.667 6.66602 48 3.99902l48 21c18.667 20 28 80.333 28 181l4 12l-4 4v4l4 4v4l-8 28h4l-16 116l4 4v4l-28 264v44
c0 28 17.333 53.333 52 76zM372 531.999c16.667 0 30.001 -13.332 40.001 -39.999l-4 -4v-4l8 -40h-4c13.333 -98.667 24 -148 32 -148c47.333 -112 84.666 -168 111.999 -168c0.666992 -6.66699 18 -14.667 52 -24l8 -72c0 -16.667 -6.66699 -28.667 -20 -36
c-87.333 27.333 -144.666 64.666 -171.999 111.999c0 8 -4 12 -12 12c-46.667 -32 -77.334 -48 -92.001 -48h-8c-117.333 32.667 -176 68.667 -176 108c0 35.333 24 70 72 104l84 92c16 0 30.667 40 44 120c4 0 12 10.667 24 32l4 4h8zM244.001 232
c0 -19.333 25.333 -38 76 -56l16 4l28 -4c16 2.66699 24 6.66699 24 12v20c-18.667 62.667 -28 102.667 -28 120l-16 12h-4c-18.667 0 -38.667 -20 -60 -60c-24 -13.333 -36 -29.333 -36 -48z" />
    <glyph glyph-name="uFEF5" unicode="&#xfedf;&#xfe82;" horiz-adv-x="797" arabic-form="isolated" 
d="M136 992c34.667 0 59.998 -17.333 75.998 -52c60 -76 102.667 -148 128 -216l4 -4c0 -12 13.333 -42.667 40 -92c50.667 -107.333 76 -167.333 76 -180c18.667 -13.333 37.334 -50.666 56.001 -111.999c0 -8.66699 8 -22 24 -40c61.333 125.333 92 220 92 284l16 64v24
l4 4l-4 4v128c6.66699 88 29.334 132 68.001 132h12c17.333 0 33.333 -46.667 48 -140c4.66699 0 10 -14.667 16 -44c0 -12 -13.333 -18.667 -40 -20l-16 4c-5.33301 0 -10.666 -30.667 -15.999 -92l-28 -128c-10.667 -14.667 -32 -66.667 -64 -156l-60 -92v-4
c0 -43.333 5.33301 -79.333 16 -108c-12 -51.333 -29.333 -86 -52 -104c-32 -42.667 -101.333 -64 -208 -64l-68 -4l-16 12v12c14 72 46 108 96 108l84 40c34.667 25.333 52 50.666 52 75.999v16c-11.333 49.333 -31.333 94.666 -60 135.999
c-44.667 92.667 -98 183.334 -160 272.001c-27.333 55.333 -50 83.333 -68 84l-32 -8c-32 22 -48 51.333 -48 88c-4.66699 0 -7.33398 9.33301 -8.00098 28c6 93.333 16.667 140 32 140l4 4h4zM399.998 84v-12l60 -8c26 3.33301 46 12.666 60 27.999l4 28v8
c0 14.667 -6.66699 25.334 -20 32.001c-20.667 0 -46 -18.667 -76 -56z" />
    <glyph glyph-name="uFEF6" unicode="&#xfee0;&#xfe82;" horiz-adv-x="925" arabic-form="final" 
d="M764 916l16.002 -0.000976562c12 0 22.667 -21.333 32 -64l-12 -72l4 -4l-4 -20v-20l4 -12l-4 -20v-20l-4 -64l4 -4l-4 -16l4 -100l-4 -48l12 -68l-4 -28l8 -32v-20l-8 -32c25.333 -109.333 58.666 -164 99.999 -164c10.667 0 18.667 -13.333 24 -40v-8
c0 -44 -6.66699 -66 -20 -66l-16 -4c-72 35.333 -108 66.666 -108 93.999c-10.667 12 -16 24 -16 36l4 16c-21.333 42 -32 74 -32 96l4 16c-5.33301 8 -8 22.667 -8 44h-4l4 20v12l-8 44l8 24v36l-12 64h-4c-25.333 -24 -52 -94.667 -80 -212
c-8.66699 0 -22 -34.667 -40 -104c-10 -9.33301 -22 -36 -36 -80c-12.667 -16.667 -20.667 -38 -24 -64c-4 0 -14.667 -18.667 -32 -56c-53.333 -68 -94.666 -105.333 -123.999 -112l-84 -36l-4 4h-4l-72 -24l-28 4l-4 -4h-4l-12 4l-12 -4c-10.667 11.333 -16 22 -16 32v16
c36.667 24 82 46.667 136 68l64 36c68.667 45.333 107.334 89.333 116.001 132c7.33301 0 12.666 20 15.999 60v16c0 74.667 -21.333 137.334 -64 188.001l-28 44c0 10.667 -6.66699 16 -20 16c0 14.667 -34.667 49.334 -104 104.001l-24 4c-20 -18.667 -33.333 -28 -40 -28
c-25.333 0 -53.333 53.333 -84 160l4 24l-4 20l4 4v4l-8 24c12.667 29.333 30 44 52 44h8c71.333 -53.333 116.666 -101.333 135.999 -144c74.667 -68 112 -113.333 112 -136c14 0 39.333 -49.333 76 -148l24 -88l-4 -16c8 -32 14.667 -48 20 -48
c53.333 95.333 80 159.333 80 192c9.33301 5.33301 26.666 54.666 51.999 147.999c6.66699 0 22.667 61.333 48 184c16 112.667 30.667 175.334 44 188.001z" />
    <glyph glyph-name="uFEF7" unicode="&#xfedf;&#xfe84;" horiz-adv-x="797" arabic-form="isolated" 
d="M136 992c34.667 0 59.998 -17.333 75.998 -52c60 -76 102.667 -148 128 -216l4 -4c0 -12 13.333 -42.667 40 -92c50.667 -107.333 76 -167.333 76 -180c18.667 -13.333 37.334 -50.666 56.001 -111.999c0 -8.66699 8 -22 24 -40c61.333 125.333 92 220 92 284l16 64v24
l4 4l-4 4v128c6.66699 88 29.334 132 68.001 132h12c17.333 0 33.333 -46.667 48 -140c4.66699 0 10 -14.667 16 -44c0 -12 -13.333 -18.667 -40 -20l-16 4c-5.33301 0 -10.666 -30.667 -15.999 -92l-28 -128c-10.667 -14.667 -32 -66.667 -64 -156l-60 -92v-4
c0 -43.333 5.33301 -79.333 16 -108c-12 -51.333 -29.333 -86 -52 -104c-32 -42.667 -101.333 -64 -208 -64l-68 -4l-16 12v12c14 72 46 108 96 108l84 40c34.667 25.333 52 50.666 52 75.999v16c-11.333 49.333 -31.333 94.666 -60 135.999
c-44.667 92.667 -98 183.334 -160 272.001c-27.333 55.333 -50 83.333 -68 84l-32 -8c-32 22 -48 51.333 -48 88c-4.66699 0 -7.33398 9.33301 -8.00098 28c6 93.333 16.667 140 32 140l4 4h4zM399.998 84v-12l60 -8c26 3.33301 46 12.666 60 27.999l4 28v8
c0 14.667 -6.66699 25.334 -20 32.001c-20.667 0 -46 -18.667 -76 -56z" />
    <glyph glyph-name="uFEF8" unicode="&#xfee0;&#xfe84;" horiz-adv-x="925" arabic-form="final" 
d="M764 916l16.002 -0.000976562c12 0 22.667 -21.333 32 -64l-12 -72l4 -4l-4 -20v-20l4 -12l-4 -20v-20l-4 -64l4 -4l-4 -16l4 -100l-4 -48l12 -68l-4 -28l8 -32v-20l-8 -32c25.333 -109.333 58.666 -164 99.999 -164c10.667 0 18.667 -13.333 24 -40v-8
c0 -44 -6.66699 -66 -20 -66l-16 -4c-72 35.333 -108 66.666 -108 93.999c-10.667 12 -16 24 -16 36l4 16c-21.333 42 -32 74 -32 96l4 16c-5.33301 8 -8 22.667 -8 44h-4l4 20v12l-8 44l8 24v36l-12 64h-4c-25.333 -24 -52 -94.667 -80 -212
c-8.66699 0 -22 -34.667 -40 -104c-10 -9.33301 -22 -36 -36 -80c-12.667 -16.667 -20.667 -38 -24 -64c-4 0 -14.667 -18.667 -32 -56c-53.333 -68 -94.666 -105.333 -123.999 -112l-84 -36l-4 4h-4l-72 -24l-28 4l-4 -4h-4l-12 4l-12 -4c-10.667 11.333 -16 22 -16 32v16
c36.667 24 82 46.667 136 68l64 36c68.667 45.333 107.334 89.333 116.001 132c7.33301 0 12.666 20 15.999 60v16c0 74.667 -21.333 137.334 -64 188.001l-28 44c0 10.667 -6.66699 16 -20 16c0 14.667 -34.667 49.334 -104 104.001l-24 4c-20 -18.667 -33.333 -28 -40 -28
c-25.333 0 -53.333 53.333 -84 160l4 24l-4 20l4 4v4l-8 24c12.667 29.333 30 44 52 44h8c71.333 -53.333 116.666 -101.333 135.999 -144c74.667 -68 112 -113.333 112 -136c14 0 39.333 -49.333 76 -148l24 -88l-4 -16c8 -32 14.667 -48 20 -48
c53.333 95.333 80 159.333 80 192c9.33301 5.33301 26.666 54.666 51.999 147.999c6.66699 0 22.667 61.333 48 184c16 112.667 30.667 175.334 44 188.001z" />
    <glyph glyph-name="uFEF9" unicode="&#xfedf;&#xfe88;" horiz-adv-x="797" arabic-form="isolated" 
d="M136 992c34.667 0 59.998 -17.333 75.998 -52c60 -76 102.667 -148 128 -216l4 -4c0 -12 13.333 -42.667 40 -92c50.667 -107.333 76 -167.333 76 -180c18.667 -13.333 37.334 -50.666 56.001 -111.999c0 -8.66699 8 -22 24 -40c61.333 125.333 92 220 92 284l16 64v24
l4 4l-4 4v128c6.66699 88 29.334 132 68.001 132h12c17.333 0 33.333 -46.667 48 -140c4.66699 0 10 -14.667 16 -44c0 -12 -13.333 -18.667 -40 -20l-16 4c-5.33301 0 -10.666 -30.667 -15.999 -92l-28 -128c-10.667 -14.667 -32 -66.667 -64 -156l-60 -92v-4
c0 -43.333 5.33301 -79.333 16 -108c-12 -51.333 -29.333 -86 -52 -104c-32 -42.667 -101.333 -64 -208 -64l-68 -4l-16 12v12c14 72 46 108 96 108l84 40c34.667 25.333 52 50.666 52 75.999v16c-11.333 49.333 -31.333 94.666 -60 135.999
c-44.667 92.667 -98 183.334 -160 272.001c-27.333 55.333 -50 83.333 -68 84l-32 -8c-32 22 -48 51.333 -48 88c-4.66699 0 -7.33398 9.33301 -8.00098 28c6 93.333 16.667 140 32 140l4 4h4zM399.998 84v-12l60 -8c26 3.33301 46 12.666 60 27.999l4 28v8
c0 14.667 -6.66699 25.334 -20 32.001c-20.667 0 -46 -18.667 -76 -56z" />
    <glyph glyph-name="uFEFA" unicode="&#xfee0;&#xfe88;" horiz-adv-x="925" arabic-form="final" 
d="M764 916l16.002 -0.000976562c12 0 22.667 -21.333 32 -64l-12 -72l4 -4l-4 -20v-20l4 -12l-4 -20v-20l-4 -64l4 -4l-4 -16l4 -100l-4 -48l12 -68l-4 -28l8 -32v-20l-8 -32c25.333 -109.333 58.666 -164 99.999 -164c10.667 0 18.667 -13.333 24 -40v-8
c0 -44 -6.66699 -66 -20 -66l-16 -4c-72 35.333 -108 66.666 -108 93.999c-10.667 12 -16 24 -16 36l4 16c-21.333 42 -32 74 -32 96l4 16c-5.33301 8 -8 22.667 -8 44h-4l4 20v12l-8 44l8 24v36l-12 64h-4c-25.333 -24 -52 -94.667 -80 -212
c-8.66699 0 -22 -34.667 -40 -104c-10 -9.33301 -22 -36 -36 -80c-12.667 -16.667 -20.667 -38 -24 -64c-4 0 -14.667 -18.667 -32 -56c-53.333 -68 -94.666 -105.333 -123.999 -112l-84 -36l-4 4h-4l-72 -24l-28 4l-4 -4h-4l-12 4l-12 -4c-10.667 11.333 -16 22 -16 32v16
c36.667 24 82 46.667 136 68l64 36c68.667 45.333 107.334 89.333 116.001 132c7.33301 0 12.666 20 15.999 60v16c0 74.667 -21.333 137.334 -64 188.001l-28 44c0 10.667 -6.66699 16 -20 16c0 14.667 -34.667 49.334 -104 104.001l-24 4c-20 -18.667 -33.333 -28 -40 -28
c-25.333 0 -53.333 53.333 -84 160l4 24l-4 20l4 4v4l-8 24c12.667 29.333 30 44 52 44h8c71.333 -53.333 116.666 -101.333 135.999 -144c74.667 -68 112 -113.333 112 -136c14 0 39.333 -49.333 76 -148l24 -88l-4 -16c8 -32 14.667 -48 20 -48
c53.333 95.333 80 159.333 80 192c9.33301 5.33301 26.666 54.666 51.999 147.999c6.66699 0 22.667 61.333 48 184c16 112.667 30.667 175.334 44 188.001z" />
    <glyph glyph-name="uFEFB" unicode="&#xfedf;&#xfe8e;" horiz-adv-x="797" arabic-form="isolated" 
d="M136 992c34.667 0 59.998 -17.333 75.998 -52c60 -76 102.667 -148 128 -216l4 -4c0 -12 13.333 -42.667 40 -92c50.667 -107.333 76 -167.333 76 -180c18.667 -13.333 37.334 -50.666 56.001 -111.999c0 -8.66699 8 -22 24 -40c61.333 125.333 92 220 92 284l16 64v24
l4 4l-4 4v128c6.66699 88 29.334 132 68.001 132h12c17.333 0 33.333 -46.667 48 -140c4.66699 0 10 -14.667 16 -44c0 -12 -13.333 -18.667 -40 -20l-16 4c-5.33301 0 -10.666 -30.667 -15.999 -92l-28 -128c-10.667 -14.667 -32 -66.667 -64 -156l-60 -92v-4
c0 -43.333 5.33301 -79.333 16 -108c-12 -51.333 -29.333 -86 -52 -104c-32 -42.667 -101.333 -64 -208 -64l-68 -4l-16 12v12c14 72 46 108 96 108l84 40c34.667 25.333 52 50.666 52 75.999v16c-11.333 49.333 -31.333 94.666 -60 135.999
c-44.667 92.667 -98 183.334 -160 272.001c-27.333 55.333 -50 83.333 -68 84l-32 -8c-32 22 -48 51.333 -48 88c-4.66699 0 -7.33398 9.33301 -8.00098 28c6 93.333 16.667 140 32 140l4 4h4zM399.998 84v-12l60 -8c26 3.33301 46 12.666 60 27.999l4 28v8
c0 14.667 -6.66699 25.334 -20 32.001c-20.667 0 -46 -18.667 -76 -56z" />
    <glyph glyph-name="uFEFC" unicode="&#xfee0;&#xfe8e;" horiz-adv-x="925" arabic-form="final" 
d="M764 916l16.002 -0.000976562c12 0 22.667 -21.333 32 -64l-12 -72l4 -4l-4 -20v-20l4 -12l-4 -20v-20l-4 -64l4 -4l-4 -16l4 -100l-4 -48l12 -68l-4 -28l8 -32v-20l-8 -32c25.333 -109.333 58.666 -164 99.999 -164c10.667 0 18.667 -13.333 24 -40v-8
c0 -44 -6.66699 -66 -20 -66l-16 -4c-72 35.333 -108 66.666 -108 93.999c-10.667 12 -16 24 -16 36l4 16c-21.333 42 -32 74 -32 96l4 16c-5.33301 8 -8 22.667 -8 44h-4l4 20v12l-8 44l8 24v36l-12 64h-4c-25.333 -24 -52 -94.667 -80 -212
c-8.66699 0 -22 -34.667 -40 -104c-10 -9.33301 -22 -36 -36 -80c-12.667 -16.667 -20.667 -38 -24 -64c-4 0 -14.667 -18.667 -32 -56c-53.333 -68 -94.666 -105.333 -123.999 -112l-84 -36l-4 4h-4l-72 -24l-28 4l-4 -4h-4l-12 4l-12 -4c-10.667 11.333 -16 22 -16 32v16
c36.667 24 82 46.667 136 68l64 36c68.667 45.333 107.334 89.333 116.001 132c7.33301 0 12.666 20 15.999 60v16c0 74.667 -21.333 137.334 -64 188.001l-28 44c0 10.667 -6.66699 16 -20 16c0 14.667 -34.667 49.334 -104 104.001l-24 4c-20 -18.667 -33.333 -28 -40 -28
c-25.333 0 -53.333 53.333 -84 160l4 24l-4 20l4 4v4l-8 24c12.667 29.333 30 44 52 44h8c71.333 -53.333 116.666 -101.333 135.999 -144c74.667 -68 112 -113.333 112 -136c14 0 39.333 -49.333 76 -148l24 -88l-4 -16c8 -32 14.667 -48 20 -48
c53.333 95.333 80 159.333 80 192c9.33301 5.33301 26.666 54.666 51.999 147.999c6.66699 0 22.667 61.333 48 184c16 112.667 30.667 175.334 44 188.001z" />
    <glyph glyph-name="u0652_u064E.liga" unicode="&#x652;&#x64e;" horiz-adv-x="1" 
d="M224 969c0.666992 -2 0.99707 -5 0.99707 -9c0 -30 -7.33301 -56 -22 -78c-1.33301 -2 -3.66602 -3 -6.99902 -3s-4.66602 1.66699 -3.99902 5c2.66699 25.333 0.333984 65.333 -6.99902 120c-2 16 -6 44.333 -12 85c-3.33301 26 -5 50.667 -5 74c0 4 4 12 12 24
c13.333 18.667 22.333 28 27 28c3.33301 0 4.33301 -4.33301 3 -13c-0.666992 -9.33301 -1 -20.333 -1 -33c0 -32 5 -98.667 15 -200z" />
    <glyph glyph-name="u0652_u064B.liga" unicode="&#x652;&#x64b;" horiz-adv-x="1" 
d="M547 803l-79 -121l-123 81l-65 -101l-129 89l82 129l120 -81l61 95z" />
    <glyph glyph-name="u0652_u064D.liga" unicode="&#x652;&#x64d;" horiz-adv-x="1" 
d="M809 -702l-79 -121l-123 81l-65 -101l-129 89l82 129l120 -81l61 95z" />
    <glyph glyph-name="u0622" unicode="&#x622;" horiz-adv-x="580" arabic-form="isolated" 
d="M312 900l4 -0.00195312c14.667 0 24 -6.66699 28 -20l-4 -40l4 -148l4 -4v-4l-4 -16l12 -32l-4 -16l8 -92h-4l4 -4v-48l-4 -32l4 -32v-40l4 -16l-4 -16v-12l4 -16l-4 -12l4 -20l-4 -24l16 -112l-4 -32l4 -60c0 -29.333 -10.667 -44 -32 -44s-32 21.333 -32 64
c-4.66699 0 -8.66699 30.667 -12 92l4 4v4c-2.66699 22.667 -8 38.667 -16 48v20c0 18.667 -2.66699 33.334 -8 44.001l4 52l-28 208v44l4 24c-5.33301 10 -13.333 79.333 -24 208c0 12.667 25.333 39.334 76 80.001zM556 1161c18.667 -8 28.001 -20 28.001 -36
c0 -11.333 -25.333 -26 -76 -44c0 -8 -44 -21.333 -132 -40c0 -5.33301 -6.66699 -8 -20 -8c0 5.33301 -4 8 -12 8c-8.66699 -4.66699 -40.667 -10 -96 -16c0 -5.33301 -6.66699 -8 -20 -8l-28 8h-76c-36 0 -58.667 -13.333 -68 -40c-10 -8 -19.333 -12 -28 -12h-8
c-10.667 5.33301 -16 13.333 -16 24c0 25.333 20 58.666 60 99.999c17.333 32.667 34.666 51.334 51.999 56.001c70 -21.333 114 -32 132 -32l12 4l48 -12c86 0 162 14.667 228 44z" />
    <glyph glyph-name="u0623" unicode="&#x623;" horiz-adv-x="343" arabic-form="isolated" 
d="M232 900l4 -0.00195312c14.667 0 24 -6.66699 28 -20l-4 -40l4 -148l4 -4v-4l-4 -16l12 -32l-4 -16l8 -92h-4l4 -4v-48l-4 -32l4 -32v-40l4 -16l-4 -16v-12l4 -16l-4 -12l4 -20l-4 -24l16 -112l-4 -32l4 -60c0 -29.333 -10.667 -44 -32 -44s-32 21.333 -32 64
c-4.66699 0 -8.66699 30.667 -12 92l4 4v4c-2.66699 22.667 -8 38.667 -16 48v20c0 18.667 -2.66699 33.334 -8 44.001l4 52l-28 208v44l4 24c-5.33301 10 -13.333 79.333 -24 208c0 12.667 25.333 39.334 76 80.001z" />
    <glyph glyph-name="u0624" unicode="&#x624;" horiz-adv-x="592" arabic-form="isolated" 
d="M460 428h15.998c38 -14 67.333 -39.333 88 -76c18.667 -45.333 28 -86.666 28 -123.999l-4 -28l4 -16l-4 -16l4 -12c-13.333 -54 -26.666 -95.333 -39.999 -124c-31.333 -74 -74 -144.667 -128 -212l-60 -44c-42.667 -10.667 -68 -20 -76 -28h-28l-32 -4
c-120 18.667 -180 40 -180 64c-12 5.33301 -18.667 10.666 -20 15.999l20 20l32 -4c63.333 2.66699 138 14.667 224 36c52.667 20.667 95.334 48.667 128.001 84c0 7.33301 13.333 23.333 40 48c10.667 16 16 30.667 16 44v12c0 14 -25.333 24.667 -76 32
c-11.333 9.33301 -38 20 -80 32c-18.667 20.667 -28 40.667 -28 60c0 62 34.667 135.333 104 220c18.667 13.333 36 20 52 20zM383.998 260v-4c0 -24 22.667 -46.667 68 -68c34.667 -4 52 -8 52 -12c10.667 4 16 8 16 12v32c0 25.333 -22.667 46.666 -68 63.999l-32 4
c-18 -7.33301 -30 -16.666 -36 -27.999z" />
    <glyph glyph-name="u0625" unicode="&#x625;" horiz-adv-x="343" arabic-form="isolated" 
d="M232 900l4 -0.00195312c14.667 0 24 -6.66699 28 -20l-4 -40l4 -148l4 -4v-4l-4 -16l12 -32l-4 -16l8 -92h-4l4 -4v-48l-4 -32l4 -32v-40l4 -16l-4 -16v-12l4 -16l-4 -12l4 -20l-4 -24l16 -112l-4 -32l4 -60c0 -29.333 -10.667 -44 -32 -44s-32 21.333 -32 64
c-4.66699 0 -8.66699 30.667 -12 92l4 4v4c-2.66699 22.667 -8 38.667 -16 48v20c0 18.667 -2.66699 33.334 -8 44.001l4 52l-28 208v44l4 24c-5.33301 10 -13.333 79.333 -24 208c0 12.667 25.333 39.334 76 80.001z" />
    <glyph glyph-name="u0626" unicode="&#x626;" horiz-adv-x="1037" arabic-form="isolated" 
d="M909 544c31.333 -8 64.666 -33.334 99.999 -76.001c14.667 -24.667 24 -47.334 28 -68.001c-5.33301 -12 -10.666 -18.667 -15.999 -20h-8c-31.333 12.667 -56.666 26 -75.999 40l-44 12h-20c-27.333 0 -82 -37.333 -164 -112l-44 -84c0 -40.667 45.333 -64.667 136 -72
c104 -34 156 -60.667 156 -80l4 -44c-20 -46.667 -50.667 -86.667 -92 -120c-8.66699 0 -18 -10.667 -28 -32c-8 0 -42.667 -16 -104 -48c-10.667 0 -44 -12 -100 -36l-48 -16l-44 -4l-24 4l-8 -8l-12 4l-84 -8c-21.333 6.66699 -32 12 -32 16l-4 -4h-4
c-51.333 8 -88.666 20 -111.999 36c-61.333 34 -92 67.333 -92 100c-5.33301 6.66699 -12 37.334 -20 92.001v8c0 62 20 123.333 60 184c18 45.333 36.667 73.333 56 84c0.666992 10.667 6 16 16 16c18.667 -8.66699 28 -19.334 28 -32.001
c0 -17.333 -16 -42.666 -48 -75.999l-24 -76v-36l4 -16l-4 -12c10 -44.667 36.667 -88.667 80 -132c49.333 -24 102.666 -36 159.999 -36l28 -4l60 4l4 -4h4c48 0 105.333 16 172 48c30 0 63.333 21.333 100 64l4 4v20c-18 11.333 -56.667 22 -116 32
c-2.66699 4.66699 -38.667 18 -108 40c-24 38 -36 63.333 -36 76c7.33301 60.667 20.666 103.334 39.999 128.001c90 162.667 182 244 276 244z" />
    <glyph glyph-name="u0627" unicode="&#x627;" horiz-adv-x="343" arabic-form="isolated" 
d="M232 900l4 -0.00195312c14.667 0 24 -6.66699 28 -20l-4 -40l4 -148l4 -4v-4l-4 -16l12 -32l-4 -16l8 -92h-4l4 -4v-48l-4 -32l4 -32v-40l4 -16l-4 -16v-12l4 -16l-4 -12l4 -20l-4 -24l16 -112l-4 -32l4 -60c0 -29.333 -10.667 -44 -32 -44s-32 21.333 -32 64
c-4.66699 0 -8.66699 30.667 -12 92l4 4v4c-2.66699 22.667 -8 38.667 -16 48v20c0 18.667 -2.66699 33.334 -8 44.001l4 52l-28 208v44l4 24c-5.33301 10 -13.333 79.333 -24 208c0 12.667 25.333 39.334 76 80.001z" />
    <glyph glyph-name="u0628" unicode="&#x628;" horiz-adv-x="1065" arabic-form="isolated" 
d="M576 -212c6.66699 -5.33301 20 -9.33301 40 -12l40 -52v-20c-23.333 -37.333 -43.333 -56 -60 -56c-42 0 -67.333 20 -76 60l-8 8c26.667 40 48 64 64 72zM976 480h16.002c18.667 -7.33301 30.667 -18 36 -32c16 -24.667 24 -40.667 24 -48
c0 -18.667 4 -33.334 12 -44.001v-72l-36 -128c-12.667 -6.66699 -30 -22.667 -52 -48c-9.33301 0 -17.333 -8 -24 -24l-84 -40c0 -10.667 -26.667 -22.667 -80 -36l-44 -24h-40c-8.66699 -8 -36.667 -12 -84 -12l-8 -8h-48l-24 -4l-12 4l-56 -4l-4 4h-4l-4 -4
c-27.333 3.33301 -43.333 7.33301 -48 12h-12c-62 0 -116.667 16 -164 48c-18.667 6.66699 -28 12 -28 16c0 8 -8 12 -24 12l-4 4c-18 0 -31.333 25.333 -40 76l-4 4v56l8 12v36c8 31.333 32 70 72 116l16 12h8c5.33301 0 10.666 -8 15.999 -24
c-10.667 -14.667 -17.334 -36 -20.001 -64l-4 -4l-8 -12l4 -4v-4l-4 -4l4 -4v-4l-4 -4l4 -4v-4l-4 -4l4 -4v-4l-4 -4l44 -68c26.667 -7.33301 40 -16.666 40 -27.999l4 4h4c24 -13.333 42.667 -20 56 -20h36l12 -8h40l12 -8h12l12 8h28l12 -8h4l12 8h76l12 8h28
c30.667 0 66.667 6.66699 108 20v-4l124 44c0 5.33301 6.66699 8 20 8l40 32l36 40h4v20l-8 12v20c-7.33301 0 -19.333 9.33301 -36 28c-11.333 4.66699 -23.333 22 -36 52c10 0 16.667 21.333 20 64c18 29.333 30 44 36 44z" />
    <glyph glyph-name="u0629" unicode="&#x629;" horiz-adv-x="476" arabic-form="isolated" 
d="M308 884c22.667 0 41.3311 -10.6709 55.998 -32.0039c0 -44 -13.333 -78.667 -40 -104h-8l-36 48l-28 8c-12 -4.66699 -21.333 -12.667 -28 -24c8.66699 -34.667 19.334 -54.667 32.001 -60c15.333 -11.333 40.666 -20.666 75.999 -27.999
c24 2.66699 49.333 9.33398 76 20.001c21.333 -5.33301 32 -10.666 32 -15.999v-24c0 -26.667 -25.333 -44 -76 -52c-40 -27.333 -72 -46 -96 -56c0 -10 -22.667 -22 -68 -36c-29.333 2.66699 -44 12 -44 28c10.667 24 25.334 44 44.001 60l4 16c0 13.333 -17.333 36 -52 68
l-16 56c18.667 54.667 45.334 90.667 80.001 108c22 8.66699 52.667 15.334 92 20.001zM287.997 347.996c74.667 -22 112 -39.334 112 -52.001c50.667 -32 76 -72 76 -120c-26.667 -71.333 -64 -116.666 -112 -135.999c-8.66699 -10.667 -46 -24 -112 -40
c-38 0 -72.667 13.333 -104 40c-12 0 -21.333 21.333 -28 64v28c15.333 63.333 51.333 115.333 108 156c11.333 34.667 27.333 52 48 52zM203.997 171.995c28.667 -26 50 -40.666 64 -43.999c58.667 8 88 17.333 88 28v8c0 19.333 -25.333 40.666 -76 63.999
c-50.667 0 -76 -18.667 -76 -56z" />
    <glyph glyph-name="u062A" unicode="&#x62a;" horiz-adv-x="1065" arabic-form="isolated" 
d="M496 638c6.66699 -5.33301 20 -9.33301 40 -12l40 -52v-20c-23.333 -37.333 -43.333 -56 -60 -56c-42 0 -67.333 20 -76 60l-8 8c26.667 40 48 64 64 72zM976 480h16.002c18.667 -7.33301 30.667 -18 36 -32c16 -24.667 24 -40.667 24 -48
c0 -18.667 4 -33.334 12 -44.001v-72l-36 -128c-12.667 -6.66699 -30 -22.667 -52 -48c-9.33301 0 -17.333 -8 -24 -24l-84 -40c0 -10.667 -26.667 -22.667 -80 -36l-44 -24h-40c-8.66699 -8 -36.667 -12 -84 -12l-8 -8h-48l-24 -4l-12 4l-56 -4l-4 4h-4l-4 -4
c-27.333 3.33301 -43.333 7.33301 -48 12h-12c-62 0 -116.667 16 -164 48c-18.667 6.66699 -28 12 -28 16c0 8 -8 12 -24 12l-4 4c-18 0 -31.333 25.333 -40 76l-4 4v56l8 12v36c8 31.333 32 70 72 116l16 12h8c5.33301 0 10.666 -8 15.999 -24
c-10.667 -14.667 -17.334 -36 -20.001 -64l-4 -4l-8 -12l4 -4v-4l-4 -4l4 -4v-4l-4 -4l4 -4v-4l-4 -4l4 -4v-4l-4 -4l44 -68c26.667 -7.33301 40 -16.666 40 -27.999l4 4h4c24 -13.333 42.667 -20 56 -20h36l12 -8h40l12 -8h12l12 8h28l12 -8h4l12 8h76l12 8h28
c30.667 0 66.667 6.66699 108 20v-4l124 44c0 5.33301 6.66699 8 20 8l40 32l36 40h4v20l-8 12v20c-7.33301 0 -19.333 9.33301 -36 28c-11.333 4.66699 -23.333 22 -36 52c10 0 16.667 21.333 20 64c18 29.333 30 44 36 44zM696.002 638
c6.66699 -5.33301 20 -9.33301 40 -12l40 -52v-20c-23.333 -37.333 -43.333 -56 -60 -56c-42 0 -67.333 20 -76 60l-8 8c26.667 40 48 64 64 72z" />
    <glyph glyph-name="u062B" unicode="&#x62b;" horiz-adv-x="1065" arabic-form="isolated" 
d="M432 530l8 8c8.66699 40 34 60 76 60c16.667 0 36.667 -18.667 60 -56v-20l-40 -52c-20 -2.66699 -33.333 -6.66699 -40 -12c-16 8 -37.333 32 -64 72zM976 480h16.002c18.667 -7.33301 30.667 -18 36 -32c16 -24.667 24 -40.667 24 -48c0 -18.667 4 -33.334 12 -44.001
v-72l-36 -128c-12.667 -6.66699 -30 -22.667 -52 -48c-9.33301 0 -17.333 -8 -24 -24l-84 -40c0 -10.667 -26.667 -22.667 -80 -36l-44 -24h-40c-8.66699 -8 -36.667 -12 -84 -12l-8 -8h-48l-24 -4l-12 4l-56 -4l-4 4h-4l-4 -4c-27.333 3.33301 -43.333 7.33301 -48 12h-12
c-62 0 -116.667 16 -164 48c-18.667 6.66699 -28 12 -28 16c0 8 -8 12 -24 12l-4 4c-18 0 -31.333 25.333 -40 76l-4 4v56l8 12v36c8 31.333 32 70 72 116l16 12h8c5.33301 0 10.666 -8 15.999 -24c-10.667 -14.667 -17.334 -36 -20.001 -64l-4 -4l-8 -12l4 -4v-4l-4 -4
l4 -4v-4l-4 -4l4 -4v-4l-4 -4l4 -4v-4l-4 -4l44 -68c26.667 -7.33301 40 -16.666 40 -27.999l4 4h4c24 -13.333 42.667 -20 56 -20h36l12 -8h40l12 -8h12l12 8h28l12 -8h4l12 8h76l12 8h28c30.667 0 66.667 6.66699 108 20v-4l124 44c0 5.33301 6.66699 8 20 8l40 32l36 40
h4v20l-8 12v20c-7.33301 0 -19.333 9.33301 -36 28c-11.333 4.66699 -23.333 22 -36 52c10 0 16.667 21.333 20 64c18 29.333 30 44 36 44zM632.002 530l8 8c8.66699 40 34 60 76 60c16.667 0 36.667 -18.667 60 -56v-20l-40 -52c-20 -2.66699 -33.333 -6.66699 -40 -12
c-16 8 -37.333 32 -64 72zM532.002 670l8 8c8.66699 40 34 60 76 60c16.667 0 36.667 -18.667 60 -56v-20l-40 -52c-20 -2.66699 -33.333 -6.66699 -40 -12c-16 8 -37.333 32 -64 72z" />
    <glyph glyph-name="u062C" unicode="&#x62c;" horiz-adv-x="993" arabic-form="isolated" 
d="M365 340c8.66699 -5.33301 53.999 -9.33301 135.999 -12c0 -5.33301 16 -8 48 -8h20l20 4v-4l4 4l56 -8l52 4h20l24 -4l4 4l68 -12l56 8c16 -5.33301 24 -16 24 -32c0 -33.333 -21.333 -70.666 -64 -111.999h-4l-100 8l-4 -4h-4l-16 4l-16 -4l-4 4h-4
c-116 -10.667 -192 -25.334 -228 -44.001l-104 -48c-10.667 0 -40 -28 -88 -84c-18.667 -38 -28 -72.667 -28 -104c0 -24.667 22.667 -60.667 68 -108c86.667 -48 153.334 -72 200.001 -72c0 -3.33301 12 -6 36 -8l4 4l56 -8c40 0 120 9.33301 240 28c0 5.33301 20 12 60 20
c0 5.33301 14.667 8 44 8c0.666992 5.33301 10 9.33301 28 12c18.667 -11.333 28 -19.333 28 -24c-3.33301 -22.667 -43.333 -53.334 -120 -92.001c-42.667 -35.333 -114.667 -60.666 -216 -75.999c-16.667 0 -28.667 -2.66699 -36 -8l-20 4l-40 -4c-24 2 -36 4.66699 -36 8
l-4 -4c-91.333 16 -160.666 36 -207.999 60c0 6.66699 -8 13.334 -24 20.001c0 6 -29.333 32.667 -88 80l-40 88l-4 40v48c10 61.333 24.667 104 44 128c5.33301 1.33301 25.333 25.333 60 72l48 36l4 -4h4c0 11.333 21.333 24.666 64 39.999v4c0 5.33301 -4 8 -12 8
c-24 -3.33301 -36 -7.33301 -36 -12l-20 4h-16c-49.333 0 -81.333 -13.333 -96 -40l-44 -52h-20l-16 16v28c3.33301 44 27.333 89.333 72 136c7.33301 0 24.666 13.333 51.999 40l24 12h44l16 4l16 -4h4zM619.999 14l4.00098 -4l4 4c22 -20 40.667 -41.333 56 -64v-12
c-16.667 -23.333 -39.334 -43.333 -68.001 -60h-16l-64 56v8c32 48 60 72 84 72z" />
    <glyph glyph-name="u062D" unicode="&#x62d;" horiz-adv-x="993" arabic-form="isolated" 
d="M365 340c8.66699 -5.33301 53.999 -9.33301 135.999 -12c0 -5.33301 16 -8 48 -8h20l20 4v-4l4 4l56 -8l52 4h20l24 -4l4 4l68 -12l56 8c16 -5.33301 24 -16 24 -32c0 -33.333 -21.333 -70.666 -64 -111.999h-4l-100 8l-4 -4h-4l-16 4l-16 -4l-4 4h-4
c-116 -10.667 -192 -25.334 -228 -44.001l-104 -48c-10.667 0 -40 -28 -88 -84c-18.667 -38 -28 -72.667 -28 -104c0 -24.667 22.667 -60.667 68 -108c86.667 -48 153.334 -72 200.001 -72c0 -3.33301 12 -6 36 -8l4 4l56 -8c40 0 120 9.33301 240 28c0 5.33301 20 12 60 20
c0 5.33301 14.667 8 44 8c0.666992 5.33301 10 9.33301 28 12c18.667 -11.333 28 -19.333 28 -24c-3.33301 -22.667 -43.333 -53.334 -120 -92.001c-42.667 -35.333 -114.667 -60.666 -216 -75.999c-16.667 0 -28.667 -2.66699 -36 -8l-20 4l-40 -4c-24 2 -36 4.66699 -36 8
l-4 -4c-91.333 16 -160.666 36 -207.999 60c0 6.66699 -8 13.334 -24 20.001c0 6 -29.333 32.667 -88 80l-40 88l-4 40v48c10 61.333 24.667 104 44 128c5.33301 1.33301 25.333 25.333 60 72l48 36l4 -4h4c0 11.333 21.333 24.666 64 39.999v4c0 5.33301 -4 8 -12 8
c-24 -3.33301 -36 -7.33301 -36 -12l-20 4h-16c-49.333 0 -81.333 -13.333 -96 -40l-44 -52h-20l-16 16v28c3.33301 44 27.333 89.333 72 136c7.33301 0 24.666 13.333 51.999 40l24 12h44l16 4l16 -4h4z" />
    <glyph glyph-name="u062E" unicode="&#x62e;" horiz-adv-x="993" arabic-form="isolated" 
d="M365 340c8.66699 -5.33301 53.999 -9.33301 135.999 -12c0 -5.33301 16 -8 48 -8h20l20 4v-4l4 4l56 -8l52 4h20l24 -4l4 4l68 -12l56 8c16 -5.33301 24 -16 24 -32c0 -33.333 -21.333 -70.666 -64 -111.999h-4l-100 8l-4 -4h-4l-16 4l-16 -4l-4 4h-4
c-116 -10.667 -192 -25.334 -228 -44.001l-104 -48c-10.667 0 -40 -28 -88 -84c-18.667 -38 -28 -72.667 -28 -104c0 -24.667 22.667 -60.667 68 -108c86.667 -48 153.334 -72 200.001 -72c0 -3.33301 12 -6 36 -8l4 4l56 -8c40 0 120 9.33301 240 28c0 5.33301 20 12 60 20
c0 5.33301 14.667 8 44 8c0.666992 5.33301 10 9.33301 28 12c18.667 -11.333 28 -19.333 28 -24c-3.33301 -22.667 -43.333 -53.334 -120 -92.001c-42.667 -35.333 -114.667 -60.666 -216 -75.999c-16.667 0 -28.667 -2.66699 -36 -8l-20 4l-40 -4c-24 2 -36 4.66699 -36 8
l-4 -4c-91.333 16 -160.666 36 -207.999 60c0 6.66699 -8 13.334 -24 20.001c0 6 -29.333 32.667 -88 80l-40 88l-4 40v48c10 61.333 24.667 104 44 128c5.33301 1.33301 25.333 25.333 60 72l48 36l4 -4h4c0 11.333 21.333 24.666 64 39.999v4c0 5.33301 -4 8 -12 8
c-24 -3.33301 -36 -7.33301 -36 -12l-20 4h-16c-49.333 0 -81.333 -13.333 -96 -40l-44 -52h-20l-16 16v28c3.33301 44 27.333 89.333 72 136c7.33301 0 24.666 13.333 51.999 40l24 12h44l16 4l16 -4h4zM599.999 662l4.00098 -4l4 4c22 -20 40.667 -41.333 56 -64v-12
c-16.667 -23.333 -39.334 -43.333 -68.001 -60h-16l-64 56v8c32 48 60 72 84 72z" />
    <glyph glyph-name="u062F" unicode="&#x62f;" horiz-adv-x="620" arabic-form="isolated" 
d="M444 484l20 0.000976562c6.66699 0 37.334 -28 92.001 -84c21.333 -20 32 -46.667 32 -80c5.33301 0 9.33301 -10.667 12 -32l8 -44l4 -4v-24c0 -14 4 -26 12 -36v-4l-8 -12l8 -8c-14 -43.333 -34 -71.333 -60 -84c-6.66699 0 -25.334 -14.667 -56.001 -44l-64 -20h-40
c-10 -8 -19.333 -12 -28 -12h-12c-24 0 -62.667 6.66699 -116 20c-28 0 -48 16 -60 48c0 16 -2.66699 26.667 -8 32v100l12 36l20 4l12 -16v-20l-8 -8l4 -4v-4l-4 -12c20.667 -42 44.667 -63 72 -63l20 -8h28l12 8h4l12 -8h20l12 8l68 3l12 8l4 -4h4l64 24l12 28v28
c-33.333 80 -69.333 130.667 -108 152l-48 52v4l16 32l-4 4v4c12 25.333 21.333 38.666 28 39.999z" />
    <glyph glyph-name="u0630" unicode="&#x630;" horiz-adv-x="620" arabic-form="isolated" 
d="M444 484l20 0.000976562c6.66699 0 37.334 -28 92.001 -84c21.333 -20 32 -46.667 32 -80c5.33301 0 9.33301 -10.667 12 -32l8 -44l4 -4v-24c0 -14 4 -26 12 -36v-4l-8 -12l8 -8c-14 -43.333 -34 -71.333 -60 -84c-6.66699 0 -25.334 -14.667 -56.001 -44l-64 -20h-40
c-10 -8 -19.333 -12 -28 -12h-12c-24 0 -62.667 6.66699 -116 20c-28 0 -48 16 -60 48c0 16 -2.66699 26.667 -8 32v100l12 36l20 4l12 -16v-20l-8 -8l4 -4v-4l-4 -12c20.667 -42 44.667 -63 72 -63l20 -8h28l12 8h4l12 -8h20l12 8l68 3l12 8l4 -4h4l64 24l12 28v28
c-33.333 80 -69.333 130.667 -108 152l-48 52v4l16 32l-4 4v4c12 25.333 21.333 38.666 28 39.999zM381 685.001c16 0 29.333 -10.667 40 -32c10 -2 19.333 -12.667 28 -32c-14 -24 -31.333 -45.333 -52 -64l-16 -4h-12c-34.667 23.333 -52 43.333 -52 60l-4 4v4
c32.667 28 52.667 49.333 60 64h8z" />
    <glyph glyph-name="u0631" unicode="&#x631;" horiz-adv-x="568" arabic-form="isolated" 
d="M476 356l44 -60.001c4.66699 0 14 -28 28 -84c6 0 11.333 -13.333 16 -40l4 -4v-32l-8 -12v-16l-4 -44l4 -4v-4c0 -20 -13.333 -54.667 -40 -104l4 -4c-4 0 -10.667 -12 -20 -36l-16 -8l4 -4v-4c-26.667 -23.333 -53.334 -56.666 -80.001 -99.999
c-12 0 -28 -13.333 -48 -40c-39.333 -21.333 -70 -34.666 -92 -39.999l-4 -4h-100c-71.333 13.333 -120.666 37.333 -147.999 72h-12v16c0 8 20 12 60 12l40 -4l4 4l28 -4h20c66 0 130 22.667 192 68c8 18.667 28 38.667 60 60c0 7.33301 24 38 72 92
c0 11.333 6.66699 30 20 56v28l-8 12v20c-6.66699 0 -13.334 8 -20.001 24c-7.33301 0 -24.666 16 -51.999 48h-12v40c30 65.333 51.333 98.666 64 99.999z" />
    <glyph glyph-name="u0632" unicode="&#x632;" horiz-adv-x="568" arabic-form="isolated" 
d="M476 356l44 -60.001c4.66699 0 14 -28 28 -84c6 0 11.333 -13.333 16 -40l4 -4v-32l-8 -12v-16l-4 -44l4 -4v-4c0 -20 -13.333 -54.667 -40 -104l4 -4c-4 0 -10.667 -12 -20 -36l-16 -8l4 -4v-4c-26.667 -23.333 -53.334 -56.666 -80.001 -99.999
c-12 0 -28 -13.333 -48 -40c-39.333 -21.333 -70 -34.666 -92 -39.999l-4 -4h-100c-71.333 13.333 -120.666 37.333 -147.999 72h-12v16c0 8 20 12 60 12l40 -4l4 4l28 -4h20c66 0 130 22.667 192 68c8 18.667 28 38.667 60 60c0 7.33301 24 38 72 92
c0 11.333 6.66699 30 20 56v28l-8 12v20c-6.66699 0 -13.334 8 -20.001 24c-7.33301 0 -24.666 16 -51.999 48h-12v40c30 65.333 51.333 98.666 64 99.999zM393 560.999c16 0 29.333 -10.667 40 -32c10 -2 19.333 -12.667 28 -32c-14 -24 -31.333 -45.333 -52 -64l-16 -4
h-12c-34.667 23.333 -52 43.333 -52 60l-4 4v4c32.667 28 52.667 49.333 60 64h8z" />
    <glyph glyph-name="u0633" unicode="&#x633;" horiz-adv-x="1261" arabic-form="isolated" 
d="M1224 292l4.00195 0.00292969c21.333 -7.33301 32 -26 32 -56c-5.33301 -48.667 -16 -87.334 -32 -116.001c-5.33301 0 -13.333 -16 -24 -48c-23.333 -20.667 -50 -36.667 -80 -48h-16l-60 12c-34.667 -18 -52 -34 -52 -48c-20 -21.333 -41.333 -32 -64 -32l-84 16
c-6.66699 0 -13.334 -34.667 -20.001 -104c-13.333 -47.333 -25.333 -80.666 -36 -99.999l-20 -28c0 -12.667 -9.33301 -26 -28 -40c-71.333 -82.667 -130 -124 -176 -124l-8 -8h-12l-112 -8c-146.667 0 -242.667 46.667 -288 140l-24 92l-4 4v24
c0 72 13.333 125.333 40 160c0 16.667 12 34 36 52h12l12 -12c-10 -56 -22 -96 -36 -120c0 -71.333 14.667 -115.333 44 -132c8.66699 -29.333 24.667 -48 48 -56c0 -14.667 53.333 -28 160 -40h12l24 8l12 -4l60 12l12 -4c84.667 23.333 128.667 44.666 132 63.999
c12 0 30.667 18.667 56 56c21.333 37.333 32 82.666 32 135.999c-18 20.667 -34 62 -48 124c22.667 50.667 44 76 64 76c18 -5.33301 38 -21.333 60 -48c28 -10.667 56 -16 84 -16c22 0 48.667 20 80 60c15.333 37.333 28.666 56 39.999 56c12 0 25.333 -21.333 40 -64
l44 -8c16 0 28 21.333 36 64v12l-8 12v8c0 17.333 18.667 42.666 56 75.999z" />
    <glyph glyph-name="u0634" unicode="&#x634;" horiz-adv-x="1261" arabic-form="isolated" 
d="M1224 292l4.00195 0.00292969c21.333 -7.33301 32 -26 32 -56c-5.33301 -48.667 -16 -87.334 -32 -116.001c-5.33301 0 -13.333 -16 -24 -48c-23.333 -20.667 -50 -36.667 -80 -48h-16l-60 12c-34.667 -18 -52 -34 -52 -48c-20 -21.333 -41.333 -32 -64 -32l-84 16
c-6.66699 0 -13.334 -34.667 -20.001 -104c-13.333 -47.333 -25.333 -80.666 -36 -99.999l-20 -28c0 -12.667 -9.33301 -26 -28 -40c-71.333 -82.667 -130 -124 -176 -124l-8 -8h-12l-112 -8c-146.667 0 -242.667 46.667 -288 140l-24 92l-4 4v24
c0 72 13.333 125.333 40 160c0 16.667 12 34 36 52h12l12 -12c-10 -56 -22 -96 -36 -120c0 -71.333 14.667 -115.333 44 -132c8.66699 -29.333 24.667 -48 48 -56c0 -14.667 53.333 -28 160 -40h12l24 8l12 -4l60 12l12 -4c84.667 23.333 128.667 44.666 132 63.999
c12 0 30.667 18.667 56 56c21.333 37.333 32 82.666 32 135.999c-18 20.667 -34 62 -48 124c22.667 50.667 44 76 64 76c18 -5.33301 38 -21.333 60 -48c28 -10.667 56 -16 84 -16c22 0 48.667 20 80 60c15.333 37.333 28.666 56 39.999 56c12 0 25.333 -21.333 40 -64
l44 -8c16 0 28 21.333 36 64v12l-8 12v8c0 17.333 18.667 42.666 56 75.999zM965.002 688.003h4.00098c32 -12 48 -30.667 48 -56c0 -22.667 -17.333 -46.667 -52 -72l-4 -4h-8c-34.667 26.667 -52 48 -52 64v28c29.333 26.667 50.666 40 63.999 40zM881.003 556.003
c37.333 -15.333 56 -36.667 56 -64v-20c-20 -24 -40 -36 -60 -36c-26.667 14 -46.667 27.333 -60 40v16c0 26.667 21.333 48 64 64zM1041 552.002c26.667 -8 48 -25.333 64 -52v-12c-32 -37.333 -53.333 -56 -64 -56c-18 0 -35.333 16 -52 48v12c8 40 25.333 60 52 60z" />
    <glyph glyph-name="u0635" unicode="&#x635;" horiz-adv-x="1365" arabic-form="isolated" 
d="M1203 344c85.333 0 139.998 -43.999 163.998 -131.999c-10 -45.333 -27.333 -77.333 -52 -96c-13.333 -21.333 -26.666 -32 -39.999 -32c-3.33301 -8.66699 -30 -23.334 -80 -44.001c0 -8 -64 -18.667 -192 -32h-8c-59.333 10.667 -112.666 28 -159.999 52h-12l-8 -12
l4 -108c-26 -72 -68.667 -124 -128 -156c-38.667 -42 -100 -72.667 -184 -92c0 -3.33301 -21.333 -6 -64 -8l-40 8l-28 -4c-84.667 14 -139.334 32.667 -164.001 56c-13.333 0 -29.333 14.667 -48 44c-13.333 0 -30.666 34.667 -51.999 104l-4 32
c22.667 128 54.667 192 96 192l16 -12c-13.333 -12.667 -25.333 -54 -36 -124v-4c4 0 9.33301 -17.333 16 -52c21.333 -51.333 57.333 -86 108 -104l32 -12l4 4l80 -8l4 4h4l48 -8c150 0 239.333 52 268 156l4 24c0 53.333 -18.667 109.333 -56 168l-4 20
c4.66699 34.667 20.667 52 48 52h4c16.667 0 39.334 -12 68.001 -36l20 -4c32 0 69.333 18.667 112 56c105.333 58.667 166.666 88 183.999 88l48 16zM882.998 148.001c0 -7.33301 37.332 -17.999 111.999 -31.999l4 4l40 -4c154.667 5.33301 232 25.333 232 60
c0 21.333 -18.667 42.666 -56 63.999l-68 12c-19.333 0 -60.666 -12 -123.999 -36c-91.333 -31.333 -138 -54 -140 -68z" />
    <glyph glyph-name="u0636" unicode="&#x636;" horiz-adv-x="1365" arabic-form="isolated" 
d="M1203 344c85.333 0 139.998 -43.999 163.998 -131.999c-10 -45.333 -27.333 -77.333 -52 -96c-13.333 -21.333 -26.666 -32 -39.999 -32c-3.33301 -8.66699 -30 -23.334 -80 -44.001c0 -8 -64 -18.667 -192 -32h-8c-59.333 10.667 -112.666 28 -159.999 52h-12l-8 -12
l4 -108c-26 -72 -68.667 -124 -128 -156c-38.667 -42 -100 -72.667 -184 -92c0 -3.33301 -21.333 -6 -64 -8l-40 8l-28 -4c-84.667 14 -139.334 32.667 -164.001 56c-13.333 0 -29.333 14.667 -48 44c-13.333 0 -30.666 34.667 -51.999 104l-4 32
c22.667 128 54.667 192 96 192l16 -12c-13.333 -12.667 -25.333 -54 -36 -124v-4c4 0 9.33301 -17.333 16 -52c21.333 -51.333 57.333 -86 108 -104l32 -12l4 4l80 -8l4 4h4l48 -8c150 0 239.333 52 268 156l4 24c0 53.333 -18.667 109.333 -56 168l-4 20
c4.66699 34.667 20.667 52 48 52h4c16.667 0 39.334 -12 68.001 -36l20 -4c32 0 69.333 18.667 112 56c105.333 58.667 166.666 88 183.999 88l48 16zM882.998 148.001c0 -7.33301 37.332 -17.999 111.999 -31.999l4 4l40 -4c154.667 5.33301 232 25.333 232 60
c0 21.333 -18.667 42.666 -56 63.999l-68 12c-19.333 0 -60.666 -12 -123.999 -36c-91.333 -31.333 -138 -54 -140 -68zM1025 648.002c37.333 -20.667 56 -41.999 56 -63.999c5.33301 0 8 -5.33301 8 -16c0 -16.667 -18.667 -39.334 -56 -68.001h-4
c-22.667 0 -46.667 20 -72 60v24c29.333 42.667 52 64 68 64z" />
    <glyph glyph-name="u0637" unicode="&#x637;" horiz-adv-x="961" arabic-form="isolated" 
d="M400 912h12.0029c12 -6.66699 25.333 -26.667 40 -60c10 -8 19.333 -22.667 28 -44l12 -12c-1.33301 -21.333 -12 -32 -32 -32c-5.33301 -10.667 -13.333 -16 -24 -16v-24l44 -216l-4 -4v-4c5.33301 -10.667 9.33301 -50.667 12 -120c-6 -93.333 -12.667 -140 -20 -140
v-12h12l80 64c5.33301 10 40 30 104 60c53.333 34.667 94.666 52 123.999 52l16 -4l4 4h4c46 -8 82 -24 108 -48c23.333 -19.333 36.666 -46 39.999 -80v-16c0 -10 -10.667 -28.667 -32 -56c-30 -53.333 -58 -80 -84 -80c-50.667 -29.333 -118.667 -54.666 -204 -75.999
l-4 4c0 -8.66699 -32 -16.667 -96 -24l-80 -24v4l-60 -16l-20 4h-12l-52 -8l-124 40c0 9.33301 -12 20 -36 32c0 13.333 -10.667 25.333 -32 36l-24 32v4l4 4v4c26.667 0 64 -10.667 112 -32l52 -4h4c7.33301 8 18 12 32 12c59.333 25.333 100.666 62.666 123.999 111.999
c0 78.667 -8 140 -24 184v20l4 4l-4 4v4c0 28 -5.33301 62.667 -16 104l4 4v4l-36 164v120l-4 16c0 22 16 40.667 48 56zM408.003 120l-0.000976562 -4l16 -4c100.667 10 162 22 184 36c24.667 0 76.667 16 156 48c58.667 18.667 88 32 88 40v8
c-11.333 12.667 -35.333 28.667 -72 48l-4 4h-52c-60 -5.33301 -105.333 -21.333 -136 -48c-11.333 0 -32.666 -12 -63.999 -36l-104 -76z" />
    <glyph glyph-name="u0638" unicode="&#x638;" horiz-adv-x="961" arabic-form="isolated" 
d="M400 912h12.0029c12 -6.66699 25.333 -26.667 40 -60c10 -8 19.333 -22.667 28 -44l12 -12c-1.33301 -21.333 -12 -32 -32 -32c-5.33301 -10.667 -13.333 -16 -24 -16v-24l44 -216l-4 -4v-4c5.33301 -10.667 9.33301 -50.667 12 -120c-6 -93.333 -12.667 -140 -20 -140
v-12h12l80 64c5.33301 10 40 30 104 60c53.333 34.667 94.666 52 123.999 52l16 -4l4 4h4c46 -8 82 -24 108 -48c23.333 -19.333 36.666 -46 39.999 -80v-16c0 -10 -10.667 -28.667 -32 -56c-30 -53.333 -58 -80 -84 -80c-50.667 -29.333 -118.667 -54.666 -204 -75.999
l-4 4c0 -8.66699 -32 -16.667 -96 -24l-80 -24v4l-60 -16l-20 4h-12l-52 -8l-124 40c0 9.33301 -12 20 -36 32c0 13.333 -10.667 25.333 -32 36l-24 32v4l4 4v4c26.667 0 64 -10.667 112 -32l52 -4h4c7.33301 8 18 12 32 12c59.333 25.333 100.666 62.666 123.999 111.999
c0 78.667 -8 140 -24 184v20l4 4l-4 4v4c0 28 -5.33301 62.667 -16 104l4 4v4l-36 164v120l-4 16c0 22 16 40.667 48 56zM688.003 740c45.333 -30.667 68.001 -54.667 68.001 -72c-17.333 -34 -37.333 -54 -60 -60l-4 -4c-20.667 0 -43.334 20 -68.001 60v16
c26 40 47.333 60 64 60zM408.004 120l-0.000976562 -4l16 -4c100.667 10 162 22 184 36c24.667 0 76.667 16 156 48c58.667 18.667 88 32 88 40v8c-11.333 12.667 -35.333 28.667 -72 48l-4 4h-52c-60 -5.33301 -105.333 -21.333 -136 -48
c-11.333 0 -32.666 -12 -63.999 -36l-104 -76z" />
    <glyph glyph-name="u0639" unicode="&#x639;" horiz-adv-x="905" arabic-form="isolated" 
d="M416 556l11.998 -4.00195l20 4c58.667 -32 88 -62.667 88 -92l4 -4v-4c-4 -10.667 -8 -16 -12 -16h-20l-40 16c-51.333 -5.33301 -95.333 -17.333 -132 -36c0 -5.33301 -10.667 -10.666 -32 -15.999c0 -10.667 -12 -22.667 -36 -36l-12 -24v-20
c0 -25.333 21.333 -50.666 64 -75.999l80 -16l4 4h4l4 -4h4l32 4l20 -4c20.667 10.667 56.667 22.667 108 36c41.333 37.333 73.333 56 96 56c6.66699 -7.33301 12 -22 16 -44c-14 -48 -31.333 -72 -52 -72c-94 -42.667 -154 -64 -180 -64
c-7.33301 -10.667 -19.333 -16 -36 -16c-22.667 -23.333 -52 -43.333 -88 -60c-37.333 -32 -70.666 -53.333 -99.999 -64c-45.333 -58.667 -68 -92 -68 -100v-12c0 -18 10.667 -36.667 32 -56c9.33301 -31.333 49.333 -60.666 120 -87.999l172 -36
c164.667 0 279.334 20 344.001 60h32c20.667 0 32.667 -5.33301 36 -16v-4c0 -20 -21.333 -41.333 -64 -64c-16 -4 -50.667 -21.333 -104 -52c-67.333 -26.667 -130 -40 -188 -40l-4 4h-4c-16 -5.33301 -40 -8 -72 -8l-104 16c-28 16 -50.667 24 -68 24
c-42 20.667 -88.667 56.667 -140 108c-29.333 24.667 -44 70 -44 136c14 81.333 34 134.666 60 159.999c16.667 24 56.667 57.333 120 100v16c0 5.33301 -20 13.333 -60 24c-32 28 -48 69.333 -48 124c44 117.333 81.333 176 112 176z" />
    <glyph glyph-name="u063A" unicode="&#x63a;" horiz-adv-x="905" arabic-form="isolated" 
d="M416 556l11.998 -4.00195l20 4c58.667 -32 88 -62.667 88 -92l4 -4v-4c-4 -10.667 -8 -16 -12 -16h-20l-40 16c-51.333 -5.33301 -95.333 -17.333 -132 -36c0 -5.33301 -10.667 -10.666 -32 -15.999c0 -10.667 -12 -22.667 -36 -36l-12 -24v-20
c0 -25.333 21.333 -50.666 64 -75.999l80 -16l4 4h4l4 -4h4l32 4l20 -4c20.667 10.667 56.667 22.667 108 36c41.333 37.333 73.333 56 96 56c6.66699 -7.33301 12 -22 16 -44c-14 -48 -31.333 -72 -52 -72c-94 -42.667 -154 -64 -180 -64
c-7.33301 -10.667 -19.333 -16 -36 -16c-22.667 -23.333 -52 -43.333 -88 -60c-37.333 -32 -70.666 -53.333 -99.999 -64c-45.333 -58.667 -68 -92 -68 -100v-12c0 -18 10.667 -36.667 32 -56c9.33301 -31.333 49.333 -60.666 120 -87.999l172 -36
c164.667 0 279.334 20 344.001 60h32c20.667 0 32.667 -5.33301 36 -16v-4c0 -20 -21.333 -41.333 -64 -64c-16 -4 -50.667 -21.333 -104 -52c-67.333 -26.667 -130 -40 -188 -40l-4 4h-4c-16 -5.33301 -40 -8 -72 -8l-104 16c-28 16 -50.667 24 -68 24
c-42 20.667 -88.667 56.667 -140 108c-29.333 24.667 -44 70 -44 136c14 81.333 34 134.666 60 159.999c16.667 24 56.667 57.333 120 100v16c0 5.33301 -20 13.333 -60 24c-32 28 -48 69.333 -48 124c44 117.333 81.333 176 112 176zM331.998 799.998
c20.667 0 35.332 -8 43.999 -24c14 0 22 -20 24 -60l-56 -40c-25.333 0 -50.666 14.667 -75.999 44h4l-4 4v4l4 12l-4 12z" />
    <glyph glyph-name="u0641" unicode="&#x641;" horiz-adv-x="1021" arabic-form="isolated" 
d="M904 912c9.33301 0 26.667 -17.333 52 -52v-4c0 -28.667 -20 -54 -60 -76c-22 0 -44.667 20 -68 60v4c16 45.333 41.333 68 76 68zM900.001 592c40 0 59.998 -16.002 59.998 -48.002c11.333 0 26 -44 44 -132c8 -6 12 -15.333 12 -28v-4l8 -112
c-17.333 -106.667 -41.333 -160 -72 -160c-35.333 -45.333 -72.666 -68 -111.999 -68c0 -18 -88 -36.667 -264 -56l-48 -4l-44 12l-68 -4c-58 0 -126 21.333 -204 64c-53.333 20.667 -80 44.667 -80 72c-13.333 18.667 -20 53.334 -20 104.001l12 52l-4 12l4 4h4l-4 4v4
l4 20l-4 20c4 11.333 10.667 19.333 20 24c14 0 22 -13.333 24 -40l-8 -24v-16c0 -67.333 28 -112.666 84 -135.999c66.667 -29.333 109.334 -44 128.001 -44l104 -12h44l36 4l36 -8l12 4v-4c108 13.333 172 25.333 192 36c32 0 68 16 108 48c29.333 8 52 25.333 68 52v28
l-28 28l-4 -4h-4l-12 4l-52 -8c-64 0 -96 26.667 -96 80l8 16l-4 4v4c0 11.333 22.667 70 68 176c8.66699 24 26 36 52 36zM839.999 415.998l-0.000976562 -4.00098c12.667 -21.333 27.334 -32 44.001 -32l20 4l24 -4c0 5.33301 4 8 12 8c-8 45.333 -28 68 -60 68h-4
c-24 -13.333 -36 -26.666 -36 -39.999z" />
    <glyph glyph-name="u0642" unicode="&#x642;" horiz-adv-x="845" arabic-form="isolated" 
d="M749 720c26 0 50 -26.667 72 -80v-4c-18 -26 -39.333 -43.333 -64 -52h-8c-10.667 0 -32 13.333 -64 40l-4 20c22 50.667 44.667 76 68 76zM569 716h8c50.667 -18 76 -40.667 76 -68v-8c-31.333 -40 -55.333 -60 -72 -60c-18 0 -44.667 20 -80 60v4
c10.667 33.333 28 56 52 68zM681 408c38.667 0 82.668 -38.6709 132.001 -116.004c18.667 -30 28 -58 28 -84l-4 -16c5.33301 -12 8 -29.333 8 -52c0 -25.333 -4 -52 -12 -80l4 -16c-24 -84.667 -52 -139.334 -84 -164.001c-20.667 -37.333 -50 -61.333 -88 -72
c-10.667 -19.333 -52 -40.666 -124 -63.999c-62.667 -18.667 -116 -28 -160 -28c-10.667 0 -16 2.66699 -16 8l-4 -4h-28c-66 0 -124.667 40 -176 120c-12 0 -25.333 32 -40 96c0 36.667 14.667 99.334 44 188.001l24 28h24l8 -8v-4c0 -16 -8 -50.667 -24 -104
c0 -68.667 18.667 -114 56 -136c58.667 -37.333 98.667 -56 120 -56l60 4l28 -4c104.667 19.333 186 54 244 104c42.667 32.667 64 71.334 64 116.001c0 12 -13.333 18.667 -40 20l-24 -4c-62 0 -106 21.333 -132 64c-5.33301 10.667 -9.33301 37.334 -12 80.001
c10.667 38 30.667 84.667 60 140c9.33301 16.667 30.666 31.334 63.999 44.001zM625.001 239.996v-20.001c0 -13.333 32 -29.333 96 -48h24l12 12c0 32.667 -26.667 63.334 -80 92.001h-8c-28 -17.333 -42.667 -29.333 -44 -36z" />
    <glyph glyph-name="u0643" unicode="&#x643;" horiz-adv-x="891" arabic-form="isolated" 
d="M761 900l11.998 0.00195312c22.667 -8.66699 42.667 -32.667 60 -72c24 -27.333 36 -51.333 36 -72l-36 -28l-4 -12l16 -88h-4l28 -196c3.33301 0 6 -10.667 8 -32l-4 -32c5.33301 -16.667 9.33301 -71.334 12 -164.001c0 -61.333 -34.667 -117.333 -104 -168
c-50 -32 -102 -48 -156 -48l-28 4h-120l-4 4l-4 -4h-4l-28 4l-140 -8l-68 12l-24 -8c-77.333 16 -116 26.667 -116 32v28c38 48 66 72 84 72l40 -8l24 4l136 -8h16l4 -4l4 4h4l12 -4l100 8l48 -4l72 3l4 -4h44h32c42 3.33301 71.333 21 88 53
c0.666992 18.667 3.33398 28 8.00098 28l-20 152v28l4 24c-8 17.333 -12 36 -12 56v4l4 4c-10.667 36 -20 97.333 -28 184c-5.33301 0 -10.666 20 -15.999 60h4c-18.667 54.667 -28 98.667 -28 132c0 19.333 14.667 40.666 44 63.999zM496.998 748.002h19.9971
c13.333 0 21.333 -21.333 24 -64c0 -24 -29.333 -45.333 -88 -64l-4 -4v-16c0 -12.667 28 -20.667 84 -24c42.667 -21.333 64 -45.333 64 -72c0 -34.667 -24 -74.667 -72 -120c-19.333 -13.333 -48.666 -24 -87.999 -32l-20 4h-28l-4 4l-4 -4
c-27.333 0 -64.666 18.667 -111.999 56c-10.667 8.66699 -16 22 -16 40l8 8l4 -4h4l16 4c14 -8 39.333 -14.667 76 -20h36l16 4l4 -4h4c26.667 0 49.334 10.667 68.001 32v12c-12.667 10.667 -38 16 -76 16c-29.333 18 -44 48.667 -44 92c14 54 34 88.667 60 104
c14 18 36.667 35.333 68 52z" />
    <glyph glyph-name="u0644" unicode="&#x644;" horiz-adv-x="753" arabic-form="isolated" 
d="M616 824c56 -74.667 84.002 -121.333 84.002 -140c0 -4.66699 -10.667 -16.667 -32 -36c0 -22.667 10.667 -69.334 32 -140.001l44 -348l-8 -40l4 -20c0 -68 -25.333 -137.333 -76 -208c-59.333 -61.333 -106 -92 -140 -92c0 -20 -60 -32 -180 -36l-84 36
c-32 0 -76 45.333 -132 136c-16 36.667 -24 71.334 -24 104.001l4 4v4l-4 4v4c3.33301 21.333 8.66602 32 15.999 32h8c11.333 0 20.666 -26.667 27.999 -80c54.667 -61.333 106.667 -92 156 -92l76 -20l4 4l28 -4c108.667 0 183.334 29.333 224.001 88
c16 49.333 24 85.333 24 108v60l-44 248c-18.667 53.333 -30.667 104 -36 152l-32 152v24c5.33301 40.667 14.666 68.667 27.999 84z" />
    <glyph glyph-name="u0645" unicode="&#x645;" horiz-adv-x="520" arabic-form="isolated" 
d="M336 412c61.333 -36 101.334 -73.333 120.001 -112c40 -28 60 -56 60 -84c0 -8 -21.333 -44 -64 -108l-20 -8l-80 20l-4 -4v-4c-32.667 4 -51.334 9.33301 -56.001 16l-4 -4h-4c-24 2 -36 4.66699 -36 8c-64 -3.33301 -96 -18 -96 -44v-4c16 -76 34.667 -148 56 -216
l8 -44v-4l-4 -4c21.333 -81.333 37.333 -132 48 -152l-4 -4v-4l8 -56v-4c0 -24 -13.333 -41.333 -40 -52c-50.667 22.667 -76 78.667 -76 168c-5.33301 0 -8 13.333 -8 40l-4 12l-4 24c-11.333 0 -22 42.667 -32 128c-18.667 65.333 -30.667 122.666 -36 171.999
c12 54 36 91.333 72 112c21.333 6.66699 40 33.334 56 80.001c0 36 29.333 74.667 88 116zM260.001 268v-12c0 -6 36 -14 108 -24l12 -4l8 8c-36.667 31.333 -68.667 47.333 -96 48h-4c-14 0 -23.333 -5.33301 -28 -16z" />
    <glyph glyph-name="u0646" unicode="&#x646;" horiz-adv-x="853" arabic-form="isolated" 
d="M437 640l31.999 0.000976562c38.667 -26 61.334 -51.333 68.001 -76c0 -34.667 -30.667 -61.334 -92 -80.001h-4l-60 48v36c26 42 44.667 66 56 72zM752.999 500.001c33.333 -30 58.665 -82.001 75.998 -156.001c16 -14 25.333 -72.667 28 -176
c0 -22 -12 -59.333 -36 -112c-25.333 -60 -46.666 -102.667 -63.999 -128c-10 0 -43.333 -30.667 -100 -92l-96 -52l-12 4c-21.333 -13.333 -46.666 -20 -75.999 -20c0 -5.33301 -10.667 -8 -32 -8l-8 -8l-32 4l-48 -4l-116 36c-12 21.333 -34.667 38.666 -68 51.999
c-19.333 19.333 -31.333 39.333 -36 60c-22 0 -38 44 -48 132c0 28.667 17.333 84.667 52 168l48 80c0 5.33301 8 8 24 8l12 -16l-36 -100l-12 -116c14 -50 32.667 -83.333 56 -100c20 -29.333 40 -45.333 60 -48c30 -24 70 -36 120 -36c38 0 116.667 26.667 236 80
c62 44.667 98 87.334 108 128.001c18.667 32.667 28 63.334 28 92.001c-19.333 93.333 -39.333 140 -60 140l-36 52c0 44.667 17.333 90 52 136h16z" />
    <glyph glyph-name="u0647" unicode="&#x647;" horiz-adv-x="476" arabic-form="isolated" 
d="M288 348c74.667 -22 112 -39.334 112 -52.001c50.667 -32 76 -72 76 -120c-26.667 -71.333 -64 -116.666 -112 -135.999c-8.66699 -10.667 -46 -24 -112 -40c-38 -0 -72.667 13.333 -104 40c-12 0 -21.333 21.333 -28 64v28c15.333 63.333 51.333 115.333 108 156
c11.333 34.667 27.333 52 48 52zM204 171.999c28.667 -26 50 -40.666 64 -43.999c58.667 8 88 17.333 88 28v8c0 19.333 -25.333 40.666 -76 63.999c-50.667 0 -76 -18.667 -76 -56z" />
    <glyph glyph-name="u0648" unicode="&#x648;" horiz-adv-x="592" arabic-form="isolated" 
d="M460 428h15.998c38 -14 67.333 -39.333 88 -76c18.667 -45.333 28 -86.666 28 -123.999l-4 -28l4 -16l-4 -16l4 -12c-13.333 -54 -26.666 -95.333 -39.999 -124c-31.333 -74 -74 -144.667 -128 -212l-60 -44c-42.667 -10.667 -68 -20 -76 -28h-28l-32 -4
c-120 18.667 -180 40 -180 64c-12 5.33301 -18.667 10.666 -20 15.999l20 20l32 -4c63.333 2.66699 138 14.667 224 36c52.667 20.667 95.334 48.667 128.001 84c0 7.33301 13.333 23.333 40 48c10.667 16 16 30.667 16 44v12c0 14 -25.333 24.667 -76 32
c-11.333 9.33301 -38 20 -80 32c-18.667 20.667 -28 40.667 -28 60c0 62 34.667 135.333 104 220c18.667 13.333 36 20 52 20zM383.998 260v-4c0 -24 22.667 -46.667 68 -68c34.667 -4 52 -8 52 -12c10.667 4 16 8 16 12v32c0 25.333 -22.667 46.666 -68 63.999l-32 4
c-18 -7.33301 -30 -16.666 -36 -27.999z" />
    <glyph glyph-name="u0649" unicode="&#x649;" horiz-adv-x="1037" arabic-form="isolated" 
d="M909 544c31.333 -8 64.666 -33.334 99.999 -76.001c14.667 -24.667 24 -47.334 28 -68.001c-5.33301 -12 -10.666 -18.667 -15.999 -20h-8c-31.333 12.667 -56.666 26 -75.999 40l-44 12h-20c-27.333 0 -82 -37.333 -164 -112l-44 -84c0 -40.667 45.333 -64.667 136 -72
c104 -34 156 -60.667 156 -80l4 -44c-20 -46.667 -50.667 -86.667 -92 -120c-8.66699 0 -18 -10.667 -28 -32c-8 0 -42.667 -16 -104 -48c-10.667 0 -44 -12 -100 -36l-48 -16l-44 -4l-24 4l-8 -8l-12 4l-84 -8c-21.333 6.66699 -32 12 -32 16l-4 -4h-4
c-51.333 8 -88.666 20 -111.999 36c-61.333 34 -92 67.333 -92 100c-5.33301 6.66699 -12 37.334 -20 92.001v8c0 62 20 123.333 60 184c18 45.333 36.667 73.333 56 84c0.666992 10.667 6 16 16 16c18.667 -8.66699 28 -19.334 28 -32.001
c0 -17.333 -16 -42.666 -48 -75.999l-24 -76v-36l4 -16l-4 -12c10 -44.667 36.667 -88.667 80 -132c49.333 -24 102.666 -36 159.999 -36l28 -4l60 4l4 -4h4c48 0 105.333 16 172 48c30 0 63.333 21.333 100 64l4 4v20c-18 11.333 -56.667 22 -116 32
c-2.66699 4.66699 -38.667 18 -108 40c-24 38 -36 63.333 -36 76c7.33301 60.667 20.666 103.334 39.999 128.001c90 162.667 182 244 276 244z" />
    <glyph glyph-name="u064A" unicode="&#x64a;" horiz-adv-x="1037" arabic-form="isolated" 
d="M909 544c31.333 -8 64.666 -33.334 99.999 -76.001c14.667 -24.667 24 -47.334 28 -68.001c-5.33301 -12 -10.666 -18.667 -15.999 -20h-8c-31.333 12.667 -56.666 26 -75.999 40l-44 12h-20c-27.333 0 -82 -37.333 -164 -112l-44 -84c0 -40.667 45.333 -64.667 136 -72
c104 -34 156 -60.667 156 -80l4 -44c-20 -46.667 -50.667 -86.667 -92 -120c-8.66699 0 -18 -10.667 -28 -32c-8 0 -42.667 -16 -104 -48c-10.667 0 -44 -12 -100 -36l-48 -16l-44 -4l-24 4l-8 -8l-12 4l-84 -8c-21.333 6.66699 -32 12 -32 16l-4 -4h-4
c-51.333 8 -88.666 20 -111.999 36c-61.333 34 -92 67.333 -92 100c-5.33301 6.66699 -12 37.334 -20 92.001v8c0 62 20 123.333 60 184c18 45.333 36.667 73.333 56 84c0.666992 10.667 6 16 16 16c18.667 -8.66699 28 -19.334 28 -32.001
c0 -17.333 -16 -42.666 -48 -75.999l-24 -76v-36l4 -16l-4 -12c10 -44.667 36.667 -88.667 80 -132c49.333 -24 102.666 -36 159.999 -36l28 -4l60 4l4 -4h4c48 0 105.333 16 172 48c30 0 63.333 21.333 100 64l4 4v20c-18 11.333 -56.667 22 -116 32
c-2.66699 4.66699 -38.667 18 -108 40c-24 38 -36 63.333 -36 76c7.33301 60.667 20.666 103.334 39.999 128.001c90 162.667 182 244 276 244z" />
    <glyph glyph-name="u067E" unicode="&#x67e;" horiz-adv-x="1065" arabic-form="isolated" 
d="M496 -162c6.66699 -5.33301 20 -9.33301 40 -12l40 -52v-20c-23.333 -37.333 -43.333 -56 -60 -56c-42 0 -67.333 20 -76 60l-8 8c26.667 40 48 64 64 72zM976 480h16.002c18.667 -7.33301 30.667 -18 36 -32c16 -24.667 24 -40.667 24 -48
c0 -18.667 4 -33.334 12 -44.001v-72l-36 -128c-12.667 -6.66699 -30 -22.667 -52 -48c-9.33301 0 -17.333 -8 -24 -24l-84 -40c0 -10.667 -26.667 -22.667 -80 -36l-44 -24h-40c-8.66699 -8 -36.667 -12 -84 -12l-8 -8h-48l-24 -4l-12 4l-56 -4l-4 4h-4l-4 -4
c-27.333 3.33301 -43.333 7.33301 -48 12h-12c-62 0 -116.667 16 -164 48c-18.667 6.66699 -28 12 -28 16c0 8 -8 12 -24 12l-4 4c-18 0 -31.333 25.333 -40 76l-4 4v56l8 12v36c8 31.333 32 70 72 116l16 12h8c5.33301 0 10.666 -8 15.999 -24
c-10.667 -14.667 -17.334 -36 -20.001 -64l-4 -4l-8 -12l4 -4v-4l-4 -4l4 -4v-4l-4 -4l4 -4v-4l-4 -4l4 -4v-4l-4 -4l44 -68c26.667 -7.33301 40 -16.666 40 -27.999l4 4h4c24 -13.333 42.667 -20 56 -20h36l12 -8h40l12 -8h12l12 8h28l12 -8h4l12 8h76l12 8h28
c30.667 0 66.667 6.66699 108 20v-4l124 44c0 5.33301 6.66699 8 20 8l40 32l36 40h4v20l-8 12v20c-7.33301 0 -19.333 9.33301 -36 28c-11.333 4.66699 -23.333 22 -36 52c10 0 16.667 21.333 20 64c18 29.333 30 44 36 44zM696.002 -162
c6.66699 -5.33301 20 -9.33301 40 -12l40 -52v-20c-23.333 -37.333 -43.333 -56 -60 -56c-42 0 -67.333 20 -76 60l-8 8c26.667 40 48 64 64 72zM596.002 -302c6.66699 -5.33301 20 -9.33301 40 -12l40 -52v-20c-23.333 -37.333 -43.333 -56 -60 -56
c-42 0 -67.333 20 -76 60l-8 8c26.667 40 48 64 64 72z" />
    <glyph glyph-name="u0686" unicode="&#x686;" horiz-adv-x="993" arabic-form="isolated" 
d="M365 340c8.66699 -5.33301 53.999 -9.33301 135.999 -12c0 -5.33301 16 -8 48 -8h20l20 4v-4l4 4l56 -8l52 4h20l24 -4l4 4l68 -12l56 8c16 -5.33301 24 -16 24 -32c0 -33.333 -21.333 -70.666 -64 -111.999h-4l-100 8l-4 -4h-4l-16 4l-16 -4l-4 4h-4
c-116 -10.667 -192 -25.334 -228 -44.001l-104 -48c-10.667 0 -40 -28 -88 -84c-18.667 -38 -28 -72.667 -28 -104c0 -24.667 22.667 -60.667 68 -108c86.667 -48 153.334 -72 200.001 -72c0 -3.33301 12 -6 36 -8l4 4l56 -8c40 0 120 9.33301 240 28c0 5.33301 20 12 60 20
c0 5.33301 14.667 8 44 8c0.666992 5.33301 10 9.33301 28 12c18.667 -11.333 28 -19.333 28 -24c-3.33301 -22.667 -43.333 -53.334 -120 -92.001c-42.667 -35.333 -114.667 -60.666 -216 -75.999c-16.667 0 -28.667 -2.66699 -36 -8l-20 4l-40 -4c-24 2 -36 4.66699 -36 8
l-4 -4c-91.333 16 -160.666 36 -207.999 60c0 6.66699 -8 13.334 -24 20.001c0 6 -29.333 32.667 -88 80l-40 88l-4 40v48c10 61.333 24.667 104 44 128c5.33301 1.33301 25.333 25.333 60 72l48 36l4 -4h4c0 11.333 21.333 24.666 64 39.999v4c0 5.33301 -4 8 -12 8
c-24 -3.33301 -36 -7.33301 -36 -12l-20 4h-16c-49.333 0 -81.333 -13.333 -96 -40l-44 -52h-20l-16 16v28c3.33301 44 27.333 89.333 72 136c7.33301 0 24.666 13.333 51.999 40l24 12h44l16 4l16 -4h4zM459.999 46c6.66699 -5.33301 20 -9.33301 40 -12l40 -52v-20
c-23.333 -37.333 -43.333 -56 -60 -56c-42 0 -67.333 20 -76 60l-8 8c26.667 40 48 64 64 72zM659.999 46c6.66699 -5.33301 20 -9.33301 40 -12l40 -52v-20c-23.333 -37.333 -43.333 -56 -60 -56c-42 0 -67.333 20 -76 60l-8 8c26.667 40 48 64 64 72zM559.999 -94
c6.66699 -5.33301 20 -9.33301 40 -12l40 -52v-20c-23.333 -37.333 -43.333 -56 -60 -56c-42 0 -67.333 20 -76 60l-8 8c26.667 40 48 64 64 72z" />
    <glyph glyph-name="u0698" unicode="&#x698;" horiz-adv-x="568" arabic-form="isolated" 
d="M476 356l44 -60.001c4.66699 0 14 -28 28 -84c6 0 11.333 -13.333 16 -40l4 -4v-32l-8 -12v-16l-4 -44l4 -4v-4c0 -20 -13.333 -54.667 -40 -104l4 -4c-4 0 -10.667 -12 -20 -36l-16 -8l4 -4v-4c-26.667 -23.333 -53.334 -56.666 -80.001 -99.999
c-12 0 -28 -13.333 -48 -40c-39.333 -21.333 -70 -34.666 -92 -39.999l-4 -4h-100c-71.333 13.333 -120.666 37.333 -147.999 72h-12v16c0 8 20 12 60 12l40 -4l4 4l28 -4h20c66 0 130 22.667 192 68c8 18.667 28 38.667 60 60c0 7.33301 24 38 72 92
c0 11.333 6.66699 30 20 56v28l-8 12v20c-6.66699 0 -13.334 8 -20.001 24c-7.33301 0 -24.666 16 -51.999 48h-12v40c30 65.333 51.333 98.666 64 99.999zM263 570.999c16 0 29.333 -10.667 40 -32c10 -2 19.333 -12.667 28 -32c-14 -24 -31.333 -45.333 -52 -64l-16 -4
h-12c-34.667 23.333 -52 43.333 -52 60l-4 4v4c32.667 28 52.667 49.333 60 64h8zM355 710.999c16 0 29.333 -10.667 40 -32c10 -2 19.333 -12.667 28 -32c-14 -24 -31.333 -45.333 -52 -64l-16 -4h-12c-34.667 23.333 -52 43.333 -52 60l-4 4v4
c32.667 28 52.667 49.333 60 64h8zM443 570.999c16 0 29.333 -10.667 40 -32c10 -2 19.333 -12.667 28 -32c-14 -24 -31.333 -45.333 -52 -64l-16 -4h-12c-34.667 23.333 -52 43.333 -52 60l-4 4v4c32.667 28 52.667 49.333 60 64h8z" />
    <glyph glyph-name="u06AF" unicode="&#x6af;" horiz-adv-x="1473" arabic-form="isolated" 
d="M601 660l20 -1.99902c12.667 -7.33301 18.334 -21.333 17.001 -42l-1 -4c-1.33301 -20.667 -26.666 -35.667 -75.999 -45c-19.333 -9.33301 -29.333 -19.333 -30 -30c-1.33301 -14 24 -30.667 76 -50l4 3h4c17.333 -1.33301 34.666 -19 51.999 -53l-2 -27
c-4.66699 -22.667 -25.667 -50.667 -63 -84c-11.333 1.33301 -21.333 -5.66699 -30 -21l-53 -12l-28 6h-44c-3.33301 6 -26.333 18.667 -69 38c-28 18 -41.333 35 -40 51l4 4l44 -4l43 -11l48 -4c70 4.66699 105.667 15 107 31
c1.33301 11.333 -27.334 21.666 -86.001 30.999c-18.667 2 -32.667 24.667 -42 68l4 4v4l-3 12c8.66699 30.667 33 64.667 73 102zM158 399.001h3.99805c15.333 -1.33301 25.333 -43.666 30 -126.999c12.667 -32.667 42 -70 88 -112l4 4l8 -1l4 -4l4 4l8 -1
c-0.666992 -8.66699 41 -22.667 125 -42c42.667 -6.66699 71.667 -10.667 87 -12l165 3l4 -4l4 -1l24 2l5 -32l-8 -50l-1 -4l-30 -21l-16 1c-22 2 -47.667 -1.33301 -77 -10l-39 7l-20 -2c-21.333 3.33301 -32 7 -32 11l-4 -4h-4l-123 15
c-103.333 36.667 -173.666 77.667 -210.999 123c-24.667 55.333 -35 105.666 -31 150.999c16.667 70.667 27.334 106 32.001 106zM1424 1108h3.99902c14.667 0 24 -5.33301 28 -16v-12l-4 -4l4 -12c0 -28 -18.667 -45.333 -56 -52c-11.333 0 -35.333 -8 -72 -24
c-11.333 0 -48.666 -12 -111.999 -36l-124 -48c-70 -16 -128.667 -36 -176 -60l-120 -32h-8l-12 12v28c0 37.333 25.333 56 76 56l96 32c0 5.33301 17.333 12 52 20c40 18.667 92 34.667 156 48c44.667 25.333 112.667 49.333 204 72c8.66699 10 30 19.333 64 28z
M1440 976.001h12.002l20 -20v-12c0 -36 -44 -62.667 -132 -80c-11.333 -9.33301 -67.333 -29.333 -168 -60l-4 -4h-4l-4 4h-4l-248 -96c-42.667 -9.33301 -64 -25.333 -64 -48l108 -100c0 -14.667 20 -38.667 60 -72c0 -9.33301 25.333 -58.666 76 -147.999l8 -68l-4 -44
v-40c-7.33301 -31.333 -23.333 -66 -48 -104c-34 -50 -88.667 -78 -164 -84l-38 3l-30 -3l-24 4l-4 -4h-4c-22 0 -41 2 -57 6l-4 28l3 23l-2 19l1 13c2.66699 10.667 7.66699 16 15 16h32l8 -5l4 4h124c67.333 16 104.666 50.667 111.999 104l4 16
c-4 85.333 -48 165.333 -132 240l-16 12h-20c0 -8.66699 -10.667 -19.334 -32 -32.001h-8c-15.333 0 -27.333 34.667 -36 104c-18.667 10.667 -28 46.667 -28 108v4l28 68c26 20.667 64.667 43.334 116 68.001l4 -4h4c15.333 8 59.333 21.333 132 40l300 108c0 4 12 8 36 12
c9.33301 7.33301 30.666 12.666 63.999 15.999z" />
    <glyph glyph-name="uFB57" unicode="&#x67e;" horiz-adv-x="1105" arabic-form="final" 
d="M228 322l7.99805 -12v-16c-10 -12.667 -19.333 -32.667 -28 -60v-24c0 -55.333 21.333 -91.333 64 -108c0 -18 69.333 -34 208 -48l148 4c197.333 36 296 72 296 108c8 0.666992 22.667 18 44 52l16 12h24c6 0 10 -12 12 -36l-8 -24v-20c0 -22 26.667 -38 80 -48l12 -16
v-30l-4 -4l4 -4v-4c-1.33301 -34.667 -6.66602 -52 -15.999 -52h-12c-74.667 24 -112 42.667 -112 56c-11.333 13.333 -27.333 20 -48 20h-4c-6.66699 0 -40 -21.333 -100 -64c-17.333 0 -49.333 -13.333 -96 -40l-192 -24l-84 8l-16 -4l-108 8c0 6 -18.667 14 -56 24
c-2.66699 13.333 -16 20 -40 20c-37.333 19.333 -70.666 58 -99.999 116l4 52l-4 20c0 29.333 24 71.333 72 126zM415.998 -162c6.66699 -5.33301 20 -9.33301 40 -12l40 -52v-20c-23.333 -37.333 -43.333 -56 -60 -56c-42 0 -67.333 20 -76 60l-8 8c26.667 40 48 64 64 72z
M615.998 -162c6.66699 -5.33301 20 -9.33301 40 -12l40 -52v-20c-23.333 -37.333 -43.333 -56 -60 -56c-42 0 -67.333 20 -76 60l-8 8c26.667 40 48 64 64 72zM515.998 -302c6.66699 -5.33301 20 -9.33301 40 -12l40 -52v-20c-23.333 -37.333 -43.333 -56 -60 -56
c-42 0 -67.333 20 -76 60l-8 8c26.667 40 48 64 64 72z" />
    <glyph glyph-name="uFB58" unicode="&#x67e;" horiz-adv-x="299" arabic-form="initial" 
d="M92 356h16.001l24 -20l-4 -4v-4c34.667 -62.667 52 -132 52 -208c0 -40.667 -32 -79.334 -96 -116.001c-25.333 0 -40 -2.66699 -44 -8c-24.667 10.667 -39.334 21.334 -44.001 32.001l8 12l-8 8v40c0 10.667 30.667 21.334 92 32.001v-4l4 4h4l4 -4
c11.333 4 19.333 10.667 24 20v24l-8 12l4 4c-42.667 14 -64 30 -64 48c-8.66699 3.33301 -16.667 16.666 -24 39.999c7.33301 0 15.333 20 24 60zM36.001 -162c6.66699 -5.33301 20 -9.33301 40 -12l40 -52v-20c-23.333 -37.333 -43.333 -56 -60 -56
c-42 0 -67.333 20 -76 60l-8 8c26.667 40 48 64 64 72zM236.001 -162c6.66699 -5.33301 20 -9.33301 40 -12l40 -52v-20c-23.333 -37.333 -43.333 -56 -60 -56c-42 0 -67.333 20 -76 60l-8 8c26.667 40 48 64 64 72zM136.001 -302c6.66699 -5.33301 20 -9.33301 40 -12
l40 -52v-20c-23.333 -37.333 -43.333 -56 -60 -56c-42 0 -67.333 20 -76 60l-8 8c26.667 40 48 64 64 72z" />
    <glyph glyph-name="uFB59" unicode="&#x67e;" horiz-adv-x="380" arabic-form="medial" 
d="M80 -162c6.66699 -5.33301 20 -9.33301 40 -12l40 -52v-20c-23.333 -37.333 -43.333 -56 -60 -56c-42 0 -67.333 20 -76 60l-8 8c26.667 40 48 64 64 72zM280 -162c6.66699 -5.33301 20 -9.33301 40 -12l40 -52v-20c-23.333 -37.333 -43.333 -56 -60 -56
c-42 0 -67.333 20 -76 60l-8 8c26.667 40 48 64 64 72zM180 -302c6.66699 -5.33301 20 -9.33301 40 -12l40 -52v-20c-23.333 -37.333 -43.333 -56 -60 -56c-42 0 -67.333 20 -76 60l-8 8c26.667 40 48 64 64 72zM229 241c8 -2.66699 12.002 -10.667 12.002 -24l-4 -44
c0 -48 44 -72 132 -72l8 -32v-44c1.33301 -18.667 -3.33398 -28 -14.001 -28h-46c-44.667 12.667 -84.667 36.667 -120 72l-32 4v-4c-32.667 -40 -67.334 -61.667 -104.001 -65l-53 -2c-4.66699 7.33301 -7 17.333 -7 30v56l6 15h33l48 9c33.333 22.667 56.333 47 69 73
c4 0 18.667 18.667 44 56h28z" />
    <glyph glyph-name="uFB7B" unicode="&#x686;" horiz-adv-x="993" arabic-form="final" 
d="M336 306h40.002l12 -8l140 -4l8 -8h8l12 8h160l12 -8h24l12 8h108l24 -20c0 -12.667 -6.66699 -34 -20 -64c0 -28 -18.667 -44 -56 -48l-4 -4h-48l-20 -20v-12c6 -10 16.667 -19.333 32 -28h148l12 8h12c22 0 35.333 -9.33301 40 -28v-48c0 -19.333 -4 -30 -12 -32h-16
l-8 8c-6 -4.66699 -24.667 -8.66699 -56 -12c-24 3.33301 -36 7.33301 -36 12l-24 -8h-32l-12 -8h-60c-4.66699 4.66699 -20.667 8.66699 -48 12l-28 32v48l8 8l-4 4v4c16.667 24.667 28.667 48.667 36 72h-4c-32.667 -2.66699 -51.334 -6.66699 -56.001 -12h-36l-12 -8v4
l-4 -4h-4l-4 4l-4 -4h-4l-4 4h-4c0 -6.66699 -26.667 -14.667 -80 -24l-4 -4l-44 -24c-8 0 -18.667 -6.66699 -32 -20c-6 0 -23.333 -10.667 -52 -32c-28.667 -4.66699 -59.334 -36.667 -92.001 -96l-8 -16l-4 -84c6 -37.333 15.333 -56 28 -56
c57.333 -77.333 172 -116 344 -116l120 4l28 16l4 -4l12 4c43.333 0 83.333 8 120 24l48 12c14 0 26 -8 36 -24v-20c-13.333 -19.333 -41.333 -39.333 -84 -60c0 -8 -2.66699 -12 -8 -12l-4 4c0 -5.33301 -10.667 -8 -32 -8c-28.667 -19.333 -66 -35.333 -112 -48
c-21.333 -10.667 -60 -16 -116 -16h-16l-12 -8h-56c-4.66699 5.33301 -34 12 -88 20l-68 24c0 4.66699 -9.33301 8.66699 -28 12c0 8 -24 22.667 -72 44c-53.333 54.667 -86.666 108 -99.999 160l-4 4v4l-4 88c17.333 72 48 130.667 92 176c29.333 24 73.333 53.333 132 88
v12h-32l-12 8h-20c-38.667 -13.333 -69.334 -21.333 -92.001 -24c-23.333 -14.667 -47.333 -40 -72 -76l-4 -4h-20l-20 16l4 4v8l-4 20l64 120c26 32 59.333 48 100 48h24zM412.002 18c6.66699 -5.33301 20 -9.33301 40 -12l40 -52v-20c-23.333 -37.333 -43.333 -56 -60 -56
c-42 0 -67.333 20 -76 60l-8 8c26.667 40 48 64 64 72zM612.002 18c6.66699 -5.33301 20 -9.33301 40 -12l40 -52v-20c-23.333 -37.333 -43.333 -56 -60 -56c-42 0 -67.333 20 -76 60l-8 8c26.667 40 48 64 64 72zM512.002 -122c6.66699 -5.33301 20 -9.33301 40 -12l40 -52
v-20c-23.333 -37.333 -43.333 -56 -60 -56c-42 0 -67.333 20 -76 60l-8 8c26.667 40 48 64 64 72z" />
    <glyph glyph-name="uFB7C" unicode="&#x686;" horiz-adv-x="793" arabic-form="initial" 
d="M144 388l48.0029 0.000976562c4 -5.33301 18.667 -8 44 -8l84 -32l44 -12l4 -4v-4l4 4h4l160 -60h36c6.66699 -5.33301 36 -13.333 88 -24c28.667 2 46 6 52 12h28l16 4l32 -16c0 -20 -17.333 -44 -52 -72l-36 -40h-4l-4 4l-4 -4h-8l-4 4l-4 -4h-4l-4 4h-4l-4 -4l-56 8
h-76l-44 -8h-8l-4 4h-4l-108 -56c0 -6.66699 -17.333 -13.334 -52 -20.001l-96 -44v4l-4 -4h-4l-4 4c-11.333 -9.33301 -42 -17.333 -92 -24l-4 -4h-32c-47.333 0 -71 4.33301 -71 13l-1 59c-2.66699 26 2.66602 37.333 15.999 34l12 -6l8 8l4 -4h4l12 4l4 -4l16 4l24 -4
l60 4h16c22 6 58 23.333 108 52c19.333 0 55.333 14.667 108 44l4 4v4c-32 10 -53.333 19.333 -64 28h-44c-12.667 10.667 -46 22.667 -100 36l-40 16l-4 -4h-4l-4 4h-4l-56 -24c-16.667 -32 -27.334 -48 -32.001 -48h-4c-14 0 -22 4 -24 12v32l44 84
c27.333 21.333 44.666 32 51.999 32c12 0 24 4 36 12zM272.003 -53.999c6.66699 -5.33301 20 -9.33301 40 -12l40 -52v-20c-23.333 -37.333 -43.333 -56 -60 -56c-42 0 -67.333 20 -76 60l-8 8c26.667 40 48 64 64 72zM472.003 -53.999c6.66699 -5.33301 20 -9.33301 40 -12
l40 -52v-20c-23.333 -37.333 -43.333 -56 -60 -56c-42 0 -67.333 20 -76 60l-8 8c26.667 40 48 64 64 72zM372.003 -193.999c6.66699 -5.33301 20 -9.33301 40 -12l40 -52v-20c-23.333 -37.333 -43.333 -56 -60 -56c-42 0 -67.333 20 -76 60l-8 8c26.667 40 48 64 64 72z
" />
    <glyph glyph-name="uFB7D" unicode="&#x686;" horiz-adv-x="837" arabic-form="medial" 
d="M264 392l131.998 -43.998c14.667 0 41.334 -6.66699 80.001 -20c47.333 -16 80.666 -24 99.999 -24h48l12 -8h72l12 8h84l12 -12v-24c-18.667 -40 -44 -60 -76 -60l-48 -16l-4 4l-32 -28v-28l24 -35l55 -2l41 -3l30 2c18 -2.66699 26.667 -14 26 -34v-48l-16 -20h-28
l-88 -4v4l-4 -4h-16c-39.333 13.333 -66 38.666 -80 75.999l-8 24c4.66699 0 8.66699 6.66699 12 20l-4 20l4 24l-4 4h-32c-17.333 -10.667 -46.666 -18.667 -87.999 -24c-17.333 -22 -62.666 -44.667 -135.999 -68c-38.667 -21.333 -65.334 -32 -80.001 -32
c-11.333 -12.667 -50 -23.334 -116 -32.001l-20 -5l-24 -3c-72.667 -4 -106 0.666992 -100 14l-4 30c6 0 6.66699 14.333 2 43l9 16h48l16 -4c16.667 4 50.334 8.33301 101.001 13l12 4l8 -8c44 13.333 110.667 40 200 80c37.333 12 56 22.667 56 32
c0 17.333 -26.667 29.333 -80 36l-96 28l-16 -4l-40 12h-36c-32.667 -12.667 -54 -24.667 -64 -36l-8 -8c-5.33301 0 -8 -4 -8 -12l-24 -8h-4v16l16 32l-4 4v4c36.667 59.333 70 94 100 104h52zM355.998 -73.998c6.66699 -5.33301 20 -9.33301 40 -12l40 -52v-20
c-23.333 -37.333 -43.333 -56 -60 -56c-42 0 -67.333 20 -76 60l-8 8c26.667 40 48 64 64 72zM555.998 -73.998c6.66699 -5.33301 20 -9.33301 40 -12l40 -52v-20c-23.333 -37.333 -43.333 -56 -60 -56c-42 0 -67.333 20 -76 60l-8 8c26.667 40 48 64 64 72z
M455.998 -213.998c6.66699 -5.33301 20 -9.33301 40 -12l40 -52v-20c-23.333 -37.333 -43.333 -56 -60 -56c-42 0 -67.333 20 -76 60l-8 8c26.667 40 48 64 64 72z" />
    <glyph glyph-name="uFB8B" unicode="&#x698;" horiz-adv-x="624" arabic-form="final" 
d="M500 168l44.001 0.00195312c27.333 -34.667 50 -53.334 68 -56.001c8 -22 12 -43.333 12 -64v-8c0 -20.667 -8 -35.334 -24 -44.001h-4l-24 16h-4c-8 0 -12 -17.333 -12 -52l-4 -28v-24c-8 -35.333 -28 -78 -60 -128c-62.667 -70 -104 -107.333 -124 -112
c0 -8.66699 -34.667 -27.334 -104 -56.001l-28 4h-32c-4.66699 5.33301 -26 12.333 -64 21c0 4 -26 17.333 -78 40c0 4.66699 -28.333 30.667 -85 78v32l12 12h28c33.333 -38.667 73 -62 119 -70c73.333 0.666992 137.666 13.667 192.999 39
c46 18.667 97.667 65.334 155 140.001c24 51.333 36 95.333 36 132l-16 20c-21.333 11.333 -32 27.333 -32 48c0 26 9.33301 46 28 60zM331.001 403.002c16 0 29.333 -10.667 40 -32c10 -2 19.333 -12.667 28 -32c-14 -24 -31.333 -45.333 -52 -64l-16 -4h-12
c-34.667 23.333 -52 43.333 -52 60l-4 4v4c32.667 28 52.667 49.333 60 64h8zM423.001 543.002c16 0 29.333 -10.667 40 -32c10 -2 19.333 -12.667 28 -32c-14 -24 -31.333 -45.333 -52 -64l-16 -4h-12c-34.667 23.333 -52 43.333 -52 60l-4 4v4
c32.667 28 52.667 49.333 60 64h8zM511.001 403.002c16 0 29.333 -10.667 40 -32c10 -2 19.333 -12.667 28 -32c-14 -24 -31.333 -45.333 -52 -64l-16 -4h-12c-34.667 23.333 -52 43.333 -52 60l-4 4v4c32.667 28 52.667 49.333 60 64h8z" />
    <glyph glyph-name="uFEDA" unicode="&#x6a9;" horiz-adv-x="1177" arabic-form="final" 
d="M936 880l23.999 -0.00292969c10.667 0 18.667 -18.667 24 -56l4 -4v-44l8 -68l-4 -4v-4l4 -16l-4 -32l20 -216l-4 -48l4 -12l-4 -16v-8l20 -88l-4 -20c10.667 -80 35.334 -125.667 74.001 -137h56l24 -20v-4l-4 -16l2 -27c-2 -24 -12.667 -36 -32 -36v-4
c-38.667 0 -72 10.667 -100 32c-32.667 0 -62 26.667 -88 80l-16 92h-24l-92 -72c-6 0 -31.333 -16 -76 -48c-31.333 -13.333 -75.333 -25.333 -132 -36l-12 4c0 -7.33301 -16 -14 -48 -20h-40l-16 4l-40 -8l-72 4h-20l-24 8l-4 -4h-4l-112 32
c-4.66699 7.33301 -24.667 18 -60 32c0 15.333 -12 32.666 -36 51.999c-12.667 36.667 -22 75.334 -28 116.001c1.33301 38 20 91.333 56 160c17.333 27.333 32 43.333 44 48h16l12 -12v-12c-32 -71.333 -48 -114 -48 -128l-8 -60c23.333 -59.333 54 -95.666 92 -108.999
c33.333 -16 64 -24 92 -24l24 4l24 -8l20 4h12l36 -8l68 12v-4l4 4h12l60 -4c0 6 44 18 132 36l112 77c37.333 16.667 59.333 39.334 66 68.001v64l-4 20l4 24l-4 84l4 60l-8 36l4 20l-8 52l4 36v24l-4 104c4 24.667 11.333 39.334 22 44.001zM599.999 783.997
c24 -3.33301 36.001 -15.332 36.001 -35.999c0 -25.333 -21.333 -45.333 -64 -60l-8 -12v-8c0 -21.333 25.333 -32 76 -32c34.667 -15.333 56 -34 64 -56c0 -54 -25.333 -95.333 -76 -124h-8c-14 -26.667 -42 -40 -84 -40c-73.333 21.333 -120 38.666 -140 51.999l-12 16v4
l12 16l40 -4l28 4l36 -4h40c23.333 0 44.666 10.667 63.999 32v8c-74.667 16 -112 37.333 -112 64l-4 4v4c0 69.333 24 117.333 72 144c12 18.667 25.333 28 40 28z" />
    <glyph glyph-name="uFEDB" unicode="&#x6a9;" horiz-adv-x="729" arabic-form="initial" 
d="M704 1000c16.667 0 29.998 -7.99805 39.998 -23.998v-40c-24.667 -32 -46 -48 -64 -48c-11.333 0 -43.333 -12 -96 -36c-15.333 0 -32.666 -8 -51.999 -24l-160 -52c-6.66699 -8 -18.667 -12 -36 -12c-6 -6.66699 -66 -32 -180 -76c-16 -9.33301 -24 -21.333 -24 -36
c6 -26.667 19.333 -40 40 -40c74.667 -73.333 122.667 -129.333 144 -168c36 -32 62.667 -98.667 80 -200v-8c-16 -90.667 -33.333 -136 -52 -136c0 -23.333 -48 -48.666 -144 -75.999c-32 -2.66699 -58.667 -9.33398 -80 -20.001l-32 4l-24 -8h-32
c-21.333 0 -32 17.333 -32 52c4 34.667 9.33301 52 16 52h36l76 8l12 -4l48 8l12 -4c61.333 19.333 92 32.666 92 39.999c26 26 39.333 43.333 40 52c0 60 -34.667 130.667 -104 212c-22 40 -46 60 -72 60l-20 -12h-16c-5.33301 0 -14.666 18.667 -27.999 56
c-6 0 -15.333 25.333 -28 76l-4 4v24l-8 48h4l-4 4v12c0 35.333 17.333 60.666 52 75.999c14.667 12.667 52 26 112 40c15.333 15.333 70 38 164 68c16.667 14.667 52.667 30.667 108 48z" />
    <glyph glyph-name="uFEDC" unicode="&#x6a9;" horiz-adv-x="789" arabic-form="medial" 
d="M728 1020c24 0 31.9971 -25.335 23.9971 -76.002c-19.333 -14 -62 -35.333 -128 -64l-188 -68c-42 -26 -106 -50 -192 -72c-16.667 -15.333 -54 -34 -112 -56c-10.667 -1.33301 -16 -5.33301 -16 -12v-4c0 -17.333 26.667 -58.666 80 -123.999
c18.667 -31.333 53.334 -72.666 104.001 -123.999l80 -112c12 -0.666992 48 -36.667 108 -108c78.667 -56 141.334 -84 188.001 -84l12 -4h16c50.667 0 76 -6.66699 76 -20l4 -28v-32c-1.33301 -21.333 -12 -32 -32 -32l-64 12l-48 -8l-112 32c-22 22.667 -48.667 40 -80 52
c-25.333 23.333 -46.666 48.666 -63.999 75.999c-7.33301 0 -32.666 29.333 -75.999 88h-4c-11.333 0 -18 -30.667 -20 -92l-28 -60c-60 -58.667 -97.333 -88 -112 -88l-116 -16c-16.667 5.33301 -26 12 -28 20v16c0 51.333 9.33301 77 28 77h8l4 -4l4 4h8l4 -4l4 4h72
c31.333 4.66699 60.666 28.334 87.999 71.001l38 100c-52.667 92.667 -86 143.334 -100 152.001c-74.667 71.333 -112 132.666 -112 183.999v12c0 60 27.333 113.333 82 160c12.667 0 52.667 16 120 48c20.667 2 40.667 10 60 24h4l4 -4h4
c1.33301 5.33301 21.333 13.333 60 24l136 56c0 4 36 21.333 108 52c50 21.333 84.667 32 104 32z" />
    <glyph glyph-name="uFB93" unicode="&#x6af;" horiz-adv-x="1541" arabic-form="final" 
d="M601 660l20 -1.99902c12.667 -7.33301 18.334 -21.333 17.001 -42l-1 -4c-1.33301 -20.667 -26.666 -35.667 -75.999 -45c-19.333 -9.33301 -29.333 -19.333 -30 -30c-1.33301 -14 24 -30.667 76 -50l4 3h4c17.333 -1.33301 34.666 -19 51.999 -53l-2 -27
c-4.66699 -22.667 -25.667 -50.667 -63 -84c-11.333 1.33301 -21.333 -5.66699 -30 -21l-53 -12l-28 6h-44c-3.33301 6 -26.333 18.667 -69 38c-28 18 -41.333 35 -40 51l4 4l44 -4l43 -11l48 -4c70 4.66699 105.667 15 107 31
c1.33301 11.333 -27.334 21.666 -86.001 30.999c-18.667 2 -32.667 24.667 -42 68l4 4v4l-3 12c8.66699 30.667 33 64.667 73 102zM158 399.001h3.99805c15.333 -1.33301 25.333 -43.666 30 -126.999c12.667 -32.667 42 -70 88 -112l4 4l8 -1l4 -4l4 4l8 -1
c-0.666992 -8.66699 41 -22.667 125 -42c42.667 -6.66699 71.667 -10.667 87 -12l165 3l4 -4l4 -1l24 2l5 -32l-8 -50l-1 -4l-30 -21l-16 1c-22 2 -47.667 -1.33301 -77 -10l-39 7l-20 -2c-21.333 3.33301 -32 7 -32 11l-4 -4h-4l-123 15
c-103.333 36.667 -173.666 77.667 -210.999 123c-24.667 55.333 -35 105.666 -31 150.999c16.667 70.667 27.334 106 32.001 106zM1444 1136l11.999 0.00292969c13.333 -6.66699 20 -17.334 20 -32.001v-16c0 -20.667 -42.667 -43.334 -128 -68.001l-104 -40
c-7.33301 -10.667 -16.666 -16 -27.999 -16l-4 4h-4l-60 -24c-28 -18 -106.667 -51.333 -236 -100l-80 -24c-10.667 0 -21.334 8 -32.001 24c0 41.333 20 68 60 80c50 21.333 92.667 34.666 128 39.999c40.667 17.333 71.334 33.333 92.001 48l4 -4h4
c49.333 13.333 84 25.333 104 36l92 32l104 44zM1452 996.004l0.00488281 -3.99902l4 4h4c18.667 -8 28 -20 28 -36c-4 0 -9.33301 -9.33301 -16 -28c-86 -42 -142 -63.333 -168 -64c-60 -37.333 -130.667 -66.666 -212 -87.999c0 -8 -10.667 -13.333 -32 -16l-4 4
c0 -14 -33.333 -28.667 -100 -44c-61.333 -29.333 -92 -50.666 -92 -63.999c8 -24.667 32 -52.667 72 -84c0 -15.333 20 -48.666 60 -99.999l80 -88c28 -28.667 56 -63.334 84 -104.001l92 -96l68 -60l44 -13l38 -7l38 1l32 -4l24 -1h12
c23.333 0 36.666 -5.66699 39.999 -17v-47v-16c-6.66699 -13.333 -17.334 -20 -32.001 -20h-4l-52 -4l-80 12c0 7.33301 -30.667 16.666 -92 27.999c-48 28 -86.667 60 -116 96c-9.33301 0 -24 13.333 -44 40c-11.333 0 -31.333 26.667 -60 80l-48 40l2 -34l-2 -37l-8 -49
c0 -31.333 -25.333 -74 -76 -128c-48.667 -29.333 -83.334 -44 -104.001 -44l-16 4l-8 -8l-12 4l-4 -4l-20 4h-28l-24 28v30l4 4l-4 4v20c8 9.33301 16 14 24 14l76 6c85.333 18 128 38.667 128 62c24 41.333 36 66.666 36 75.999c0 26 -18.667 74 -56 144
c-4.66699 24 -14 36 -28 36c0 6.66699 -14.667 22.667 -44 48c-8.66699 20 -27.334 42.667 -56.001 68l-28 96c0 29.333 26.667 68 80 116c11.333 12 40.666 24 87.999 36c44.667 24 128.667 58.667 252 104c32.667 16 66 28 100 36c30 20.667 64.667 36.667 104 48
c0 5.33301 18.667 10.666 56 15.999z" />
    <glyph glyph-name="uFB94" unicode="&#x6af;" horiz-adv-x="745" arabic-form="initial" 
d="M704 1108h3.99902c14.667 0 24 -5.33301 28 -16v-12l-4 -4l4 -12c0 -28 -18.667 -45.333 -56 -52c-12 0 -36 -8 -72 -24c-11.333 0 -48.666 -12 -111.999 -36l-124 -48c-70 -16 -128.667 -36 -176 -60l-120 -32h-8l-12 12v28c0 37.333 25.333 56 76 56l96 32
c0 5.33301 17.333 12 52 20c40 18.667 92 34.667 156 48c44.667 25.333 112.667 49.333 204 72c8.66699 10 30 19.333 64 28zM719.999 976h12.002l20 -20v-12c0 -36 -44 -62.667 -132 -80c-11.333 -9.33301 -67.333 -29.333 -168 -60l-4 -4h-4l-4 4h-4l-248 -96
c-42.667 -9.33301 -64 -25.333 -64 -48l108 -100c0 -14.667 20 -38.667 60 -72c0 -9.33301 25.333 -58.666 76 -147.999l8 -68l-4 -44v-40c-7.33301 -31.333 -23.333 -66 -48 -104c-34.667 -50 -89.334 -78 -164.001 -84l-38 3l-30 -3l-24 4l-4 -4h-4c-22 0 -41 2 -57 6
l-4 28l3 23l-2 19l1 13c2.66699 10.667 7.66699 16 15 16h32l8 -5l4 4h124c67.333 16 104.666 50.667 111.999 104l4 16c-4 85.333 -48 165.333 -132 240l-16 12h-20c0 -8.66699 -10.667 -19.334 -32 -32.001h-8c-15.333 0 -27.333 34.667 -36 104
c-18.667 10.667 -28 46.667 -28 108v4l28 68c25.333 20.667 64 43.334 116 68.001l4 -4h4c15.333 8 59.333 21.333 132 40l300 108c0 4 12 8 36 12c8.66699 7.33301 30 12.666 64 15.999z" />
    <glyph glyph-name="uFB95" unicode="&#x6af;" horiz-adv-x="827" arabic-form="medial" 
d="M724 1136l11.999 0.00292969c13.333 -6.66699 20 -17.334 20 -32.001v-16c0 -20.667 -42.667 -43.334 -128 -68.001l-104 -40c-7.33301 -10.667 -16.666 -16 -27.999 -16l-4 4h-4l-60 -24c-28.667 -18 -107.334 -51.333 -236.001 -100l-80 -24
c-10.667 0 -21.334 8 -32.001 24c0 41.333 20 68 60 80c50 21.333 92.667 34.666 128 39.999c40.667 17.333 71.334 33.333 92.001 48l4 -4h4c48.667 13.333 83.334 25.333 104.001 36l92 32l104 44zM731.999 996.003l0.00585938 -3.99902l4 4h4c18.667 -8 28 -20 28 -36
c-4 0 -9.33301 -9.33301 -16 -28c-86 -42 -142 -63.333 -168 -64c-60 -37.333 -130.667 -66.666 -212 -87.999c0 -8 -10.667 -13.333 -32 -16l-4 4c0 -14 -33.333 -28.667 -100 -44c-61.333 -29.333 -92 -50.666 -92 -63.999c8 -24.667 32 -52.667 72 -84
c0 -15.333 20 -48.666 60 -99.999l80 -88c28 -28.667 56 -63.334 84 -104.001l92 -96l68 -60l44 -13l38 -7l38 1l32 -4l24 -1h12c23.333 0 36.666 -5.66699 39.999 -17v-47v-16c-6.66699 -13.333 -17.334 -20 -32.001 -20h-4l-52 -4l-80 12
c0 7.33301 -30.667 16.666 -92 27.999c-48.667 28 -87.334 60 -116.001 96c-9.33301 0 -24 13.333 -44 40c-11.333 0 -31.333 26.667 -60 80l-48 40l2 -34l-2 -37l-8 -49c0 -31.333 -25.333 -74 -76 -128c-48.667 -29.333 -83.334 -44 -104.001 -44l-16 4l-8 -8l-12 4l-4 -4
l-20 4h-28l-24 28v30l4 4l-4 4v20c8 9.33301 16 14 24 14l76 6c85.333 18 128 38.667 128 62c24 41.333 36 66.666 36 75.999c0 26 -18.667 74 -56 144c-4.66699 24 -14 36 -28 36c0 6.66699 -14.667 22.667 -44 48c-8.66699 20 -27.334 42.667 -56.001 68l-28 96
c0 29.333 26.667 68 80 116c11.333 12 40.666 24 87.999 36c44.667 24 128.667 58.667 252 104c32 16 65.333 28 100 36c29.333 20.667 64 36.667 104 48c0 5.33301 18.667 10.666 56 15.999z" />
    <glyph glyph-name="uFE94" unicode="&#x6c0;" horiz-adv-x="552" arabic-form="final" 
d="M280 1020c45.333 -8 68 -30.668 68 -68.001c0 -27.333 -10.667 -50 -32 -68h-16c-32.667 42.667 -55.334 64 -68.001 64h-4c-16 -8 -24 -20 -24 -36c0 -37.333 32 -61.333 96 -72h32l60 20h8c21.333 -3.33301 32 -11.333 32 -24c0 -20.667 -24 -42 -72 -64
c-31.333 -22 -68.666 -39.333 -111.999 -52l-64 -36c-19.333 0 -30 4 -32 12v8c0 18 24 40.667 72 68v4c-0.666992 9.33301 -22 20 -64 32c-18.667 16 -28 29.333 -28 40l-4 52v4c0 38.667 29.333 73.334 88 104.001zM312 531.999c16.667 0 30.001 -13.332 40.001 -39.999
l-4 -4v-4l8 -40h-4c13.333 -98.667 24 -148 32 -148c47.333 -112 84.666 -168 111.999 -168c0.666992 -6.66699 18 -14.667 52 -24l8 -72c0 -16.667 -6.66699 -28.667 -20 -36c-87.333 27.333 -144.666 64.666 -171.999 111.999c0 8 -4 12 -12 12
c-46.667 -32 -77.334 -48 -92.001 -48h-8c-117.333 32.667 -176 68.667 -176 108c0 35.333 24 70 72 104l84 92c16 0 30.667 40 44 120c4 0 12 10.667 24 32l4 4h8zM184.001 232c0 -19.333 25.333 -38 76 -56l16 4l28 -4c16 2.66699 24 6.66699 24 12v20
c-18.667 62.667 -28 102.667 -28 120l-16 12h-4c-18.667 0 -38.667 -20 -60 -60c-24 -13.333 -36 -29.333 -36 -48z" />
    <glyph glyph-name="uFEF2" unicode="&#x6cc;" horiz-adv-x="917" arabic-form="final" 
d="M852 103l41 -1.99805c14.667 0 22.667 -7 24 -21v-20l-4 -36l4 -4v-4c-2.66699 -14 -12 -21.667 -28 -23c-20.667 1.33301 -48.667 1 -84 -1l-4 -4h-4l-16 4l-16 -4l-4 4h-4l-36 -4v4c-40 -4.66699 -60 -15.334 -60 -32.001l-4 -16l24 -8h8l20 4
c91.333 0 146 -16 164 -48c0 -5.33301 4 -8 12 -8l4 -4v-40c0 -48 -26.667 -84 -80 -108c-12.667 -14 -48.667 -34 -108 -60c-66.667 -29.333 -110.667 -44 -132 -44l-100 -28l-24 4l-28 -8l-4 4h-4l-12 -4v4l-4 -4h-4c-15.333 0 -67.333 14.667 -156 44
c0 6.66699 -6.66699 10.667 -20 12c-64 51.333 -96 96.666 -96 135.999v92c0 29.333 13.333 72 40 128c0 13.333 13.333 28 40 44h8l16 -16v-16l-32 -108v-16c18 -80 43.333 -120 76 -120c8.66699 -16 46 -34.667 112 -56l4 -4h16l52 -8l16 4l4 -4l20 4h40
c66 9.33301 143.333 32 232 68c1.33301 6 18.666 18 51.999 36v8l-12 12l-32 -8c-21.333 2 -32 4.66699 -32 8l-32 -8h-12c-93.333 0 -140 13.333 -140 40l-4 16c0 27.333 16 62 48 104c40.667 35.333 75.334 60.666 104.001 75.999c0 8.66699 24.667 19.334 74 32.001
c27.333 4.66699 53 7 77 7z" />
    <glyph glyph-name="uFEF3" unicode="&#x6cc;" horiz-adv-x="299" arabic-form="initial" 
d="M92 356h16.001l24 -20l-4 -4v-4c34.667 -62.667 52 -132 52 -208c0 -40.667 -32 -79.334 -96 -116.001c-25.333 0 -40 -2.66699 -44 -8c-24.667 10.667 -39.334 21.334 -44.001 32.001l8 12l-8 8v40c0 10.667 30.667 21.334 92 32.001v-4l4 4h4l4 -4
c11.333 4 19.333 10.667 24 20v24l-8 12l4 4c-42.667 14 -64 30 -64 48c-8.66699 3.33301 -16.667 16.666 -24 39.999c7.33301 0 15.333 20 24 60zM36.001 -212c6.66699 -5.33301 20 -9.33301 40 -12l40 -52v-20c-23.333 -37.333 -43.333 -56 -60 -56
c-42 0 -67.333 20 -76 60l-8 8c26.667 40 48 64 64 72zM236.001 -212c6.66699 -5.33301 20 -9.33301 40 -12l40 -52v-20c-23.333 -37.333 -43.333 -56 -60 -56c-42 0 -67.333 20 -76 60l-8 8c26.667 40 48 64 64 72z" />
    <glyph glyph-name="uFEF4" unicode="&#x6cc;" horiz-adv-x="380" arabic-form="medial" 
d="M80 -192c6.66699 -5.33301 20 -9.33301 40 -12l40 -52v-20c-23.333 -37.333 -43.333 -56 -60 -56c-42 0 -67.333 20 -76 60l-8 8c26.667 40 48 64 64 72zM280 -192c6.66699 -5.33301 20 -9.33301 40 -12l40 -52v-20c-23.333 -37.333 -43.333 -56 -60 -56
c-42 0 -67.333 20 -76 60l-8 8c26.667 40 48 64 64 72zM229 241c8 -2.66699 12.002 -10.667 12.002 -24l-4 -44c0 -48 44 -72 132 -72l8 -32v-44c1.33301 -18.667 -3.33398 -28 -14.001 -28h-46c-44.667 12.667 -84.667 36.667 -120 72l-32 4v-4
c-32.667 -40 -67.334 -61.667 -104.001 -65l-53 -2c-4.66699 7.33301 -7 17.333 -7 30v56l6 15h33l48 9c33.333 22.667 56.333 47 69 73c4 0 18.667 18.667 44 56h28z" />
    <glyph glyph-name="Hcircumflex" unicode="&#x622;" horiz-adv-x="444" arabic-form="final" 
d="M294 844c16 -12.667 24 -26 24 -40l-4 -12l4 -20v-28l-8 -16l4 -12l-4 -4l16 -32v-4l-8 -12v-36l8 -12v-76l-8 -12l8 -8v-12c0 -42.667 4 -68 12 -76v-108l8 -12l-4 -4v-4l8 -8v-4l-8 -12l8 -8l-4 -4l4 -4v-52l-4 -16c26.667 -72 52 -108 76 -108l13 -8l2 -28v-20l-1 -27
l-38 -5l-80 48l-20 36h4c-13.333 24 -21.333 46.667 -24 68l-4 4v44l-8 12v4l4 4l-4 4v12l4 4v4l-8 8v160c-8 11.333 -12 22 -12 32l4 24l-4 56v76l-8 12v64l-8 12v72l4 4v4l-8 8v4c16 42.667 37.333 64 64 64zM556 1161c18.667 -8 28.001 -20 28.001 -36
c0 -11.333 -25.333 -26 -76 -44c0 -8 -44 -21.333 -132 -40c0 -5.33301 -6.66699 -8 -20 -8c0 5.33301 -4 8 -12 8c-8.66699 -4.66699 -40.667 -10 -96 -16c0 -5.33301 -6.66699 -8 -20 -8l-28 8h-76c-36 0 -58.667 -13.333 -68 -40c-10 -8 -19.333 -12 -28 -12h-8
c-10.667 5.33301 -16 13.333 -16 24c0 25.333 20 58.666 60 99.999c17.333 32.667 34.666 51.334 51.999 56.001c70 -21.333 114 -32 132 -32l12 4l48 -12c86 0 162 14.667 228 44z" />
    <glyph glyph-name="uFE84" unicode="&#x623;" horiz-adv-x="352" arabic-form="final" 
d="M204 844c16 -12.667 24 -26 24 -40l-4 -12l4 -20v-28l-8 -16l4 -12l-4 -4l16 -32v-4l-8 -12v-36l8 -12v-76l-8 -12l8 -8v-12c0 -42.667 4 -68 12 -76v-108l8 -12l-4 -4v-4l8 -8v-4l-8 -12l8 -8l-4 -4l4 -4v-52l-4 -16c26.667 -72 52 -108 76 -108l13 -8l2 -28v-20l-1 -27
l-38 -5l-80 48l-20 36h4c-13.333 24 -21.333 46.667 -24 68l-4 4v44l-8 12v4l4 4l-4 4v12l4 4v4l-8 8v160c-8 11.333 -12 22 -12 32l4 24l-4 56v76l-8 12v64l-8 12v72l4 4v4l-8 8v4c16 42.667 37.333 64 64 64z" />
    <glyph glyph-name="uFE86" unicode="&#x624;" horiz-adv-x="624" arabic-form="final" 
d="M436 356c42 -20.667 70.002 -55.333 84.002 -104c5.33301 0 8 -12 8 -36c13.333 -29.333 20 -64 20 -104l24 -8h36c10.667 -3.33301 16 -15.333 16 -36v-64l-12 -12h-4l-4 4l-4 -4h-16l-4 4l-4 -4h-8c-13.333 0 -20 2.66699 -20 8c-26.667 0 -40 -12 -40 -36
c0 -36.667 -21.333 -87.334 -64 -152.001c-58 -81.333 -116.667 -133.333 -176 -156c0 -5.33301 -13.333 -8 -40 -8h-76c-40 0 -84 22.667 -132 68v4c0 8.66699 20 14 60 16l12 -4l40 16h12c38 0 80.667 14.667 128 44c60 26.667 116 78.667 168 156c16 22 24 38 24 48
c-4.66699 4.66699 -35.334 10 -92.001 16c-8.66699 6.66699 -34 13.334 -76 20.001c-28 30.667 -44 62.667 -48 96c21.333 93.333 50.666 153.333 87.999 180c29.333 29.333 48 44 56 44zM328.002 160.001c0 -26 40 -43.333 120 -52l20 -4l12 4v8
c-19.333 69.333 -47.333 104 -84 104c-42.667 0 -64 -18.667 -64 -56z" />
    <glyph glyph-name="uFE88" unicode="&#x625;" horiz-adv-x="352" arabic-form="final" 
d="M204 844c16 -12.667 24 -26 24 -40l-4 -12l4 -20v-28l-8 -16l4 -12l-4 -4l16 -32v-4l-8 -12v-36l8 -12v-76l-8 -12l8 -8v-12c0 -42.667 4 -68 12 -76v-108l8 -12l-4 -4v-4l8 -8v-4l-8 -12l8 -8l-4 -4l4 -4v-52l-4 -16c26.667 -72 52 -108 76 -108l13 -8l2 -28v-20l-1 -27
l-38 -5l-80 48l-20 36h4c-13.333 24 -21.333 46.667 -24 68l-4 4v44l-8 12v4l4 4l-4 4v12l4 4v4l-8 8v160c-8 11.333 -12 22 -12 32l4 24l-4 56v76l-8 12v64l-8 12v72l4 4v4l-8 8v4c16 42.667 37.333 64 64 64z" />
    <glyph glyph-name="uFE8A" unicode="&#x626;" horiz-adv-x="917" arabic-form="final" 
d="M852 103l41 -1.99805c14.667 0 22.667 -7 24 -21v-20l-4 -36l4 -4v-4c-2.66699 -14 -12 -21.667 -28 -23c-20.667 1.33301 -48.667 1 -84 -1l-4 -4h-4l-16 4l-16 -4l-4 4h-4l-36 -4v4c-40 -4.66699 -60 -15.334 -60 -32.001l-4 -16l24 -8h8l20 4
c91.333 0 146 -16 164 -48c0 -5.33301 4 -8 12 -8l4 -4v-40c0 -48 -26.667 -84 -80 -108c-12.667 -14 -48.667 -34 -108 -60c-66.667 -29.333 -110.667 -44 -132 -44l-100 -28l-24 4l-28 -8l-4 4h-4l-12 -4v4l-4 -4h-4c-15.333 0 -67.333 14.667 -156 44
c0 6.66699 -6.66699 10.667 -20 12c-64 51.333 -96 96.666 -96 135.999v92c0 29.333 13.333 72 40 128c0 13.333 13.333 28 40 44h8l16 -16v-16l-32 -108v-16c18 -80 43.333 -120 76 -120c8.66699 -16 46 -34.667 112 -56l4 -4h16l52 -8l16 4l4 -4l20 4h40
c66 9.33301 143.333 32 232 68c1.33301 6 18.666 18 51.999 36v8l-12 12l-32 -8c-21.333 2 -32 4.66699 -32 8l-32 -8h-12c-93.333 0 -140 13.333 -140 40l-4 16c0 27.333 16 62 48 104c40.667 35.333 75.334 60.666 104.001 75.999c0 8.66699 24.667 19.334 74 32.001
c27.333 4.66699 53 7 77 7z" />
    <glyph glyph-name="uFE8B" unicode="&#x626;" horiz-adv-x="299" arabic-form="initial" 
d="M92 356h16.001l24 -20l-4 -4v-4c34.667 -62.667 52 -132 52 -208c0 -40.667 -32 -79.334 -96 -116.001c-25.333 0 -40 -2.66699 -44 -8c-24.667 10.667 -39.334 21.334 -44.001 32.001l8 12l-8 8v40c0 10.667 30.667 21.334 92 32.001v-4l4 4h4l4 -4
c11.333 4 19.333 10.667 24 20v24l-8 12l4 4c-42.667 14 -64 30 -64 48c-8.66699 3.33301 -16.667 16.666 -24 39.999c7.33301 0 15.333 20 24 60zM148.001 836c22.667 0 41.3311 -10.6709 55.998 -32.0039c0 -44 -13.333 -78.667 -40 -104h-8l-36 48l-28 8
c-12 -4.66699 -21.333 -12.667 -28 -24c8.66699 -34.667 19.334 -54.667 32.001 -60c15.333 -11.333 40.666 -20.666 75.999 -27.999c24 2.66699 49.333 9.33398 76 20.001c21.333 -5.33301 32 -10.666 32 -15.999v-24c0 -26.667 -25.333 -44 -76 -52
c-40 -27.333 -72 -46 -96 -56c0 -10 -22.667 -22 -68 -36c-29.333 2.66699 -44 12 -44 28c10.667 24 25.334 44 44.001 60l4 16c0 13.333 -17.333 36 -52 68l-16 56c18.667 54.667 45.334 90.667 80.001 108c22 8.66699 52.667 15.334 92 20.001z" />
    <glyph glyph-name="uFE8C" unicode="&#x626;" horiz-adv-x="380" arabic-form="medial" 
d="M229 241c8 -2.66699 12.002 -10.667 12.002 -24l-4 -44c0 -48 44 -72 132 -72l8 -32v-44c1.33301 -18.667 -3.33398 -28 -14.001 -28h-46c-44.667 12.667 -84.667 36.667 -120 72l-32 4v-4c-32.667 -40 -67.334 -61.667 -104.001 -65l-53 -2
c-4.66699 7.33301 -7 17.333 -7 30v56l6 15h33l48 9c33.333 22.667 56.333 47 69 73c4 0 18.667 18.667 44 56h28zM208.002 760c22.667 0 41.3311 -10.6709 55.998 -32.0039c0 -44 -13.333 -78.667 -40 -104h-8l-36 48l-28 8c-12 -4.66699 -21.333 -12.667 -28 -24
c8.66699 -34.667 19.334 -54.667 32.001 -60c15.333 -11.333 40.666 -20.666 75.999 -27.999c24 2.66699 49.333 9.33398 76 20.001c21.333 -5.33301 32 -10.666 32 -15.999v-24c0 -26.667 -25.333 -44 -76 -52c-40 -27.333 -72 -46 -96 -56c0 -10 -22.667 -22 -68 -36
c-29.333 2.66699 -44 12 -44 28c10.667 24 25.334 44 44.001 60l4 16c0 13.333 -17.333 36 -52 68l-16 56c18.667 54.667 45.334 90.667 80.001 108c22 8.66699 52.667 15.334 92 20.001z" />
    <glyph glyph-name="uFE8E" unicode="&#x627;" horiz-adv-x="352" arabic-form="final" 
d="M204 844c16 -12.667 24 -26 24 -40l-4 -12l4 -20v-28l-8 -16l4 -12l-4 -4l16 -32v-4l-8 -12v-36l8 -12v-76l-8 -12l8 -8v-12c0 -42.667 4 -68 12 -76v-108l8 -12l-4 -4v-4l8 -8v-4l-8 -12l8 -8l-4 -4l4 -4v-52l-4 -16c26.667 -72 52 -108 76 -108l13 -8l2 -28v-20l-1 -27
l-38 -5l-80 48l-20 36h4c-13.333 24 -21.333 46.667 -24 68l-4 4v44l-8 12v4l4 4l-4 4v12l4 4v4l-8 8v160c-8 11.333 -12 22 -12 32l4 24l-4 56v76l-8 12v64l-8 12v72l4 4v4l-8 8v4c16 42.667 37.333 64 64 64z" />
    <glyph glyph-name="uFE90" unicode="&#x628;" horiz-adv-x="1105" arabic-form="final" 
d="M512 -248l24 -0.000976562c20 0 42.667 -22.667 68 -68v-20c-40 -32 -65.333 -48 -76 -48h-4c-40 10.667 -60 29.334 -60 56.001v24c24 34 40 52.667 48 56zM228 321.999l7.99805 -12v-16c-10 -12.667 -19.333 -32.667 -28 -60v-24c0 -55.333 21.333 -91.333 64 -108
c0 -18 69.333 -34 208 -48l148 4c197.333 36 296 72 296 108c8 0.666992 22.667 18 44 52l16 12h24c6 0 10 -12 12 -36l-8 -24v-20c0 -22 26.667 -38 80 -48l12 -16v-30l-4 -4l4 -4v-4c-1.33301 -34.667 -6.66602 -52 -15.999 -52h-12c-74.667 24 -112 42.667 -112 56
c-11.333 13.333 -27.333 20 -48 20h-4c-6.66699 0 -40 -21.333 -100 -64c-17.333 0 -49.333 -13.333 -96 -40l-192 -24l-84 8l-16 -4l-108 8c0 6 -18.667 14 -56 24c-2.66699 13.333 -16 20 -40 20c-37.333 19.333 -70.666 58 -99.999 116l4 52l-4 20
c0 29.333 24 71.333 72 126z" />
    <glyph glyph-name="uFE91" unicode="&#x628;" horiz-adv-x="184" arabic-form="initial" 
d="M92 356h16.001l24 -20l-4 -4v-4c34.667 -62.667 52 -132 52 -208c0 -40.667 -32 -79.334 -96 -116.001c-25.333 0 -40 -2.66699 -44 -8c-24.667 10.667 -39.334 21.334 -44.001 32.001l8 12l-8 8v40c0 10.667 30.667 21.334 92 32.001v-4l4 4h4l4 -4
c11.333 4 19.333 10.667 24 20v24l-8 12l4 4c-42.667 14 -64 30 -64 48c-8.66699 3.33301 -16.667 16.666 -24 39.999c7.33301 0 15.333 20 24 60zM68.001 -172l31.998 -0.000976562c26.667 -14.667 45.334 -36 56.001 -64v-12c-24.667 -34.667 -48.667 -58.667 -72 -72h-12
c-37.333 12.667 -56 35.334 -56 68.001l-8 8c8.66699 30 23.334 50 44.001 60h8c0 8 2.66699 12 8 12z" />
    <glyph glyph-name="uFE92" unicode="&#x628;" horiz-adv-x="380" arabic-form="medial" 
d="M244 -220c22 -15.333 38.001 -34.001 48.001 -56.001v-8c-6 -18 -26 -39.333 -60 -64l-4 4l-4 -4h-4l-4 4l-4 -4h-4c-36.667 23.333 -55.334 38 -56.001 44v4c0 42.667 24 69.334 72 80.001h20zM229.001 240.999c8 -2.66699 12.002 -10.667 12.002 -24l-4 -44
c0 -48 44 -72 132 -72l8 -32v-44c1.33301 -18.667 -3.33398 -28 -14.001 -28h-46c-44.667 12.667 -84.667 36.667 -120 72l-32 4v-4c-32.667 -40 -67.334 -61.667 -104.001 -65l-53 -2c-4.66699 7.33301 -7 17.333 -7 30v56l6 15h33l48 9c33.333 22.667 56.333 47 69 73
c4 0 18.667 18.667 44 56h28z" />
    <glyph glyph-name="uFE96" unicode="&#x62a;" horiz-adv-x="1105" arabic-form="final" 
d="M684 572c21.333 0 46.666 -20 75.999 -60v-8c0 -22.667 -25.333 -46.667 -76 -72c-17.333 0 -38.666 14.667 -63.999 44c0 41.333 21.333 73.333 64 96zM468 564l24 -0.000976562c20 0 42.667 -22.667 68 -68v-20c-40 -32 -65.333 -48 -76 -48h-4
c-40 10.667 -60 29.334 -60 56.001v24c24 34 40 52.667 48 56zM228 321.999l7.99805 -12v-16c-10 -12.667 -19.333 -32.667 -28 -60v-24c0 -55.333 21.333 -91.333 64 -108c0 -18 69.333 -34 208 -48l148 4c197.333 36 296 72 296 108c8 0.666992 22.667 18 44 52l16 12h24
c6 0 10 -12 12 -36l-8 -24v-20c0 -22 26.667 -38 80 -48l12 -16v-30l-4 -4l4 -4v-4c-1.33301 -34.667 -6.66602 -52 -15.999 -52h-12c-74.667 24 -112 42.667 -112 56c-11.333 13.333 -27.333 20 -48 20h-4c-6.66699 0 -40 -21.333 -100 -64
c-17.333 0 -49.333 -13.333 -96 -40l-192 -24l-84 8l-16 -4l-108 8c0 6 -18.667 14 -56 24c-2.66699 13.333 -16 20 -40 20c-37.333 19.333 -70.666 58 -99.999 116l4 52l-4 20c0 29.333 24 71.333 72 126z" />
    <glyph glyph-name="uFE97" unicode="&#x62a;" horiz-adv-x="299" arabic-form="initial" 
d="M92 356h16.001l24 -20l-4 -4v-4c34.667 -62.667 52 -132 52 -208c0 -40.667 -32 -79.334 -96 -116.001c-25.333 0 -40 -2.66699 -44 -8c-24.667 10.667 -39.334 21.334 -44.001 32.001l8 12l-8 8v40c0 10.667 30.667 21.334 92 32.001v-4l4 4h4l4 -4
c11.333 4 19.333 10.667 24 20v24l-8 12l4 4c-42.667 14 -64 30 -64 48c-8.66699 3.33301 -16.667 16.666 -24 39.999c7.33301 0 15.333 20 24 60zM36.001 688c6.66699 -5.33301 20 -9.33301 40 -12l40 -52v-20c-23.333 -37.333 -43.333 -56 -60 -56
c-42 0 -67.333 20 -76 60l-8 8c26.667 40 48 64 64 72zM236.001 688c6.66699 -5.33301 20 -9.33301 40 -12l40 -52v-20c-23.333 -37.333 -43.333 -56 -60 -56c-42 0 -67.333 20 -76 60l-8 8c26.667 40 48 64 64 72z" />
    <glyph glyph-name="uFE98" unicode="&#x62a;" horiz-adv-x="380" arabic-form="medial" 
d="M80 538c6.66699 -5.33301 20 -9.33301 40 -12l40 -52v-20c-23.333 -37.333 -43.333 -56 -60 -56c-42 0 -67.333 20 -76 60l-8 8c26.667 40 48 64 64 72zM280 538c6.66699 -5.33301 20 -9.33301 40 -12l40 -52v-20c-23.333 -37.333 -43.333 -56 -60 -56
c-42 0 -67.333 20 -76 60l-8 8c26.667 40 48 64 64 72zM229 241c8 -2.66699 12.002 -10.667 12.002 -24l-4 -44c0 -48 44 -72 132 -72l8 -32v-44c1.33301 -18.667 -3.33398 -28 -14.001 -28h-46c-44.667 12.667 -84.667 36.667 -120 72l-32 4v-4
c-32.667 -40 -67.334 -61.667 -104.001 -65l-53 -2c-4.66699 7.33301 -7 17.333 -7 30v56l6 15h33l48 9c33.333 22.667 56.333 47 69 73c4 0 18.667 18.667 44 56h28z" />
    <glyph glyph-name="uFE9A" unicode="&#x62b;" horiz-adv-x="1105" arabic-form="final" 
d="M228 322l7.99805 -12v-16c-10 -12.667 -19.333 -32.667 -28 -60v-24c0 -55.333 21.333 -91.333 64 -108c0 -18 69.333 -34 208 -48l148 4c197.333 36 296 72 296 108c8 0.666992 22.667 18 44 52l16 12h24c6 0 10 -12 12 -36l-8 -24v-20c0 -22 26.667 -38 80 -48l12 -16
v-30l-4 -4l4 -4v-4c-1.33301 -34.667 -6.66602 -52 -15.999 -52h-12c-74.667 24 -112 42.667 -112 56c-11.333 13.333 -27.333 20 -48 20h-4c-6.66699 0 -40 -21.333 -100 -64c-17.333 0 -49.333 -13.333 -96 -40l-192 -24l-84 8l-16 -4l-108 8c0 6 -18.667 14 -56 24
c-2.66699 13.333 -16 20 -40 20c-37.333 19.333 -70.666 58 -99.999 116l4 52l-4 20c0 29.333 24 71.333 72 126zM381.998 430l8 8c8.66699 40 34 60 76 60c16.667 0 36.667 -18.667 60 -56v-20l-40 -52c-20 -2.66699 -33.333 -6.66699 -40 -12c-16 8 -37.333 32 -64 72z
M581.998 430l8 8c8.66699 40 34 60 76 60c16.667 0 36.667 -18.667 60 -56v-20l-40 -52c-20 -2.66699 -33.333 -6.66699 -40 -12c-16 8 -37.333 32 -64 72zM481.998 570l8 8c8.66699 40 34 60 76 60c16.667 0 36.667 -18.667 60 -56v-20l-40 -52
c-20 -2.66699 -33.333 -6.66699 -40 -12c-16 8 -37.333 32 -64 72z" />
    <glyph glyph-name="uFE9B" unicode="&#x62b;" horiz-adv-x="299" arabic-form="initial" 
d="M92 356h16.001l24 -20l-4 -4v-4c34.667 -62.667 52 -132 52 -208c0 -40.667 -32 -79.334 -96 -116.001c-25.333 0 -40 -2.66699 -44 -8c-24.667 10.667 -39.334 21.334 -44.001 32.001l8 12l-8 8v40c0 10.667 30.667 21.334 92 32.001v-4l4 4h4l4 -4
c11.333 4 19.333 10.667 24 20v24l-8 12l4 4c-42.667 14 -64 30 -64 48c-8.66699 3.33301 -16.667 16.666 -24 39.999c7.33301 0 15.333 20 24 60zM-27.999 560l8 8c8.66699 40 34 60 76 60c16.667 0 36.667 -18.667 60 -56v-20l-40 -52
c-20 -2.66699 -33.333 -6.66699 -40 -12c-16 8 -37.333 32 -64 72zM172.001 560l8 8c8.66699 40 34 60 76 60c16.667 0 36.667 -18.667 60 -56v-20l-40 -52c-20 -2.66699 -33.333 -6.66699 -40 -12c-16 8 -37.333 32 -64 72zM72.001 700l8 8c8.66699 40 34 60 76 60
c16.667 0 36.667 -18.667 60 -56v-20l-40 -52c-20 -2.66699 -33.333 -6.66699 -40 -12c-16 8 -37.333 32 -64 72z" />
    <glyph glyph-name="uFE9C" unicode="&#x62b;" horiz-adv-x="380" arabic-form="medial" 
d="M306 398c-6.66699 5.33301 -20 9.33301 -40 12l-40 52v20c23.333 37.333 43.333 56 60 56c42 0 67.333 -20 76 -60l8 -8c-26.667 -40 -48 -64 -64 -72zM106 398c-6.66699 5.33301 -20 9.33301 -40 12l-40 52v20c23.333 37.333 43.333 56 60 56c42 0 67.333 -20 76 -60
l8 -8c-26.667 -40 -48 -64 -64 -72zM206 538c-6.66699 5.33301 -20 9.33301 -40 12l-40 52v20c23.333 37.333 43.333 56 60 56c42 0 67.333 -20 76 -60l8 -8c-26.667 -40 -48 -64 -64 -72zM229 241c8 -2.66699 12.002 -10.667 12.002 -24l-4 -44c0 -48 44 -72 132 -72l8 -32
v-44c1.33301 -18.667 -3.33398 -28 -14.001 -28h-46c-44.667 12.667 -84.667 36.667 -120 72l-32 4v-4c-32.667 -40 -67.334 -61.667 -104.001 -65l-53 -2c-4.66699 7.33301 -7 17.333 -7 30v56l6 15h33l48 9c33.333 22.667 56.333 47 69 73c4 0 18.667 18.667 44 56h28z
" />
    </font>
</defs>
</svg>
