<?xml version="1.0" standalone="no"?>
<!DOCTYPE svg PUBLIC "-//W3C//DTD SVG 1.1//EN" "http://www.w3.org/Graphics/SVG/1.1/DTD/svg11.dtd" >
<svg>
<metadata>
Created by FontForge 20090914 at Wed Oct 19 00:54:16 2011
 By www-data
(c) by Abolfazl Seilsepour - +98 912 591 3420  -  seilsepor@yahoo.com
</metadata>
<defs>
<font id="FarBardiyaBold" horiz-adv-x="0" >
  <font-face 
    font-family="Far.Bardiya"
    font-weight="700"
    font-stretch="normal"
    units-per-em="2048"
    panose-1="0 0 7 0 0 0 0 0 0 0"
    ascent="1638"
    descent="-410"
    bbox="-181 -1144 2083 2728"
    underline-thickness="140"
    underline-position="-530"
    unicode-range="U+0020-U+FEFC"
  />
<missing-glyph horiz-adv-x="1024" 
d="M128 0v1443h768v-1443h-768zM256 128h512v1187h-512v-1187z" />
    <glyph glyph-name="uE818" unicode="&#x651;&#x64b;" 
d="M527 1979c0 -98 -48.667 -146.999 -146 -146.999c-48.667 0 -94.667 17.667 -138 53c-44 -35.333 -91 -53 -141 -53c-97.333 0 -146 49 -146 147c0 38.667 13 96.667 39 174h153c-28 -74 -42 -128.333 -42 -163c0 -10 10 -15 30 -15c10 0 23.333 4.66699 40 14v87h131
v-87c16 -9.33301 29.333 -14 40 -14c19.333 0 29 5 29 15c0 29.333 -11.333 83.666 -34 162.999h142c28.667 -64.667 43 -122.667 43 -174zM414 2587l-330 -159l-51 142l336 158zM427 2372l-331 -160l-49 144l335 157z" />
    <glyph glyph-name="uFC5E" unicode="&#x651;&#x64c;" arabic-form="isolated" 
d="M527 1979c0 -98 -48.667 -146.999 -146 -146.999c-48.667 0 -94.667 17.667 -138 53c-44 -35.333 -91 -53 -141 -53c-97.333 0 -146 49 -146 147c0 38.667 13 96.667 39 174h153c-28 -74 -42 -128.333 -42 -163c0 -10 10 -15 30 -15c10 0 23.333 4.66699 40 14v87h131
v-87c16 -9.33301 29.333 -14 40 -14c19.333 0 29 5 29 15c0 29.333 -11.333 83.666 -34 162.999h142c28.667 -64.667 43 -122.667 43 -174zM474 2618c22 -23.333 32.999 -49.332 32.999 -77.999c0 -58.667 -41 -115.334 -123 -170c-41.333 -27.333 -131 -63.666 -269 -109
l-42 69c9.33301 4 25 10.333 47 19l-40 104l60 12l41 -113c1.33301 22 5.33301 57 12 105c6.66699 30 11.334 49.667 14.001 59c7.33301 19.333 18 36.666 32 51.999c45.333 50 100.333 75 165 75c30.667 0 54 -8.33301 70 -25zM430.999 2572
c-61.333 -16 -116.667 -39.333 -166 -70c-8 -30.667 -0.666992 -64.667 22 -102c50 17.333 85.333 37 106 59c25.333 26.667 38 64.334 38 113z" />
    <glyph glyph-name="uFC5F" unicode="&#x651;&#x64d;" arabic-form="isolated" 
d="M477 2357c0 -98 -48.667 -147 -146 -147c-48.667 0 -94.667 17.333 -138 52c-44 -34.667 -91 -52 -141 -52c-97.333 0 -146 49 -146 147c0 38.667 13 96.667 39 174h153c-28 -74 -42 -128.333 -42 -163c0 -10.667 10 -16 30 -16c10.667 0 24 4.66699 40 14v88h131v-88
c16 -9.33301 29.333 -14 40 -14c19.333 0 29 5.33301 29 16c0 29.333 -11.333 83.666 -34 163h142c28.667 -65.333 43 -123.333 43 -174zM362 2088l-331 -160l-50 143l335 157zM375 1873l-332 -160l-49 143l335 158z" />
    <glyph glyph-name="uFC60" unicode="&#x651;&#x64e;" arabic-form="isolated" 
d="M527 1979c0 -98 -48.667 -146.999 -146 -146.999c-48.667 0 -94.667 17.667 -138 53c-44 -35.333 -91 -53 -141 -53c-97.333 0 -146 49 -146 147c0 38.667 13 96.667 39 174h153c-28 -74 -42 -128.333 -42 -163c0 -10 10 -15 30 -15c10 0 23.333 4.66699 40 14v87h131
v-87c16 -9.33301 29.333 -14 40 -14c19.333 0 29 5 29 15c0 29.333 -11.333 83.666 -34 162.999h142c28.667 -64.667 43 -122.667 43 -174zM402 2371l-331 -160l-46 144l329 157z" />
    <glyph glyph-name="uFC61" unicode="&#x651;&#x64f;" arabic-form="isolated" 
d="M527 1979c0 -98 -48.667 -146.999 -146 -146.999c-48.667 0 -94.667 17.667 -138 53c-44 -35.333 -91 -53 -141 -53c-97.333 0 -146 49 -146 147c0 38.667 13 96.667 39 174h153c-28 -74 -42 -128.333 -42 -163c0 -10 10 -15 30 -15c10 0 23.333 4.66699 40 14v87h131
v-87c16 -9.33301 29.333 -14 40 -14c19.333 0 29 5 29 15c0 29.333 -11.333 83.666 -34 162.999h142c28.667 -64.667 43 -122.667 43 -174zM406 2597c25.333 -26.667 38 -57.333 38 -92c0 -66.667 -37.667 -128 -113 -184c-42.667 -32 -123.667 -80 -243 -144l-65 114
l107 55c-18 42.667 -27 80 -27 112c0 34.667 10.333 64.667 31 90l9 7c61.333 42.667 127 64 197 64c30 0 52 -7.33301 66 -22zM345 2522c-57.333 -19.333 -103 -39 -137 -59c-6 -18.667 0 -41.334 18 -68c54 30 93.667 72.333 119 127z" />
    <glyph glyph-name="uFC62" unicode="&#x651;&#x650;" arabic-form="isolated" 
d="M490 2177c0 -98 -48.667 -147 -146 -147c-48.667 0 -94.667 17.667 -138 53c-44 -35.333 -91 -53 -141 -53c-97.333 0 -146 49 -146 147c0 38.667 13 96.667 39 174h153c-28 -74 -42 -128.333 -42 -163c0 -10 10 -15 30 -15c10 0 23.333 4.33301 40 13v88h131v-88
c16 -8.66699 29.333 -13 40 -13c19.333 0 29 5 29 15c0 29.333 -11.333 83.666 -34 163h142c28.667 -64.667 43 -122.667 43 -174zM370 1870l-331 -161l-46 145l329 157z" />
    <glyph glyph-name="uFDF2" unicode="&#xfedf;&#xfee0;&#xfeea;" horiz-adv-x="1753" arabic-form="isolated" 
d="M1130 1540h-187v338h187v-338zM1334 1306c0 -98 -48.999 -146.999 -146.999 -146.999c-48.667 0 -94.334 17.667 -137.001 53c-44 -35.333 -91.333 -53 -142 -53c-97.333 0 -146 49 -146 147c0 38.667 13.333 96.667 40 174h152c-27.333 -74 -41 -128.333 -41 -163
c0 -10.667 9.66699 -16 29 -16c10.667 0 24 4.66699 40 14v88h131v-88c16.667 -9.33301 30 -14 40 -14c20 0 30 5.33301 30 16c0 29.333 -11.333 83.666 -34 162.999h141c29.333 -65.333 44 -123.333 44 -174zM473.001 212.001c-1.33301 14.667 -2.66699 38 -4 70l-1 25
c-2.66699 70.667 8.33301 159.667 33 267c25.333 111.333 38 177.333 38 198c0 38.667 -15.667 58 -47 58c-49.333 0 -94.333 -74 -135 -222c-33.333 -118.667 -50 -208.667 -50 -270v-19c0 -28.667 15 -54 45 -76c28 -20.667 56.333 -31 85 -31h36zM544 55.001
l-0.000976562 -58.002h-107c-82 0 -159 29.667 -231 89c-79.333 64.667 -119 143 -119 235v21c0 42 14 114 42 216c36 131.333 80 238.333 132 321c68.667 110 145.667 165 231 165c80.667 0 137.667 -29.667 171 -89c26.667 -48.667 40 -123 40 -223
c0 -42.667 -3.33301 -112 -10 -208s-10 -167.667 -10 -215v-26c0 -28 5.5 -46.833 16.5 -56.5s30.833 -14.5 59.5 -14.5h99c30.667 0 51 5.16699 61 15.5s15 30.166 15 59.499v809h215v-809c0 -29.333 5.5 -49.166 16.5 -59.499s31.5 -15.5 61.5 -15.5h213
c72 0 108 29.667 108 89v117c0 145.333 -12.667 295.333 -38 450c-32 198.667 -80 363.334 -144 494.001h243c48 -107.333 87 -263.666 117 -468.999c25.333 -174.667 38 -332 38 -472v-113c0 -207.333 -108 -311 -324 -311h-214c-79.333 0 -140.666 14 -183.999 42
c-42 -28 -103.333 -42 -184 -42h-98c-100.667 0 -172.667 19.333 -216 58z" />
    <glyph glyph-name="uFEF5" unicode="&#xfedf;&#xfe82;" horiz-adv-x="1016" arabic-form="isolated" 
d="M928 375c0 -139.333 -38.334 -239 -115.001 -299c-71.333 -55.333 -185.666 -83 -342.999 -83v224h51c-142.667 339.333 -214 669 -214 989c0 100.667 8 194.667 24 282l230 -5c-23.333 -102 -35 -208.333 -35 -319c0 -250 60.667 -529.333 182 -838
c3.33301 16.667 5 36.667 5 60v1096l215 7v-1114zM515.999 1785l6.99902 -171.999h-266c-23.333 0 -43.166 -8.16699 -59.499 -24.5s-24.5 -33.5 -24.5 -51.5v-17c0 -34.667 6.66699 -68.334 20 -101.001c4.66699 -12.667 26.667 -58.667 66 -138l-151 -84
c-64 119.333 -96 229.333 -96 330v14c0 158.667 81.667 239 245 241z" />
    <glyph glyph-name="uFEF6" unicode="&#xfee0;&#xfe82;" horiz-adv-x="1095" arabic-form="final" 
d="M1123 -3l-136.001 -0.000976562c-62 0 -105.667 3 -131 9c-31.333 7.33301 -57.666 23 -78.999 47c-72 -41.333 -178 -62 -318 -62v224h52c-146.667 338 -220 663.333 -220 976c0 108.667 11 206.334 33 293.001h228c-24.667 -96.667 -37 -201.667 -37 -315
c0 -265.333 61.333 -549.333 184 -852c2.66699 23.333 4 45.666 4 66.999v1098h214v-1173c0 -37.333 1.66699 -59.666 5 -66.999c8 -20 30 -30 66 -30h135v-215zM506.999 1785l6 -171.999h-265c-23.333 0 -43.333 -8.16699 -60 -24.5s-25 -33.5 -25 -51.5v-17
c0 -34.667 6.66699 -68.334 20 -101.001c5.33301 -12.667 27.333 -58.667 66 -138l-150 -84c-64.667 119.333 -97 229.333 -97 330v14c0 158.667 82 239 246 241z" />
    <glyph glyph-name="uFEF7" unicode="&#xfedf;&#xfe84;" horiz-adv-x="898" arabic-form="isolated" 
d="M797 375c0 -139.333 -38.333 -239 -115 -299c-72 -55.333 -186.333 -83 -343 -83v224h51c-143.333 339.333 -215 669 -215 989c0 100.667 8.33301 194.667 25 282l230 -5c-23.333 -102 -35 -208.333 -35 -319c0 -250 60.667 -529.333 182 -838
c3.33301 16.667 5 36.667 5 60v1096l215 7v-1114zM491 1765c-82.667 41.333 -135.667 61.999 -159 61.999c-12 0 -18 -12.667 -18 -38c0 -23.333 6.33301 -45.666 19 -66.999h153v-136h-364v135h74c-8 75.333 -1.66699 132.333 19 171c27.333 50.667 70 76 128 76
c38 0 87.333 -20 148 -60v-143z" />
    <glyph glyph-name="uFEF8" unicode="&#xfee0;&#xfe84;" horiz-adv-x="1029" arabic-form="final" 
d="M1058 -3l-137 -0.000976562c-62 0 -105.333 3 -130 9c-31.333 7.33301 -58 23 -80 47c-72 -41.333 -177.667 -62 -317 -62v224h52c-147.333 338 -221 663.333 -221 976c0 108.667 11.333 206.334 34 293.001h227c-24 -96.667 -36 -201.667 -36 -315
c0 -265.333 61 -549.333 183 -852c2.66699 23.333 4 45.666 4 66.999v1098h215v-1173c0 -37.333 1.33301 -59.666 4 -66.999c8.66699 -20 30.667 -30 66 -30h136v-215zM523 1765c-82 41.333 -134.999 61.999 -158.999 61.999c-12 0 -18 -12.667 -18 -38
c0 -23.333 6.66699 -45.666 20 -66.999h153v-136h-364v135h74c-8 75.333 -1.66699 132.333 19 171c27.333 50.667 69.666 76 126.999 76c38.667 0 88 -20 148 -60v-143z" />
    <glyph glyph-name="uFEF9" unicode="&#xfedf;&#xfe88;" horiz-adv-x="1078" arabic-form="isolated" 
d="M993 375c0 -139.333 -38.333 -239 -115 -299c-71.333 -55.333 -185.333 -83 -342 -83v224h51c-143.333 339.333 -215 669 -215 989c0 100.667 8.33301 194.667 25 282l229 -5c-22.667 -102 -34 -208.333 -34 -319c0 -250 60.333 -529.333 181 -838
c4 16.667 6 36.667 6 60v1096l214 7v-1114zM453 -67l-327 -64l-22 98l39 7l6 163c29.333 72.667 74 109 134 109c35.333 0 82.333 -13.667 141 -41l14 -134c-85.333 32.667 -139 48 -161 46c-16.667 -2 -25 -22 -25 -60c0 -16 2.66699 -30 8 -42c43.333 6 101 12.667 173 20
z" />
    <glyph glyph-name="uFEFA" unicode="&#xfee0;&#xfe88;" horiz-adv-x="1106" arabic-form="final" 
d="M1134 -3l-136.001 -0.000976562c-62 0 -105.667 3 -131 9c-31.333 7.33301 -57.666 23 -78.999 47c-72 -41.333 -178 -62 -318 -62v224h52c-146.667 338 -220 663.333 -220 976c0 108.667 11 206.334 33 293.001h228c-24.667 -96.667 -37 -201.667 -37 -315
c0 -265.333 61.333 -549.333 184 -852c2.66699 23.333 4 45.666 4 66.999v1098h214v-1173c0 -37.333 1.66699 -59.666 5 -66.999c8 -20 29.667 -30 65 -30h136v-215zM405.999 -57.001l-328 -64l-22 98l40 7l5 163c29.333 72.667 74 109 134 109c36 0 83 -13.667 141 -41
l15 -134c-85.333 32.667 -139 48 -161 46c-17.333 -2 -26 -22 -26 -60c0 -16 2.66699 -30 8 -42c43.333 6 101 12.667 173 20z" />
    <glyph glyph-name="uFEFB" unicode="&#xfedf;&#xfe8e;" horiz-adv-x="917" arabic-form="isolated" 
d="M829 375c0 -139.333 -38.333 -239 -115 -299c-71.333 -55.333 -185.333 -83 -342 -83v224h51c-143.333 339.333 -215 669 -215 989c0 100.667 8.33301 194.667 25 282l229 -5c-22.667 -102 -34 -208.333 -34 -319c0 -250 60.333 -529.333 181 -838
c4 16.667 6 36.667 6 60v1096l214 7v-1114z" />
    <glyph glyph-name="uFEFC" unicode="&#xfee0;&#xfe8e;" horiz-adv-x="1018" arabic-form="final" 
d="M1047 -3l-137 -0.000976562c-62 0 -105.333 3 -130 9c-31.333 7.33301 -58 23 -80 47c-72 -41.333 -177.667 -62 -317 -62v224h52c-146.667 338 -220 663.333 -220 976c0 108.667 11 206.334 33 293.001h227c-24 -96.667 -36 -201.667 -36 -315
c0 -265.333 61 -549.333 183 -852c2.66699 23.333 4 45.666 4 66.999v1098h215v-1173c0 -37.333 1.33301 -59.666 4 -66.999c8.66699 -20 30.667 -30 66 -30h136v-215z" />
    <glyph glyph-name="u0622" unicode="&#x622;" horiz-adv-x="545" arabic-form="isolated" 
d="M532 1549l0.999023 -169h-266c-23.333 0 -43.166 -8.16699 -59.499 -24.5s-24.5 -33.5 -24.5 -51.5v-17c0 -34 6.66699 -67.333 20 -100c4.66699 -13.333 26.667 -59.333 66 -138l-151 -84c-64 119.333 -96 229.333 -96 330v14c0 160 81.667 240 245 240h265zM529.999 -3
h-215v1304h215v-1304z" />
    <glyph glyph-name="u0623" unicode="&#x623;" horiz-adv-x="463" arabic-form="isolated" 
d="M405 0h-214v1489h214v-1489zM458 1765c-82.667 41.333 -135.667 61.999 -159 61.999c-12 0 -18 -12.667 -18 -38c0 -23.333 6.66699 -45.666 20 -66.999h152v-136h-363v135h74c-8.66699 75.333 -2.66699 132.333 18 171c27.333 50.667 70 76 128 76
c38.667 0 88 -20 148 -60v-143z" />
    <glyph glyph-name="u0624" unicode="&#x624;" horiz-adv-x="842" arabic-form="isolated" 
d="M841 283c0 -167.333 -82.334 -425.667 -247.001 -775h-253c31.333 54 60 107.333 86 160c64 127.333 111.333 240.666 142 339.999c-17.333 -1.33301 -31.666 -2 -42.999 -2c-115.333 0 -208 50.667 -278 152c-60 86.667 -90 184.334 -90 293.001v22
c0 92 25 195.667 75 311c72 167.333 173.333 251 304 251c97.333 0 174.333 -78.333 231 -235c48.667 -134 73 -289.667 73 -467v-50zM626.999 288.999v43.002c0 9.33301 0.5 33.166 1.5 71.499s1.5 70.166 1.5 95.499c0 212 -31 318 -93 318c-56 0 -100 -48.667 -132 -146
c-22.667 -68.667 -34 -131.667 -34 -189v-20c0 -54 9.66699 -102.667 29 -146c27.333 -61.333 69.333 -92 126 -92c32 0 58 9 78 27c15.333 14 23 26.667 23 38zM672.999 1366c-82 40.667 -134.998 61 -158.998 61c-12 0 -18 -12.333 -18 -37c0 -24 6.66699 -46.333 20 -67
h153v-136h-364v135h74c-8.66699 75.333 -2.33398 132.333 18.999 171c27.333 50.667 69.666 76 126.999 76c38.667 0 88 -20.333 148 -61v-142z" />
    <glyph glyph-name="u0625" unicode="&#x625;" horiz-adv-x="422" arabic-form="isolated" 
d="M405 0h-214v1489h214v-1489zM404 -264c-82 40.667 -134.999 60.999 -158.999 60.999c-12 0 -18 -12.333 -18 -37c0 -23.333 6.66699 -45.666 20 -66.999h152v-136h-363v135h74c-8.66699 75.333 -2.33398 132.333 18.999 171c26.667 50.667 69 76 127 76
c38.667 0 88 -20 148 -60v-143z" />
    <glyph glyph-name="u0626" unicode="&#x626;" horiz-adv-x="1113" arabic-form="isolated" 
d="M1104 782c-76.667 37.333 -133 55.999 -169 55.999c-56 0 -84 -58.667 -84 -176c0 -87.333 22.667 -181.333 68 -282l107 -213c15.333 -35.333 23 -79.666 23 -132.999c0 -112 -31.667 -207.667 -95 -287c-80.667 -100 -199.334 -150 -356.001 -150
c-142.667 0 -257 40.333 -343 121c-76.667 72.667 -115 159 -115 259v13c0 326 62.333 637 187 933h240c-142 -338.667 -213 -649 -213 -931v-10c0 -40.667 22 -78.334 66 -113.001c48.667 -38 108 -57 178 -57s129.333 26.667 178 80c42.667 46.667 64 96.334 64 149.001
c0 18 -3.33301 33.667 -10 47l-124 248c-46 111.333 -69 223 -69 335c0 110.667 25.667 201.667 77 273c54 74.667 126.333 112 217 112c50.667 3.33301 108.334 -8 173.001 -34v-240zM568 1199c-82 40.667 -135 61 -159 61c-11.333 0 -17 -12.333 -17 -37
c0 -24 6.33301 -46.333 19 -67h153v-136h-364v135h74c-8 75.333 -1.66699 132.333 19 171c27.333 50.667 70 76 128 76c38 0 87 -20.333 147 -61v-142z" />
    <glyph glyph-name="u0627" unicode="&#x627;" horiz-adv-x="422" arabic-form="isolated" 
d="M419 -1h-215v1489h215v-1489z" />
    <glyph glyph-name="u0628" unicode="&#x628;" horiz-adv-x="1410" arabic-form="isolated" 
d="M1409 293c0 -124 -30 -207.666 -90 -250.999c-40.667 -30 -107.667 -45 -201 -45h-715c-93.333 0 -160.333 15 -201 45c-60 43.333 -90 127 -90 251v46c0 204 54.333 439 163 705h240c-125.333 -277.333 -188 -513 -188 -707v-50c0 -30 5.33301 -50 16 -60
s31.667 -15 63 -15h712c30.667 0 51 5.16699 61 15.5s15 30.166 15 59.499v50c0 84.667 -13.667 183 -41 295c-35.333 146 -88 283.333 -158 412h250c109.333 -256.667 164 -491.667 164 -705v-46zM871 -184.999c0 -29.333 -10.333 -54.333 -31 -75s-45.667 -31 -75 -31
c-30 0 -55.333 10.333 -76 31s-31 45.667 -31 75s10.333 54.333 31 75s46 31 76 31c29.333 0 54.333 -10.333 75 -31s31 -45.667 31 -75z" />
    <glyph glyph-name="u0629" unicode="&#x629;" horiz-adv-x="832" arabic-form="isolated" 
d="M830 320c0 -121.333 -42.001 -209.333 -126.001 -264c-62 -40 -141.333 -60 -238 -60h-37c-75.333 0 -144 25.333 -206 76c-74 60.667 -111 141.667 -111 243v26c0 191.333 31.667 354.333 95 489c66.667 142 152.667 213 258 213c116.667 0 208.334 -73 275.001 -219
c60 -130.667 90 -291.667 90 -483v-21zM609.999 317v21c0 325.333 -47.333 488 -142 488c-93.333 0 -140 -162.333 -140 -487v-18c0 -29.333 8.66699 -54.333 26 -75c19.333 -23.333 46.333 -35 81 -35h31c96 0 144 35.333 144 106zM663.999 1366
c-82.667 40.667 -135.667 61 -159 61c-12 0 -18 -12.333 -18 -37c0 -24 6.66699 -46.333 20 -67h152v-136h-363v135h74c-8.66699 75.333 -2.66699 132.333 18 171c27.333 50.667 70 76 128 76c38.667 0 88 -20.333 148 -61v-142z" />
    <glyph glyph-name="u062A" unicode="&#x62a;" horiz-adv-x="1415" arabic-form="isolated" 
d="M1409 293c0 -124 -30 -207.666 -90 -250.999c-40.667 -30 -107.667 -45 -201 -45h-715c-93.333 0 -160.333 15 -201 45c-60 43.333 -90 127 -90 251v46c0 204 54.333 439 163 705h240c-125.333 -277.333 -188 -513 -188 -707v-50c0 -30 5.33301 -50 16 -60
s31.667 -15 63 -15h712c30.667 0 51 5.16699 61 15.5s15 30.166 15 59.499v50c0 84.667 -13.667 183 -41 295c-35.333 146 -88 283.333 -158 412h250c109.333 -256.667 164 -491.667 164 -705v-46zM1026 1286c0 -29.333 -10.333 -54.333 -31 -75s-46 -31 -76 -31
c-29.333 0 -54.5 10.333 -75.5 31s-31.5 45.667 -31.5 75c0 30 10.5 55.333 31.5 76s46.167 31 75.5 31c30 0 55.333 -10.333 76 -31s31 -46 31 -76zM796 1286c0 -29.333 -10.5 -54.333 -31.5 -75s-45.833 -31 -74.5 -31c-29.333 0 -54.5 10.5 -75.5 31.5
s-31.5 45.833 -31.5 74.5c0 29.333 10.5 54.5 31.5 75.5s46.167 31.5 75.5 31.5c28.667 0 53.5 -10.333 74.5 -31s31.5 -46 31.5 -76z" />
    <glyph glyph-name="u062B" unicode="&#x62b;" horiz-adv-x="1406" arabic-form="isolated" 
d="M1409 293c0 -124 -30 -207.666 -90 -250.999c-40.667 -30 -107.667 -45 -201 -45h-715c-93.333 0 -160.333 15 -201 45c-60 43.333 -90 127 -90 251v46c0 204 54.333 439 163 705h240c-125.333 -277.333 -188 -513 -188 -707v-50c0 -30 5.33301 -50 16 -60
s31.667 -15 63 -15h712c30.667 0 51 5.16699 61 15.5s15 30.166 15 59.499v50c0 84.667 -13.667 183 -41 295c-35.333 146 -88 283.333 -158 412h250c109.333 -256.667 164 -491.667 164 -705v-46zM889 1445c0 -29.333 -10.667 -54.666 -32 -75.999s-46.333 -32 -75 -32
s-53.834 10.667 -75.501 32s-32.5 46.666 -32.5 75.999c0 28 10.833 52.833 32.5 74.5s46.834 32.5 75.501 32.5s53.667 -10.667 75 -32s32 -46.333 32 -75zM1015 1240c0 -28.667 -10.333 -53.5 -31 -74.5s-46 -31.5 -76 -31.5c-28.667 0 -53.5 10.5 -74.5 31.5
s-31.5 45.833 -31.5 74.5s10.5 53.667 31.5 75s45.833 32 74.5 32c29.333 0 54.5 -10.667 75.5 -32s31.5 -46.333 31.5 -75zM774 1240c0 -28.667 -10.667 -53.5 -32 -74.5s-46.333 -31.5 -75 -31.5c-29.333 0 -54.5 10.5 -75.5 31.5s-31.5 45.833 -31.5 74.5
s10.5 53.667 31.5 75s46.167 32 75.5 32c28.667 0 53.667 -10.667 75 -32s32 -46.333 32 -75z" />
    <glyph glyph-name="u062C" unicode="&#x62c;" horiz-adv-x="829" arabic-form="isolated" 
d="M829 293c0 -124 -30.332 -208.332 -90.999 -252.999c-42 -30.667 -109 -45 -201 -43l-108 3c-97.333 2.66699 -146 -39.333 -146 -126c0 -99.333 56 -237.333 168 -414l-209 4c-80.667 163.333 -121 308.333 -121 435c0 208.667 119.333 313 358 313h58
c30.667 0 51 5.16699 61 15.5s15 30.166 15 59.499v41c0 331.333 -42 497 -126 497c-62.667 0 -94 -68.333 -94 -205c0 -68 7 -142 21 -222l-168 -1c-4 42 -6 88 -6 138c0 338.667 85.333 508 256 508c95.333 0 175.666 -74 240.999 -222c61.333 -140 92 -303 92 -489v-39z
M651.001 -215.999c0 -30 -10.333 -55.333 -31 -76s-45.667 -31 -75 -31c-30 0 -55.333 10.333 -76 31s-31 46 -31 76c0 29.333 10.333 54.333 31 75s46 31 76 31c29.333 0 54.333 -10.333 75 -31s31 -45.667 31 -75z" />
    <glyph glyph-name="u062D" unicode="&#x62d;" horiz-adv-x="829" arabic-form="isolated" 
d="M829 293c0 -124 -30.332 -208.332 -90.999 -252.999c-42 -30.667 -109 -45 -201 -43l-108 3c-97.333 2.66699 -146 -39.333 -146 -126c0 -99.333 56 -237.333 168 -414l-209 4c-80.667 163.333 -121 308.333 -121 435c0 208.667 119.333 313 358 313h58
c30.667 0 51 5.16699 61 15.5s15 30.166 15 59.499v41c0 331.333 -42 497 -126 497c-62.667 0 -94 -68.333 -94 -205c0 -68 7 -142 21 -222l-168 -1c-4 42 -6 88 -6 138c0 338.667 85.333 508 256 508c95.333 0 175.666 -74 240.999 -222c61.333 -140 92 -303 92 -489v-39z
" />
    <glyph glyph-name="u062E" unicode="&#x62e;" horiz-adv-x="828" arabic-form="isolated" 
d="M829 293c0 -124 -30.332 -208.332 -90.999 -252.999c-42 -30.667 -109 -45 -201 -43l-108 3c-97.333 2.66699 -146 -39.333 -146 -126c0 -99.333 56 -237.333 168 -414l-209 4c-80.667 163.333 -121 308.333 -121 435c0 208.667 119.333 313 358 313h58
c30.667 0 51 5.16699 61 15.5s15 30.166 15 59.499v41c0 331.333 -42 497 -126 497c-62.667 0 -94 -68.333 -94 -205c0 -68 7 -142 21 -222l-168 -1c-4 42 -6 88 -6 138c0 338.667 85.333 508 256 508c95.333 0 175.666 -74 240.999 -222c61.333 -140 92 -303 92 -489v-39z
M585.001 1287c0 -29.333 -10.333 -54.333 -31 -75s-45.667 -31 -75 -31s-54.333 10.333 -75 31s-31 45.667 -31 75c0 30 10.333 55.333 31 76s45.667 31 75 31s54.333 -10.333 75 -31s31 -46 31 -76z" />
    <glyph glyph-name="u062F" unicode="&#x62f;" horiz-adv-x="710" arabic-form="isolated" 
d="M710 260c0 -175.333 -89.333 -263 -268 -263h-322v215h322c35.333 0 53 13.667 53 41v17c0 83.333 -24.333 186 -73 308c-64.667 163.333 -147 249 -247 257v209c109.333 0 209 -57 299 -171c70.667 -88.667 130 -203 178 -343c38.667 -113.333 58 -199 58 -257v-13z" />
    <glyph glyph-name="u0630" unicode="&#x630;" horiz-adv-x="717" arabic-form="isolated" 
d="M717 260c0 -175.333 -89.334 -263 -268.001 -263h-322v215h322c35.333 0 53 13.667 53 41v17c0 83.333 -24.333 186 -73 308c-64.667 163.333 -146.667 249 -246 257v209c108.667 0 208.334 -57 299.001 -171c70 -88.667 129 -203 177 -343
c38.667 -113.333 58 -199 58 -257v-13zM332.999 1282c0 -30 -10.333 -55.333 -31 -76s-46 -31 -76 -31c-29.333 0 -54.333 10.333 -75 31s-31 46 -31 76c0 29.333 10.333 54.333 31 75s45.667 31 75 31c30 0 55.333 -10.333 76 -31s31 -45.667 31 -75z" />
    <glyph glyph-name="u0631" unicode="&#x631;" horiz-adv-x="636" arabic-form="isolated" 
d="M514 116c-27.333 -141.333 -101.333 -342.999 -222 -604.999h-242c41.333 84 78 162.667 110 236c76.667 174.667 124 306.667 142 396c14 66.667 21 149.667 21 249c0 187.333 -21 404.333 -63 651h218c38.667 -240.667 58 -457 58 -649
c0 -110.667 -7.33301 -203.334 -22 -278.001z" />
    <glyph glyph-name="u0632" unicode="&#x632;" horiz-adv-x="636" arabic-form="isolated" 
d="M514 116c-27.333 -141.333 -101.333 -342.999 -222 -604.999h-242c41.333 84 78 162.667 110 236c76.667 174.667 124 306.667 142 396c14 66.667 21 149.667 21 249c0 187.333 -21 404.333 -63 651h218c38.667 -240.667 58 -457 58 -649
c0 -110.667 -7.33301 -203.334 -22 -278.001zM415 1280c0 -29.333 -10.333 -54.333 -31 -75s-45.667 -31 -75 -31s-54.333 10.333 -75 31s-31 45.667 -31 75s10.333 54.333 31 75s45.667 31 75 31s54.333 -10.333 75 -31s31 -45.667 31 -75z" />
    <glyph glyph-name="u0633" unicode="&#x633;" horiz-adv-x="1924" arabic-form="isolated" 
d="M1929 293c0 -123.333 -31.332 -207.666 -93.999 -252.999c-39.333 -28.667 -96.333 -43 -171 -43h-171c-64.667 0 -116.667 13 -156 39c-40.667 -26 -98 -39 -172 -39h-127c-18.667 0 -37.667 1 -57 3v-3c0 -136 -36.667 -236.333 -110 -301
c-58 -51.333 -133 -77 -225 -77h-92c-132.667 0 -237 36.667 -313 110c-67.333 66 -101 148.667 -101 248v13c0 264 85 573.333 255 928h239c-97.333 -208 -161.333 -355.667 -192 -443c-58.667 -168 -88 -329 -88 -483v-10c0 -40 16.667 -74 50 -102
c37.333 -30.667 87.333 -46 150 -46h92c80.667 0 121 54.333 121 163v1047h214v-761c0 -26 2.66699 -43.333 8 -52c7.33301 -12.667 23.666 -19 48.999 -19h140c34.667 0 52 25 52 75v757h215v-757c0 -50 15.333 -75 46 -75l171 1c34.667 0 52 24.667 52 74v50
c0 126 -14.667 252 -44 378c-30.667 135.333 -72.667 245 -126 329h262c30 -78.667 56.667 -177.334 80 -296.001c28.667 -146.667 43 -283 43 -409v-46z" />
    <glyph glyph-name="u0634" unicode="&#x634;" horiz-adv-x="1928" arabic-form="isolated" 
d="M1929 293c0 -123.333 -31.332 -207.666 -93.999 -252.999c-39.333 -28.667 -96.333 -43 -171 -43h-171c-64.667 0 -116.667 13 -156 39c-40.667 -26 -98 -39 -172 -39h-127c-18.667 0 -37.667 1 -57 3v-3c0 -136 -36.667 -236.333 -110 -301
c-58 -51.333 -133 -77 -225 -77h-92c-132.667 0 -237 36.667 -313 110c-67.333 66 -101 148.667 -101 248v13c0 264 85 573.333 255 928h239c-97.333 -208 -161.333 -355.667 -192 -443c-58.667 -168 -88 -329 -88 -483v-10c0 -40 16.667 -74 50 -102
c37.333 -30.667 87.333 -46 150 -46h92c80.667 0 121 54.333 121 163v1047h214v-761c0 -26 2.66699 -43.333 8 -52c7.33301 -12.667 23.666 -19 48.999 -19h140c34.667 0 52 25 52 75v757h215v-757c0 -50 15.333 -75 46 -75l171 1c34.667 0 52 24.667 52 74v50
c0 126 -14.667 252 -44 378c-30.667 135.333 -72.667 245 -126 329h262c30 -78.667 56.667 -177.334 80 -296.001c28.667 -146.667 43 -283 43 -409v-46zM1444 1463c0 -29.333 -10.667 -54.5 -32 -75.5s-46.333 -31.5 -75 -31.5s-53.834 10.5 -75.501 31.5
s-32.5 46.167 -32.5 75.5c0 28.667 10.833 53.667 32.5 75s46.834 32 75.501 32s53.667 -10.667 75 -32s32 -46.333 32 -75zM1570 1259c0 -29.333 -10.333 -54.5 -31 -75.5s-46 -31.5 -76 -31.5c-28.667 0 -53.5 10.667 -74.5 32s-31.5 46.333 -31.5 75s10.5 53.667 31.5 75
s45.833 32 74.5 32c29.333 0 54.5 -10.667 75.5 -32s31.5 -46.333 31.5 -75zM1329 1259c0 -28.667 -10.667 -53.667 -32 -75s-46.333 -32 -75 -32c-29.333 0 -54.666 10.667 -75.999 32s-32 46.333 -32 75s10.667 53.667 32 75s46.666 32 75.999 32
c28.667 0 53.667 -10.667 75 -32s32 -46.333 32 -75z" />
    <glyph glyph-name="u0635" unicode="&#x635;" horiz-adv-x="1794" arabic-form="isolated" 
d="M1792 293c0 -124 -29.667 -207.668 -89 -251.001c-40.667 -30 -107.667 -45 -201 -45h-414c-36 0 -62.333 1.66699 -79 5v-5c0 -136 -37 -236.333 -111 -301c-58 -51.333 -132.667 -77 -224 -77h-121c-132.667 0 -236.667 36.667 -312 110
c-67.333 66 -101 148.667 -101 248v13c0 276 85.333 588 256 936h245c-90.667 -173.333 -156.667 -320.666 -198 -441.999c-59.333 -170.667 -89 -334.667 -89 -492v-10c0 -40 16.667 -74 50 -102c37.333 -30.667 87 -46 149 -46h121c80 0 120 54.333 120 163v1047h215v-416
c166 263.333 305.667 395 419 395h24c76 0 147 -49 213 -147c84.667 -127.333 127 -306.333 127 -537v-46zM1578 286.999v49.999c0 166.667 -19 294.334 -57 383.001c-26 58.667 -50 88 -72 88h-28c-80 0 -211.667 -197.667 -395 -593
c3.33301 -1.33301 9.33301 -2.33301 18 -3h458c50.667 0 76 25 76 75z" />
    <glyph glyph-name="u0636" unicode="&#x636;" horiz-adv-x="1794" arabic-form="isolated" 
d="M1792 293c0 -124 -29.667 -207.668 -89 -251.001c-40.667 -30 -107.667 -45 -201 -45h-414c-36 0 -62.333 1.66699 -79 5v-5c0 -136 -37 -236.333 -111 -301c-58 -51.333 -132.667 -77 -224 -77h-121c-132.667 0 -236.667 36.667 -312 110
c-67.333 66 -101 148.667 -101 248v13c0 276 85.333 588 256 936h245c-90.667 -173.333 -156.667 -320.666 -198 -441.999c-59.333 -170.667 -89 -334.667 -89 -492v-10c0 -40 16.667 -74 50 -102c37.333 -30.667 87 -46 149 -46h121c80 0 120 54.333 120 163v1047h215v-416
c166 263.333 305.667 395 419 395h24c76 0 147 -49 213 -147c84.667 -127.333 127 -306.333 127 -537v-46zM1578 286.999v49.999c0 166.667 -19 294.334 -57 383.001c-26 58.667 -50 88 -72 88h-28c-80 0 -211.667 -197.667 -395 -593
c3.33301 -1.33301 9.33301 -2.33301 18 -3h458c50.667 0 76 25 76 75zM1446 1287c0 -29.333 -10.333 -54.333 -31 -75s-46 -31 -76 -31c-29.333 0 -54.333 10.333 -75 31s-31 45.667 -31 75c0 30 10.333 55.333 31 76s45.667 31 75 31c30 0 55.333 -10.333 76 -31
s31 -46 31 -76z" />
    <glyph glyph-name="u0637" unicode="&#x637;" horiz-adv-x="1131" arabic-form="isolated" 
d="M1131 293c0 -124 -30.001 -207.667 -90.001 -251c-40 -30 -106.667 -45 -200 -45h-701v1489h214v-848c162.667 256.667 300.334 385 413.001 385h24c76 0 147 -49 213 -147c84.667 -127.333 127 -306.333 127 -537v-46zM916.999 287v49.999
c0 166.667 -19 294.334 -57 383.001c-26 58.667 -50 88 -72 88h-28c-82 0 -229 -175.333 -441 -526c-5.33301 -46.667 1 -70 19 -70h503c50.667 0 76 25 76 75z" />
    <glyph glyph-name="u0638" unicode="&#x638;" horiz-adv-x="1131" arabic-form="isolated" 
d="M1131 293c0 -124 -30.001 -207.667 -90.001 -251c-40 -30 -106.667 -45 -200 -45h-701v1489h214v-848c162.667 256.667 300.334 385 413.001 385h24c76 0 147 -49 213 -147c84.667 -127.333 127 -306.333 127 -537v-46zM916.999 287v49.999
c0 166.667 -19 294.334 -57 383.001c-26 58.667 -50 88 -72 88h-28c-82 0 -229 -175.333 -441 -526c-5.33301 -46.667 1 -70 19 -70h503c50.667 0 76 25 76 75zM887.999 1287c0 -29.333 -10.333 -54.333 -31 -75s-46 -31 -76 -31c-29.333 0 -54.333 10.333 -75 31
s-31 45.667 -31 75c0 30 10.333 55.333 31 76s45.667 31 75 31c30 0 55.333 -10.333 76 -31s31 -46 31 -76z" />
    <glyph glyph-name="u0639" unicode="&#x639;" horiz-adv-x="877" arabic-form="isolated" 
d="M877 663c-177.333 111.333 -299.002 167.001 -365.002 167.001h-10c-37.333 0 -70.333 -16.667 -99 -50c-32.667 -37.333 -49 -87 -49 -149v-299c0 -68.667 11.333 -107 34 -115c8.66699 -3.33301 22.334 -5 41.001 -5h392v-215h-305c-98 0 -147 -43.667 -147 -131
c0 -97.333 54.667 -231.333 164 -402h-255c-79.333 171.333 -119 320 -119 446c0 71.333 14.667 128.666 44 171.999c-42 56 -63 139.333 -63 250v299c0 130.667 36.667 234 110 310c66.667 68.667 149.334 103 248.001 103h13c98.667 0 220.667 -46.333 366 -139v-242z" />
    <glyph glyph-name="u063A" unicode="&#x63a;" horiz-adv-x="879" arabic-form="isolated" 
d="M877 663c-177.333 111.333 -299.002 167.001 -365.002 167.001h-10c-37.333 0 -70.333 -16.667 -99 -50c-32.667 -37.333 -49 -87 -49 -149v-299c0 -68.667 11.333 -107 34 -115c8.66699 -3.33301 22.334 -5 41.001 -5h392v-215h-305c-98 0 -147 -43.667 -147 -131
c0 -97.333 54.667 -231.333 164 -402h-255c-79.333 171.333 -119 320 -119 446c0 71.333 14.667 128.666 44 171.999c-42 56 -63 139.333 -63 250v299c0 130.667 36.667 234 110 310c66.667 68.667 149.334 103 248.001 103h13c98.667 0 220.667 -46.333 366 -139v-242z
M594.998 1287c0 -29.333 -10.333 -54.333 -31 -75s-46 -31 -76 -31c-29.333 0 -54.333 10.333 -75 31s-31 45.667 -31 75c0 30 10.333 55.333 31 76s45.667 31 75 31c30 0 55.333 -10.333 76 -31s31 -46 31 -76z" />
    <glyph glyph-name="u0641" unicode="&#x641;" horiz-adv-x="1402" arabic-form="isolated" 
d="M1184 1287c0 -29.333 -10.333 -54.333 -31 -75s-46 -31 -76 -31c-29.333 0 -54.333 10.333 -75 31s-31 45.667 -31 75c0 30 10.333 55.333 31 76s45.667 31 75 31c30 0 55.333 -10.333 76 -31s31 -46 31 -76zM1402 312c0 -101.333 -30.332 -180.999 -90.999 -238.999
c-54 -51.333 -120.333 -77 -199 -77l-709 1c-92.667 0 -159.667 15 -201 45c-60 43.333 -90 127 -90 251v46c0 218.667 55 453.667 165 705h238c-126 -268.667 -189 -504.334 -189 -707.001v-50c0 -30 5.5 -50 16.5 -60s32.167 -15 63.5 -15l367 -1
c-35.333 71.333 -53 155.333 -53 252c0 129.333 33 253 99 371c74 132.667 164 199 270 199c97.333 0 175.666 -68.667 234.999 -206c52 -118 78 -250 78 -396v-119zM1189 327.001v114.998c0 250.667 -33.333 376 -100 376c-42.667 0 -79.667 -42 -111 -126
c-28.667 -75.333 -43 -151.666 -43 -228.999c0 -69.333 13 -126.333 39 -171c32 -55.333 80 -83.666 144 -84.999c47.333 4 71 44 71 120z" />
    <glyph glyph-name="u0642" unicode="&#x642;" horiz-adv-x="1286" arabic-form="isolated" 
d="M1178 1287c0 -29.333 -10.333 -54.333 -31 -75s-45.667 -31 -75 -31s-54.5 10.333 -75.5 31s-31.5 45.667 -31.5 75c0 30 10.5 55.333 31.5 76s46.167 31 75.5 31s54.333 -10.333 75 -31s31 -46 31 -76zM949 1287c0 -29.333 -10.5 -54.333 -31.5 -75
s-45.833 -31 -74.5 -31c-29.333 0 -54.666 10.5 -75.999 31.5s-32 45.833 -32 74.5c0 29.333 10.667 54.5 32 75.5s46.666 31.5 75.999 31.5c28.667 0 53.5 -10.5 74.5 -31.5s31.5 -46.167 31.5 -75.5zM1286 -3c0 -134.667 -36.332 -234.999 -108.999 -300.999
c-55.333 -51.333 -123.333 -77 -204 -77c-2.66699 -1.33301 -66 -2.66602 -190 -3.99902c-130.667 -1.33301 -209.334 0 -236.001 4c-131.333 1.33301 -234 38.666 -308 111.999c-66 65.333 -99 147.333 -99 246v13c0 331.333 90.667 679.333 272 1044h242
c-200 -403.333 -300 -750.666 -300 -1042v-10c0 -40 17.333 -74 52 -102c38 -30.667 88.667 -46 152 -46c30.667 -4.66699 96 -7 196 -7c102.667 -0.666992 165 1.66602 187 6.99902c86.667 0 130 54.333 130 163v9c-21.333 -6 -43.333 -10 -66 -12c-130 0 -232 48 -306 144
c-66 86 -99 194.667 -99 326c0 129.333 33 253 99 371c74 132.667 164 199 270 199c118 0 201.333 -57.667 250 -173c44.667 -106.667 67 -284.334 67 -533.001v-331zM1071 288.001v38c0 176.667 -2 284 -6 322c-12 113.333 -44 170 -96 170
c-42.667 0 -80 -41.667 -112 -125c-28 -75.333 -42 -151.666 -42 -228.999c0 -70.667 13.333 -128.334 40 -173.001c32 -55.333 81.333 -83 148 -83c18 0 33.833 8.33301 47.5 25s20.5 35 20.5 55z" />
    <glyph glyph-name="u0643" unicode="&#x643;" horiz-adv-x="1820" arabic-form="isolated" 
d="M1806 1556c-206 -24 -405.334 -89.3301 -598.001 -195.997c136 -230.667 204 -480.334 204 -749.001v-318c0 -124 -30 -207.667 -90 -251c-40.667 -30 -107.667 -45 -201 -45h-715c-94.667 0 -162.667 15 -204 45c-60 43.333 -90 127 -90 251v46
c0 204 54.333 439 163 705h240c-125.333 -277.333 -188 -513 -188 -707v-50c0 -30 5.33301 -50 16 -60s31.667 -15 63 -15h715c30 0 50.167 5.16699 60.5 15.5s15.5 30.166 15.5 59.499v322c0 239.333 -77.667 474 -233 704v148c98 69.333 213.333 132.333 346 189
c138.667 59.333 254.334 93.666 347.001 102.999z" />
    <glyph glyph-name="u0644" unicode="&#x644;" horiz-adv-x="984" arabic-form="isolated" 
d="M981 -3c0 -136.667 -39.667 -239.33 -119 -307.997c-70.667 -61.333 -167.667 -92 -291 -92c-142.667 0 -257 40.333 -343 121c-77.333 72.667 -116 159 -116 259v13c0 156.667 29.333 322 88 496c35.333 104.667 97.333 248.667 186 432h239
c-117.333 -250.667 -184.333 -398.334 -201 -443.001c-65.333 -170.667 -98 -331.667 -98 -483v-10c0 -40.667 22.333 -78.334 67 -113.001c48.667 -38 108 -57 178 -57c66 0 116.333 20 151 60c30 35.333 45 80.666 45 135.999v1486h214v-1497z" />
    <glyph glyph-name="u0645" unicode="&#x645;" horiz-adv-x="908" arabic-form="isolated" 
d="M908 293c0 -124 -30.001 -207.667 -90.001 -251c-40.667 -30 -107.667 -45 -201 -45h-114c-116 0 -174 -59.667 -174 -179c0 -97.333 35 -218.333 105 -363h-242c-46.667 133.333 -70 258 -70 374c0 172.667 57.333 286.667 172 342c-18 75.333 -27 162 -27 260
c0 148.667 21.333 271 64 367c52.667 118 131.667 177 237 177c98.667 0 180.334 -65.333 245.001 -196c63.333 -127.333 95 -282.333 95 -465v-21zM692.999 287v23.001c0 298 -44.333 447 -133 447c-73.333 0 -110 -85.667 -110 -257c0 -122.667 17 -218.667 51 -288h116
c30.667 0 51 5.16699 61 15.5s15 30.166 15 59.499z" />
    <glyph glyph-name="u0646" unicode="&#x646;" horiz-adv-x="1008" arabic-form="isolated" 
d="M796 1278c0 -29.333 -10.333 -54.333 -31 -75s-45.667 -31 -75 -31s-54.333 10.333 -75 31s-31 45.667 -31 75c0 30 10.333 55.167 31 75.5s45.667 30.5 75 30.5s54.333 -10.167 75 -30.5s31 -45.5 31 -75.5zM1009 -3c0 -136.667 -39.668 -239.33 -119.001 -307.997
c-70.667 -61.333 -168 -92 -292 -92c-142.667 0 -257 40.333 -343 121c-76.667 72.667 -115 159 -115 259v13c0 278 90 604.667 270 980h239c-95.333 -204 -161.666 -360.333 -198.999 -469c-64 -184.667 -96 -354.334 -96 -509.001v-10c0 -40.667 22 -78.334 66 -113.001
c48.667 -38 108 -57 178 -57c66.667 0 117 20 151 60c30 35.333 45 80.666 45 135.999v1036h215v-1047z" />
    <glyph glyph-name="u0647" unicode="&#x647;" horiz-adv-x="830" arabic-form="isolated" 
d="M830 320c0 -121.333 -42.001 -209.333 -126.001 -264c-62 -40 -141.333 -60 -238 -60h-37c-75.333 0 -144 25.333 -206 76c-74 60.667 -111 141.667 -111 243v26c0 191.333 31.667 354.333 95 489c66.667 142 152.667 213 258 213c116.667 0 208.334 -73 275.001 -219
c60 -130.667 90 -291.667 90 -483v-21zM609.999 317v21c0 325.333 -47.333 488 -142 488c-93.333 0 -140 -162.333 -140 -487v-18c0 -29.333 8.66699 -54.333 26 -75c19.333 -23.333 46.333 -35 81 -35h31c96 0 144 35.333 144 106z" />
    <glyph glyph-name="u0648" unicode="&#x648;" horiz-adv-x="836" arabic-form="isolated" 
d="M841 283c0 -167.333 -82.334 -425.667 -247.001 -775h-253c31.333 54 60 107.333 86 160c64 127.333 111.333 240.666 142 339.999c-17.333 -1.33301 -31.666 -2 -42.999 -2c-115.333 0 -208 50.667 -278 152c-60 86.667 -90 184.334 -90 293.001v22
c0 92 25 195.667 75 311c72 167.333 173.333 251 304 251c97.333 0 174.333 -78.333 231 -235c48.667 -134 73 -289.667 73 -467v-50zM626.999 288.999v43.002c0 9.33301 0.5 33.166 1.5 71.499s1.5 70.166 1.5 95.499c0 212 -31 318 -93 318c-56 0 -100 -48.667 -132 -146
c-22.667 -68.667 -34 -131.667 -34 -189v-20c0 -54 9.66699 -102.667 29 -146c27.333 -61.333 69.333 -92 126 -92c32 0 58 9 78 27c15.333 14 23 26.667 23 38z" />
    <glyph glyph-name="u0649" unicode="&#x649;" horiz-adv-x="1113" arabic-form="isolated" 
d="M1104 782c-76.667 37.333 -133 55.999 -169 55.999c-56 0 -84 -58.667 -84 -176c0 -87.333 22.667 -181.333 68 -282l107 -213c15.333 -35.333 23 -79.666 23 -132.999c0 -112 -31.667 -207.667 -95 -287c-80.667 -100 -199.334 -150 -356.001 -150
c-142.667 0 -257 40.333 -343 121c-76.667 72.667 -115 159 -115 259v13c0 326 62.333 637 187 933h240c-142 -338.667 -213 -649 -213 -931v-10c0 -40.667 22 -78.334 66 -113.001c48.667 -38 108 -57 178 -57s129.333 26.667 178 80c42.667 46.667 64 96.334 64 149.001
c0 18 -3.33301 33.667 -10 47l-124 248c-46 111.333 -69 223 -69 335c0 110.667 25.667 201.667 77 273c54 74.667 126.333 112 217 112c50.667 3.33301 108.334 -8 173.001 -34v-240z" />
    <glyph glyph-name="u064A" unicode="&#x64a;" horiz-adv-x="1113" arabic-form="isolated" 
d="M1104 782c-76.667 37.333 -133 55.999 -169 55.999c-56 0 -84 -58.667 -84 -176c0 -87.333 22.667 -181.333 68 -282l107 -213c15.333 -35.333 23 -79.666 23 -132.999c0 -112 -31.667 -207.667 -95 -287c-80.667 -100 -199.334 -150 -356.001 -150
c-142.667 0 -257 40.333 -343 121c-76.667 72.667 -115 159 -115 259v13c0 326 62.333 637 187 933h240c-142 -338.667 -213 -649 -213 -931v-10c0 -40.667 22 -78.334 66 -113.001c48.667 -38 108 -57 178 -57s129.333 26.667 178 80c42.667 46.667 64 96.334 64 149.001
c0 18 -3.33301 33.667 -10 47l-124 248c-46 111.333 -69 223 -69 335c0 110.667 25.667 201.667 77 273c54 74.667 126.333 112 217 112c50.667 3.33301 108.334 -8 173.001 -34v-240z" />
    <glyph glyph-name="u067E" unicode="&#x67e;" horiz-adv-x="1415" arabic-form="isolated" 
d="M1409 293c0 -124 -30 -207.666 -90 -250.999c-40.667 -30 -107.667 -45 -201 -45h-715c-93.333 0 -160.333 15 -201 45c-60 43.333 -90 127 -90 251v46c0 204 54.333 439 163 705h240c-125.333 -277.333 -188 -513 -188 -707v-50c0 -30 5.33301 -50 16 -60
s31.667 -15 63 -15h712c30.667 0 51 5.16699 61 15.5s15 30.166 15 59.499v50c0 84.667 -13.667 183 -41 295c-35.333 146 -88 283.333 -158 412h250c109.333 -256.667 164 -491.667 164 -705v-46zM991 -184.999c0 -28.667 -10.333 -53.5 -31 -74.5s-45.667 -31.5 -75 -31.5
c-28.667 0 -53.5 10.5 -74.5 31.5s-31.5 45.833 -31.5 74.5c0 29.333 10.5 54.333 31.5 75s45.833 31 74.5 31c29.333 0 54.333 -10.333 75 -31s31 -45.667 31 -75zM729 -184.999c0 -28.667 -10.667 -53.5 -32 -74.5s-46.333 -31.5 -75 -31.5s-53.667 10.5 -75 31.5
s-32 45.833 -32 74.5c0 29.333 10.667 54.333 32 75s46.333 31 75 31c29.333 0 54.5 -10.333 75.5 -31s31.5 -45.667 31.5 -75zM861 -388.999c0 -29.333 -10.333 -54.5 -31 -75.5s-45.667 -31.5 -75 -31.5s-54.666 10.667 -75.999 32s-32 46.333 -32 75s10.667 53.5 32 74.5
s46.666 31.5 75.999 31.5c28.667 0 53.5 -10.333 74.5 -31s31.5 -45.667 31.5 -75z" />
    <glyph glyph-name="u0686" unicode="&#x686;" horiz-adv-x="886" arabic-form="isolated" 
d="M829 293c0 -124 -30.332 -208.332 -90.999 -252.999c-42 -30.667 -109 -45 -201 -43l-108 3c-97.333 2.66699 -146 -39.333 -146 -126c0 -99.333 56 -237.333 168 -414l-209 4c-80.667 163.333 -121 308.333 -121 435c0 208.667 119.333 313 358 313h58
c30.667 0 51 5.16699 61 15.5s15 30.166 15 59.499v41c0 331.333 -42 497 -126 497c-62.667 0 -94 -68.333 -94 -205c0 -68 7 -142 21 -222l-168 -1c-4 42 -6 88 -6 138c0 338.667 85.333 508 256 508c95.333 0 175.666 -74 240.999 -222c61.333 -140 92 -303 92 -489v-39z
M858.001 -194.999c0 -28.667 -10.333 -53.5 -31 -74.5s-45.667 -31.5 -75 -31.5c-28.667 0 -53.5 10.5 -74.5 31.5s-31.5 45.833 -31.5 74.5c0 29.333 10.5 54.333 31.5 75s45.833 31 74.5 31c29.333 0 54.333 -10.333 75 -31s31 -45.667 31 -75zM596.001 -194.999
c0 -28.667 -10.667 -53.5 -32 -74.5s-46.333 -31.5 -75 -31.5s-53.667 10.5 -75 31.5s-32 45.833 -32 74.5s10.5 53.5 31.5 74.5s46.167 31.5 75.5 31.5s54.5 -10.333 75.5 -31s31.5 -45.667 31.5 -75zM728.001 -399.999c0 -28.667 -10.333 -53.5 -31 -74.5
s-46 -31.5 -76 -31.5c-28.667 0 -53.667 10.5 -75 31.5s-32 45.833 -32 74.5c0 29.333 10.667 54.5 32 75.5s46.333 31.5 75 31.5c29.333 0 54.5 -10.333 75.5 -31s31.5 -46 31.5 -76z" />
    <glyph glyph-name="u0698" unicode="&#x698;" horiz-adv-x="640" arabic-form="isolated" 
d="M514 116c-27.333 -141.333 -101.333 -342.999 -222 -604.999h-242c41.333 84 78 162.667 110 236c76.667 174.667 124 306.667 142 396c14 66.667 21 149.667 21 249c0 187.333 -21 404.333 -63 651h218c38.667 -240.667 58 -457 58 -649
c0 -110.667 -7.33301 -203.334 -22 -278.001zM436 1463c0 -29.333 -10.667 -54.5 -32 -75.5s-46.333 -31.5 -75 -31.5s-53.834 10.5 -75.501 31.5s-32.5 46.167 -32.5 75.5c0 28.667 10.833 53.667 32.5 75s46.834 32 75.501 32s53.667 -10.667 75 -32s32 -46.333 32 -75z
M562 1259c0 -29.333 -10.333 -54.5 -31 -75.5s-46 -31.5 -76 -31.5c-28.667 0 -53.5 10.667 -74.5 32s-31.5 46.333 -31.5 75s10.5 53.667 31.5 75s45.833 32 74.5 32c29.333 0 54.5 -10.667 75.5 -32s31.5 -46.333 31.5 -75zM321 1259c0 -28.667 -10.667 -53.667 -32 -75
s-46.333 -32 -75 -32c-29.333 0 -54.666 10.667 -75.999 32s-32 46.333 -32 75s10.667 53.667 32 75s46.666 32 75.999 32c28.667 0 53.667 -10.667 75 -32s32 -46.333 32 -75z" />
    <glyph glyph-name="u06AF" unicode="&#x6af;" horiz-adv-x="1830" arabic-form="isolated" 
d="M1509 1798c-80 -18.667 -155.667 -45.667 -227 -81c-52.667 -26 -140 -76.667 -262 -152v130c116 89.333 250 159 402 209c5.33301 -6 34.333 -41.333 87 -106zM1805 1557c-206 -23.333 -405.334 -88.3311 -598.001 -194.998c136 -231.333 204 -481 204 -749v-318
c0 -124 -30 -207.667 -90 -251c-40.667 -30 -107.667 -45 -201 -45h-715c-94.667 0 -162.667 15 -204 45c-60 43.333 -90 127 -90 251v46c0 204 54.333 439 163 705h240c-125.333 -277.333 -188 -513.333 -188 -708v-49c0 -30 5.33301 -50 16 -60s31.667 -15 63 -15h715
c30 0 50.167 5.16699 60.5 15.5s15.5 30.166 15.5 59.499v321c0 240 -77.667 475 -233 705v148c98 69.333 213.333 132.333 346 189c138.667 59.333 254.334 93.666 347.001 102.999z" />
    <glyph glyph-name="uFB57" unicode="&#x67e;" horiz-adv-x="1591" arabic-form="final" 
d="M1620 -3h-135.001c-78.667 0 -139.667 14 -183 42c-43.333 -28 -104.666 -42 -183.999 -42h-715c-93.333 0 -160.333 15 -201 45c-60 43.333 -90 127 -90 251v46c0 215.333 54.667 450.333 164 705h243c-128 -262 -192 -497.667 -192 -707v-50c0 -30 5.33301 -50 16 -60
s31.667 -15 63 -15h712c30.667 0 51 5.16699 61 15.5s15 30.166 15 59.499v757h215v-757c0 -29.333 5.5 -49.166 16.5 -59.499s31.5 -15.5 61.5 -15.5h133v-215zM990.999 -185c0 -28.667 -10.333 -53.5 -31 -74.5s-45.667 -31.5 -75 -31.5c-28.667 0 -53.5 10.5 -74.5 31.5
s-31.5 45.833 -31.5 74.5c0 29.333 10.5 54.333 31.5 75s45.833 31 74.5 31c29.333 0 54.333 -10.333 75 -31s31 -45.667 31 -75zM728.999 -185c0 -28.667 -10.667 -53.5 -32 -74.5s-46.333 -31.5 -75 -31.5s-53.667 10.5 -75 31.5s-32 45.833 -32 74.5
c0 29.333 10.667 54.333 32 75s46.333 31 75 31c29.333 0 54.5 -10.333 75.5 -31s31.5 -45.667 31.5 -75zM860.999 -389c0 -29.333 -10.333 -54.5 -31 -75.5s-45.667 -31.5 -75 -31.5s-54.666 10.667 -75.999 32s-32 46.333 -32 75s10.667 53.5 32 74.5
s46.666 31.5 75.999 31.5c28.667 0 53.5 -10.333 74.5 -31s31.5 -45.667 31.5 -75z" />
    <glyph glyph-name="uFB58" unicode="&#x67e;" horiz-adv-x="605" arabic-form="initial" 
d="M476 293c0 -124 -30 -207.666 -90 -250.999c-40.667 -30 -107.667 -45 -201 -45h-246v215h246c30.667 0 51 5.16699 61 15.5s15 30.166 15 59.499v50c0 191.333 -62.667 427 -188 707h241c108 -261.333 162 -496.333 162 -705v-46zM412 -184.999
c0 -28.667 -10.333 -53.5 -31 -74.5s-45.667 -31.5 -75 -31.5c-28.667 0 -53.5 10.5 -74.5 31.5s-31.5 45.833 -31.5 74.5c0 29.333 10.5 54.333 31.5 75s45.833 31 74.5 31c29.333 0 54.333 -10.333 75 -31s31 -45.667 31 -75zM150 -184.999
c0 -28.667 -10.667 -53.5 -32 -74.5s-46.333 -31.5 -75 -31.5s-53.667 10.5 -75 31.5s-32 45.833 -32 74.5c0 29.333 10.667 54.333 32 75s46.333 31 75 31c29.333 0 54.5 -10.333 75.5 -31s31.5 -45.667 31.5 -75zM282 -388.999c0 -29.333 -10.333 -54.5 -31 -75.5
s-45.667 -31.5 -75 -31.5s-54.666 10.667 -75.999 32s-32 46.333 -32 75s10.667 53.5 32 74.5s46.666 31.5 75.999 31.5c28.667 0 53.5 -10.333 74.5 -31s31.5 -45.667 31.5 -75z" />
    <glyph glyph-name="uFB59" unicode="&#x67e;" horiz-adv-x="606" arabic-form="medial" 
d="M634 -3h-155c-79.333 0 -140.666 14 -183.999 42c-42.667 -28 -103.667 -42 -183 -42h-171v215h171c30 0 50.167 5.16699 60.5 15.5s15.5 30.166 15.5 59.499v757h214v-757c0 -29.333 5.66699 -49.166 17 -59.499s31.666 -15.5 60.999 -15.5h154v-215zM437 -185
c0 -28.667 -10.333 -53.5 -31 -74.5s-45.667 -31.5 -75 -31.5c-28.667 0 -53.667 10.5 -75 31.5s-32 45.833 -32 74.5c0 29.333 10.5 54.333 31.5 75s46.167 31 75.5 31s54.333 -10.333 75 -31s31 -45.667 31 -75zM174 -185c0 -28.667 -10.5 -53.5 -31.5 -74.5
s-45.833 -31.5 -74.5 -31.5c-29.333 0 -54.5 10.5 -75.5 31.5s-31.5 45.833 -31.5 74.5c0 29.333 10.5 54.333 31.5 75s46.167 31 75.5 31c28.667 0 53.5 -10.333 74.5 -31s31.5 -45.667 31.5 -75zM307 -389c0 -29.333 -10.5 -54.5 -31.5 -75.5s-46.167 -31.5 -75.5 -31.5
c-28.667 0 -53.667 10.667 -75 32s-32 46.333 -32 75s10.667 53.5 32 74.5s46.333 31.5 75 31.5c29.333 0 54.5 -10.333 75.5 -31s31.5 -45.667 31.5 -75z" />
    <glyph glyph-name="uFB7B" unicode="&#x686;" horiz-adv-x="1027" arabic-form="final" 
d="M1055 -3l-153.998 0.00195312c-78 0 -138.667 13.667 -182 41c-42.667 -27.333 -104.334 -41 -185.001 -41h-95c-97.333 0 -146 -43 -146 -129c0 -98 55.333 -232.667 166 -404h-217c-80.667 163.333 -121 308.333 -121 435c0 208.667 119.333 313 358 313h55
c30.667 0 51 5.16699 61 15.5s15 30.166 15 59.499v41c0 331.333 -42.333 497 -127 497c-66.667 0 -100 -75.667 -100 -227c0 -63.333 5.66699 -130 17 -200l-172 -1c-2.66699 31.333 -4 66.333 -4 105c0 136 15 249 45 339c44 134.667 117.667 202 221 202
c97.333 0 178.666 -74 243.999 -222c61.333 -139.333 92 -302.333 92 -489v-39c0 -30.667 4.33301 -51.334 13 -62.001c10.667 -12.667 31.667 -19 63 -19h153v-215zM858.002 -194.998c0 -28.667 -10.333 -53.5 -31 -74.5s-45.667 -31.5 -75 -31.5
c-28.667 0 -53.5 10.5 -74.5 31.5s-31.5 45.833 -31.5 74.5c0 29.333 10.5 54.333 31.5 75s45.833 31 74.5 31c29.333 0 54.333 -10.333 75 -31s31 -45.667 31 -75zM596.002 -194.998c0 -28.667 -10.667 -53.5 -32 -74.5s-46.333 -31.5 -75 -31.5s-53.667 10.5 -75 31.5
s-32 45.833 -32 74.5s10.5 53.5 31.5 74.5s46.167 31.5 75.5 31.5s54.5 -10.333 75.5 -31s31.5 -45.667 31.5 -75zM728.002 -399.998c0 -28.667 -10.333 -53.5 -31 -74.5s-46 -31.5 -76 -31.5c-28.667 0 -53.667 10.5 -75 31.5s-32 45.833 -32 74.5
c0 29.333 10.667 54.5 32 75.5s46.333 31.5 75 31.5c29.333 0 54.5 -10.333 75.5 -31s31.5 -46 31.5 -76z" />
    <glyph glyph-name="uFB7C" unicode="&#x686;" horiz-adv-x="707" arabic-form="initial" 
d="M708 293c0 -124 -30 -207.666 -90 -250.999c-40.667 -30 -107.667 -45 -201 -45h-482v215h482c30 0 50.167 5.16699 60.5 15.5s15.5 30.166 15.5 59.499v41c0 144 -4.33301 245.667 -13 305c-19.333 128 -60.333 192 -123 192c-65.333 0 -98 -90.667 -98 -272
c0 -50 2.33301 -99.333 7 -148l-158 -8c-1.33301 21.333 -2 46 -2 74c0 138 14 254.667 42 350c42.667 148 114.667 222 216 222c110 0 196.667 -74 260 -222c56 -132 84 -295 84 -489v-39zM605 -184.999c0 -28.667 -10.333 -53.5 -31 -74.5s-46 -31.5 -76 -31.5
c-28.667 0 -53.5 10.5 -74.5 31.5s-31.5 45.833 -31.5 74.5c0 29.333 10.5 54.333 31.5 75s45.833 31 74.5 31c30 0 55.333 -10.333 76 -31s31 -45.667 31 -75zM342 -184.999c0 -28.667 -10.5 -53.5 -31.5 -74.5s-45.833 -31.5 -74.5 -31.5c-29.333 0 -54.5 10.5 -75.5 31.5
s-31.5 45.833 -31.5 74.5c0 29.333 10.5 54.333 31.5 75s46.167 31 75.5 31c28.667 0 53.5 -10.333 74.5 -31s31.5 -45.667 31.5 -75zM474 -388.999c0 -29.333 -10.333 -54.5 -31 -75.5s-45.667 -31.5 -75 -31.5s-54.5 10.667 -75.5 32s-31.5 46.333 -31.5 75
s10.5 53.5 31.5 74.5s46.167 31.5 75.5 31.5c28.667 0 53.5 -10.333 74.5 -31s31.5 -45.667 31.5 -75z" />
    <glyph glyph-name="uFB7D" unicode="&#x686;" horiz-adv-x="911" arabic-form="medial" 
d="M941 -3l-154.999 -0.000976562c-78 0 -138.667 13.667 -182 41c-42.667 -27.333 -104.334 -41 -185.001 -41h-479v215h479c30.667 0 51.167 5.16699 61.5 15.5s15.5 30.166 15.5 59.499v41c0 331.333 -45.667 497 -137 497c-67.333 0 -101 -89.333 -101 -268
c0 -51.333 2.66699 -102 8 -152l-155 -8c-2 26 -3 56 -3 90c0 136.667 14.333 251.334 43 344.001c43.333 141.333 115.333 212 216 212c104 0 188.333 -74 253 -222c60 -136.667 90 -299.667 90 -489v-45c0 -29.333 5.5 -49.166 16.5 -59.499s31.5 -15.5 61.5 -15.5h153
v-215zM633.001 -185.001c0 -28.667 -10.5 -53.5 -31.5 -74.5s-46.167 -31.5 -75.5 -31.5c-28.667 0 -53.5 10.5 -74.5 31.5s-31.5 45.833 -31.5 74.5c0 29.333 10.5 54.333 31.5 75s45.833 31 74.5 31c30 0 55.333 -10.333 76 -31s31 -45.667 31 -75zM370.001 -185.001
c0 -28.667 -10.5 -53.5 -31.5 -74.5s-45.833 -31.5 -74.5 -31.5c-29.333 0 -54.666 10.5 -75.999 31.5s-32 45.833 -32 74.5c0 29.333 10.667 54.333 32 75s46.666 31 75.999 31c28.667 0 53.5 -10.333 74.5 -31s31.5 -45.667 31.5 -75zM502.001 -389.001
c0 -29.333 -10.333 -54.5 -31 -75.5s-45.667 -31.5 -75 -31.5s-54.5 10.667 -75.5 32s-31.5 46.333 -31.5 75s10.5 53.5 31.5 74.5s46.167 31.5 75.5 31.5c28.667 0 53.5 -10.333 74.5 -31s31.5 -45.667 31.5 -75z" />
    <glyph glyph-name="uFB8B" unicode="&#x698;" horiz-adv-x="700" arabic-form="final" 
d="M733 -3l-150.001 -0.000976562c-41.333 0 -74.333 3.33301 -99 10c-51.333 -161.333 -115.666 -326.666 -192.999 -495.999h-241c48.667 100 90.667 194.333 126 283c86 212 133 376.333 141 493c2 28 3 60 3 96c0 167.333 -18.333 387.333 -55 660h216
c36 -269.333 54 -489.666 54 -660.999c0 -38.667 -1 -73.334 -3 -104.001c-3.33301 -44 13.667 -66 51 -66h150v-215zM432.999 1463c0 -29.333 -10.5 -54.5 -31.5 -75.5s-45.833 -31.5 -74.5 -31.5c-29.333 0 -54.833 10.5 -76.5 31.5s-32.5 46.167 -32.5 75.5
c0 28.667 10.833 53.667 32.5 75s47.167 32 76.5 32c28 0 52.667 -10.667 74 -32s32 -46.333 32 -75zM559.999 1259c0 -29.333 -10.499 -54.5 -31.499 -75.5s-46.5 -31.5 -76.5 -31.5c-28.667 0 -53.5 10.667 -74.5 32s-31.5 46.333 -31.5 75s10.5 53.667 31.5 75
s45.833 32 74.5 32c29.333 0 54.666 -10.667 75.999 -32s32 -46.333 32 -75zM318 1259c0 -28.667 -10.5 -53.667 -31.5 -75s-46.167 -32 -75.5 -32s-54.5 10.667 -75.5 32s-31.5 46.333 -31.5 75s10.5 53.667 31.5 75s46.167 32 75.5 32c28.667 0 53.667 -10.667 75 -32
s32 -46.333 32 -75z" />
    <glyph glyph-name="uFEDA" unicode="&#x6a9;" horiz-adv-x="1766" arabic-form="final" 
d="M1806 1556c-206 -24 -405.334 -89.3291 -598.001 -195.996c136 -230.667 204 -480.334 204 -749.001v-318c0 -30.667 4.66699 -51.334 14 -62.001c10 -12.667 31 -19 63 -19h307v-215h-308c-80.667 0 -143 14 -187 42c-46.667 -28 -106.667 -42 -180 -42h-715
c-94.667 0 -162.667 15 -204 45c-60 43.333 -90 127 -90 251v46c0 204 54.333 439 163 705h240c-125.333 -277.333 -188 -513 -188 -707v-50c0 -30 5.33301 -50 16 -60s31.667 -15 63 -15h715c30 0 50.167 5.16699 60.5 15.5s15.5 30.166 15.5 59.499v322
c0 239.333 -77.667 474 -233 704v148c98 69.333 213.333 132.333 346 189c138.667 59.333 254.334 93.666 347.001 102.999z" />
    <glyph glyph-name="uFEDB" unicode="&#x6a9;" horiz-adv-x="898" arabic-form="initial" 
d="M891 1556c-206 -24 -405.668 -89.3301 -599.001 -195.997c136.667 -230.667 205 -480.334 205 -749.001v-318c0 -124 -30.333 -207.667 -91 -251c-40.667 -30 -107.667 -45 -201 -45h-260v215h260c30.667 0 51 5.16699 61 15.5s15 30.166 15 59.499v322
c0 239.333 -77.667 474 -233 704v148c98.667 69.333 214.334 132.333 347.001 189c138 59.333 253.667 93.666 347 102.999z" />
    <glyph glyph-name="uFEDC" unicode="&#x6a9;" horiz-adv-x="917" arabic-form="medial" 
d="M957 1556c-206 -24 -405.334 -89.3291 -598.001 -195.996c136 -230.667 204 -480.334 204 -749.001v-318c0 -30.667 4.66699 -51.334 14 -62.001c10 -12.667 31 -19 63 -19h305v-215h-306c-80.667 0 -143 14 -187 42c-46.667 -28 -106.667 -42 -180 -42h-305v215h305
c30 0 50.167 5.16699 60.5 15.5s15.5 30.166 15.5 59.499v322c0 239.333 -77.667 474 -233 704v148c98 69.333 213.333 132.333 346 189c138.667 59.333 254.334 93.666 347.001 102.999z" />
    <glyph glyph-name="uFB93" unicode="&#x6af;" horiz-adv-x="1771" arabic-form="final" 
d="M1504 1809c-80.667 -18.667 -156.667 -45.667 -228 -81c-52 -26 -139 -76.667 -261 -152v130c116 89.333 250 159 402 209c5.33301 -6 34.333 -41.333 87 -106zM1807 1556c-206 -24 -405.334 -89.3291 -598.001 -195.996c136 -230.667 204 -480.334 204 -749.001v-318
c0 -30.667 4.66699 -51.334 14 -62.001c10 -12.667 31 -19 63 -19h307v-215h-308c-80.667 0 -143 14 -187 42c-46.667 -28 -106.667 -42 -180 -42h-715c-94.667 0 -162.667 15 -204 45c-60 43.333 -90 127 -90 251v46c0 204 54.333 439 163 705h240
c-125.333 -277.333 -188 -513 -188 -707v-50c0 -30 5.33301 -50 16 -60s31.667 -15 63 -15h715c30 0 50.167 5.16699 60.5 15.5s15.5 30.166 15.5 59.499v322c0 239.333 -77.667 474 -233 704v148c98 69.333 213.333 132.333 346 189
c138.667 59.333 254.334 93.666 347.001 102.999z" />
    <glyph glyph-name="uFB94" unicode="&#x6af;" horiz-adv-x="925" arabic-form="initial" 
d="M568 1798c-80.667 -18.667 -156.667 -45.667 -228 -81c-52 -26 -139 -76.667 -261 -152v130c116 89.333 250 159 402 209c5.33301 -6 34.333 -41.333 87 -106zM891 1556c-206 -24 -405.668 -89.3301 -599.001 -195.997c136.667 -230.667 205 -480.334 205 -749.001v-318
c0 -124 -30.333 -207.667 -91 -251c-40.667 -30 -107.667 -45 -201 -45h-260v215h260c30.667 0 51 5.16699 61 15.5s15 30.166 15 59.499v322c0 239.333 -77.667 474 -233 704v148c98.667 69.333 214.334 132.333 347.001 189c138 59.333 253.667 93.666 347 102.999z" />
    <glyph glyph-name="uFB95" unicode="&#x6af;" horiz-adv-x="916" arabic-form="medial" 
d="M625 1783c-80 -18.667 -155.667 -45.667 -227 -81c-52.667 -26 -140 -76.667 -262 -152v130c116 89.333 250 159 402 209c5.33301 -6 34.333 -41.333 87 -106zM957 1556c-206 -24 -405.334 -89.3291 -598.001 -195.996c136 -230.667 204 -480.334 204 -749.001v-318
c0 -30.667 4.66699 -51.334 14 -62.001c10 -12.667 31 -19 63 -19h305v-215h-306c-80.667 0 -143 14 -187 42c-46.667 -28 -106.667 -42 -180 -42h-305v215h305c30 0 50.167 5.16699 60.5 15.5s15.5 30.166 15.5 59.499v322c0 239.333 -77.667 474 -233 704v148
c98 69.333 213.333 132.333 346 189c138.667 59.333 254.334 93.666 347.001 102.999z" />
    <glyph glyph-name="uFE94" unicode="&#x6c0;" horiz-adv-x="891" arabic-form="final" 
d="M498 212c-1.33301 14.667 -2.66602 38 -3.99902 70l-1 25c-2.66699 70.667 7.66602 160 30.999 268c24.667 112 37 178 37 198c0 38 -14.667 57 -44 57c-46 0 -90.333 -74 -133 -222c-34.667 -122 -52 -212 -52 -270v-19c0 -28.667 15 -54 45 -76
c28 -20.667 56.333 -31 85 -31h36zM569 54v-57h-107c-82 0 -159 29.667 -231 89c-79.333 64.667 -119 143 -119 235v21c0 42 14 114 42 216c36 131.333 80 238.333 132 321c68.667 110 145.667 165 231 165c80.667 0 137.667 -29.667 171 -89
c26.667 -48.667 40 -123 40 -223c0 -42.667 -3.33301 -112 -10 -208s-10 -167.667 -10 -215v-26c0 -28 5.33301 -46.833 16 -56.5s30.667 -14.5 60 -14.5h135v-215h-136c-100 0 -171.333 19 -214 57zM664 1366c-82.667 40.667 -135.667 61 -159 61
c-12 0 -18 -12.333 -18 -37c0 -24 6.66699 -46.333 20 -67h152v-136h-363v135h74c-8.66699 75.333 -2.66699 132.333 18 171c27.333 50.667 70 76 128 76c38.667 0 88 -20.333 148 -61v-142z" />
    <glyph glyph-name="uFEF2" unicode="&#x6cc;" horiz-adv-x="1040" arabic-form="final" 
d="M1057 -3l-95.998 0.000976562c2.66699 -19.333 4 -35.666 4 -48.999c0 -72.667 -35.667 -143.334 -107 -212.001c-84 -80.667 -189 -121 -315 -121c-142 0 -251.667 37.333 -329 112c-68 66 -102 149.333 -102 250v13c0 159.333 27 324.666 81 495.999
c37.333 119.333 96.666 263.333 177.999 432h239c-100.667 -216 -165.334 -363.667 -194.001 -443c-60 -168.667 -90 -329.667 -90 -483v-10c0 -41.333 17.667 -76 53 -104c39.333 -31.333 94 -47 164 -47c67.333 0 120 17.333 158 52c26.667 24 40 45.667 40 65
c0 33.333 -17.333 61.333 -52 84l-98 61c-34.667 29.333 -52 69 -52 119h518v-215z" />
    <glyph glyph-name="uFEF3" unicode="&#x6cc;" horiz-adv-x="576" arabic-form="initial" 
d="M476 293c0 -124 -30 -207.666 -90 -250.999c-40.667 -30 -107.667 -45 -201 -45h-246v215h246c30.667 0 51 5.16699 61 15.5s15 30.166 15 59.499v50c0 191.333 -62.667 427 -188 707h241c108 -261.333 162 -496.333 162 -705v-46zM408 -223.999
c0 -30 -10.333 -55.333 -31 -76s-45.667 -31 -75 -31s-54.666 10.5 -75.999 31.5s-32 46.167 -32 75.5s10.667 54.333 32 75s46.666 31 75.999 31s54.333 -10.333 75 -31s31 -45.667 31 -75zM179 -223.999c0 -29.333 -10.5 -54.5 -31.5 -75.5s-46.167 -31.5 -75.5 -31.5
s-54.5 10.5 -75.5 31.5s-31.5 46.167 -31.5 75.5s10.5 54.333 31.5 75s46.167 31 75.5 31s54.5 -10.333 75.5 -31s31.5 -45.667 31.5 -75z" />
    <glyph glyph-name="uFEF4" unicode="&#x6cc;" horiz-adv-x="607" arabic-form="medial" 
d="M634 -3h-155c-79.333 0 -140.666 14 -183.999 42c-42.667 -28 -103.667 -42 -183 -42h-171v215h171c30 0 50.167 5.16699 60.5 15.5s15.5 30.166 15.5 59.499v757h214v-757c0 -29.333 5.66699 -49.166 17 -59.499s31.666 -15.5 60.999 -15.5h154v-215zM438 -229
c0 -29.333 -10.333 -54.333 -31 -75s-46 -31 -76 -31c-29.333 0 -54.5 10.333 -75.5 31s-31.5 45.667 -31.5 75s10.5 54.5 31.5 75.5s46.167 31.5 75.5 31.5c30 0 55.333 -10.333 76 -31s31 -46 31 -76zM208 -229c0 -29.333 -10.5 -54.333 -31.5 -75s-45.833 -31 -74.5 -31
c-29.333 0 -54.666 10.5 -75.999 31.5s-32 45.833 -32 74.5c0 29.333 10.667 54.5 32 75.5s46.666 31.5 75.999 31.5c28.667 0 53.5 -10.5 74.5 -31.5s31.5 -46.167 31.5 -75.5z" />
    <glyph glyph-name="Hcircumflex" unicode="&#x622;" horiz-adv-x="699" arabic-form="final" 
d="M533 1380h-266.001c-23.333 0 -43.166 -8.16699 -59.499 -24.5s-24.5 -33.5 -24.5 -51.5v-17c0 -34 6.66699 -67.333 20 -100c4.66699 -13.333 26.667 -59.333 66 -138l-151 -84c-64 119.333 -96 229.333 -96 330v14c0 160 81.667 240 245 240h264zM715.999 -3
l-109 -0.000976562c-93.333 0 -160.333 14.667 -201 44c-60.667 44 -91 127.667 -91 251v1000h215v-1005c0 -29.333 5.66699 -49.166 17 -59.499s32 -15.5 62 -15.5h107v-215z" />
    <glyph glyph-name="uFE84" unicode="&#x623;" horiz-adv-x="518" arabic-form="final" 
d="M540 -3l-109 -0.000976562c-93.333 0 -160.333 14.667 -201 44c-60 44 -90 127.667 -90 251v1194h214v-1199c0 -29.333 5.66699 -49.166 17 -59.499s32 -15.5 62 -15.5h107v-215zM458 1719c-82.667 40.667 -135.667 60.999 -159 60.999c-12 0 -18 -12.333 -18 -37
c0 -23.333 6.66699 -45.666 20 -66.999h152v-136h-363v135h74c-8.66699 75.333 -2.66699 132.333 18 171c27.333 50.667 70 76 128 76c38.667 0 88 -20 148 -60v-143z" />
    <glyph glyph-name="uFE86" unicode="&#x624;" horiz-adv-x="953" arabic-form="final" 
d="M972 -3l-183.001 0.000976562c-34 -112.667 -69 -210.334 -105 -293.001l-87 -196h-222c8.66699 30 34.667 94.333 78 193c46 104.667 83.333 205 112 301c-271.333 28 -407 177.667 -407 449v22c0 91.333 25 195 75 311c72.667 167.333 174 251 304 251
c88.667 0 162.334 -66.333 221.001 -199c56 -125.333 84 -272 84 -440c0 -18 -0.333008 -36 -1 -54c-0.666992 -22.667 -2.66699 -66 -6 -130h137v-215zM631.999 341.001c0 317.333 -31.667 476.001 -95 476.001c-56 0 -100 -48.667 -132 -146
c-22.667 -68.667 -34 -131.667 -34 -189v-20c0 -78 18.333 -136.667 55 -176c39.333 -41.333 104 -65.333 194 -72c8 45.333 12 87.666 12 126.999zM672.999 1366c-82 40.667 -134.998 61 -158.998 61c-12 0 -18 -12.333 -18 -37c0 -24 6.66699 -46.333 20 -67h153v-136
h-364v135h74c-8.66699 75.333 -2.33398 132.333 18.999 171c27.333 50.667 69.666 76 126.999 76c38.667 0 88 -20.333 148 -61v-142z" />
    <glyph glyph-name="uFE88" unicode="&#x625;" horiz-adv-x="518" arabic-form="final" 
d="M540 -3l-109 -0.000976562c-93.333 0 -160.333 14.667 -201 44c-60 44 -90 127.667 -90 251v1194h214v-1199c0 -29.333 5.66699 -49.166 17 -59.499s32 -15.5 62 -15.5h107v-215zM377 -246.001c-82 40.667 -135 60.999 -159 60.999c-12 0 -18 -12.333 -18 -37
c0 -23.333 6.66699 -45.666 20 -66.999h152v-136h-363v135h74c-8.66699 75.333 -2.66699 132.333 18 171c27.333 50.667 70 76 128 76c38.667 0 88 -20 148 -60v-143z" />
    <glyph glyph-name="uFE8A" unicode="&#x626;" horiz-adv-x="1040" arabic-form="final" 
d="M1057 -3l-95.998 0.000976562c2.66699 -19.333 4 -35.666 4 -48.999c0 -72.667 -35.667 -143.334 -107 -212.001c-84 -80.667 -189 -121 -315 -121c-142 0 -251.667 37.333 -329 112c-68 66 -102 149.333 -102 250v13c0 159.333 27 324.666 81 495.999
c37.333 119.333 96.666 263.333 177.999 432h239c-100.667 -216 -165.334 -363.667 -194.001 -443c-60 -168.667 -90 -329.667 -90 -483v-10c0 -41.333 17.667 -76 53 -104c39.333 -31.333 94 -47 164 -47c67.333 0 120 17.333 158 52c26.667 24 40 45.667 40 65
c0 33.333 -17.333 61.333 -52 84l-98 61c-34.667 29.333 -52 69 -52 119h518v-215zM568.002 1199c-82 40.667 -135 61 -159 61c-11.333 0 -17 -12.333 -17 -37c0 -24 6.33301 -46.333 19 -67h153v-136h-364v135h74c-8 75.333 -1.66699 132.333 19 171
c27.333 50.667 70 76 128 76c38 0 87 -20.333 147 -61v-142z" />
    <glyph glyph-name="uFE8B" unicode="&#x626;" horiz-adv-x="576" arabic-form="initial" 
d="M476 293c0 -124 -30 -207.666 -90 -250.999c-40.667 -30 -107.667 -45 -201 -45h-246v215h246c30.667 0 51 5.16699 61 15.5s15 30.166 15 59.499v50c0 191.333 -62.667 427 -188 707h241c108 -261.333 162 -496.333 162 -705v-46zM321 1339
c-82.667 40.667 -135.667 61 -159 61c-12 0 -18 -12.333 -18 -37c0 -24 6.33301 -46.667 19 -68h153v-136h-363v135h74c-8.66699 75.333 -2.66699 132.333 18 171c27.333 50.667 70 76 128 76c38 0 87.333 -20 148 -60v-142z" />
    <glyph glyph-name="uFE8C" unicode="&#x626;" horiz-adv-x="602" arabic-form="medial" 
d="M634 -3h-155c-79.333 0 -140.666 14 -183.999 42c-42.667 -28 -103.667 -42 -183 -42h-171v215h171c30 0 50.167 5.16699 60.5 15.5s15.5 30.166 15.5 59.499v757h214v-757c0 -29.333 5.66699 -49.166 17 -59.499s31.666 -15.5 60.999 -15.5h154v-215zM499 1366
c-82 40.667 -134.999 61 -158.999 61c-11.333 0 -17 -12.333 -17 -37c0 -24 6.33301 -46.333 19 -67h153v-136h-364v135h74c-8 75.333 -1.66699 132.333 19 171c27.333 50.667 69.666 76 126.999 76c38.667 0 88 -20.333 148 -61v-142z" />
    <glyph glyph-name="uFE8E" unicode="&#x627;" horiz-adv-x="496" arabic-form="final" 
d="M540 -3l-109 -0.000976562c-93.333 0 -160.333 14.667 -201 44c-60 44 -90 127.667 -90 251v1194h214v-1199c0 -29.333 5.66699 -49.166 17 -59.499s32 -15.5 62 -15.5h107v-215z" />
    <glyph glyph-name="uFE90" unicode="&#x628;" horiz-adv-x="1591" arabic-form="final" 
d="M1620 -3h-135.001c-78.667 0 -139.667 14 -183 42c-43.333 -28 -104.666 -42 -183.999 -42h-715c-93.333 0 -160.333 15 -201 45c-60 43.333 -90 127 -90 251v46c0 215.333 54.667 450.333 164 705h243c-128 -262 -192 -497.667 -192 -707v-50c0 -30 5.33301 -50 16 -60
s31.667 -15 63 -15h712c30.667 0 51 5.16699 61 15.5s15 30.166 15 59.499v757h215v-757c0 -29.333 5.5 -49.166 16.5 -59.499s31.5 -15.5 61.5 -15.5h133v-215zM870.999 -185c0 -29.333 -10.333 -54.333 -31 -75s-45.667 -31 -75 -31c-30 0 -55.333 10.333 -76 31
s-31 45.667 -31 75s10.333 54.333 31 75s46 31 76 31c29.333 0 54.333 -10.333 75 -31s31 -45.667 31 -75z" />
    <glyph glyph-name="uFE91" unicode="&#x628;" horiz-adv-x="476" arabic-form="initial" 
d="M476 293c0 -124 -30 -207.666 -90 -250.999c-40.667 -30 -107.667 -45 -201 -45h-246v215h246c30.667 0 51 5.16699 61 15.5s15 30.166 15 59.499v50c0 191.333 -62.667 427 -188 707h241c108 -261.333 162 -496.333 162 -705v-46zM215 -184.999
c0 -29.333 -10.333 -54.333 -31 -75s-46 -31 -76 -31c-29.333 0 -54.333 10.333 -75 31s-31 45.667 -31 75s10.333 54.333 31 75s45.667 31 75 31c30 0 55.333 -10.333 76 -31s31 -45.667 31 -75z" />
    <glyph glyph-name="uFE92" unicode="&#x628;" horiz-adv-x="601" arabic-form="medial" 
d="M634 -3h-155c-79.333 0 -140.666 14 -183.999 42c-42.667 -28 -103.667 -42 -183 -42h-171v215h171c30 0 50.167 5.16699 60.5 15.5s15.5 30.166 15.5 59.499v757h214v-757c0 -29.333 5.66699 -49.166 17 -59.499s31.666 -15.5 60.999 -15.5h154v-215zM227 -181
c0 -30 -10.333 -55.333 -31 -76s-45.667 -31 -75 -31s-54.333 10.333 -75 31s-31 46 -31 76c0 29.333 10.333 54.333 31 75s45.667 31 75 31s54.333 -10.333 75 -31s31 -45.667 31 -75z" />
    <glyph glyph-name="uFE96" unicode="&#x62a;" horiz-adv-x="1591" arabic-form="final" 
d="M1620 -3h-135.001c-78.667 0 -139.667 14 -183 42c-43.333 -28 -104.666 -42 -183.999 -42h-715c-93.333 0 -160.333 15 -201 45c-60 43.333 -90 127 -90 251v46c0 215.333 54.667 450.333 164 705h243c-128 -262 -192 -497.667 -192 -707v-50c0 -30 5.33301 -50 16 -60
s31.667 -15 63 -15h712c30.667 0 51 5.16699 61 15.5s15 30.166 15 59.499v757h215v-757c0 -29.333 5.5 -49.166 16.5 -59.499s31.5 -15.5 61.5 -15.5h133v-215zM1053 1286c0 -29.333 -10.333 -54.333 -31 -75s-45.667 -31 -75 -31s-54.5 10.333 -75.5 31
s-31.5 45.667 -31.5 75c0 30 10.5 55.333 31.5 76s46.167 31 75.5 31s54.333 -10.333 75 -31s31 -46 31 -76zM823.999 1286c0 -29.333 -10.5 -54.333 -31.5 -75s-45.833 -31 -74.5 -31c-29.333 0 -54.666 10.5 -75.999 31.5s-32 45.833 -32 74.5
c0 29.333 10.667 54.5 32 75.5s46.666 31.5 75.999 31.5c28.667 0 53.5 -10.333 74.5 -31s31.5 -46 31.5 -76z" />
    <glyph glyph-name="uFE97" unicode="&#x62a;" horiz-adv-x="597" arabic-form="initial" 
d="M443 1360c0 -29.333 -10.333 -54.333 -31 -75s-45.667 -31 -75 -31s-54.666 10.333 -75.999 31s-32 45.667 -32 75c0 30 10.667 55.333 32 76s46.666 31 75.999 31s54.333 -10.333 75 -31s31 -46 31 -76zM214 1360c0 -29.333 -10.5 -54.333 -31.5 -75
s-46.167 -31 -75.5 -31s-54.5 10.5 -75.5 31.5s-31.5 45.833 -31.5 74.5c0 29.333 10.5 54.5 31.5 75.5s46.167 31.5 75.5 31.5s54.5 -10.5 75.5 -31.5s31.5 -46.167 31.5 -75.5zM569 293c0 -124 -30.001 -207.666 -90.001 -250.999c-41.333 -30 -108.666 -45 -201.999 -45
h-338v215h338c30.667 0 51 5.16699 61 15.5s15 30.166 15 59.499v50c0 191.333 -62.333 427 -187 707h240c108.667 -261.333 163 -496.333 163 -705v-46z" />
    <glyph glyph-name="uFE98" unicode="&#x62a;" horiz-adv-x="610" arabic-form="medial" 
d="M634 -3h-155c-79.333 0 -140.666 14 -183.999 42c-42.667 -28 -103.667 -42 -183 -42h-171v215h171c30 0 50.167 5.16699 60.5 15.5s15.5 30.166 15.5 59.499v757h214v-757c0 -29.333 5.66699 -49.166 17 -59.499s31.666 -15.5 60.999 -15.5h154v-215zM517 1305
c0 -29.333 -10.333 -54.333 -31 -75s-45.667 -31 -75 -31s-54.666 10.333 -75.999 31s-32 45.667 -32 75s10.667 54.333 32 75s46.666 31 75.999 31s54.333 -10.333 75 -31s31 -45.667 31 -75zM288 1305c0 -29.333 -10.5 -54.333 -31.5 -75s-46.167 -31 -75.5 -31
s-54.5 10.333 -75.5 31s-31.5 45.667 -31.5 75s10.5 54.333 31.5 75s46.167 31 75.5 31s54.5 -10.333 75.5 -31s31.5 -45.667 31.5 -75z" />
    <glyph glyph-name="uFE9A" unicode="&#x62b;" horiz-adv-x="1591" arabic-form="final" 
d="M1620 -3h-135.001c-78.667 0 -139.667 14 -183 42c-43.333 -28 -104.666 -42 -183.999 -42h-715c-93.333 0 -160.333 15 -201 45c-60 43.333 -90 127 -90 251v46c0 215.333 54.667 450.333 164 705h243c-128 -262 -192 -497.667 -192 -707v-50c0 -30 5.33301 -50 16 -60
s31.667 -15 63 -15h712c30.667 0 51 5.16699 61 15.5s15 30.166 15 59.499v757h215v-757c0 -29.333 5.5 -49.166 16.5 -59.499s31.5 -15.5 61.5 -15.5h133v-215zM916.999 1445c0 -29.333 -10.6689 -54.666 -32.002 -75.999s-46.333 -32 -75 -32
c-29.333 0 -54.666 10.667 -75.999 32s-32 46.666 -32 75.999c0 28 10.833 52.833 32.5 74.5s46.834 32.5 75.501 32.5s53.667 -10.667 75 -32s32 -46.333 32 -75zM1043 1240c0 -28.667 -10.333 -53.5 -31 -74.5s-46 -31.5 -76 -31.5c-28.667 0 -53.5 10.5 -74.5 31.5
s-31.5 45.833 -31.5 74.5s10.5 53.667 31.5 75s45.833 32 74.5 32s53.667 -10.667 75 -32s32 -46.333 32 -75zM801.997 1240c0 -28.667 -10.667 -53.5 -32 -74.5s-46.333 -31.5 -75 -31.5c-29.333 0 -54.666 10.5 -75.999 31.5s-32 45.833 -32 74.5s10.667 53.667 32 75
s46.666 32 75.999 32c28.667 0 53.667 -10.667 75 -32s32 -46.333 32 -75z" />
    <glyph glyph-name="uFE9B" unicode="&#x62b;" horiz-adv-x="597" arabic-form="initial" 
d="M569 293c0 -124 -30.001 -207.666 -90.001 -250.999c-41.333 -30 -108.666 -45 -201.999 -45h-338v215h338c30.667 0 51 5.16699 61 15.5s15 30.166 15 59.499v50c0 191.333 -62.333 427 -187 707h240c108.667 -261.333 163 -496.333 163 -705v-46zM404.999 1457
c0 -27.333 -10 -51 -30 -71s-43.667 -30 -71 -30s-51.166 10 -71.499 30s-30.5 43.667 -30.5 71c0 26.667 10.167 50.167 30.5 70.5s44.166 30.5 71.499 30.5s51 -10.167 71 -30.5s30 -43.833 30 -70.5zM524.999 1265c0 -27.333 -9.83105 -50.833 -29.498 -70.5
s-43.834 -29.5 -72.501 -29.5c-26.667 0 -50 9.83301 -70 29.5s-30 43.167 -30 70.5c0 26.667 10 50.167 30 70.5s43.333 30.5 70 30.5c27.333 0 51.166 -10.167 71.499 -30.5s30.5 -43.833 30.5 -70.5zM297.001 1265c0 -27.333 -10.167 -50.833 -30.5 -70.5
s-44.166 -29.5 -71.499 -29.5s-51 9.83301 -71 29.5s-30 43.167 -30 70.5c0 26.667 10 50.167 30 70.5s43.667 30.5 71 30.5s51.166 -10.167 71.499 -30.5s30.5 -43.833 30.5 -70.5z" />
    <glyph glyph-name="uFE9C" unicode="&#x62b;" horiz-adv-x="606" arabic-form="medial" 
d="M634 -3h-155c-79.333 0 -140.666 14 -183.999 42c-42.667 -28 -103.667 -42 -183 -42h-171v215h171c30 0 50.167 5.16699 60.5 15.5s15.5 30.166 15.5 59.499v757h214v-757c0 -29.333 5.66699 -49.166 17 -59.499s31.666 -15.5 60.999 -15.5h154v-215zM405 1457
c0 -27.333 -10 -51 -30 -71s-43.667 -30 -71 -30s-51.166 10 -71.499 30s-30.5 43.667 -30.5 71c0 26.667 10.167 50.167 30.5 70.5s44.166 30.5 71.499 30.5s51 -10.167 71 -30.5s30 -43.833 30 -70.5zM525 1265c0 -27.333 -9.83105 -50.833 -29.498 -70.5
s-43.834 -29.5 -72.501 -29.5c-26.667 0 -50 9.83301 -70 29.5s-30 43.167 -30 70.5c0 26.667 10 50.167 30 70.5s43.333 30.5 70 30.5c27.333 0 51.166 -10.167 71.499 -30.5s30.5 -43.833 30.5 -70.5zM297.002 1265c0 -27.333 -10.167 -50.833 -30.5 -70.5
s-44.166 -29.5 -71.499 -29.5s-51 9.83301 -71 29.5s-30 43.167 -30 70.5c0 26.667 10 50.167 30 70.5s43.667 30.5 71 30.5s51.166 -10.167 71.499 -30.5s30.5 -43.833 30.5 -70.5z" />
    <glyph glyph-name="uFE9E" unicode="&#x62c;" horiz-adv-x="1027" arabic-form="final" 
d="M1055 -3l-153.998 0.00195312c-78 0 -138.667 13.667 -182 41c-42.667 -27.333 -104.334 -41 -185.001 -41h-95c-97.333 0 -146 -43 -146 -129c0 -98 55.333 -232.667 166 -404h-217c-80.667 163.333 -121 308.333 -121 435c0 208.667 119.333 313 358 313h55
c30.667 0 51 5.16699 61 15.5s15 30.166 15 59.499v41c0 331.333 -42.333 497 -127 497c-66.667 0 -100 -75.667 -100 -227c0 -63.333 5.66699 -130 17 -200l-172 -1c-2.66699 31.333 -4 66.333 -4 105c0 136 15 249 45 339c44 134.667 117.667 202 221 202
c97.333 0 178.666 -74 243.999 -222c61.333 -139.333 92 -302.333 92 -489v-39c0 -30.667 4.33301 -51.334 13 -62.001c10.667 -12.667 31.667 -19 63 -19h153v-215zM642.002 -206.998c0 -30 -10.333 -55.333 -31 -76s-46 -31 -76 -31c-29.333 0 -54.333 10.333 -75 31
s-31 46 -31 76c0 29.333 10.333 54.333 31 75s45.667 31 75 31c30 0 55.333 -10.333 76 -31s31 -45.667 31 -75z" />
    <glyph glyph-name="uFE9F" unicode="&#x62c;" horiz-adv-x="708" arabic-form="initial" 
d="M708 293c0 -124 -30 -207.666 -90 -250.999c-40.667 -30 -107.667 -45 -201 -45h-482v215h482c30 0 50.167 5.16699 60.5 15.5s15.5 30.166 15.5 59.499v41c0 144 -4.33301 245.667 -13 305c-19.333 128 -60.333 192 -123 192c-65.333 0 -98 -90.667 -98 -272
c0 -50 2.33301 -99.333 7 -148l-158 -8c-1.33301 21.333 -2 46 -2 74c0 138 14 254.667 42 350c42.667 148 114.667 222 216 222c110 0 196.667 -74 260 -222c56 -132 84 -295 84 -489v-39zM422 -184.999c0 -29.333 -10.333 -54.333 -31 -75s-46 -31 -76 -31
c-29.333 0 -54.333 10.333 -75 31s-31 45.667 -31 75s10.333 54.333 31 75s45.667 31 75 31c30 0 55.333 -10.333 76 -31s31 -45.667 31 -75z" />
    <glyph glyph-name="uFEA0" unicode="&#x62c;" horiz-adv-x="911" arabic-form="medial" 
d="M941 -3l-154.999 -0.000976562c-78 0 -138.667 13.667 -182 41c-42.667 -27.333 -104.334 -41 -185.001 -41h-479v215h479c30.667 0 51.167 5.16699 61.5 15.5s15.5 30.166 15.5 59.499v41c0 331.333 -45.667 497 -137 497c-67.333 0 -101 -89.333 -101 -268
c0 -51.333 2.66699 -102 8 -152l-155 -8c-2 26 -3 56 -3 90c0 136.667 14.333 251.334 43 344.001c43.333 141.333 115.333 212 216 212c104 0 188.333 -74 253 -222c60 -136.667 90 -299.667 90 -489v-45c0 -29.333 5.5 -49.166 16.5 -59.499s31.5 -15.5 61.5 -15.5h153
v-215zM459.001 -203.001c0 -30 -10.333 -55.333 -31 -76s-46 -31 -76 -31c-29.333 0 -54.333 10.333 -75 31s-31 46 -31 76c0 29.333 10.333 54.333 31 75s45.667 31 75 31c30 0 55.333 -10.333 76 -31s31 -45.667 31 -75z" />
    <glyph glyph-name="uFEA2" unicode="&#x62d;" horiz-adv-x="1027" arabic-form="final" 
d="M1055 -3l-153.998 0.00195312c-78 0 -138.667 13.667 -182 41c-42.667 -27.333 -104.334 -41 -185.001 -41h-95c-97.333 0 -146 -43 -146 -129c0 -98 55.333 -232.667 166 -404h-217c-80.667 163.333 -121 308.333 -121 435c0 208.667 119.333 313 358 313h55
c30.667 0 51 5.16699 61 15.5s15 30.166 15 59.499v41c0 331.333 -42.333 497 -127 497c-66.667 0 -100 -75.667 -100 -227c0 -63.333 5.66699 -130 17 -200l-172 -1c-2.66699 31.333 -4 66.333 -4 105c0 136 15 249 45 339c44 134.667 117.667 202 221 202
c97.333 0 178.666 -74 243.999 -222c61.333 -139.333 92 -302.333 92 -489v-39c0 -30.667 4.33301 -51.334 13 -62.001c10.667 -12.667 31.667 -19 63 -19h153v-215z" />
    <glyph glyph-name="uFEA3" unicode="&#x62d;" horiz-adv-x="708" arabic-form="initial" 
d="M708 293c0 -124 -30 -207.666 -90 -250.999c-40.667 -30 -107.667 -45 -201 -45h-482v215h482c30 0 50.167 5.16699 60.5 15.5s15.5 30.166 15.5 59.499v41c0 144 -4.33301 245.667 -13 305c-19.333 128 -60.333 192 -123 192c-65.333 0 -98 -90.667 -98 -272
c0 -50 2.33301 -99.333 7 -148l-158 -8c-1.33301 21.333 -2 46 -2 74c0 138 14 254.667 42 350c42.667 148 114.667 222 216 222c110 0 196.667 -74 260 -222c56 -132 84 -295 84 -489v-39z" />
    <glyph glyph-name="uFEA4" unicode="&#x62d;" horiz-adv-x="913" arabic-form="medial" 
d="M941 -3l-154.999 -0.000976562c-78 0 -138.667 13.667 -182 41c-42.667 -27.333 -104.334 -41 -185.001 -41h-479v215h479c30.667 0 51.167 5.16699 61.5 15.5s15.5 30.166 15.5 59.499v41c0 331.333 -45.667 497 -137 497c-67.333 0 -101 -89.333 -101 -268
c0 -51.333 2.66699 -102 8 -152l-155 -8c-2 26 -3 56 -3 90c0 136.667 14.333 251.334 43 344.001c43.333 141.333 115.333 212 216 212c104 0 188.333 -74 253 -222c60 -136.667 90 -299.667 90 -489v-45c0 -29.333 5.5 -49.166 16.5 -59.499s31.5 -15.5 61.5 -15.5h153
v-215z" />
    <glyph glyph-name="uFEA6" unicode="&#x62e;" horiz-adv-x="1028" arabic-form="final" 
d="M1055 -3l-153.998 0.00195312c-78 0 -138.667 13.667 -182 41c-42.667 -27.333 -104.334 -41 -185.001 -41h-95c-97.333 0 -146 -43 -146 -129c0 -98 55.333 -232.667 166 -404h-217c-80.667 163.333 -121 308.333 -121 435c0 208.667 119.333 313 358 313h55
c30.667 0 51 5.16699 61 15.5s15 30.166 15 59.499v41c0 331.333 -42.333 497 -127 497c-66.667 0 -100 -75.667 -100 -227c0 -63.333 5.66699 -130 17 -200l-172 -1c-2.66699 31.333 -4 66.333 -4 105c0 136 15 249 45 339c44 134.667 117.667 202 221 202
c97.333 0 178.666 -74 243.999 -222c61.333 -139.333 92 -302.333 92 -489v-39c0 -30.667 4.33301 -51.334 13 -62.001c10.667 -12.667 31.667 -19 63 -19h153v-215zM595.002 1287c0 -29.333 -10.333 -54.333 -31 -75s-46 -31 -76 -31c-29.333 0 -54.333 10.333 -75 31
s-31 45.667 -31 75c0 30 10.333 55.333 31 76s45.667 31 75 31c30 0 55.333 -10.333 76 -31s31 -46 31 -76z" />
    <glyph glyph-name="uFEA7" unicode="&#x62e;" horiz-adv-x="708" arabic-form="initial" 
d="M708 293c0 -124 -30 -207.666 -90 -250.999c-40.667 -30 -107.667 -45 -201 -45h-482v215h482c30 0 50.167 5.16699 60.5 15.5s15.5 30.166 15.5 59.499v41c0 144 -4.33301 245.667 -13 305c-19.333 128 -60.333 192 -123 192c-65.333 0 -98 -90.667 -98 -272
c0 -50 2.33301 -99.333 7 -148l-158 -8c-1.33301 21.333 -2 46 -2 74c0 138 14 254.667 42 350c42.667 148 114.667 222 216 222c110 0 196.667 -74 260 -222c56 -132 84 -295 84 -489v-39zM474 1287c0 -29.333 -10.333 -54.333 -31 -75s-45.667 -31 -75 -31
s-54.333 10.333 -75 31s-31 45.667 -31 75c0 30 10.333 55.333 31 76s45.667 31 75 31s54.333 -10.333 75 -31s31 -46 31 -76z" />
    <glyph glyph-name="uFEA8" unicode="&#x62e;" horiz-adv-x="908" arabic-form="medial" 
d="M941 -3l-154.999 -0.000976562c-78 0 -138.667 13.667 -182 41c-42.667 -27.333 -104.334 -41 -185.001 -41h-479v215h479c30.667 0 51.167 5.16699 61.5 15.5s15.5 30.166 15.5 59.499v41c0 331.333 -45.667 497 -137 497c-67.333 0 -101 -89.333 -101 -268
c0 -51.333 2.66699 -102 8 -152l-155 -8c-2 26 -3 56 -3 90c0 136.667 14.333 251.334 43 344.001c43.333 141.333 115.333 212 216 212c104 0 188.333 -74 253 -222c60 -136.667 90 -299.667 90 -489v-45c0 -29.333 5.5 -49.166 16.5 -59.499s31.5 -15.5 61.5 -15.5h153
v-215zM474.001 1287c0 -29.333 -10.333 -54.333 -31 -75s-45.667 -31 -75 -31s-54.333 10.333 -75 31s-31 45.667 -31 75c0 30 10.333 55.333 31 76s45.667 31 75 31s54.333 -10.333 75 -31s31 -46 31 -76z" />
    <glyph glyph-name="uFEAA" unicode="&#x62f;" horiz-adv-x="907" arabic-form="final" 
d="M935 -4l-149 0.00195312c-78 0 -139.333 13.667 -184 41c-42.667 -26.667 -104 -40 -184 -40h-298v215h299c30 0 50.167 5.16699 60.5 15.5s15.5 30.166 15.5 59.499v16c0 67.333 -26 161.333 -78 282c-67.333 157.333 -148 241 -242 251v207c106 0 204.333 -55 295 -165
c70 -86 129.667 -196 179 -330c40.667 -109.333 61 -190 61 -242v-14c0 -30.667 4.66699 -51.334 14 -62.001c10.667 -12.667 31.667 -19 63 -19h148v-215z" />
    <glyph glyph-name="uFEAC" unicode="&#x630;" horiz-adv-x="914" arabic-form="final" 
d="M942 -4l-149 0.00195312c-78 0 -139.333 13.667 -184 41c-42 -26.667 -103.333 -40 -184 -40h-298v215h299c30 0 50.167 5.16699 60.5 15.5s15.5 30.166 15.5 59.499v16c0 67.333 -25.667 161.333 -77 282c-68 157.333 -148.667 241 -242 251v207
c105.333 0 203.333 -55 294 -165c70.667 -86 130.667 -196 180 -330c40 -109.333 60 -190 60 -242v-14c0 -30.667 4.66699 -51.334 14 -62.001c10.667 -12.667 31.667 -19 63 -19h148v-215zM333 1282c0 -30 -10.333 -55.333 -31 -76s-46 -31 -76 -31
c-29.333 0 -54.333 10.333 -75 31s-31 46 -31 76c0 29.333 10.333 54.333 31 75s45.667 31 75 31c30 0 55.333 -10.333 76 -31s31 -45.667 31 -75z" />
    <glyph glyph-name="uFEAE" unicode="&#x631;" horiz-adv-x="706" arabic-form="final" 
d="M733 -3l-150.001 -0.000976562c-41.333 0 -74.333 3.33301 -99 10c-51.333 -161.333 -115.666 -326.666 -192.999 -495.999h-241c48.667 100 90.667 194.333 126 283c86 212 133 376.333 141 493c2 28 3 60 3 96c0 167.333 -18.333 387.333 -55 660h216
c36 -269.333 54 -489.666 54 -660.999c0 -38.667 -1 -73.334 -3 -104.001c-3.33301 -44 13.667 -66 51 -66h150v-215z" />
    <glyph glyph-name="uFEB0" unicode="&#x632;" horiz-adv-x="705" arabic-form="final" 
d="M733 -3l-150.001 -0.000976562c-41.333 0 -74.333 3.33301 -99 10c-51.333 -161.333 -115.666 -326.666 -192.999 -495.999h-241c48.667 100 90.667 194.333 126 283c86 212 133 376.333 141 493c2 28 3 60 3 96c0 167.333 -18.333 387.333 -55 660h216
c36 -269.333 54 -489.666 54 -660.999c0 -38.667 -1 -73.334 -3 -104.001c-3.33301 -44 13.667 -66 51 -66h150v-215zM412.999 1280c0 -29.333 -10.333 -54.333 -31 -75s-46 -31 -76 -31c-29.333 0 -54.333 10.333 -75 31s-31 45.667 -31 75s10.333 54.333 31 75
s45.667 31 75 31c30 0 55.333 -10.333 76 -31s31 -45.667 31 -75z" />
    <glyph glyph-name="uFEB2" unicode="&#x633;" horiz-adv-x="2062" arabic-form="final" 
d="M2083 -3l-145 -0.000976562c-76.667 0 -137 13 -181 39c-36 -26 -86.333 -39 -151 -39h-138c-70.667 0 -123.667 12.333 -159 37c-39.333 -24.667 -94.333 -37 -165 -37h-118c-20 0 -38 1 -54 3v-3c0 -136 -37 -236.333 -111 -301c-58 -51.333 -132.667 -77 -224 -77h-83
c-132.667 0 -237 36.667 -313 110c-67.333 66 -101 148.667 -101 248v13c0 260 88.333 567 265 921h242c-101.333 -204 -168.333 -350.333 -201 -439c-61.333 -166 -92 -326 -92 -480v-10c0 -40 16.667 -74 50 -102c37.333 -30.667 87.333 -46 150 -46h83
c80 0 120 54.333 120 163v1047h215v-761c0 -27.333 2.33301 -45 7 -53c7.33301 -12 23 -18 47 -18h118c25.333 0 42 7 50 21c5.33301 9.33301 8 27.333 8 54v757h215v-757c0 -50 17 -75 51 -75h129c32.667 0 49 25 49 75v757h215v-757c0 -29.333 5.5 -49.166 16.5 -59.499
s31.5 -15.5 61.5 -15.5h144v-215z" />
    <glyph glyph-name="uFEB3" unicode="&#x633;" horiz-adv-x="1262" arabic-form="initial" 
d="M1264 293c0 -123.333 -29.6689 -207.332 -89.002 -251.999c-39.333 -29.333 -101.666 -44 -186.999 -44h-111c-74 0 -130 13 -168 39c-41.333 -26 -99.666 -39 -174.999 -39h-120c-66.667 0 -118 13 -154 39c-38.667 -26 -98.667 -39 -180 -39h-135v215h135
c30.667 0 51 5.16699 61 15.5s15 30.166 15 59.499v757h215v-757c0 -50 15 -75 45 -75h118c28.667 0 47.667 6 57 18c8 9.33301 12 28.333 12 57v757h215v-757c0 -50 20 -75 60 -75h110c40.667 0 61 25 61 75v50c0 215.333 -42.667 451 -128 707h235
c33.333 -86 61 -216.333 83 -391c16.667 -135.333 25 -240 25 -314v-46z" />
    <glyph glyph-name="uFEB4" unicode="&#x633;" horiz-adv-x="1457" arabic-form="medial" 
d="M1485 -3h-148.999c-78 0 -138.333 13.333 -181 40c-40 -26.667 -97.667 -40 -173 -40h-127c-67.333 0 -117 12.333 -149 37c-40 -24.667 -95.667 -37 -167 -37h-115c-76 0 -131 11.667 -165 35c-35.333 -23.333 -90.333 -35 -165 -35h-149v215h149
c27.333 0 45 6.66699 53 20c6 9.33301 9 27.666 9 54.999v757h215v-757c0 -29.333 2.33301 -48.333 7 -57c7.33301 -12 22.666 -18 45.999 -18h115c27.333 0 45.333 6.33301 54 19c6 9.33301 9 28 9 56v757h215v-757c0 -50 13 -75 39 -75h126c27.333 0 45.333 6.33301 54 19
c6 9.33301 9 28 9 56v757h215v-757c0 -29.333 5.5 -49.166 16.5 -59.499s31.167 -15.5 60.5 -15.5h148v-215z" />
    <glyph glyph-name="uFEB6" unicode="&#x634;" horiz-adv-x="2062" arabic-form="final" 
d="M2083 -3l-145 -0.000976562c-76.667 0 -137 13 -181 39c-36 -26 -86.333 -39 -151 -39h-138c-70.667 0 -123.667 12.333 -159 37c-39.333 -24.667 -94.333 -37 -165 -37h-118c-20 0 -38 1 -54 3v-3c0 -136 -37 -236.333 -111 -301c-58 -51.333 -132.667 -77 -224 -77h-83
c-132.667 0 -237 36.667 -313 110c-67.333 66 -101 148.667 -101 248v13c0 260 88.333 567 265 921h242c-101.333 -204 -168.333 -350.333 -201 -439c-61.333 -166 -92 -326 -92 -480v-10c0 -40 16.667 -74 50 -102c37.333 -30.667 87.333 -46 150 -46h83
c80 0 120 54.333 120 163v1047h215v-761c0 -27.333 2.33301 -45 7 -53c7.33301 -12 23 -18 47 -18h118c25.333 0 42 7 50 21c5.33301 9.33301 8 27.333 8 54v757h215v-757c0 -50 17 -75 51 -75h129c32.667 0 49 25 49 75v757h215v-757c0 -29.333 5.5 -49.166 16.5 -59.499
s31.5 -15.5 61.5 -15.5h144v-215zM1393 1463c0 -29.333 -10.5 -54.5 -31.5 -75.5s-46.167 -31.5 -75.5 -31.5c-28.667 0 -53.834 10.5 -75.501 31.5s-32.5 46.167 -32.5 75.5c0 28.667 10.833 53.667 32.5 75s46.834 32 75.501 32s53.667 -10.667 75 -32s32 -46.333 32 -75z
M1519 1259c0 -29.333 -10.333 -54.5 -31 -75.5s-46 -31.5 -76 -31.5c-28.667 0 -53.5 10.667 -74.5 32s-31.5 46.333 -31.5 75s10.5 53.667 31.5 75s45.833 32 74.5 32c29.333 0 54.5 -10.667 75.5 -32s31.5 -46.333 31.5 -75zM1278 1259c0 -28.667 -10.667 -53.667 -32 -75
s-46.333 -32 -75 -32c-29.333 0 -54.5 10.667 -75.5 32s-31.5 46.333 -31.5 75s10.5 53.667 31.5 75s46.167 32 75.5 32c28.667 0 53.667 -10.667 75 -32s32 -46.333 32 -75z" />
    <glyph glyph-name="uFEB7" unicode="&#x634;" horiz-adv-x="1258" arabic-form="initial" 
d="M1264 293c0 -123.333 -29.6689 -207.332 -89.002 -251.999c-39.333 -29.333 -101.666 -44 -186.999 -44h-111c-74 0 -130 13 -168 39c-41.333 -26 -99.666 -39 -174.999 -39h-120c-66.667 0 -118 13 -154 39c-38.667 -26 -98.667 -39 -180 -39h-135v215h135
c30.667 0 51 5.16699 61 15.5s15 30.166 15 59.499v757h215v-757c0 -50 15 -75 45 -75h118c28.667 0 47.667 6 57 18c8 9.33301 12 28.333 12 57v757h215v-757c0 -50 20 -75 60 -75h110c40.667 0 61 25 61 75v50c0 215.333 -42.667 451 -128 707h235
c33.333 -86 61 -216.333 83 -391c16.667 -135.333 25 -240 25 -314v-46zM809.998 1463c0 -29.333 -10.5 -54.5 -31.5 -75.5s-45.833 -31.5 -74.5 -31.5c-29.333 0 -54.666 10.5 -75.999 31.5s-32 46.167 -32 75.5c0 28.667 10.667 53.667 32 75s46.666 32 75.999 32
c28.667 0 53.5 -10.667 74.5 -32s31.5 -46.333 31.5 -75zM936.998 1259c0 -29.333 -10.5 -54.5 -31.5 -75.5s-46.167 -31.5 -75.5 -31.5c-28.667 0 -53.667 10.667 -75 32s-32 46.333 -32 75s10.667 53.667 32 75s46.333 32 75 32s53.667 -10.667 75 -32s32 -46.333 32 -75z
M694.998 1259c0 -28.667 -10.5 -53.667 -31.5 -75s-46.167 -32 -75.5 -32c-28.667 0 -53.667 10.667 -75 32s-32 46.333 -32 75s10.667 53.667 32 75s46.333 32 75 32c29.333 0 54.5 -10.667 75.5 -32s31.5 -46.333 31.5 -75z" />
    <glyph glyph-name="uFEB8" unicode="&#x634;" horiz-adv-x="1457" arabic-form="medial" 
d="M1485 -3h-148.999c-78 0 -138.333 13.333 -181 40c-40 -26.667 -97.667 -40 -173 -40h-127c-67.333 0 -117 12.333 -149 37c-40 -24.667 -95.667 -37 -167 -37h-115c-76 0 -131 11.667 -165 35c-35.333 -23.333 -90.333 -35 -165 -35h-149v215h149
c27.333 0 45 6.66699 53 20c6 9.33301 9 27.666 9 54.999v757h215v-757c0 -29.333 2.33301 -48.333 7 -57c7.33301 -12 22.666 -18 45.999 -18h115c27.333 0 45.333 6.33301 54 19c6 9.33301 9 28 9 56v757h215v-757c0 -50 13 -75 39 -75h126c27.333 0 45.333 6.33301 54 19
c6 9.33301 9 28 9 56v757h215v-757c0 -29.333 5.5 -49.166 16.5 -59.499s31.167 -15.5 60.5 -15.5h148v-215zM810.001 1463c0 -29.333 -10.5 -54.5 -31.5 -75.5s-45.833 -31.5 -74.5 -31.5c-29.333 0 -54.666 10.5 -75.999 31.5s-32 46.167 -32 75.5
c0 28.667 10.667 53.667 32 75s46.666 32 75.999 32c28.667 0 53.5 -10.667 74.5 -32s31.5 -46.333 31.5 -75zM937.001 1259c0 -29.333 -10.5 -54.5 -31.5 -75.5s-46.167 -31.5 -75.5 -31.5c-28.667 0 -53.667 10.667 -75 32s-32 46.333 -32 75s10.667 53.667 32 75
s46.333 32 75 32s53.667 -10.667 75 -32s32 -46.333 32 -75zM695.001 1259c0 -28.667 -10.5 -53.667 -31.5 -75s-46.167 -32 -75.5 -32c-28.667 0 -53.667 10.667 -75 32s-32 46.333 -32 75s10.667 53.667 32 75s46.333 32 75 32c29.333 0 54.5 -10.667 75.5 -32
s31.5 -46.333 31.5 -75z" />
    <glyph glyph-name="uFEBA" unicode="&#x635;" horiz-adv-x="1948" arabic-form="final" 
d="M1982 -3l-120.999 0.000976562c-79.333 0 -141 14 -185 42c-44 -28 -105 -42 -183 -42h-415c-35.333 0 -61.333 1.66699 -78 5v-5c0 -136 -37 -236.333 -111 -301c-58 -51.333 -132.667 -77 -224 -77h-112c-132.667 0 -236.667 36.667 -312 110
c-67.333 66 -101 148.667 -101 248v13c0 277.333 87 586.666 261 927.999h245c-90.667 -174.667 -156.334 -318.334 -197.001 -431.001c-63.333 -175.333 -95 -340.333 -95 -495v-10c0 -40 16.667 -74 50 -102c37.333 -30.667 87 -46 149 -46h112c80 0 120 54.333 120 163
v1047h215v-416c166 263.333 305.667 395 419 395h24c76 0 147 -49 213 -147c84.667 -127.333 127 -306.333 127 -537v-52c0 -29.333 5.66699 -49.166 17 -59.499s32 -15.5 62 -15.5h120v-215zM1569 287.001l-0.000976562 50c0 166.667 -19 294.334 -57 383.001
c-26 58.667 -50 88 -72 88h-28c-52 0 -126.333 -75.667 -223 -227c-67.333 -104.667 -126.333 -212 -177 -322c0.666992 -0.666992 3.83398 -8.66699 9.50098 -24s10.167 -23 13.5 -23h458c30.667 0 51 5.16699 61 15.5s15 30.166 15 59.499z" />
    <glyph glyph-name="uFEBB" unicode="&#x635;" horiz-adv-x="1177" arabic-form="initial" 
d="M1177 293c0 -124 -30.001 -207.666 -90.001 -250.999c-40.667 -30 -107.667 -45 -201 -45h-414c-79.333 0 -140.666 14 -183.999 42c-42.667 -28 -104 -42 -184 -42h-137v215h137c30.667 0 51 5.16699 61 15.5s15 30.166 15 59.499v757h214v-416
c166 263.333 305.333 395 418 395h24c76.667 0 147.667 -49 213 -147c85.333 -127.333 128 -306.333 128 -537v-46zM961.999 287.001l-0.000976562 50c0 166.667 -19 294.334 -57 383.001c-25.333 58.667 -49.333 88 -72 88h-27c-52 0 -126 -75.667 -222 -227
c-65.333 -102.667 -124 -210.334 -176 -323.001c1.33301 -0.666992 4.33301 -8.5 9 -23.5s8.33398 -22.5 11.001 -22.5h458c50.667 0 76 25 76 75z" />
    <glyph glyph-name="uFEBC" unicode="&#x635;" horiz-adv-x="1328" arabic-form="medial" 
d="M1356 -3h-124.002c-79.333 0 -140.666 14 -183.999 42c-42.667 -28 -104 -42 -184 -42h-415c-79.333 0 -140.666 14 -183.999 42c-42 -28 -103.333 -42 -184 -42h-118v215h118c30.667 0 51 5.16699 61 15.5s15 30.166 15 59.499v757h215v-416
c166 263.333 305.333 395 418 395h24c76 0 147 -49 213 -147c84.667 -127.333 127 -306.333 127 -537v-52c0 -29.333 5.66699 -49.166 17 -59.499s32 -15.5 62 -15.5h123v-215zM939.998 287l0.000976562 50.001c0 166.667 -19 294.334 -57 383.001c-26 58.667 -50 88 -72 88
h-28c-51.333 0 -125.333 -77.667 -222 -233c-64 -102.667 -123 -212.667 -177 -330c0.666992 -0.666992 3.66699 -6.33398 9 -17.001s9.66602 -16 12.999 -16h458c30 0 50.167 5.16699 60.5 15.5s15.5 30.166 15.5 59.499z" />
    <glyph glyph-name="uFEBE" unicode="&#x636;" horiz-adv-x="1947" arabic-form="final" 
d="M1982 -3l-120.999 0.000976562c-79.333 0 -141 14 -185 42c-44 -28 -105 -42 -183 -42h-415c-35.333 0 -61.333 1.66699 -78 5v-5c0 -136 -37 -236.333 -111 -301c-58 -51.333 -132.667 -77 -224 -77h-112c-132.667 0 -236.667 36.667 -312 110
c-67.333 66 -101 148.667 -101 248v13c0 277.333 87 586.666 261 927.999h245c-90.667 -174.667 -156.334 -318.334 -197.001 -431.001c-63.333 -175.333 -95 -340.333 -95 -495v-10c0 -40 16.667 -74 50 -102c37.333 -30.667 87 -46 149 -46h112c80 0 120 54.333 120 163
v1047h215v-416c166 263.333 305.667 395 419 395h24c76 0 147 -49 213 -147c84.667 -127.333 127 -306.333 127 -537v-52c0 -29.333 5.66699 -49.166 17 -59.499s32 -15.5 62 -15.5h120v-215zM1569 287.001l-0.000976562 50c0 166.667 -19 294.334 -57 383.001
c-26 58.667 -50 88 -72 88h-28c-52 0 -126.333 -75.667 -223 -227c-67.333 -104.667 -126.333 -212 -177 -322c0.666992 -0.666992 3.83398 -8.66699 9.50098 -24s10.167 -23 13.5 -23h458c30.667 0 51 5.16699 61 15.5s15 30.166 15 59.499zM1446 1287
c0 -29.333 -10.333 -54.333 -31 -75s-46 -31 -76 -31c-29.333 0 -54.333 10.333 -75 31s-31 45.667 -31 75c0 30 10.333 55.333 31 76s45.667 31 75 31c30 0 55.333 -10.333 76 -31s31 -46 31 -76z" />
    <glyph glyph-name="uFEBF" unicode="&#x636;" horiz-adv-x="1154" arabic-form="initial" 
d="M1154 293c0 -124 -30.001 -207.666 -90.001 -250.999c-40 -30 -106.667 -45 -200 -45h-415c-79.333 0 -140.666 14 -183.999 42c-42 -28 -103.333 -42 -184 -42h-136v215h136c30.667 0 51 5.16699 61 15.5s15 30.166 15 59.499v757h215v-416
c166 263.333 305.333 395 418 395h24c76 0 147 -49 213 -147c84.667 -127.333 127 -306.333 127 -537v-46zM939.999 287.001l-0.000976562 50c0 166.667 -19 294.334 -57 383.001c-26 58.667 -50 88 -72 88h-28c-52 0 -125.667 -75.667 -221 -227
c-65.333 -102.667 -124 -210.334 -176 -323.001c0.666992 -0.666992 3.33398 -8.5 8.00098 -23.5s8.66699 -22.5 12 -22.5h458c50.667 0 76 25 76 75zM931.998 1287c0 -29.333 -10.333 -54.333 -31 -75s-45.667 -31 -75 -31c-30 0 -55.167 10.333 -75.5 31
s-30.5 45.667 -30.5 75c0 30 10.167 55.333 30.5 76s45.5 31 75.5 31c29.333 0 54.333 -10.333 75 -31s31 -46 31 -76z" />
    <glyph glyph-name="uFEC0" unicode="&#x636;" horiz-adv-x="1328" arabic-form="medial" 
d="M1356 -3h-124.002c-79.333 0 -140.666 14 -183.999 42c-42.667 -28 -104 -42 -184 -42h-415c-79.333 0 -140.666 14 -183.999 42c-42 -28 -103.333 -42 -184 -42h-118v215h118c30.667 0 51 5.16699 61 15.5s15 30.166 15 59.499v757h215v-416
c166 263.333 305.333 395 418 395h24c76 0 147 -49 213 -147c84.667 -127.333 127 -306.333 127 -537v-52c0 -29.333 5.66699 -49.166 17 -59.499s32 -15.5 62 -15.5h123v-215zM939.998 287l0.000976562 50.001c0 166.667 -19 294.334 -57 383.001c-26 58.667 -50 88 -72 88
h-28c-51.333 0 -125.333 -77.667 -222 -233c-64 -102.667 -123 -212.667 -177 -330c0.666992 -0.666992 3.66699 -6.33398 9 -17.001s9.66602 -16 12.999 -16h458c30 0 50.167 5.16699 60.5 15.5s15.5 30.166 15.5 59.499zM931.999 1287c0 -29.333 -10.333 -54.333 -31 -75
s-45.667 -31 -75 -31c-30 0 -55.167 10.333 -75.5 31s-30.5 45.667 -30.5 75c0 30 10.167 55.333 30.5 76s45.5 31 75.5 31c29.333 0 54.333 -10.333 75 -31s31 -46 31 -76z" />
    <glyph glyph-name="uFEC2" unicode="&#x637;" horiz-adv-x="1303" arabic-form="final" 
d="M1331 -3l-123.001 -0.000976562c-78.667 0 -140 14 -184 42c-44 -28 -105 -42 -183 -42h-701v1489h214v-848c162.667 256.667 300.334 385 413.001 385h24c76 0 147 -49 213 -147c84.667 -127.333 127 -306.333 127 -537v-52c0 -29.333 5.66699 -49.166 17 -59.499
s32 -15.5 62 -15.5h121v-215zM916.999 286.999v49.999c0 166.667 -19 294.334 -57 383.001c-26 58.667 -50 88 -72 88h-28c-54 0 -138.333 -85.667 -253 -257c-88.667 -131.333 -145 -225.666 -169 -282.999c-5.33301 -4.66699 -7 -15 -5 -31
c2.66699 -16.667 9.66699 -25 21 -25h487c30 0 50.167 5.16699 60.5 15.5s15.5 30.166 15.5 59.499z" />
    <glyph glyph-name="uFEC3" unicode="&#x637;" horiz-adv-x="1145" arabic-form="initial" 
d="M1145 293c0 -124 -30 -207.666 -90 -250.999c-40.667 -30 -107.334 -45 -200.001 -45h-410c-77.333 0 -137.666 13 -180.999 39c-40 -26 -102 -39 -186 -39h-133v215h133c30 0 50.167 5.16699 60.5 15.5s15.5 30.166 15.5 59.499v1199h214v-848
c162.667 256.667 300 385 412 385h25c76 0 146.667 -49 212 -147c85.333 -127.333 128 -306.333 128 -537v-46zM930 287.001v50c0 166.667 -19 294.334 -57 383.001c-26 58.667 -50 88 -72 88h-28c-81.333 0 -215.666 -180 -402.999 -540c-5.33301 -12 -8 -22.667 -8 -32
c0 -16 8.33301 -24 25 -24h468c29.333 0 49.166 5.16699 59.499 15.5s15.5 30.166 15.5 59.499z" />
    <glyph glyph-name="uFEC4" unicode="&#x637;" horiz-adv-x="1328" arabic-form="medial" 
d="M1356 -3h-124.002c-79.333 0 -140.666 14 -183.999 42c-42.667 -28 -104 -42 -184 -42h-415c-79.333 0 -140.666 14 -183.999 42c-42 -28 -103.333 -42 -184 -42h-136v215h136c30.667 0 51 5.16699 61 15.5s15 30.166 15 59.499v1192h215v-851
c166 263.333 305.333 395 418 395h24c76 0 147 -49 213 -147c84.667 -127.333 127 -306.333 127 -537v-52c0 -29.333 5.66699 -49.166 17 -59.499s32 -15.5 62 -15.5h123v-215zM939.998 287l0.000976562 50c0 166.667 -19 294.334 -57 383.001c-26 58.667 -50 88 -72 88h-28
c-52 0 -127.667 -77 -227 -231c-70.667 -110 -131 -219 -181 -327c0.666992 -0.666992 5.16699 -7.16699 13.5 -19.5s14.166 -18.5 17.499 -18.5h458c30 0 50.167 5.16699 60.5 15.5s15.5 30.166 15.5 59.499z" />
    <glyph glyph-name="uFEC6" unicode="&#x638;" horiz-adv-x="1303" arabic-form="final" 
d="M1331 -3l-123.001 -0.000976562c-78.667 0 -140 14 -184 42c-44 -28 -105 -42 -183 -42h-701v1489h214v-848c162.667 256.667 300.334 385 413.001 385h24c76 0 147 -49 213 -147c84.667 -127.333 127 -306.333 127 -537v-52c0 -29.333 5.66699 -49.166 17 -59.499
s32 -15.5 62 -15.5h121v-215zM916.999 286.999v49.999c0 166.667 -19 294.334 -57 383.001c-26 58.667 -50 88 -72 88h-28c-54 0 -138.333 -85.667 -253 -257c-88.667 -131.333 -145 -225.666 -169 -282.999c-5.33301 -4.66699 -7 -15 -5 -31
c2.66699 -16.667 9.66699 -25 21 -25h487c30 0 50.167 5.16699 60.5 15.5s15.5 30.166 15.5 59.499zM887.999 1287c0 -29.333 -10.333 -54.333 -31 -75s-46 -31 -76 -31c-29.333 0 -54.333 10.333 -75 31s-31 45.667 -31 75c0 30 10.333 55.333 31 76s45.667 31 75 31
c30 0 55.333 -10.333 76 -31s31 -46 31 -76z" />
    <glyph glyph-name="uFEC7" unicode="&#x638;" horiz-adv-x="1145" arabic-form="initial" 
d="M1145 293c0 -124 -30 -207.666 -90 -250.999c-40.667 -30 -107.334 -45 -200.001 -45h-410c-77.333 0 -137.666 13 -180.999 39c-40 -26 -102 -39 -186 -39h-133v215h133c30 0 50.167 5.16699 60.5 15.5s15.5 30.166 15.5 59.499v1199h214v-848
c162.667 256.667 300 385 412 385h25c76 0 146.667 -49 212 -147c85.333 -127.333 128 -306.333 128 -537v-46zM930 287.001v50c0 166.667 -19 294.334 -57 383.001c-26 58.667 -50 88 -72 88h-28c-81.333 0 -215.666 -180 -402.999 -540c-5.33301 -12 -8 -22.667 -8 -32
c0 -16 8.33301 -24 25 -24h468c29.333 0 49.166 5.16699 59.499 15.5s15.5 30.166 15.5 59.499zM897 1287c0 -29.333 -10.333 -54.333 -31 -75s-45.667 -31 -75 -31c-30 0 -55.333 10.333 -76 31s-31 45.667 -31 75c0 30 10.333 55.333 31 76s46 31 76 31
c29.333 0 54.333 -10.333 75 -31s31 -46 31 -76z" />
    <glyph glyph-name="uFEC8" unicode="&#x638;" horiz-adv-x="1328" arabic-form="medial" 
d="M1356 -3h-124.002c-79.333 0 -140.666 14 -183.999 42c-42.667 -28 -104 -42 -184 -42h-415c-79.333 0 -140.666 14 -183.999 42c-42 -28 -103.333 -42 -184 -42h-136v215h136c30.667 0 51 5.16699 61 15.5s15 30.166 15 59.499v1192h215v-851
c166 263.333 305.333 395 418 395h24c76 0 147 -49 213 -147c84.667 -127.333 127 -306.333 127 -537v-52c0 -29.333 5.66699 -49.166 17 -59.499s32 -15.5 62 -15.5h123v-215zM939.998 287l0.000976562 50c0 166.667 -19 294.334 -57 383.001c-26 58.667 -50 88 -72 88h-28
c-52 0 -127.667 -77 -227 -231c-70.667 -110 -131 -219 -181 -327c0.666992 -0.666992 5.16699 -7.16699 13.5 -19.5s14.166 -18.5 17.499 -18.5h458c30 0 50.167 5.16699 60.5 15.5s15.5 30.166 15.5 59.499zM896.999 1287c0 -29.333 -10.333 -54.333 -31 -75
s-45.667 -31 -75 -31c-30 0 -55.333 10.333 -76 31s-31 45.667 -31 75c0 30 10.333 55.333 31 76s46 31 76 31c29.333 0 54.333 -10.333 75 -31s31 -46 31 -76z" />
    <glyph glyph-name="uFECA" unicode="&#x639;" horiz-adv-x="1020" arabic-form="final" 
d="M1048 -3l-218.999 -0.00292969c-104.667 0 -187 22.333 -247 67c-38.667 -21.333 -93.667 -42.666 -165 -63.999c-61.333 -18.667 -92 -62 -92 -130c0 -100 58.333 -235.333 175 -406h-259c-79.333 158.667 -119 301.334 -119 428.001c0 172.667 81.333 278.667 244 318
c45.333 10.667 70.666 17.334 75.999 20.001c31.333 12.667 47 31.667 47 57v43c0 70 -32 150.167 -96 240.5s-120 135.5 -168 135.5v183c26 36 79 71 159 105s148 51 204 51h11c90.667 0 213 -45.667 367 -137v-202c-48 0 -103.167 -46.833 -165.5 -140.5
s-93.5 -172.167 -93.5 -235.5v-43c0 -50 40.667 -75 122 -75h219v-215zM714.001 798.997c-44.667 20 -82.666 30.001 -113.999 30.001h-13c-39.333 0 -77 -6 -113 -18c51.333 -58.667 94.666 -118 129.999 -178c35.333 63.333 72 118.666 110 165.999z" />
    <glyph glyph-name="uFECB" unicode="&#x639;" horiz-adv-x="769" arabic-form="initial" 
d="M772 698c-144 88 -249.333 131.999 -316 131.999h-10c-33.333 0 -64 -14.333 -92 -43c-37.333 -38 -56 -93.667 -56 -167v-288c0 -61.333 10 -97.666 30 -108.999c12.667 -7.33301 57 -11 133 -11h304v-215h-793v215h117c-4 22.667 -6 49.667 -6 81v327
c0 152 42.667 265.333 128 340c64 56 140.667 84 230 84h14c99.333 0 205 -34.333 317 -103v-243z" />
    <glyph glyph-name="uFECC" unicode="&#x639;" horiz-adv-x="862" arabic-form="medial" 
d="M890 -3h-232c-98.667 0 -175.667 19 -231 57c-52.667 -38 -120 -57 -202 -57h-253v215h241c70 0 105 25 105 75v43c0 70 -32 150.167 -96 240.5s-120 135.5 -168 135.5v183c26 36 79 71 159 105s148 51 204 51h11c90.667 0 213 -45.667 367 -137v-202
c-48 0 -103.333 -46.833 -166 -140.5s-94 -172.167 -94 -235.5v-43c0 -50 41 -75 123 -75h232v-215zM542 799c-46.667 20 -84.333 30 -113 30h-13c-40 0 -78 -6 -114 -18c51.333 -58.667 95 -117.667 131 -177c34 61.333 70.333 116.333 109 165z" />
    <glyph glyph-name="uFECE" unicode="&#x63a;" horiz-adv-x="1020" arabic-form="final" 
d="M1048 -3l-218.999 -0.00292969c-104.667 0 -187 22.333 -247 67c-38.667 -21.333 -93.667 -42.666 -165 -63.999c-61.333 -18.667 -92 -62 -92 -130c0 -100 58.333 -235.333 175 -406h-259c-79.333 158.667 -119 301.334 -119 428.001c0 172.667 81.333 278.667 244 318
c45.333 10.667 70.666 17.334 75.999 20.001c31.333 12.667 47 31.667 47 57v43c0 70 -32 150.167 -96 240.5s-120 135.5 -168 135.5v183c26 36 79 71 159 105s148 51 204 51h11c90.667 0 213 -45.667 367 -137v-202c-48 0 -103.167 -46.833 -165.5 -140.5
s-93.5 -172.167 -93.5 -235.5v-43c0 -50 40.667 -75 122 -75h219v-215zM714.001 798.997c-44.667 20 -82.666 30.001 -113.999 30.001h-13c-39.333 0 -77 -6 -113 -18c51.333 -58.667 94.666 -118 129.999 -178c35.333 63.333 72 118.666 110 165.999zM595.002 1287
c0 -29.333 -10.333 -54.333 -31 -75s-46 -31 -76 -31c-29.333 0 -54.333 10.333 -75 31s-31 45.667 -31 75c0 30 10.333 55.333 31 76s45.667 31 75 31c30 0 55.333 -10.333 76 -31s31 -46 31 -76z" />
    <glyph glyph-name="uFECF" unicode="&#x63a;" horiz-adv-x="769" arabic-form="initial" 
d="M772 698c-144 88 -249.333 131.999 -316 131.999h-10c-33.333 0 -64 -14.333 -92 -43c-37.333 -38 -56 -93.667 -56 -167v-288c0 -61.333 10 -97.666 30 -108.999c12.667 -7.33301 57 -11 133 -11h304v-215h-793v215h117c-4 22.667 -6 49.667 -6 81v327
c0 152 42.667 265.333 128 340c64 56 140.667 84 230 84h14c99.333 0 205 -34.333 317 -103v-243zM595 1287c0 -29.333 -10.333 -54.333 -31 -75s-46 -31 -76 -31c-29.333 0 -54.333 10.333 -75 31s-31 45.667 -31 75c0 30 10.333 55.333 31 76s45.667 31 75 31
c30 0 55.333 -10.333 76 -31s31 -46 31 -76z" />
    <glyph glyph-name="uFED0" unicode="&#x63a;" horiz-adv-x="862" arabic-form="medial" 
d="M890 -3h-232c-98.667 0 -175.667 19 -231 57c-52.667 -38 -120 -57 -202 -57h-253v215h241c70 0 105 25 105 75v43c0 70 -32 150.167 -96 240.5s-120 135.5 -168 135.5v183c26 36 79 71 159 105s148 51 204 51h11c90.667 0 213 -45.667 367 -137v-202
c-48 0 -103.333 -46.833 -166 -140.5s-94 -172.167 -94 -235.5v-43c0 -50 41 -75 123 -75h232v-215zM542 799c-46.667 20 -84.333 30 -113 30h-13c-40 0 -78 -6 -114 -18c51.333 -58.667 95 -117.667 131 -177c34 61.333 70.333 116.333 109 165zM595.001 1287
c0 -29.333 -10.333 -54.333 -31 -75s-46 -31 -76 -31c-29.333 0 -54.333 10.333 -75 31s-31 45.667 -31 75c0 30 10.333 55.333 31 76s45.667 31 75 31c30 0 55.333 -10.333 76 -31s31 -46 31 -76z" />
    <glyph glyph-name="uFED2" unicode="&#x641;" horiz-adv-x="1519" arabic-form="final" 
d="M1156 1287c0 -29.333 -10.333 -54.333 -31 -75s-45.667 -31 -75 -31c-30 0 -55.333 10.333 -76 31s-31 45.667 -31 75c0 30 10.333 55.333 31 76s46 31 76 31c29.333 0 54.333 -10.333 75 -31s31 -46 31 -76zM1537 -3l-277 0.000976562
c-75.333 0 -148.666 9.33301 -219.999 28c-82.667 -18.667 -160.334 -28 -233.001 -28h-404c-93.333 0 -160.333 15 -201 45c-60 43.333 -90 127 -90 251v46c0 218.667 55 453.667 165 705h238c-126 -268.667 -189 -504.334 -189 -707.001v-50c0 -30 5.5 -50 16.5 -60
s32.167 -15 63.5 -15h327c-30.667 39.333 -46 98 -46 176v68c0 92 17.667 191.667 53 299c62 190 162.333 285 301 285c112 0 201 -54.5 267 -163.5s99 -257.167 99 -444.5v-51c0 -78 -16 -134.333 -48 -169h178v-215zM1191 375.001l-0.000976562 55
c0 114 -4.66699 194.667 -14 242c-21.333 102.667 -66.666 154 -135.999 154c-93.333 0 -140 -102.667 -140 -308c0 -14.667 0.333008 -29.5 1 -44.5s1 -21.833 1 -20.5v-71c0 -54 48 -96.333 144 -127c96 30 144 70 144 120z" />
    <glyph glyph-name="uFED3" unicode="&#x641;" horiz-adv-x="809" arabic-form="initial" 
d="M601 1287c0 -29.333 -10.333 -54.333 -31 -75s-45.667 -31 -75 -31c-30 0 -55.333 10.333 -76 31s-31 45.667 -31 75c0 30 10.333 55.333 31 76s46 31 76 31c29.333 0 54.333 -10.333 75 -31s31 -46 31 -76zM809 313c0 -101.333 -30.333 -181 -91 -239
c-54 -51.333 -120.333 -77 -199 -77h-546v215h207c-34.667 71.333 -52 155.333 -52 252c0 129.333 32.667 253 98 371c74 132.667 164.333 199 271 199c102 0 180.333 -54.667 235 -164c51.333 -104.667 77 -250.667 77 -438v-119zM597 328l-0.000976562 114.998
c0 250 -33.333 375 -100 375c-43.333 0 -80.666 -41.667 -111.999 -125c-28.667 -75.333 -43 -151.666 -43 -228.999c0 -69.333 13 -126.666 39 -171.999c32 -54.667 80 -82.667 144 -84c48 4 72 44 72 120z" />
    <glyph glyph-name="uFED4" unicode="&#x641;" horiz-adv-x="906" arabic-form="medial" 
d="M573 1278c0 -29.333 -10.333 -54.333 -31 -75s-45.667 -31 -75 -31s-54.333 10.333 -75 31s-31 45.667 -31 75c0 30 10.333 55.167 31 75.5s45.667 30.5 75 30.5s54.333 -10.167 75 -30.5s31 -45.5 31 -75.5zM931 -3l-261 0.000976562c-75.333 0 -149 9.33301 -221 28
c-82 -18.667 -159.333 -28 -232 -28h-241v215l181 1c-40 39.333 -60 97.666 -60 174.999v68c0 92 17.667 191.667 53 299c62 190 162.333 285 301 285c112 0 201 -54.5 267 -163.5s99 -257.167 99 -444.5v-51c0 -78 -19 -134.333 -57 -169h171v-215zM601 375.001
l-0.000976562 54.999c0 114 -4.66699 194.667 -14 242c-21.333 102.667 -66.666 154 -135.999 154c-93.333 0 -140 -102.667 -140 -308c0 -14.667 0.333008 -29.5 1 -44.5s1 -21.833 1 -20.5v-71c0 -51.333 47.333 -94.333 142 -129c97.333 32.667 146 73.334 146 122.001z
" />
    </font>
</defs>
</svg>
