<?xml version="1.0" standalone="no"?>
<!DOCTYPE svg PUBLIC "-//W3C//DTD SVG 1.1//EN" "http://www.w3.org/Graphics/SVG/1.1/DTD/svg11.dtd" >
<svg>
<metadata>
Created by FontForge 20090914 at Wed Oct 19 00:47:26 2011
 By www-data
(c) by Abolfazl Seilsepour - +98 912 591 3420  -  seilsepor@yahoo.com
</metadata>
<defs>
<font id="FarAMina" horiz-adv-x="0" >
  <font-face 
    font-family="Far.AMina"
    font-weight="400"
    font-stretch="normal"
    units-per-em="2048"
    panose-1="0 0 4 0 0 0 0 0 0 0"
    ascent="1638"
    descent="-410"
    bbox="-548 -741.001 2955 1682"
    underline-thickness="100"
    underline-position="-700"
    unicode-range="U+0020-U+FEFC"
  />
<missing-glyph horiz-adv-x="1131" 
d="M81 0v1535h969v-1535h-969zM343 251h445v1033h-445v-1033z" />
    <glyph glyph-name=".notdef" unicode="&#x652;&#x64d;" horiz-adv-x="1131" 
d="M81 0v1535h969v-1535h-969zM343 251h445v1033h-445v-1033z" />
    <glyph glyph-name="copyright" unicode="&#x652;&#x64e;" horiz-adv-x="1557" 
d="M862 1495c125.333 0 247.5 -32 366.5 -96s211.833 -155.5 278.5 -274.5s100 -243.167 100 -372.5s-32.833 -253.333 -98.5 -372s-157.667 -210.5 -276 -275.5s-241.833 -97.5 -370.5 -97.5c-129.333 0 -252.833 32.5 -370.5 97.5s-209.5 156.833 -275.5 275.5
s-99 242.667 -99 372s33.5 253.5 100.5 372.5s160 210.5 279 274.5s240.833 96 365.5 96zM862 1431c-114 0 -225.169 -29.333 -333.502 -88s-193.166 -142.334 -254.499 -251.001s-92 -222 -92 -340s30 -230.833 90 -338.5s144 -191.667 252 -252s220.667 -90.5 338 -90.5
s230 30.167 338 90.5s192.167 144.333 252.5 252s90.5 220.5 90.5 338.5s-30.667 231.333 -92 340s-146.166 192.334 -254.499 251.001s-219.833 88 -334.5 88zM1230 1230l22 -293.999h-41c-26 83.333 -66.167 145.5 -120.5 186.5s-120.166 61.5 -197.499 61.5
c-58 0 -109.333 -12 -154 -36s-81.334 -55.667 -110.001 -95c-21.333 -30.667 -39 -71 -53 -121s-21 -102 -21 -156c0 -148.667 32 -258.167 96 -328.5s148 -105.5 252 -105.5c136 0 245 56.667 327 170l39 -20c-97.333 -142 -231 -213 -401 -213
c-140.667 0 -257 45.333 -349 136s-138 200.667 -138 330c0 134 49 248.333 147 343s223 142 375 142c33.333 0 60.333 -2 81 -6s59 -15 115 -33c16.667 -6 29 -9 37 -9c11.333 0 21 3.16699 29 9.5s16 19.166 24 38.499h41z" />
    <glyph glyph-name="uniE818" unicode="&#x651;&#x64b;" 
d="M-11 1288l42 -88l-362 3l-42 85h362zM-72 1418l45 -87l-369 2l-45 90zM75 1156l43.001 -87c14 -28 18 -52.333 12 -73c-9.33301 -26 -34 -39 -74 -39c-43.333 2 -75 12.667 -95 32c-0.666992 -17.333 -24.334 -26 -71.001 -26
c-39.333 -3.33301 -76.333 8.33398 -111 35.001c-26.667 20 -47 43.667 -61 71l-43 87h98l35 -70c19.333 -30.667 37.333 -45.667 54 -45c12 1.33301 6.33301 25.666 -17 72.999l-21 42h99l21 -42c29.333 -48.667 54 -73 74 -73c14.667 0 12 15.667 -8 47l-32 68h97z" />
    <glyph glyph-name="uniFC5E" unicode="&#x651;&#x64c;" arabic-form="isolated" 
d="M190 1039l44 -88c14 -28.667 18 -53 12 -73c-9.33301 -26 -33.666 -39 -72.999 -39c-44 1.33301 -76.333 12.333 -97 33c0 -18 -23 -27 -69 -27c-40.667 -3.33301 -78.334 8.33398 -113.001 35.001c-26 20 -45.667 43.667 -59 71l-44 88h97l35 -71
c20 -30.667 38.333 -45.334 55 -44.001c12 0.666992 6 24.667 -18 72l-21 43h100l21 -43c28.667 -48 53 -72 73 -72c14.667 0 12 15.333 -8 46l-31 69h96zM-63 1357c-30.667 0 -37 -18 -19 -54c18.667 -37.333 43.334 -56 74.001 -56c31.333 0 37.666 18.667 18.999 56
c-18 36 -42.667 54 -74 54zM-246 1357c-30.667 0 -37.001 -18 -19.001 -54c18.667 -37.333 43.334 -56 74.001 -56s36.667 18.667 18 56c-18 36 -42.333 54 -73 54zM-76.001 1204c0 6 -1.00293 8 -3.00293 6c-1.33301 -2.66699 -2.33301 -5 -3 -7v-7l-112 -124l-63 63l42 46
c-9.33301 1.33301 -28.666 12 -57.999 32c-37.333 24.667 -64.333 54 -81 88c-42 83.333 -18.333 125 71 125c42.667 0 77.334 -7.66699 104.001 -23c10.667 15.333 37.334 23 80.001 23c90.667 0 157 -41.667 199 -125c16.667 -34 18.667 -63.333 6 -88l-117 -141l-62 63
l41 46c-8.66699 1.33301 -26.667 11 -54 29c-1.33301 1.33301 2 -0.666992 10 -6z" />
    <glyph glyph-name="uniFC5F" unicode="&#x651;&#x64d;" arabic-form="isolated" 
d="M-45 1415l45 -89c14 -28 17.667 -52 11 -72c-8 -26.667 -32.667 -40 -74 -40c-43.333 2.66699 -75 13.667 -95 33c0 -18 -23.333 -27 -70 -27c-40 -3.33301 -77.333 8.66699 -112 36c-27.333 20.667 -47.333 44 -60 70l-45 89h98l36 -71
c19.333 -31.333 37.333 -46 54 -44c12.667 0 7 24 -17 72l-22 43h99l22 -43c29.333 -48 54 -72 74 -72c14.667 0 12 15.333 -8 46l-33 69h97zM103 1064l46 -88l-366 3l-42 85h362zM40 1188l44 -88l-356 -2l-51 90h363z" />
    <glyph glyph-name="uniFC60" unicode="&#x651;&#x64e;" horiz-adv-x="1" arabic-form="isolated" 
d="M26 1251l42.999 -87c14.667 -29.333 18.667 -54 12 -74c-8 -26.667 -32.667 -40 -74 -40c-43.333 2.66699 -75 14 -95 34c0 -18 -23.333 -27 -70 -27c-40 -3.33301 -77.333 8.33398 -112 35.001c-27.333 21.333 -47.666 45.333 -60.999 72l-43 87h98l35 -71
c19.333 -30.667 37.333 -45.334 54 -44.001c12.667 0.666992 7 24.667 -17 72l-21 43h99l21 -43c29.333 -48 54 -72 74 -72c14.667 0 12 15.333 -8 46l-32 69h97zM-50.001 1370l41 -77h-366l-37 77h362z" />
    <glyph glyph-name="uniFC61" unicode="&#x651;&#x64f;" arabic-form="isolated" 
d="M-223 1328c19.333 -38 44.667 -57 76 -57c30 0 35.333 19 16 57c-18 36.667 -42 55 -72 55c-31.333 0 -38 -18.333 -20 -55zM-37.999 1229l0.000976562 -8l-113 -123l-65 62l43 46c-8.66699 1.33301 -26.334 11 -53.001 29c-40 26.667 -68.667 57 -86 91
c-42 84 -18 126 72 126s156 -42 198 -126c17.333 -34 20 -63 8 -87zM134.002 1072l44 -88c14.667 -28.667 18.667 -53.334 12 -74.001c-9.33301 -25.333 -34 -38 -74 -38c-43.333 1.33301 -75 12 -95 32c-0.666992 -17.333 -24.334 -26 -71.001 -26
c-39.333 -3.33301 -76.333 8.33398 -111 35.001c-27.333 20.667 -47.666 44.334 -60.999 71.001l-44 88h98l36 -71c19.333 -30.667 37.333 -45.667 54 -45c12 1.33301 6.33301 25.666 -17 72.999l-22 43h99l22 -44c29.333 -48 54 -72 74 -72c14.667 0 12 15.667 -8 47
l-33 69h97z" />
    <glyph glyph-name="uniFC62" unicode="&#x651;&#x650;" horiz-adv-x="1" arabic-form="isolated" 
d="M-21 1380l45 -88.999c14 -28.667 17.667 -53 11 -73c-8 -26.667 -32.667 -40 -74 -40c-43.333 2.66699 -75 14 -95 34c0 -18 -23.333 -27 -70 -27c-40 -3.33301 -77.333 8.66699 -112 36c-27.333 20.667 -47.333 44 -60 70l-45 89h98l36 -72
c19.333 -30.667 37.333 -45.334 54 -44.001c12.667 0.666992 7 24.667 -17 72l-22 44h99l22 -44c29.333 -48 54 -72 74 -72c14.667 0 12 15.333 -8 46l-33 70h97zM79 1151l40 -77h-365l-35 77h360z" />
    <glyph glyph-name="uniFD3F" unicode="&#x652;&#x64b;" horiz-adv-x="958" 
d="M930 444c-64 61.333 -122.665 111.665 -175.998 150.998c-14 10.667 -31.333 22 -52 34c-4 -8.66699 -10.333 -17.334 -19 -26.001c14 -14 30 -28.333 48 -43c53.333 -42.667 116.333 -86 189 -130c-72.667 12 -138 18 -196 18c6 -114.667 -13.667 -216.667 -59 -306
l-127 -250c-10.667 60 -24 128.667 -40 206c-7.33301 27.333 -15.666 48.333 -24.999 63c-16.667 24.667 -46 55 -88 91c70.667 0 117.667 10.333 141 31c28.667 24.667 45.334 79.667 50.001 165c-51.333 0 -109.333 -6 -174 -18c46.667 45.333 83.667 88.666 111 129.999
c8.66699 14 16 28.333 22 43c-12.667 7.33301 -24.334 16 -35.001 26c-13.333 -11.333 -24.333 -22.666 -33 -33.999c-30 -39.333 -58.333 -89.666 -85 -150.999c-8.66699 69.333 -22.334 135.333 -41.001 198l-37 123c-18.667 63.333 -44.667 129.333 -78 198
c65.333 -62.667 124 -113 176 -151c12.667 -9.33301 30.334 -20.666 53.001 -33.999c5.33301 10 11.666 19 18.999 27c-14.667 14.667 -30.667 29 -48 43c-51.333 41.333 -114.333 84.666 -189 129.999c75.333 -12.667 137.333 -19 186 -19
c-56 85.333 -105.667 140.333 -149 165c-36 20.667 -89.333 31 -160 31c20.667 36.667 31.667 67.334 33 92.001c0.666992 14 -3.33301 35 -12 63l-84 206l277 -251c98.667 -88.667 179.667 -190.667 243 -306c55.333 0 116.666 6.33301 183.999 19
c-46 -44 -83 -87.333 -111 -130c-9.33301 -13.333 -17 -27.666 -23 -42.999c13.333 -8 25.333 -17 36 -27c13.333 12 24 23.333 32 34c29.333 40 57.666 90.333 84.999 151c8.66699 -71.333 22 -137.333 40 -198l37 -123c18 -60 44.333 -126 79 -198zM670.002 703.999
c-7.33301 24.667 -22.834 46 -46.501 64s-47.834 27 -72.501 27s-43.167 -9 -55.5 -27s-14.833 -39.333 -7.5 -64s22.5 -46 45.5 -64s47.167 -27 72.5 -27c24.667 0 43.334 9 56.001 27s15.334 39.333 8.00098 64z" />
    <glyph glyph-name="uniFDF2" unicode="&#xfedf;&#xfee0;&#xfeea;" horiz-adv-x="2720" arabic-form="isolated" 
d="M977 1l-122 256c18.667 43.333 28 86.333 28 129c0 61.333 -24.333 127 -73 197s-102.667 105 -162 105c-52 0 -94.167 -16.167 -126.5 -48.5s-48.5 -74.5 -48.5 -126.5c0 -68 19.833 -126 59.5 -174s93.5 -75.333 161.5 -82l121 -256h-321l-399 857h817l288 -606h356
l-361 788h251l376 -788h407l-429 930h251l557 -1181h-1631zM1408 1280l44 -87.999c14.667 -28.667 18.667 -53.334 12 -74.001c-9.33301 -25.333 -34 -38 -74 -38c-43.333 1.33301 -75 12 -95 32c-0.666992 -17.333 -24.334 -26 -71.001 -26
c-39.333 -4 -76.333 7.66699 -111 35c-27.333 20.667 -47.666 44.334 -60.999 71.001l-44 88h98l36 -71c19.333 -30.667 37.333 -45.667 54 -45c12 1.33301 6.33301 25.666 -17 72.999l-22 43h99l22 -44c29.333 -48 54 -72 74 -72c14.667 0 12 15.667 -8 47l-33 69h97z" />
    <glyph glyph-name="uniFEF5" unicode="&#xfedf;&#xfe82;" horiz-adv-x="1394" arabic-form="isolated" 
d="M1325 1h-798l-113 254c15.333 0 50.333 -2.33301 105 -7s97.667 -7 129 -7c149.333 0 224 46 224 138c0 32 -57.5 169.167 -172.5 411.5s-172.5 374.833 -172.5 397.5h255l543 -1168v-19zM640 317h-259l-402 871h257zM446 1306l-300 0.000976562
c4 -22.667 13 -45.334 27 -68.001h-354c-11.333 24.667 -27.333 63 -48 115l260 7c-6.66699 10.667 -15.667 28.667 -27 54h395c11.333 -16 27 -52 47 -108z" />
    <glyph glyph-name="uniFEF6" unicode="&#xfee0;&#xfe82;" horiz-adv-x="1461" arabic-form="final" 
d="M1717 1h-1187l-113 254c15.333 0 50.833 -2.83301 106.5 -8.5s100.167 -8.5 133.5 -8.5c148.667 0 223 47 223 141c0 30 -51.333 159.333 -154 388l-196 421h294l441 -936h340zM643 317h-259l-402 871h257zM446 1306l-300 0.000976562c4 -22.667 13 -45.334 27 -68.001
h-354c-11.333 24.667 -27.333 63 -48 115l260 7c-6.66699 10.667 -15.667 28.667 -27 54h395c11.333 -16 27 -52 47 -108z" />
    <glyph glyph-name="uniFEF7" unicode="&#xfedf;&#xfe84;" horiz-adv-x="1394" arabic-form="isolated" 
d="M1325 1h-797l-114 254c16 0 51.333 -2.33301 106 -7s97.667 -7 129 -7c149.333 0 224 46 224 138c0 32 -57.5 169.167 -172.5 411.5s-172.5 374.833 -172.5 397.5h255l542 -1168v-19zM641 317h-260l-401 871h256zM213 1237h-260l-33 76h8c10.667 0 20.667 2 30 6l-79 167
h221c9.33301 -23.333 22 -57.333 38 -102h-49c-14 37.333 -40.667 56 -80 56c-14.667 0 -22 -10 -22 -30c0 -57.333 21.5 -87.333 64.5 -90s85.167 -5 126.5 -7z" />
    <glyph glyph-name="uniFEF8" unicode="&#xfee0;&#xfe84;" horiz-adv-x="1462" arabic-form="final" 
d="M1717 1h-1187l-113 254c16 0 51.833 -2.83301 107.5 -8.5s99.834 -8.5 132.501 -8.5c149.333 0 224 47 224 141c0 30 -51.667 159.333 -155 388l-196 421h294l442 -936h339zM643.999 317h-260l-401 871h256zM212.999 1237h-260l-33 76h8c10.667 0 20.667 2 30 6l-79 167
h221c9.33301 -23.333 22 -57.333 38 -102h-49c-14 37.333 -40.667 56 -80 56c-14.667 0 -22 -10 -22 -30c0 -57.333 21.5 -87.333 64.5 -90s85.167 -5 126.5 -7z" />
    <glyph glyph-name="uniFEF9" unicode="&#xfedf;&#xfe88;" horiz-adv-x="1394" arabic-form="isolated" 
d="M1325 1h-798l-113 254c15.333 0 50.333 -2.33301 105 -7s97.667 -7 129 -7c149.333 0 224 46 224 138c0 32 -57.5 169.167 -172.5 411.5s-172.5 374.833 -172.5 397.5h255l543 -1168v-19zM640 317h-259l-402 871h257zM895 -323l-259.999 0.000976562
c-8 16.667 -19.333 42 -34 76h9c10.667 0 20.667 1.66699 30 5l-79 167h221c9.33301 -22.667 22.333 -56.667 39 -102h-50c-14 38 -40.667 57 -80 57c-14.667 0 -22 -10.333 -22 -31c0 -56.667 21.667 -86.334 65 -89.001s85.666 -5 126.999 -7z" />
    <glyph glyph-name="uniFEFA" unicode="&#xfee0;&#xfe88;" horiz-adv-x="1461" arabic-form="final" 
d="M1717 1h-1187l-113 254c15.333 0 50.833 -2.83301 106.5 -8.5s100.167 -8.5 133.5 -8.5c148.667 0 223 47 223 141c0 30 -51.333 159.333 -154 388l-196 421h294l441 -936h340zM643 317h-259l-402 871h257zM896 -323l-260.999 0.000976562l-33 76h8
c10.667 0 20.667 1.66699 30 5l-78 167h220c9.33301 -22.667 22.333 -56.667 39 -102h-50c-13.333 38 -40 57 -80 57c-14.667 0 -22 -10.333 -22 -31c0 -56.667 21.667 -86.334 65 -89.001s85.666 -5 126.999 -7z" />
    <glyph glyph-name="uniFEFB" unicode="&#xfedf;&#xfe8e;" horiz-adv-x="1394" arabic-form="isolated" 
d="M1325 1h-798l-113 254c15.333 0 50.333 -2.33301 105 -7s97.667 -7 129 -7c149.333 0 224 46 224 138c0 32 -57.5 169.167 -172.5 411.5s-172.5 374.833 -172.5 397.5h255l543 -1168v-19zM640 317h-259l-402 871h257z" />
    <glyph glyph-name="uniFEFC" unicode="&#xfee0;&#xfe8e;" horiz-adv-x="1461" arabic-form="final" 
d="M1717 1h-1187l-113 254c15.333 0 50.833 -2.83301 106.5 -8.5s100.167 -8.5 133.5 -8.5c148.667 0 223 47 223 141c0 30 -51.333 159.333 -154 388l-196 421h294l441 -936h340zM643 317h-259l-402 871h257z" />
    <glyph glyph-name="afii57410" unicode="&#x622;" horiz-adv-x="819" arabic-form="isolated" 
d="M801 1h-258l-551 1181h257zM335 1281l-300 0.000976562c4 -22.667 13 -45.334 27 -68.001h-354c-11.333 24.667 -27.333 63 -48 115l260 7c-6.66699 10.667 -15.667 28.667 -27 54h395c11.333 -16 27 -52 47 -108z" />
    <glyph glyph-name="afii57411" unicode="&#x623;" horiz-adv-x="820" arabic-form="isolated" 
d="M801 1h-258l-550 1181h256zM230 1229h-260l-33 76h8c10.667 0 20.667 1.66699 30 5l-79 167h221c9.33301 -22.667 22 -56.667 38 -102h-49c-14 38 -40.667 57 -80 57c-14.667 0 -22 -10 -22 -30c0 -57.333 21.5 -87.333 64.5 -90s85.167 -5 126.5 -7z" />
    <glyph glyph-name="afii57412" unicode="&#x624;" horiz-adv-x="1320" arabic-form="isolated" 
d="M1312 -382l-756.999 0.000976562l-96 212l86 -7.5c57.333 -5 107.666 -7.5 150.999 -7.5c173.333 0 260 39.667 260 119c0 17.333 -6.66699 39.666 -20 66.999h-561l-385 836h752zM780.001 357.001c0 68 -35.668 130.333 -107.001 187s-142.666 85 -213.999 85
c-94 0 -141 -37 -141 -111c0 -71.333 34.667 -134.833 104 -190.5s141 -83.5 215 -83.5c95.333 0 143 37.667 143 113zM238 905.001h-260l-33 76h8c10.667 0 20.667 1.66699 30 5l-79 167h221c9.33301 -22.667 22 -56.667 38 -102h-49c-14 38 -40.667 57 -80 57
c-14.667 0 -22 -10.333 -22 -31c0 -56.667 21.5 -86.5 64.5 -89.5s85.167 -5.16699 126.5 -6.5z" />
    <glyph glyph-name="afii57413" unicode="&#x625;" horiz-adv-x="819" arabic-form="isolated" 
d="M801 1h-258l-551 1181h257zM919 -289h-259.999l-34 76h9c10.667 0 20.667 2 30 6l-79 167h221l39 -102h-50c-14 37.333 -40.667 56 -80 56c-14.667 0 -22 -10 -22 -30c0 -57.333 21.667 -87.333 65 -90s85.666 -5 126.999 -7z" />
    <glyph glyph-name="afii57414" unicode="&#x626;" horiz-adv-x="2059" arabic-form="isolated" 
d="M1937 -385l-1297 -0.000976562l-448 963h259l197 -436c98.667 -180 209.334 -270 332.001 -270c75.333 0 144 25.667 206 77s93 113.666 93 186.999c0 98.667 -41.333 197.334 -124 296.001s-174.334 148 -275.001 148c-24 0 -49.333 -3.66699 -76 -11l-124 282h729
l150 -327h-56c-14.667 24.667 -42 37 -82 37c-56.667 0 -85 -25.667 -85 -77c0 -147.333 99.667 -224.666 299 -231.999zM429 630.999h-260.999l-33 76h8c11.333 0 21.666 2 30.999 6l-79 167h221c9.33301 -23.333 22 -57.333 38 -102h-49c-14 37.333 -40.667 56 -80 56
c-14.667 0 -22 -10 -22 -30c0 -57.333 21.5 -87.333 64.5 -90s85.167 -5 126.5 -7c8 -16 19.667 -41.333 35 -76z" />
    <glyph glyph-name="afii57415" unicode="&#x627;" horiz-adv-x="819" arabic-form="isolated" 
d="M801 1h-258l-551 1181h257z" />
    <glyph glyph-name="afii57416" unicode="&#x628;" horiz-adv-x="1778" arabic-form="isolated" 
d="M1760 1l-1379 0.000976562l-385 836h291l167 -350c88.667 -154.667 179.667 -232 273 -232h436c36 22.667 57 37 63 43c8.66699 12.667 13 36 13 70c0 37.333 -27 113.666 -81 228.999l-116 240h327zM1126 -252.999c0 -95.333 -48.666 -143 -145.999 -143
c-39.333 0 -72.833 15 -100.5 45s-41.5 65.667 -41.5 107s14.167 74.833 42.5 100.5s63.166 38.5 104.499 38.5c42 0 76 -14.333 102 -43s39 -63.667 39 -105z" />
    <glyph glyph-name="afii57417" unicode="&#x629;" horiz-adv-x="1253" arabic-form="isolated" 
d="M1241 1l-356 -0.000976562l-121 256c22 62.667 33 107.334 33 134.001c0 67.333 -32.5 131.666 -97.5 192.999s-131.5 92 -199.5 92c-34.667 0 -64 -14.167 -88 -42.5s-36 -60.166 -36 -95.499c0 -62 21.667 -123.333 65 -184c47.333 -66 101 -98.333 161 -97l116 -256
h-321l-394 857h839zM271 904.999h-260.999c-6.66699 16.667 -17.334 42 -32.001 76h8c10.667 0 20.667 1.66699 30 5l-79 167h221c9.33301 -22.667 22 -56.667 38 -102h-49c-14 38 -40.667 57 -80 57c-14.667 0 -22 -10.333 -22 -31c0 -56.667 21.5 -86.5 64.5 -89.5
s85.167 -5.16699 126.5 -6.5z" />
    <glyph glyph-name="afii57418" unicode="&#x62a;" horiz-adv-x="1803" arabic-form="isolated" 
d="M953 1004c0 -92 -47.332 -138.002 -141.999 -138.002c-94 0 -141 48 -141 144c0 42.667 14 77.334 42 104.001s63.333 40 106 40c39.333 0 71.666 -14.667 96.999 -44s38 -64.666 38 -105.999zM642.001 1004c0 -92 -47.333 -138.001 -142 -138.001
c-94 0 -141 48 -141 144s49 144 147 144c39.333 0 71.833 -14.667 97.5 -44s38.5 -64.666 38.5 -105.999zM1789 0.99707l-1378 0.000976562l-391 836h297l164 -350c88 -154.667 180.333 -232 277 -232h435c36 22.667 56.667 37 62 43c9.33301 12.667 14 36 14 70
c0 41.333 -26.333 118.666 -79 231.999l-118 237h327z" />
    <glyph glyph-name="afii57419" unicode="&#x62b;" horiz-adv-x="1789" arabic-form="isolated" 
d="M800 1330c0 -86 -42.3311 -129 -126.998 -129c-41.333 0 -76.5 14.333 -105.5 43s-43.5 63.667 -43.5 105c0 36 12.167 66.667 36.5 92s55.166 38 92.499 38c43.333 0 78.666 -14 105.999 -42s41 -63.667 41 -107zM969.002 1055c0 -92 -47.665 -138 -142.998 -138
c-92.667 0 -139 48 -139 144c0 43.333 13.667 78.5 41 105.5s62.666 40.5 105.999 40.5c41.333 0 74.166 -15 98.499 -45s36.5 -65.667 36.5 -107zM659.004 1058c0 -94 -48.333 -141 -145 -141c-39.333 0 -73 14.5 -101 43.5s-42 63.167 -42 102.5
c0 42 14.333 76.5 43 103.5s64 40.5 106 40.5c40 0 73.167 -14.5 99.5 -43.5s39.5 -64.167 39.5 -105.5zM1789 1l-1384 0.000976562l-385 836h291c75.333 -169.333 133 -286 173 -350c93.333 -154.667 184.666 -232 273.999 -232h429c22.667 0 42 13.333 58 40s24 52 24 76
c0 37.333 -27.333 113.666 -82 228.999l-121 237h333z" />
    <glyph glyph-name="afii57420" unicode="&#x62c;" horiz-adv-x="1365" arabic-form="isolated" 
d="M1530 -736h-921.999l-451 993h661c-68 140 -166 232.667 -294 278c-84.667 28.667 -220.334 43 -407.001 43l-119 265h798l389 -842h-534c-43.333 -52 -65 -108 -65 -168c0 -235.333 174.333 -353 523 -353c43.333 0 101.333 1.83301 174 5.5s121 5.5 145 5.5zM1026 -253
c0 -84.667 -42.333 -127 -127 -127c-43.333 0 -79 14.833 -107 44.5s-42 66.167 -42 109.5c0 84.667 42.333 127 127 127c45.333 0 81.5 -14.833 108.5 -44.5s40.5 -66.167 40.5 -109.5z" />
    <glyph glyph-name="afii57421" unicode="&#x62d;" horiz-adv-x="1404" arabic-form="isolated" 
d="M1559 -736h-926.999l-451 993h661c-72 140 -169 231.667 -291 275c-84.667 30.667 -221.334 46 -410.001 46l-119 265h798l394 -842h-539c-43.333 -65.333 -65 -123.333 -65 -174c0 -230 186.333 -345 559 -345c42 0 95 1.5 159 4.5s105.333 4.5 124 4.5z" />
    <glyph glyph-name="afii57422" unicode="&#x62e;" horiz-adv-x="1398" arabic-form="isolated" 
d="M508 1026c0 -95.333 -49 -143 -147 -143c-39.333 0 -71.833 14.5 -97.5 43.5s-38.5 63.167 -38.5 102.5c0 96.667 49.333 145 148 145c90 0 135 -49.333 135 -148zM1559 -736h-927l-451 982h661c-57.333 142 -153.666 236.333 -288.999 283
c-88 32.667 -225.333 49 -412 49l-119 265h803l389 -842h-539c-43.333 -61.333 -65 -119.333 -65 -174c0 -230 185.333 -345 556 -345c41.333 0 94.666 1.5 159.999 4.5s107.333 4.5 126 4.5z" />
    <glyph glyph-name="afii57423" unicode="&#x62f;" horiz-adv-x="1435" arabic-form="isolated" 
d="M1359 1h-862.999l-114 248h432c81.333 70 122 126.667 122 170c0 60.667 -38.667 120.167 -116 178.5s-147 87.5 -209 87.5c-88.667 0 -141.334 -60 -158.001 -180h-189l-159 332h865z" />
    <glyph glyph-name="afii57424" unicode="&#x630;" horiz-adv-x="1452" arabic-form="isolated" 
d="M669 1012c0 -93.333 -50.001 -140 -150.001 -140c-41.333 0 -74.666 14.5 -99.999 43.5s-38 63.167 -38 102.5c0 94.667 48.667 142 146 142c41.333 0 75.333 -13.833 102 -41.5s40 -63.167 40 -106.5zM1358 1h-864.001l-113 248c10.667 0 43.5 -2.33301 98.5 -7
s101.167 -7 138.5 -7c214.667 0 322 61.333 322 184c0 60.667 -39.167 120.167 -117.5 178.5s-148.166 87.5 -209.499 87.5c-93.333 0 -144.333 -57.333 -153 -172c-11.333 -4 -41 -6 -89 -6l-109 3l-153 327h860z" />
    <glyph glyph-name="afii57425" unicode="&#x631;" horiz-adv-x="712" arabic-form="isolated" 
d="M717 -188c0 -52 -23.001 -98.834 -69.001 -140.501s-95.667 -62.5 -149 -62.5h-167l-124 265c36 0 77.167 10.333 123.5 31s69.5 47.334 69.5 80.001c-49.333 129.333 -177.666 413.333 -384.999 852h251c77.333 -142.667 164.333 -317 261 -523
c126 -272 189 -439.333 189 -502z" />
    <glyph glyph-name="afii57426" unicode="&#x632;" horiz-adv-x="714" arabic-form="isolated" 
d="M254 1001c0 -41.333 -14.334 -75 -43.001 -101s-63.667 -39 -105 -39s-74.166 14.333 -98.499 43s-36.5 63 -36.5 103c0 94 48 141 144 141c92.667 0 139 -49 139 -147zM711.999 -185c0 -56 -22.333 -104.334 -67 -145.001s-95 -61 -151 -61h-167l-124 265
c36 0 77 10.333 123 31s69 47.334 69 80.001c-48.667 129.333 -176.667 413.333 -384 852h259c4 -12.667 88 -188.667 252 -528c126.667 -261.333 190 -426 190 -494z" />
    <glyph glyph-name="afii57427" unicode="&#x633;" horiz-adv-x="2370" arabic-form="isolated" 
d="M1340 1l181.998 -390h-912l-577 1235h260l401 -879c9.33301 -24 34.333 -46.833 75 -68.5s76 -32.5 106 -32.5c96.667 0 159 45 187 135v32l-376 813h260l180 -385l46 -90c50.667 -80.667 115.667 -121 195 -121c82.667 0 124 36.667 124 110
c0 48.667 -20.167 97.5 -60.5 146.5s-84.166 70.833 -131.499 65.5l-121 271h265l170 -359c88.667 -160 173.334 -240 254.001 -240c84.667 0 127 37.667 127 113c0 54.667 -21.167 104.667 -63.5 150s-90.833 67 -145.5 65l-118 271h262l399 -842h-988z" />
    <glyph glyph-name="afii57428" unicode="&#x634;" horiz-adv-x="2370" arabic-form="isolated" 
d="M1421 1329c0 -86.667 -43.332 -130 -129.999 -130c-42 0 -77 13.667 -105 41s-42 62.666 -42 105.999c0 88.667 42.333 133 127 133c41.333 0 76.666 -15.167 105.999 -45.5s44 -65.166 44 -104.499zM1593 1055c0 -92 -46.999 -138 -140.999 -138
c-43.333 0 -79.166 13.5 -107.499 40.5s-42.5 61.5 -42.5 103.5c0 41.333 14.667 75.666 44 102.999s65.666 41 108.999 41c39.333 0 72.166 -14.667 98.499 -44s39.5 -64.666 39.5 -105.999zM1279 1055c0 -92 -47.998 -138 -143.998 -138s-144 48 -144 144
c0 41.333 14.667 75.666 44 102.999s64.666 41 105.999 41c37.333 0 69.666 -15.167 96.999 -45.5s41 -65.166 41 -104.499zM1340 1l181.998 -390h-912l-577 1235h260l401 -879c9.33301 -24 34.333 -46.833 75 -68.5s76 -32.5 106 -32.5c96.667 0 159 45 187 135v32
l-376 813h260l180 -385l46 -90c50.667 -80.667 115.667 -121 195 -121c82.667 0 124 36.667 124 110c0 48.667 -20.167 97.5 -60.5 146.5s-84.166 70.833 -131.499 65.5l-121 271h265l170 -359c88.667 -160 173.334 -240 254.001 -240c84.667 0 127 37.667 127 113
c0 54.667 -21.167 104.667 -63.5 150s-90.833 67 -145.5 65l-118 271h262l399 -842h-988z" />
    <glyph glyph-name="afii57429" unicode="&#x635;" horiz-adv-x="2553" arabic-form="isolated" 
d="M2226 250l-147 316h-458c-56 0 -103.833 -16 -143.5 -48s-59.5 -75.333 -59.5 -130c0 -48.667 18.667 -94.667 56 -138h752zM1340 1l182 -389.999h-912l-577 1235h257c94 -194 228.667 -487 404 -879c8 -24 32.667 -46.833 74 -68.5s77 -32.5 107 -32.5
c104 0 168 51.667 192 155l-381 825h260l122 -262c75.333 125.333 119.333 193.666 132 204.999c41.333 36 124.333 54 249 54h766l390 -842h-1265z" />
    <glyph glyph-name="afii57430" unicode="&#x636;" horiz-adv-x="2553" arabic-form="isolated" 
d="M2226 250l-147 316h-458c-56 0 -103.833 -16 -143.5 -48s-59.5 -75.333 -59.5 -130c0 -48.667 18.667 -94.667 56 -138h752zM1893 1013c0 -94.667 -49 -142.001 -147 -142.001c-94.667 0 -142 49 -142 147c0 94.667 49 142 147 142c42 0 76.167 -13.667 102.5 -41
s39.5 -62.666 39.5 -105.999zM1340 0.999023l182 -389.999h-912l-577 1235h257c94 -194 228.667 -487 404 -879c8 -24 32.667 -46.833 74 -68.5s77 -32.5 107 -32.5c104 0 168 51.667 192 155l-381 825h260l122 -262c75.333 125.333 119.333 193.666 132 204.999
c41.333 36 124.333 54 249 54h766l390 -842h-1265z" />
    <glyph glyph-name="afii57431" unicode="&#x637;" horiz-adv-x="2147" arabic-form="isolated" 
d="M2142 1l-1941 -0.000976562l-116 251h603c-50 64.667 -75 133.667 -75 207c0 122.667 34.5 217.334 103.5 284.001s163.833 100 284.5 100h744zM557 316.999l-152 0.000976562l-399 865h254c172 -350.667 258 -536 258 -556c0 -12 -2 -29.333 -6 -52
s-6 -39.334 -6 -50.001c0 -88.667 17 -157.667 51 -207zM1756 249l-148 317.999h-472c-122 0 -183 -63.667 -183 -191c0 -37.333 17 -79.666 51 -126.999h752z" />
    <glyph glyph-name="afii57432" unicode="&#x638;" horiz-adv-x="2147" arabic-form="isolated" 
d="M1382 1055c0 -92 -46.998 -138 -140.998 -138s-141 48 -141 144c0 43.333 14.167 78.5 42.5 105.5s63.166 40.5 104.499 40.5c39.333 0 71.666 -15 96.999 -45s38 -65.667 38 -107zM2142 1l-1941 -0.000976562l-116 251h603c-50 72 -75 142 -75 210
c0 120.667 34 214.334 102 281.001s161.333 100 280 100h750zM557.002 316.999l-147 0.000976562l-404 865h254c172 -350.667 258 -537 258 -559c0 -10 -2 -26.333 -6 -49s-6 -39.334 -6 -50.001c0 -75.333 17 -144.333 51 -207zM1756 249l-148 318h-472
c-122 0 -183 -61.667 -183 -185c0 -40 17 -84.333 51 -133h752z" />
    <glyph glyph-name="afii57433" unicode="&#x639;" horiz-adv-x="1474" arabic-form="isolated" 
d="M1595 -741l-990.001 0.000976562l-451 996l54 -6l48 6l-266 566h865l158 -340h-214c3.33301 58.667 -30 105 -100 139c-52 24 -111.333 36 -178 36c-44.667 0 -82.167 -14 -112.5 -42s-45.5 -63.667 -45.5 -107c0 -177.333 173.333 -266 520 -266
c39.333 0 87.333 1.33301 144 4s89.667 4 99 4l113 -248h-540c-30 0 -55.333 -20.667 -76 -62c-19.333 -32.667 -29 -66.334 -29 -101.001c0 -260 196 -390 588 -390c41.333 0 98.833 1.33301 172.5 4s123.834 4 150.501 4z" />
    <glyph glyph-name="afii57434" unicode="&#x63a;" horiz-adv-x="1474" arabic-form="isolated" 
d="M529 1001c0 -41.333 -13.668 -75 -41.001 -101s-61.666 -39 -102.999 -39s-74.833 14.333 -100.5 43s-38.5 63 -38.5 103c0 94 48.333 141 145 141c92 0 138 -49 138 -147zM1591 -741l-983.997 0.000976562l-456 996c36 -4 71.667 -4 107 0l-266 566h865l158 -340h-214
c3.33301 58.667 -30 103.667 -100 135c-54 26.667 -113.333 40 -178 40c-105.333 0 -158 -48.667 -158 -146c0 -179.333 169.667 -269 509 -269c41.333 0 90.666 1.33301 147.999 4s92.666 4 105.999 4l113 -248h-545c-30.667 0 -56 -20.667 -76 -62
c-16 -32.667 -24 -66.334 -24 -101.001c0 -260 192.333 -390 577 -390c45.333 0 105.666 1.33301 180.999 4s126.333 4 153 4c20.667 -43.333 48.667 -109 84 -197z" />
    <glyph glyph-name="afii57441" unicode="&#x641;" horiz-adv-x="2211" arabic-form="isolated" 
d="M1678 1055c0 -92 -48.332 -138 -144.999 -138c-92 0 -138 48 -138 144c0 43.333 14.167 78.5 42.5 105.5s63.166 40.5 104.499 40.5s74.333 -15 99 -45s37 -65.667 37 -107zM2212 1l-1947 -0.00195312l-269 577h259c52 -126 98.667 -209 140 -249
c56 -53.333 145.333 -80 268 -80l614 3c-53.333 22.667 -99 68.834 -137 138.501s-57 135.834 -57 198.501c0 66 26 124.833 78 176.5s110.333 77.5 175 77.5h483zM1813 359.998c0 66 -38.998 128.167 -116.998 186.5s-152 87.5 -222 87.5c-94 0 -141 -37.667 -141 -113
c0 -68 40.667 -131 122 -189c73.333 -55.333 144.666 -83 213.999 -83c37.333 0 70.666 9.5 99.999 28.5s44 46.5 44 82.5z" />
    <glyph glyph-name="afii57442" unicode="&#x642;" horiz-adv-x="1754" arabic-form="isolated" 
d="M1208 1058c0 -94 -47.333 -141 -142 -141c-94 0 -141 48 -141 144c0 97.333 48.667 146 146 146c40 0 72.833 -15 98.5 -45s38.5 -64.667 38.5 -104zM896 1055c0 -92 -47.999 -138 -143.999 -138c-92 0 -138 48 -138 144c0 97.333 48 146 144 146
c37.333 0 69.666 -15.5 96.999 -46.5s41 -66.167 41 -105.5zM1761 -388h-1322l-447 971h257l142 -316c63.333 -126.667 129 -221.667 197 -285c90 -80.667 193.667 -121 311 -121c75.333 0 148 52 218 156c-158.667 18 -299 76.667 -421 176
c-138 111.333 -207 243.333 -207 396c0 52 26.5 104.5 79.5 157.5s104.5 79.5 154.5 79.5h472zM1190 346c0 70 -38.667 135.667 -116 197c-75.333 57.333 -148.333 86 -219 86c-96.667 0 -145 -37.667 -145 -113c0 -72 36.667 -136.333 110 -193s148 -85 224 -85
c97.333 0 146 36 146 108z" />
    <glyph glyph-name="afii57443" unicode="&#x643;" horiz-adv-x="2224" arabic-form="isolated" 
d="M267 1l-258.999 576.999h257c53.333 -147.333 126.666 -241.666 219.999 -282.999c49.333 -23.333 128.333 -37.666 237 -42.999h945c20 15.333 30 45.666 30 90.999c0 36 -14 69 -42 99s-60 45 -96 45h-844l-326 703h1167l108 -243h-806c-34 -28 -51 -61 -51 -99
c0 -31.333 12.667 -60.333 38 -87s54 -40 86 -40h846l181 -375c99.333 -213.333 145.333 -328.333 138 -345h-1829z" />
    <glyph glyph-name="afii57444" unicode="&#x644;" horiz-adv-x="1249" arabic-form="isolated" 
d="M1220 -388h-904l-294 637h257c68 -158 106.667 -243.333 116 -256c53.333 -73.333 134 -110 242 -110c82 0 127.667 44 137 132l-537 1167h257z" />
    <glyph glyph-name="afii57445" unicode="&#x645;" horiz-adv-x="1133" arabic-form="isolated" 
d="M1139 1h-751l-5 -5l178 -381h-199l-291 637h193l-272 602h755zM806 365c0 72 -35.334 135.333 -106.001 190s-143 82 -217 82c-97.333 0 -146 -37.667 -146 -113c0 -72 35.833 -135.833 107.5 -191.5s143.834 -83.5 216.501 -83.5c96.667 0 145 38.667 145 116z" />
    <glyph glyph-name="afii57446" unicode="&#x646;" horiz-adv-x="1479" arabic-form="isolated" 
d="M565 1015c0 -94 -47.667 -141 -143 -141c-99.333 0 -149 48 -149 144c0 94.667 49.667 142 149 142c43.333 0 78 -13.833 104 -41.5s39 -62.167 39 -103.5zM1477 -385h-912.001l-569 1230h259l431 -911c46.667 -40 115.334 -60 206.001 -60c44.667 0 77.667 13.333 99 40
c12.667 18.667 26 53 40 103l-388 828h260z" />
    <glyph glyph-name="afii57470" unicode="&#x647;" horiz-adv-x="1251" arabic-form="isolated" 
d="M1240 1l-356 -0.000976562l-122 256c22.667 62.667 34 107.334 34 134.001c0 67.333 -32.5 131.666 -97.5 192.999s-131.5 92 -199.5 92c-35.333 0 -64.833 -14.167 -88.5 -42.5s-35.5 -60.166 -35.5 -95.499c0 -62 21.333 -123.333 64 -184c48 -66 102 -98.333 162 -97
l116 -256h-322l-393 857h839z" />
    <glyph glyph-name="afii57448" unicode="&#x648;" horiz-adv-x="1320" arabic-form="isolated" 
d="M1312 -382l-756 0.000976562l-97 212l86.5 -7.5c57.667 -5 108.167 -7.5 151.5 -7.5c172.667 0 259 39.667 259 119c0 17.333 -6.33301 39.666 -19 66.999h-562l-385 836h752zM781 357.001c0 68 -35.667 130.333 -107 187s-143 85 -215 85c-94 0 -141 -37 -141 -111
c0 -71.333 34.833 -134.833 104.5 -190.5s141.167 -83.5 214.5 -83.5c96 0 144 37.667 144 113z" />
    <glyph glyph-name="afii57449" unicode="&#x649;" horiz-adv-x="1748" arabic-form="isolated" 
d="M1743 -382l-1288 0.000976562l-447 954h257l196 -433c95.333 -178 206 -267 332 -267c75.333 0 143.166 25.167 203.499 75.5s90.5 113.166 90.5 188.499c0 98.667 -40.5 196.5 -121.5 293.5s-170.167 145.5 -267.5 145.5c-26.667 0 -53.334 -4.66699 -80.001 -14
l-124 282h730l146 -327h-54c-22 25.333 -48 38 -78 38c-59.333 0 -89 -24.333 -89 -73c0 -90 31.333 -153 94 -189c43.333 -26.667 112 -42 206 -46z" />
    <glyph glyph-name="afii57450" unicode="&#x64a;" horiz-adv-x="1748" arabic-form="isolated" 
d="M1743 -382l-1288 0.000976562l-447 954h257l196 -433c95.333 -178 206 -267 332 -267c75.333 0 143.166 25.167 203.499 75.5s90.5 113.166 90.5 188.499c0 98.667 -40.5 196.5 -121.5 293.5s-170.167 145.5 -267.5 145.5c-26.667 0 -53.334 -4.66699 -80.001 -14
l-124 282h730l146 -327h-54c-22 25.333 -48 38 -78 38c-59.333 0 -89 -24.333 -89 -73c0 -90 31.333 -153 94 -189c43.333 -26.667 112 -42 206 -46z" />
    <glyph glyph-name="afii57506" unicode="&#x67e;" horiz-adv-x="1965" arabic-form="isolated" 
d="M1845 1h-1385l-384 836h291c75.333 -169.333 133 -286 173 -350c94 -154.667 185.333 -232 274 -232h429c22.667 0 42 13.167 58 39.5s24 51.833 24 76.5c0 38 -27.333 114.333 -82 229l-121 237h333zM1303 -194c0 -41.333 -14.168 -75.167 -42.501 -101.5
s-63.166 -39.5 -104.499 -39.5c-90.667 0 -136 50 -136 150c0 92 48 138 144 138c39.333 0 72.333 -14.5 99 -43.5s40 -63.5 40 -103.5zM991.999 -194.001c0 -43.333 -14.668 -77.668 -44.001 -103.001s-64.666 -38 -105.999 -38c-39.333 0 -72.333 15 -99 45
s-40 65 -40 105c0 92 49 138 147 138c42 0 76.167 -14.167 102.5 -42.5s39.5 -63.166 39.5 -104.499zM1150 -479.003c0 -86.667 -41.333 -130 -124 -130c-42 0 -78 15 -108 45s-45 65 -45 105c0 86.667 43.333 130 130 130c98 0 147 -50 147 -150z" />
    <glyph glyph-name="afii57507" unicode="&#x686;" horiz-adv-x="1672" arabic-form="isolated" 
d="M1242 -146c0 -32 -11.167 -58.833 -33.5 -80.5s-50.5 -32.5 -84.5 -32.5c-72 0 -108 40.667 -108 122c0 73.333 37.667 110 113 110c34 0 61.333 -11.333 82 -34s31 -51 31 -85zM1615 -736l-927 0.000976562l-452 994h662c-72 139.333 -169 230.666 -291 273.999
c-85.333 30 -222 45 -410 45l-119 266h797l396 -842h-540c-43.333 -66 -65 -124.333 -65 -175c0 -230 186.333 -345 559 -345c42 0 95 1.5 159 4.5s105.333 4.5 124 4.5zM994 -145.999c0 -75.333 -40.667 -113 -122 -113c-30 0 -55.833 12.333 -77.5 37s-32.5 53 -32.5 85
c0 73.333 38.667 110 116 110s116 -39.667 116 -119zM1118 -371.999c0 -69.333 -33 -104 -99 -104c-32 0 -60.167 11.667 -84.5 35s-36.5 52 -36.5 86c0 68 34.667 102 104 102c77.333 0 116 -39.667 116 -119z" />
    <glyph glyph-name="afii57508" unicode="&#x698;" horiz-adv-x="712" arabic-form="isolated" 
d="M717 -188c0 -52 -23.001 -98.834 -69.001 -140.501s-95.667 -62.5 -149 -62.5h-167l-124 265c36 0 77.167 10.333 123.5 31s69.5 47.334 69.5 80.001c-49.333 129.333 -177.666 413.333 -384.999 852h251c77.333 -142.667 164.333 -317 261 -523
c126 -272 189 -439.333 189 -502zM227.999 1332c0 -84.667 -42.333 -127 -127 -127c-40 0 -75.5 14.5 -106.5 43.5s-46.5 63.5 -46.5 103.5c0 37.333 12.667 68.833 38 94.5s57 38.5 95 38.5c98 0 147 -51 147 -153zM85.999 1061c0 -92.667 -49.667 -139 -149 -139
c-90.667 0 -136 49 -136 147c0 94 48.333 141 145 141c40.667 0 74.167 -14.5 100.5 -43.5s39.5 -64.167 39.5 -105.5zM396.999 1061c0 -92.667 -49.001 -138.999 -147.001 -138.999c-41.333 0 -74.166 14.167 -98.499 42.5s-36.5 63.166 -36.5 104.499c0 94 49 141 147 141
c90 0 135 -49.667 135 -149z" />
    <glyph glyph-name="afii57509" unicode="&#x6af;" horiz-adv-x="2224" arabic-form="isolated" 
d="M361 1277l-54 119h1168l52 -119h-1166zM267 1l-258.999 576.999h257c53.333 -147.333 126.666 -241.666 219.999 -282.999c49.333 -23.333 128.333 -37.666 237 -42.999h945c20 15.333 30 45.666 30 90.999c0 36 -14 69 -42 99s-60 45 -96 45h-844l-326 703h1167
l108 -243h-806c-34 -28 -51 -61 -51 -99c0 -31.333 12.667 -60.333 38 -87s54 -40 86 -40h846l181 -375c99.333 -213.333 145.333 -328.333 138 -345h-1829z" />
    <glyph glyph-name="uniFB57" unicode="&#x67e;" horiz-adv-x="2008" arabic-form="final" 
d="M2170 1l-1687 0.00195312l-393 836h300c39.333 -118.667 94.666 -234.334 165.999 -347.001c98 -156.667 189.333 -235 274 -235h436l73 65l3 51c2 43.333 -24.333 119.666 -79 228.999l-119 237h294l277 -585h339c17.333 0 37.333 -31 60 -93zM1302 -193.998
c0 -41.333 -13.999 -75.167 -41.999 -101.5s-63 -39.5 -105 -39.5c-90 0 -135 50 -135 150c0 92 48 138 144 138c39.333 0 72.166 -14.5 98.499 -43.5s39.5 -63.5 39.5 -103.5zM992.002 -193.999c0 -43.333 -14.668 -77.668 -44.001 -103.001s-64.666 -38 -105.999 -38
c-40 0 -73.167 15 -99.5 45s-39.5 65 -39.5 105c0 92 49 138 147 138c41.333 0 75.333 -14.167 102 -42.5s40 -63.166 40 -104.499zM1150 -479.001c0 -86.667 -41.667 -130 -125 -130c-41.333 0 -77 15 -107 45s-45 65 -45 105c0 86.667 43.333 130 130 130
c98 0 147 -50 147 -150z" />
    <glyph glyph-name="uniFB58" unicode="&#x67e;" horiz-adv-x="736" arabic-form="initial" 
d="M658 1h-656l-113 251h396c-181.333 382.667 -270 577.667 -266 585h251zM630 -193c0 -96 -48.334 -144 -145.001 -144c-41.333 0 -74.666 14.5 -99.999 43.5s-38 64.167 -38 105.5c0 94.667 49.667 142 149 142c89.333 0 134 -49 134 -147zM317.999 -196
c0 -94 -48.666 -141.001 -145.999 -141.001c-92.667 0 -139 49.667 -139 149c0 94.667 49 142 147 142c41.333 0 74.666 -15.167 99.999 -45.5s38 -65.166 38 -104.499zM482 -482.001c0 -84.667 -43.001 -127 -129.001 -127c-100.667 0 -151 49.333 -151 148
c0 86.667 42.333 130 127 130c42.667 0 78.834 -14.333 108.501 -43s44.5 -64.667 44.5 -108z" />
    <glyph glyph-name="uniFB59" unicode="&#x67e;" horiz-adv-x="818" arabic-form="medial" 
d="M960 1h-955l-113 251c232 2 346 2 342 0l3 8l-264 583h253l276 -591h339zM690 -185c0 -41.333 -14.834 -76 -44.501 -104s-65.167 -42 -106.5 -42c-39.333 0 -72.166 14.833 -98.499 44.5s-39.5 65.5 -39.5 107.5c0 92.667 43.333 139 130 139
c106 0 159 -48.333 159 -145zM371.999 -207c0 -36 -14.832 -65.667 -44.499 -89s-62.5 -35 -98.5 -35c-41.333 0 -75 14.5 -101 43.5s-39 65.167 -39 108.5c0 92.667 46.667 139 140 139h27c23.333 0 47.666 -12.167 72.999 -36.5s38.833 -46 40.5 -65
s2.5 -40.833 2.5 -65.5zM536 -473c0 -38 -12.168 -69.166 -36.501 -93.499s-55.166 -36.5 -92.499 -36.5c-41.333 0 -76.333 15.167 -105 45.5s-43 65.166 -43 104.499c0 84.667 42.333 127 127 127c44 0 80 -13 108 -39s42 -62 42 -108z" />
    <glyph glyph-name="uniFB7B" unicode="&#x686;" horiz-adv-x="1483" arabic-form="final" 
d="M1299 -146c0 -32 -11.167 -58.833 -33.5 -80.5s-50.5 -32.5 -84.5 -32.5c-72 0 -108 40.667 -108 122c0 73.333 37.667 110 113 110c34 0 61.333 -11.333 82 -34s31 -51 31 -85zM1641 -736l-977.999 0.000976562l-452 994h662c-66 137.333 -164 228.666 -294 273.999
c-86.667 30 -222.334 45 -407.001 45l-119 266h854l276 -591h340l118 -251h-941c-35.333 -56 -53 -115.333 -53 -178c0 -231.333 171.333 -347 514 -347c48.667 0 116 2.33301 202 7s143 7 171 7zM1051 -145.999c0 -75.333 -40.667 -113 -122 -113
c-30 0 -55.833 12.333 -77.5 37s-32.5 53 -32.5 85c0 73.333 38.667 110 116 110s116 -39.667 116 -119zM1175 -371.999c0 -69.333 -33 -104 -99 -104c-32 0 -60.167 11.667 -84.5 35s-36.5 52 -36.5 86c0 68 34.667 102 104 102c77.333 0 116 -39.667 116 -119z" />
    <glyph glyph-name="uniFB7C" unicode="&#x686;" horiz-adv-x="1490" arabic-form="initial" 
d="M1410 1h-1408l-113 251h1097c-40 132 -127.667 223.333 -263 274c-98 38 -232.667 57 -404 57c-30.667 0 -74.167 -1 -130.5 -3s-95.833 -3 -118.5 -3l-118 260h971c11.333 -26 52 -124.667 122 -296c50.667 -122.667 99.667 -219 147 -289c4 -5.33301 19 -7 45 -5
c41.333 3.33301 61 5 59 5zM1135 -194c0 -41.333 -13.999 -75.167 -41.999 -101.5s-63 -39.5 -105 -39.5c-90 0 -135 50 -135 150c0 92 48 138 144 138c39.333 0 72.166 -14.5 98.499 -43.5s39.5 -63.5 39.5 -103.5zM824.001 -194.001
c0 -43.333 -14.499 -77.668 -43.499 -103.001s-64.167 -38 -105.5 -38c-40 0 -73.167 15 -99.5 45s-39.5 65 -39.5 105c0 92 49 138 147 138c41.333 0 75.166 -14.167 101.499 -42.5s39.5 -63.166 39.5 -104.499zM983.002 -479.003c0 -86.667 -41.667 -130 -125 -130
c-41.333 0 -77 15 -107 45s-45 65 -45 105c0 86.667 43.333 130 130 130c98 0 147 -50 147 -150z" />
    <glyph glyph-name="uniFB7D" unicode="&#x686;" horiz-adv-x="1483" arabic-form="medial" 
d="M1646 1h-1650l-114 251h1097c-86.667 138 -177.334 229.333 -272.001 274c-75.333 38 -182.666 57 -321.999 57c-28 0 -78.333 -1 -151 -3s-131.667 -3 -177 -3l-112 266h966l282 -591h340zM1134 -194c0 -41.333 -14.167 -75.167 -42.5 -101.5
s-63.166 -39.5 -104.499 -39.5c-90.667 0 -136 50 -136 150c0 92 48.333 138 145 138c39.333 0 72.166 -14.5 98.499 -43.5s39.5 -63.5 39.5 -103.5zM823 -194.001c0 -43.333 -14.5 -77.668 -43.5 -103.001s-64.5 -38 -106.5 -38c-39.333 0 -72.166 15 -98.499 45
s-39.5 65 -39.5 105c0 92 49 138 147 138c41.333 0 75.166 -14.167 101.499 -42.5s39.5 -63.166 39.5 -104.499zM981 -479.003c0 -86.667 -41.334 -130 -124.001 -130c-41.333 0 -77.166 15 -107.499 45s-45.5 65 -45.5 105c0 86.667 43.333 130 130 130
c98 0 147 -50 147 -150z" />
    <glyph glyph-name="uniFB8B" unicode="&#x698;" horiz-adv-x="894" arabic-form="final" 
d="M1064 1l-333.999 -0.00195312c-2 -22 4.16699 -53.667 18.5 -95s21.5 -72.666 21.5 -93.999c0 -44.667 -20.833 -88.167 -62.5 -130.5s-83.834 -63.5 -126.501 -63.5h-202l-124 262l29 -3c27.333 0 59 10.833 95 32.5s59 46.834 69 75.501l-385 858h262l280 -591h340z
M298.001 1332c0 -84.667 -42.333 -127 -127 -127c-40 0 -75.5 14.5 -106.5 43.5s-46.5 63.5 -46.5 103.5c0 37.333 12.667 68.833 38 94.5s57 38.5 95 38.5c98 0 147 -51 147 -153zM156.001 1061c0 -92.667 -49.666 -139 -148.999 -139c-90.667 0 -136 49 -136 147
c0 94 48 141 144 141c41.333 0 75.166 -14.5 101.499 -43.5s39.5 -64.167 39.5 -105.5zM467.002 1061c0 -92.667 -49.001 -138.999 -147.001 -138.999c-41.333 0 -74.166 14.167 -98.499 42.5s-36.5 63.166 -36.5 104.499c0 94 49 141 147 141c90 0 135 -49.667 135 -149z
" />
    <glyph glyph-name="uniFB8F" unicode="&#x6a9;" horiz-adv-x="2515" arabic-form="final" 
d="M360 1l-261.999 577h259c70 -166 161.667 -267.667 275 -305c28 -10 81.333 -17 160 -21h1129c20 32 30 62.333 30 91c0 36 -13 69 -39 99s-57 45 -93 45h-850l-326 695h1168l107 -240h-806c-8.66699 0 -18.834 -14 -30.501 -42s-17.5 -48 -17.5 -60
c0 -32 12.167 -61.167 36.5 -87.5s52.5 -39.5 84.5 -39.5h839l221 -461h345l116 -251h-2346z" />
    <glyph glyph-name="uniFB90" unicode="&#x6a9;" horiz-adv-x="1576" arabic-form="initial" 
d="M1449 1l-1462 0.000976562l-108 251h1141c20 15.333 30 45.666 30 90.999c0 36 -14 69 -42 99s-60 45 -96 45h-844l-326 703h1167l108 -243h-806c-34 -28 -51 -61 -51 -99c0 -31.333 12.667 -60.333 38 -87s54 -40 86 -40h846l181 -375
c99.333 -213.333 145.333 -328.333 138 -345z" />
    <glyph glyph-name="uniFB91" unicode="&#x6a9;" horiz-adv-x="1606" arabic-form="medial" 
d="M1797 1h-1815l-114 251h1144c20 32 30 62.333 30 91c0 36 -13 69 -39 99s-57 45 -93 45h-850l-326 695h1167l108 -240h-806c-9.33301 0 -19.666 -14 -30.999 -42s-17 -48 -17 -60c0 -32 12.167 -61.167 36.5 -87.5s52.5 -39.5 84.5 -39.5h839l221 -461h345z" />
    <glyph glyph-name="uniFB93" unicode="&#x6af;" horiz-adv-x="2515" arabic-form="final" 
d="M610 1277l-54 119h1168l52 -119h-1166zM360 1l-261.999 577h259c70 -166 161.667 -267.667 275 -305c28 -10 81.333 -17 160 -21h1129c20 32 30 62.333 30 91c0 36 -13 69 -39 99s-57 45 -93 45h-850l-326 695h1168l107 -240h-806c-8.66699 0 -18.834 -14 -30.501 -42
s-17.5 -48 -17.5 -60c0 -32 12.167 -61.167 36.5 -87.5s52.5 -39.5 84.5 -39.5h839l221 -461h345l116 -251h-2346z" />
    <glyph glyph-name="uniFB94" unicode="&#x6af;" horiz-adv-x="1576" arabic-form="initial" 
d="M1448 1l-1462 0.000976562l-107 251h1140c20.667 15.333 31 45.666 31 90.999c0 36 -14.167 69 -42.5 99s-60.166 45 -95.499 45h-845l-325 703h1167l108 -243h-806c-34 -28 -51 -61 -51 -99c0 -31.333 12.5 -60.333 37.5 -87s53.833 -40 86.5 -40h846l180 -375
c100 -213.333 146 -328.333 138 -345zM-285.001 1277l-55 119h1167l53 -119h-1165z" />
    <glyph glyph-name="uniFB95" unicode="&#x6af;" horiz-adv-x="1606" arabic-form="medial" 
d="M1796 1h-1816l-113 251h1144c20 32 30 62.333 30 91c0 36 -13 69 -39 99s-57 45 -93 45h-850l-326 695h1167l108 -240h-806c-9.33301 0 -19.666 -14 -30.999 -42s-17 -48 -17 -60c0 -32 12.167 -61.167 36.5 -87.5s52.5 -39.5 84.5 -39.5h839l221 -461h345z
M-299.001 1277l-55 119h1167l53 -119h-1165z" />
    <glyph glyph-name="uniFBA5" unicode="&#x6c0;" horiz-adv-x="1401" arabic-form="final" 
d="M1655 1h-677l-122 256c18.667 43.333 28 86.333 28 129c0 61.333 -24.333 127 -73 197s-102.667 105 -162 105c-52 0 -94.167 -16.167 -126.5 -48.5s-48.5 -74.5 -48.5 -126.5c0 -68 19.833 -126 59.5 -174s93.5 -75.333 161.5 -82l121 -256h-321l-399 857h817l288 -606
h342zM347 905h-260.999l-33 76h8c11.333 0 21.666 1.66699 30.999 5l-79 167h221c9.33301 -22.667 22 -56.667 38 -102h-49c-14 38 -40.667 57 -80 57c-14.667 0 -22 -10.333 -22 -31c0 -56.667 21.5 -86.5 64.5 -89.5s85.167 -5.16699 126.5 -6.5z" />
    <glyph glyph-name="uniFBFD" unicode="&#x6cc;" horiz-adv-x="1770" arabic-form="final" 
d="M2021 1l-485.999 0.00195312l-305 308c-168.667 170 -264 256 -286 258l-23 -38c1.33301 -19.333 44 -69.333 128 -150c191.333 -191.333 298.666 -303 321.999 -335c42.667 -61.333 107.334 -203.333 194.001 -426h-1114l-437 931h259l185 -398
c98 -186 185.667 -279 263 -279c73.333 0 131.666 34 174.999 102c36 57.333 54 125.666 54 204.999c0 106 -36 196.167 -108 270.5s-160.333 114.166 -265 119.499c-36 64 -78 153.333 -126 268h512l608 -585h328z" />
    <glyph glyph-name="uniFBFE" unicode="&#x6cc;" horiz-adv-x="853" arabic-form="initial" 
d="M755 1h-773l-114 251h509l-272 585h260zM688 -229c0 -96.667 -50.333 -144.998 -151 -144.998c-39.333 0 -72.166 15.167 -98.499 45.5s-39.5 66.166 -39.5 107.499c0 39.333 14.833 72.166 44.5 98.499s65.167 39.5 106.5 39.5s74.666 -14.5 99.999 -43.5
s38 -63.167 38 -102.5zM377 -228.998c0 -44 -14.1689 -79.165 -42.502 -105.498s-64.166 -39.5 -107.499 -39.5c-41.333 0 -74.666 14.167 -99.999 42.5s-38 64.166 -38 107.499c0 41.333 13.5 75.166 40.5 101.499s62.167 39.5 105.5 39.5c39.333 0 72.833 -15 100.5 -45
s41.5 -63.667 41.5 -101z" />
    <glyph glyph-name="uniFBFF" unicode="&#x6cc;" horiz-adv-x="737" arabic-form="medial" 
d="M901 1h-949l-114 251h345l-270 591h251l284 -591h334zM720 -264c0 -43.333 -14.001 -77.999 -42.001 -103.999s-63.333 -39 -106 -39c-39.333 0 -72.666 15.333 -99.999 46s-41 66 -41 106c0 41.333 14.333 74.666 43 99.999s63.667 38 105 38c94 0 141 -49 141 -147z
M408.999 -263.999c0 -43.333 -14.1689 -78.001 -42.502 -104.001s-64.166 -39 -107.499 -39c-41.333 0 -74.666 15 -99.999 45s-38 65.667 -38 107c0 92 48.667 138 146 138c41.333 0 75.333 -14.167 102 -42.5s40 -63.166 40 -104.499z" />
    <glyph glyph-name="uniFE82" unicode="&#x622;" horiz-adv-x="1291" arabic-form="final" 
d="M1492 1h-851l-551 1189h259l434 -938h588zM465 1306l-300 0.000976562c4 -22.667 13 -45.334 27 -68.001h-354c-11.333 24.667 -27.333 63 -48 115l260 7c-6.66699 10.667 -15.667 28.667 -27 54h395c11.333 -16 27 -52 47 -108z" />
    <glyph glyph-name="uniFE84" unicode="&#x623;" horiz-adv-x="1291" arabic-form="final" 
d="M1492 1h-851l-551 1189h260l433 -938h588zM340 1229h-260.999l-33 76h8c11.333 0 21.666 1.66699 30.999 5l-79 167h221c9.33301 -22.667 22 -56.667 38 -102h-49c-14 38 -40.667 57 -80 57c-14.667 0 -22 -10 -22 -30c0 -57.333 21.5 -87.333 64.5 -90
s85.167 -5 126.5 -7z" />
    <glyph glyph-name="uniFE86" unicode="&#x624;" horiz-adv-x="1324" arabic-form="final" 
d="M1504 1l-326.999 0.000976562l-7 -8l175 -375h-756l-97 212l87.5 -7.5c58.333 -5 109.166 -7.5 152.499 -7.5c171.333 0 257 38.667 257 116c0 17.333 -6.33301 40.666 -19 69.999h-562l-385 836h752l276 -585h339zM797.001 430.001
c0 58.667 -20.667 110.168 -62 154.501s-91 66.5 -149 66.5c-62.667 0 -114.667 -19.833 -156 -59.5s-62 -89.834 -62 -150.501c0 -60 20.167 -110.667 60.5 -152s90.5 -62 150.5 -62c55.333 0 105.5 20.667 150.5 62s67.5 88.333 67.5 141zM252.001 905.002h-260l-33 76h8
c10.667 0 20.667 1.66699 30 5l-79 167h221c9.33301 -22.667 22 -56.667 38 -102h-49c-14 38 -40.667 57 -80 57c-14.667 0 -22 -10.333 -22 -31c0 -56.667 21.5 -86.5 64.5 -89.5s85.167 -5.16699 126.5 -6.5z" />
    <glyph glyph-name="uniFE88" unicode="&#x625;" horiz-adv-x="1291" arabic-form="final" 
d="M1492 1h-851l-551 1189h259l434 -938h588zM995 -279l-260.999 -0.000976562l-33 76h9c10.667 0 20.667 2 30 6l-79 167h221c9.33301 -23.333 22.333 -57.666 39 -102.999h-50c-14 38 -40.667 57 -80 57c-14.667 0 -22 -10 -22 -30c0 -57.333 21.667 -87.333 65 -90
s85.666 -5 126.999 -7z" />
    <glyph glyph-name="uniFE8A" unicode="&#x626;" horiz-adv-x="2027" arabic-form="final" 
d="M2188 1h-486.001l-302 310c-170 172 -265 259 -285 261l-27 -37c4 -20 81.333 -104.667 232 -254s240.334 -250 269.001 -302c7.33301 -10.667 56.333 -132 147 -364h-1117l-432 939h254l181 -397c100 -190 188.667 -285 266 -285c74 0 132.333 34.667 175 104
c36 58 54 126.667 54 206c0 109.333 -34.833 200.833 -104.5 274.5s-159.5 113.167 -269.5 118.5l-127 270h521l601 -593h337zM407.999 631l-260.999 -0.000976562l-33 76h11c9.33301 0 18.666 2 27.999 6l-79 167h218c11.333 -26.667 27.333 -60.667 48 -102h-56
c-8.66699 37.333 -34.667 56 -78 56c-16 0 -24 -11 -24 -33c0 -53.333 21.167 -82.333 63.5 -87s84.833 -7 127.5 -7c2 -3.33301 13.667 -28.666 35 -75.999z" />
    <glyph glyph-name="uniFE8B" unicode="&#x626;" horiz-adv-x="819" arabic-form="initial" 
d="M310 936h-260c-7.33301 16.667 -17 42 -29 76h12c10 0 19.667 2 29 6l-79 164h211l48 -99h-56v5c0 14 -8.5 25.667 -25.5 35s-32.833 14 -47.5 14c-19.333 0 -29 -9.33301 -29 -28c0 -48.667 19.667 -79 59 -91c10 -2 49.667 -4 119 -6h12zM757 1h-755l-113 251h494
c-180 382.667 -268.333 577.667 -265 585h254z" />
    <glyph glyph-name="uniFE8C" unicode="&#x626;" horiz-adv-x="795" arabic-form="medial" 
d="M160 942l-250 -0.000976562c-7.33301 16.667 -19.666 43 -36.999 79h11c12 -2 21.667 -0.333008 29 5l-75 164h215c28 -58 41 -90.667 39 -98h-47v9c0 10.667 -8.5 20.667 -25.5 30s-32.833 14 -47.5 14c-24.667 0 -37 -13 -37 -39
c0 -9.33301 6.33301 -22.666 19 -39.999c19.333 -30 46.333 -46 81 -48c32.667 2 65 3 97 3c11.333 -20.667 20.666 -47 27.999 -79zM957 0.999023h-957l-116 251h342c2 2 3.66699 4.66699 5 8l-264 591h249l280 -599h340z" />
    <glyph glyph-name="uniFE8E" unicode="&#x627;" horiz-adv-x="1291" arabic-form="final" 
d="M1492 1h-851l-551 1189h259l434 -938h588z" />
    <glyph glyph-name="uniFE90" unicode="&#x628;" horiz-adv-x="1966" arabic-form="final" 
d="M2172 1l-1692 -0.000976562l-393 836h299l167 -348c84.667 -156 176.334 -234 275.001 -234h435l73 59l8 62c0 24.667 -67.667 178.334 -203 461.001h300l277 -585h333zM1260 -261.001c0 -97.333 -49.334 -146 -148.001 -146c-39.333 0 -71.666 15 -96.999 45
s-38 65.667 -38 107c0 92 49.333 138 148 138c90 0 135 -48 135 -144z" />
    <glyph glyph-name="uniFE91" unicode="&#x628;" horiz-adv-x="718" arabic-form="initial" 
d="M655 1h-650l-113 251h396l-272 585h254zM639 -255c0 -94 -50.334 -141.001 -151.001 -141.001c-39.333 0 -71.166 14.5 -95.499 43.5s-36.5 64.167 -36.5 105.5c0 39.333 13 72.833 39 100.5s59.667 41.5 101 41.5c40 0 73.833 -15.167 101.5 -45.5
s41.5 -65.166 41.5 -104.499z" />
    <glyph glyph-name="uniFE92" unicode="&#x628;" horiz-adv-x="788" arabic-form="medial" 
d="M960 1h-955l-113 251c232 2 345 2 339 0l6 8l-264 583h250l279 -591h339zM542 -253c0 -95.333 -48.667 -143 -146 -143c-42.667 0 -76.167 14.5 -100.5 43.5s-36.5 64.167 -36.5 105.5c0 94.667 49.333 142 148 142c90 0 135 -49.333 135 -148z" />
    <glyph glyph-name="uniFE96" unicode="&#x62a;" horiz-adv-x="2010" arabic-form="final" 
d="M1039 1004c0 -92 -47 -138.002 -141 -138.002c-42.667 0 -77.834 13.5 -105.501 40.5s-41.5 61.5 -41.5 103.5c0 42.667 13.833 77.334 41.5 104.001s62.834 40 105.501 40c42 0 76 -14.667 102 -44s39 -64.666 39 -105.999zM729 1004
c0 -92 -48.332 -138.002 -144.999 -138.002c-96 0 -144 48 -144 144c0 42.667 13.667 77.334 41 104.001s62.666 40 105.999 40c37.333 0 70.333 -15.167 99 -45.5s43 -65.166 43 -104.499zM2172 0.996094l-1692 -0.000976562l-393 836h299l167 -348
c84.667 -156 176.334 -234 275.001 -234h435l73 59l8 62c0 24.667 -67.667 178.334 -203 461.001h300l277 -585h333z" />
    <glyph glyph-name="uniFE97" unicode="&#x62a;" horiz-adv-x="829" arabic-form="initial" 
d="M425 1004c0 -95.333 -49.001 -142.999 -147.001 -142.999c-41.333 0 -75.333 14.833 -102 44.5s-40 64.5 -40 104.5c0 41.333 14.833 74.666 44.5 99.999s65.834 38 108.501 38c90.667 0 136 -48 136 -144zM113.999 1004c0 -95.333 -49.333 -143.001 -148 -143.001
c-41.333 0 -75.5 14.833 -102.5 44.5s-40.5 64.5 -40.5 104.5c0 92 51.333 138 154 138c39.333 0 72 -13.667 98 -41s39 -61.666 39 -102.999zM763.999 1l-763.001 0.000976562l-111 251h513l-272 585h252l211 -435c120.667 -252.667 177.334 -386.334 170.001 -401.001z
" />
    <glyph glyph-name="uniFE98" unicode="&#x62a;" horiz-adv-x="804" arabic-form="medial" 
d="M313 1004c0 -92 -46.666 -138.002 -139.999 -138.002c-94.667 0 -142 48 -142 144c0 42.667 14.167 77.334 42.5 104.001s63.166 40 104.499 40c40 0 72.5 -14.667 97.5 -44s37.5 -64.666 37.5 -105.999zM3.00098 1007c0 -94 -46.667 -141.001 -140 -141.001
c-95.333 0 -143 48 -143 144s48.333 144 145 144c40 0 73 -14.167 99 -42.5s39 -63.166 39 -104.499zM963.001 0.99707h-955l-112 251c231.333 2 345.333 2 342 0l2 8l-264 583h253l276 -591h340z" />
    <glyph glyph-name="uniFE9A" unicode="&#x62b;" horiz-adv-x="2008" arabic-form="final" 
d="M878 1330c0 -86 -43.333 -129 -130 -129c-97.333 0 -146 49.333 -146 148c0 86.667 41.333 130 124 130c41.333 0 77 -15 107 -45s45 -64.667 45 -104zM1048 1055c0 -92 -48.999 -137.999 -146.999 -137.999c-41.333 0 -75.333 14 -102 42s-40 62.667 -40 104
c0 43.333 14.333 78.166 43 104.499s64.667 39.5 108 39.5c37.333 0 69.666 -15.5 96.999 -46.5s41 -66.167 41 -105.5zM732.001 1055c0 -92 -48.333 -138 -145 -138c-41.333 0 -74.666 14.5 -99.999 43.5s-38 63.167 -38 102.5c0 42 14.167 76.5 42.5 103.5
s63.166 40.5 104.499 40.5c90.667 0 136 -50.667 136 -152zM2170 1.00098l-1687 0.000976562l-393 836h299c40 -118.667 95.667 -234.667 167 -348c98 -156 189.667 -234 275 -234h435l73 65l3 51c1.33301 43.333 -25 119.666 -79 228.999l-119 237h294l278 -585h338
c17.333 0 37 -30.667 59 -92z" />
    <glyph glyph-name="uniFE9B" unicode="&#x62b;" horiz-adv-x="735" arabic-form="initial" 
d="M148 1276c0 -89.333 -41.333 -133.999 -124 -133.999c-42 0 -78.167 14.667 -108.5 44s-45.5 65.666 -45.5 108.999c0 84.667 44 127 132 127c97.333 0 146 -48.667 146 -146zM318 1001c0 -93.333 -48.667 -140 -146 -140c-41.333 0 -74.5 14.333 -99.5 43
s-37.5 64 -37.5 106c0 92 48.333 138 145 138c92 0 138 -49 138 -147zM8 1001c0 -93.333 -50.666 -140.001 -151.999 -140.001c-89.333 0 -134 48.667 -134 146c0 94 48.333 141 145 141c41.333 0 75.166 -14.167 101.499 -42.5s39.5 -63.166 39.5 -104.499zM658.001 1h-656
l-113 251h396c-181.333 382.667 -270 577.667 -266 585h251z" />
    <glyph glyph-name="uniFE9C" unicode="&#x62b;" horiz-adv-x="817" arabic-form="medial" 
d="M151 1279c0 -87.333 -42.332 -130.999 -126.999 -130.999c-44.667 0 -80.5 13.667 -107.5 41s-40.5 63.666 -40.5 108.999c0 38 12.167 69.167 36.5 93.5s55.166 36.5 92.499 36.5c41.333 0 76 -15 104 -45s42 -64.667 42 -104zM321.001 1004
c0 -92 -45.999 -138.001 -137.999 -138.001h-32c-20 0 -43.333 12.167 -70 36.5s-41 46.833 -43 67.5v63c0 34.667 15.167 63.5 45.5 86.5s63.5 34.5 99.5 34.5c41.333 0 74.666 -14.167 99.999 -42.5s38 -64.166 38 -107.499zM10.002 1004c0 -92 -43 -138 -129 -138
c-106 0 -159 48 -159 144c0 41.333 14.833 75.666 44.5 102.999s65.167 41 106.5 41c39.333 0 72 -14.667 98 -44s39 -64.666 39 -105.999zM960.002 1h-955l-113 251c232 2 346 2 342 0l3 8l-265 583h254l276 -591h339z" />
    <glyph glyph-name="uniFE9E" unicode="&#x62c;" horiz-adv-x="1508" arabic-form="final" 
d="M1667 -736l-972.999 0.000976562l-457 988h661c-84.667 241.333 -318.334 351.666 -701.001 330.999l-113 260h847l283 -591h340l113 -251h-936c-36 -46.667 -54 -106 -54 -178c0 -230.667 170 -346 510 -346c48.667 0 116.167 2.33301 202.5 7s144.833 7 175.5 7z
M1107 -249.999c0 -86.667 -42.333 -130 -127 -130c-96 0 -144 54 -144 162c0 79.333 41.333 119 124 119c98 0 147 -50.333 147 -151z" />
    <glyph glyph-name="uniFE9F" unicode="&#x62c;" horiz-adv-x="1470" arabic-form="initial" 
d="M1410 1h-1408l-113 251h1103c-70 134 -157 225.667 -261 275c-81.333 37.333 -194 56 -338 56c-32.667 0 -84.334 -0.833008 -155.001 -2.5s-126.667 -2.5 -168 -2.5l-117 259h971c94 -216 188 -411 282 -585h91c14.667 0 34.834 -41.833 60.501 -125.5
s43.167 -125.5 52.5 -125.5zM838 -275c0 -96.667 -50.333 -145 -151 -145c-40 0 -72.833 15.167 -98.5 45.5s-38.5 66.5 -38.5 108.5c0 92 50 138 150 138c92 0 138 -49 138 -147z" />
    <glyph glyph-name="uniFEA0" unicode="&#x62c;" horiz-adv-x="1482" arabic-form="medial" 
d="M1646 1l-1650 -0.000976562c-7.33301 14.667 -27.333 66.667 -60 156c-22 63.333 -40 95 -54 95h1087l5 11c-72 132.667 -161 222.334 -267 269.001c-80.667 38 -194.667 57 -342 57c-30.667 0 -80.167 -1 -148.5 -3s-121.5 -3 -159.5 -3l-118 260h971l283 -591h334z
M826 -275.001c0 -43.333 -13.998 -78.332 -41.998 -104.999s-64 -40 -108 -40c-40 0 -73 15.667 -99 47s-39 67.666 -39 108.999c0 40 14.167 73.5 42.5 100.5s63.166 40.5 104.499 40.5c43.333 0 77.666 -14.5 102.999 -43.5s38 -65.167 38 -108.5z" />
    <glyph glyph-name="uniFEA2" unicode="&#x62d;" horiz-adv-x="1482" arabic-form="final" 
d="M1641 -736h-978.001l-451 993h661c-66.667 138 -164.667 229.667 -294 275c-86.667 30.667 -222.334 46 -407.001 46l-119 265h853l277 -591h340l118 -251h-941c-36 -56 -54 -115.333 -54 -178c0 -230.667 171.667 -346 515 -346c48.667 0 115.834 2.33301 201.501 7
s142.834 7 171.501 7z" />
    <glyph glyph-name="uniFEA3" unicode="&#x62d;" horiz-adv-x="1490" arabic-form="initial" 
d="M1410 1l-1408 -0.000976562l-113 251h1097c-39.333 132.667 -127 224.334 -263 275.001c-98 37.333 -233 56 -405 56c-29.333 0 -72.333 -0.833008 -129 -2.5s-96.334 -2.5 -119.001 -2.5l-117 259h971c52.667 -133.333 142 -328.333 268 -585h105z" />
    <glyph glyph-name="uniFEA4" unicode="&#x62d;" horiz-adv-x="1482" arabic-form="medial" 
d="M1646 1h-1650l-114 251h1097c-87.333 138 -178 229.667 -272 275c-75.333 37.333 -182.333 56 -321 56c-28.667 0 -79.334 -0.833008 -152.001 -2.5s-131.667 -2.5 -177 -2.5l-111 265h964l283 -591h339z" />
    <glyph glyph-name="uniFEA6" unicode="&#x62e;" horiz-adv-x="1482" arabic-form="final" 
d="M539 1023c0 -41.333 -14.499 -75 -43.499 -101s-64.167 -39 -105.5 -39s-74 14.5 -98 43.5s-36 63.167 -36 102.5c0 96.667 48.333 145 145 145c41.333 0 74.666 -14.333 99.999 -43s38 -64.667 38 -108zM1641 -736h-978.001l-451 988h661
c-50.667 138 -147.667 231.333 -291 280c-90.667 30.667 -227.334 46 -410.001 46l-119 265h853l277 -591h340l118 -251h-941c-36 -66.667 -54 -126 -54 -178c0 -230.667 170.667 -346 512 -346c50.667 0 118.834 2.33301 204.501 7s142.834 7 171.501 7z" />
    <glyph glyph-name="uniFEA7" unicode="&#x62e;" horiz-adv-x="1482" arabic-form="initial" 
d="M483 1004c0 -95.333 -49.334 -143 -148.001 -143c-41.333 0 -74.166 14.333 -98.499 43s-36.5 63 -36.5 103c0 94 48.333 141 145 141c92 0 138 -48 138 -144zM1416 1l-1413 -0.000976562l-108 251h1097c-51.333 132.667 -140 224.334 -266 275.001
c-92 37.333 -220 56 -384 56c-32 0 -78.167 -0.833008 -138.5 -2.5s-104.833 -2.5 -133.5 -2.5l-118 259h971c55.333 -133.333 146 -328.333 272 -585h108z" />
    <glyph glyph-name="uniFEA8" unicode="&#x62e;" horiz-adv-x="1498" arabic-form="medial" 
d="M475 1004c0 -92 -47.667 -138.002 -143 -138.002c-41.333 0 -75.833 13.5 -103.5 40.5s-41.5 61.5 -41.5 103.5c0 42.667 13.833 77.334 41.5 104.001s63.167 40 106.5 40c39.333 0 72.5 -14.667 99.5 -44s40.5 -64.666 40.5 -105.999zM1646 0.998047l-1650 -0.000976562
l-114 251h1097c-49.333 132.667 -139 224.334 -269 275.001c-94 37.333 -225 56 -393 56c-31.333 0 -75.833 -0.833008 -133.5 -2.5s-99.834 -2.5 -126.501 -2.5l-111 265h964l283 -591h339z" />
    <glyph glyph-name="uniFEAA" unicode="&#x62f;" horiz-adv-x="1498" arabic-form="final" 
d="M1802 1l-1237 -0.000976562l-114 248h438c77.333 60.667 116 117.334 116 170.001c0 58.667 -38.667 118.667 -116 180s-146 92 -206 92c-56.667 0 -96 -19 -118 -57c-6.66699 -9.33301 -21 -52.333 -43 -129h-189l-159 332h898l278 -585h334z" />
    <glyph glyph-name="uniFEAC" unicode="&#x630;" horiz-adv-x="1560" arabic-form="final" 
d="M793 1007c0 -94 -48.333 -141 -145 -141c-41.333 0 -75.5 14 -102.5 42s-40.5 62 -40.5 102c0 41.333 14.5 76.166 43.5 104.499s64.167 42.5 105.5 42.5c39.333 0 72.333 -14.667 99 -44s40 -64.666 40 -105.999zM1856 1h-1232l-114 254
c13.333 0 49.166 -2.33301 107.499 -7s105.5 -7 141.5 -7c203.333 0 305 60.333 305 181c0 56.667 -40 115.667 -120 177s-148.333 92 -205 92c-87.333 0 -140 -62 -158 -186h-195l-153 332h893l277 -585h340c7.33301 0 29.333 -41.833 66 -125.5
s52.334 -125.5 47.001 -125.5z" />
    <glyph glyph-name="uniFEAE" unicode="&#x631;" horiz-adv-x="894" arabic-form="final" 
d="M1064 1l-333.999 -0.00195312c-2 -22 4.16699 -53.667 18.5 -95s21.5 -72.666 21.5 -93.999c0 -44.667 -20.833 -88.167 -62.5 -130.5s-83.834 -63.5 -126.501 -63.5h-202l-124 262l29 -3c27.333 0 59 10.833 95 32.5s59 46.834 69 75.501l-385 858h262l280 -591h340z
" />
    <glyph glyph-name="uniFEB0" unicode="&#x632;" horiz-adv-x="929" arabic-form="final" 
d="M363 1004c0 -92 -48 -138.002 -144 -138.002s-144 48 -144 144c0 42.667 13.5 77.834 40.5 105.501s62.167 41.5 105.5 41.5c38 0 71.167 -15.667 99.5 -47s42.5 -66.666 42.5 -105.999zM1110 0.998047l-334 -0.00195312c0 -20 6.66699 -51.667 20 -95
s20 -74.666 20 -93.999c0 -44.667 -20.167 -88.167 -60.5 -130.5s-83.5 -63.5 -129.5 -63.5h-200l-125 262l28 -3c30 0 63 10.833 99 32.5s57.667 46.834 65 75.501l-383 858h262l280 -591h339z" />
    <glyph glyph-name="uniFEB2" unicode="&#x633;" horiz-adv-x="2505" arabic-form="final" 
d="M1340 1l182 -390h-912l-577 1235h260l401 -879c9.33301 -24 34.333 -46.833 75 -68.5s76 -32.5 106 -32.5c104 0 168 51.667 192 155l-381 825h260l127 -273v10c43.333 -103.333 79 -176 107 -218c58.667 -80.667 124.667 -121 198 -121c79.333 0 119 38.667 119 116
c0 32 -18.333 77.667 -55 137s-71 89 -103 89c-9.33301 0 -18 -3.66699 -26 -11l-127 271h269l166 -362c85.333 -160 171.333 -240 258 -240s130 35.667 130 107c0 41.333 -19.833 89.833 -59.5 145.5s-79.5 83.5 -119.5 83.5c-10.667 0 -20 -1.66699 -28 -5l-127 271h271
l277 -594h342l113 -251h-1338z" />
    <glyph glyph-name="uniFEB3" unicode="&#x633;" horiz-adv-x="1659" arabic-form="initial" 
d="M-10 1l-116.001 250.999h302c49.333 42 74 88.333 74 139s-19.333 95.334 -58 134.001s-83.334 57 -134.001 55l-121 271h287c6 -10.667 48.667 -100 128 -268l110 -212c50.667 -80.667 115.667 -121 195 -121c82.667 0 124 36.667 124 110
c0 48.667 -20.167 97.5 -60.5 146.5s-84.166 70.833 -131.499 65.5l-121 271h265l170 -359c88.667 -160 173.334 -240 254.001 -240c84.667 0 127 37.667 127 113c0 54.667 -21.167 104.667 -63.5 150s-90.833 67 -145.5 65l-119 271h263l399 -842h-1628z" />
    <glyph glyph-name="uniFEB4" unicode="&#x633;" horiz-adv-x="1782" arabic-form="medial" 
d="M-10 1l-116.002 250.999h302c49.333 42 74 88.333 74 139s-19.333 95.334 -58 134.001s-83.334 57 -134.001 55l-121 271h287c6 -10.667 48.667 -100 128 -268c43.333 -103.333 79 -176 107 -218c58.667 -80.667 124.667 -121 198 -121c79.333 0 119 38.667 119 116
c0 32 -18.5 77.667 -55.5 137s-71.5 89 -103.5 89c-9.33301 0 -17.666 -3.66699 -24.999 -11l-127 271h268l167 -362c84.667 -160 170.334 -240 257.001 -240s130 35.667 130 107c0 41.333 -19.833 89.833 -59.5 145.5s-79.167 83.5 -118.5 83.5
c-11.333 0 -20.666 -1.66699 -27.999 -5l-127 271h271l277 -594h342l113 -251h-1967z" />
    <glyph glyph-name="uniFEB6" unicode="&#x634;" horiz-adv-x="2505" arabic-form="final" 
d="M1429 1332c0 -84.667 -42.334 -127 -127.001 -127c-39.333 0 -74.666 14.5 -105.999 43.5s-47 63.5 -47 103.5c0 37.333 12.833 68.833 38.5 94.5s57.167 38.5 94.5 38.5c98 0 147 -51 147 -153zM1599 1061c0 -92.667 -49 -138.999 -147 -138.999
c-41.333 0 -74.333 14.167 -99 42.5s-37 63.166 -37 104.499c0 94 49 141 147 141c90.667 0 136 -49.667 136 -149zM1340 1.00098l182 -390h-912l-577 1235h260l401 -879c9.33301 -24 34.333 -46.833 75 -68.5s76 -32.5 106 -32.5c104 0 168 51.667 192 155l-381 825h260
l127 -273v10c43.333 -103.333 79 -176 107 -218c58.667 -80.667 124.667 -121 198 -121c79.333 0 119 38.667 119 116c0 32 -18.333 77.667 -55 137s-71 89 -103 89c-9.33301 0 -18 -3.66699 -26 -11l-127 271h269l166 -362c85.333 -160 171.333 -240 258 -240
s130 35.667 130 107c0 41.333 -19.833 89.833 -59.5 145.5s-79.5 83.5 -119.5 83.5c-10.667 0 -20 -1.66699 -28 -5l-127 271h271l277 -594h342l113 -251h-1338zM1288 1061c0 -92.667 -49.999 -139 -149.999 -139c-90.667 0 -136 49 -136 147c0 94 48.333 141 145 141
c41.333 0 75.166 -14.5 101.499 -43.5s39.5 -64.167 39.5 -105.5z" />
    <glyph glyph-name="uniFEB7" unicode="&#x634;" horiz-adv-x="1659" arabic-form="initial" 
d="M711 1329c0 -86.667 -43.332 -130 -129.999 -130c-42 0 -77 13.667 -105 41s-42 62.666 -42 105.999c0 88.667 42.333 133 127 133c41.333 0 76.666 -15.167 105.999 -45.5s44 -65.166 44 -104.499zM-9.99902 1l-116.001 250.999h302c49.333 42 74 88.333 74 139
s-19.333 95.334 -58 134.001s-83.334 57 -134.001 55l-121 271h287c6 -10.667 48.667 -100 128 -268l110 -212c50.667 -80.667 115.667 -121 195 -121c82.667 0 124 36.667 124 110c0 48.667 -20.167 97.5 -60.5 146.5s-84.166 70.833 -131.499 65.5l-121 271h265l170 -359
c88.667 -160 173.334 -240 254.001 -240c84.667 0 127 37.667 127 113c0 54.667 -21.167 104.667 -63.5 150s-90.833 67 -145.5 65l-119 271h263l399 -842h-1628zM569 1055c0 -92 -47.998 -138 -143.998 -138s-144 48 -144 144c0 41.333 14.667 75.666 44 102.999
s64.666 41 105.999 41c37.333 0 69.666 -15.167 96.999 -45.5s41 -65.166 41 -104.499zM883.002 1055c0 -92 -47.001 -138 -141.001 -138c-43.333 0 -79.166 13.5 -107.499 40.5s-42.5 61.5 -42.5 103.5c0 41.333 14.5 75.666 43.5 102.999s65.167 41 108.5 41
c40 0 73.167 -14.667 99.5 -44s39.5 -64.666 39.5 -105.999z" />
    <glyph glyph-name="uniFEB8" unicode="&#x634;" horiz-adv-x="1782" arabic-form="medial" 
d="M708 1332c0 -84.667 -42.333 -127 -127 -127c-40 0 -75.5 14.5 -106.5 43.5s-46.5 63.5 -46.5 103.5c0 37.333 12.667 68.833 38 94.5s57 38.5 95 38.5c98 0 147 -51 147 -153zM566 1061c0 -92.667 -49.666 -139 -148.999 -139c-90.667 0 -136 49 -136 147
c0 94 48 141 144 141c41.333 0 75.166 -14.5 101.499 -43.5s39.5 -64.167 39.5 -105.5zM-9.99902 1l-116.002 250.999h302c49.333 42 74 88.333 74 139s-19.333 95.334 -58 134.001s-83.334 57 -134.001 55l-121 271h287c6 -10.667 48.667 -100 128 -268
c43.333 -103.333 79 -176 107 -218c58.667 -80.667 124.667 -121 198 -121c79.333 0 119 38.667 119 116c0 32 -18.5 77.667 -55.5 137s-71.5 89 -103.5 89c-9.33301 0 -17.666 -3.66699 -24.999 -11l-127 271h268l167 -362c84.667 -160 170.334 -240 257.001 -240
s130 35.667 130 107c0 41.333 -19.833 89.833 -59.5 145.5s-79.167 83.5 -118.5 83.5c-11.333 0 -20.666 -1.66699 -27.999 -5l-127 271h271l277 -594h342l113 -251h-1967zM876.999 1061c0 -92.667 -49.001 -138.999 -147.001 -138.999
c-41.333 0 -74.166 14.167 -98.499 42.5s-36.5 63.166 -36.5 104.499c0 94 49 141 147 141c90 0 135 -49.667 135 -149z" />
    <glyph glyph-name="uniFEBA" unicode="&#x635;" horiz-adv-x="2687" arabic-form="final" 
d="M2235 250l-150 325h-455c-58.667 0 -108.167 -17 -148.5 -51s-60.5 -79.333 -60.5 -136c0 -52.667 19.667 -98.667 59 -138h755zM1340 1l182 -390h-912l-577 1235h257c94 -194 228.667 -487 404 -879c8 -24 32.667 -46.833 74 -68.5s77 -32.5 107 -32.5
c104 0 168 51.667 192 155l-381 825h260l121 -261c1.33301 70.667 38.333 133 111 187c66 49.333 132.667 74 200 74h843l279 -594h339l116 -251h-1615z" />
    <glyph glyph-name="uniFEBB" unicode="&#x635;" horiz-adv-x="1942" arabic-form="initial" 
d="M1510 250l-146.999 316h-457c-56.667 0 -104.834 -16 -144.501 -48s-59.5 -75.333 -59.5 -130c0 -48.667 19 -94.667 57 -138h751zM-9.99902 1l-115.999 250.999h302c49.333 42 74 88.333 74 139s-19.333 95.334 -58 134.001s-83.334 57 -134.001 55l-121 271h287
c6 -10.667 48.667 -100 128 -268c75.333 126 119.333 194.667 132 206c42 36 125 54 249 54h766l390 -842h-1899z" />
    <glyph glyph-name="uniFEBC" unicode="&#x635;" horiz-adv-x="1969" arabic-form="medial" 
d="M1516 250l-150 325h-455c-58 0 -107.333 -17 -148 -51s-61 -79.333 -61 -136c0 -52.667 19.667 -98.667 59 -138h755zM-10 1l-115.999 251h302c49.333 42 74 88.333 74 139s-19.333 95.334 -58 134.001s-83.334 57 -134.001 55l-121 271h287
c6 -10.667 47.667 -98.334 125 -263.001c2 70 38.667 131.333 110 184c66 49.333 133 74 201 74h842l280 -594h339l116 -251h-2247z" />
    <glyph glyph-name="uniFEBE" unicode="&#x636;" horiz-adv-x="2687" arabic-form="final" 
d="M2235 250l-150 325h-455c-58.667 0 -108.167 -17 -148.5 -51s-60.5 -79.333 -60.5 -136c0 -52.667 19.667 -98.667 59 -138h755zM1864 1066c0 -92 -48 -138 -144 -138c-98 0 -147 48 -147 144c0 92 49 138 147 138c96 0 144 -48 144 -144zM1340 1l182 -390h-912
l-577 1235h257c94 -194 228.667 -487 404 -879c8 -24 32.667 -46.833 74 -68.5s77 -32.5 107 -32.5c104 0 168 51.667 192 155l-381 825h260l121 -261c1.33301 70.667 38.333 133 111 187c66 49.333 132.667 74 200 74h843l279 -594h339l116 -251h-1615z" />
    <glyph glyph-name="uniFEBF" unicode="&#x636;" horiz-adv-x="1942" arabic-form="initial" 
d="M1510 250l-146.999 316h-457c-56.667 0 -104.834 -16 -144.501 -48s-59.5 -75.333 -59.5 -130c0 -48.667 19 -94.667 57 -138h751zM1177 1013c0 -94.667 -48.999 -142.001 -146.999 -142.001c-94 0 -141 49 -141 147c0 94.667 49 142 147 142
c41.333 0 75.166 -13.667 101.499 -41s39.5 -62.666 39.5 -105.999zM-9.99805 0.999023l-115.999 250.999h302c49.333 42 74 88.333 74 139s-19.333 95.334 -58 134.001s-83.334 57 -134.001 55l-121 271h287c6 -10.667 48.667 -100 128 -268
c75.333 126 119.333 194.667 132 206c42 36 125 54 249 54h766l390 -842h-1899z" />
    <glyph glyph-name="uniFEC0" unicode="&#x636;" horiz-adv-x="1969" arabic-form="medial" 
d="M1516 250l-150 325h-455c-58 0 -107.333 -17 -148 -51s-61 -79.333 -61 -136c0 -52.667 19.667 -98.667 59 -138h755zM1146 1066c0 -92 -48 -138 -144 -138c-98 0 -147 48 -147 144c0 92 49 138 147 138c96 0 144 -48 144 -144zM-10 1l-115.999 251h302
c49.333 42 74 88.333 74 139s-19.333 95.334 -58 134.001s-83.334 57 -134.001 55l-121 271h287c6 -10.667 47.667 -98.334 125 -263.001c2 70 38.667 131.333 110 184c66 49.333 133 74 201 74h842l280 -594h339l116 -251h-2247z" />
    <glyph glyph-name="uniFEC2" unicode="&#x637;" horiz-adv-x="2323" arabic-form="final" 
d="M2594 1l-2337 -0.000976562l-116 251h603c-50 72 -75 141 -75 207c0 122.667 34 217.334 102 284.001s163.333 100 286 100h799l283 -591h339zM610 316.999l-149 0.000976562l-399 865h254c60.667 -120.667 146.667 -303.334 258 -548.001l-8 -48v-153
c0 -22 14.667 -60.667 44 -116zM1812 249l-148 317.999h-455c-58 0 -105.833 -16.167 -143.5 -48.5s-56.5 -77.833 -56.5 -136.5c0 -31.333 17 -75.666 51 -132.999h752z" />
    <glyph glyph-name="uniFEC3" unicode="&#x637;" horiz-adv-x="2019" arabic-form="initial" 
d="M1972 1h-1980l-116 251h647c-50 66 -75 136.667 -75 212c0 120.667 32.667 214 98 280s158.333 99 279 99h755zM383 317h-138l-404 865h254l139 -259c56 -108 94.667 -199.667 116 -275c-3.33301 12.667 -5 -40.333 -5 -159c0 -20 12.667 -77.333 38 -172zM1591 249
l-148 323h-461c-52 0 -98.333 -17.5 -139 -52.5s-61 -78.5 -61 -130.5c0 -42 20 -88.667 60 -140h749z" />
    <glyph glyph-name="uniFEC4" unicode="&#x637;" horiz-adv-x="2124" arabic-form="medial" 
d="M2316 1l-2327 0.000976562l-113 251h646c-53.333 57.333 -80 128 -80 212c0 101.333 30.167 190.166 90.5 266.499s141.5 114.5 243.5 114.5h809l283 -593h335zM383 320.001l-144 -0.00195312l-404 873h259l140 -268c58 -111.333 96.667 -204.666 116 -279.999
c2 -5.33301 1 -30.833 -3 -76.5s-6 -72.167 -6 -79.5c0 -37.333 14 -93.666 42 -168.999zM1590 248.999l-145.001 326h-459c-55.333 0 -103.166 -17.5 -143.499 -52.5s-60.5 -79.5 -60.5 -133.5c0 -36 18 -82.667 54 -140h754z" />
    <glyph glyph-name="uniFEC6" unicode="&#x638;" horiz-adv-x="2393" arabic-form="final" 
d="M1466 1055c0 -92 -46.998 -138 -140.998 -138s-141 48 -141 144c0 43.333 13.667 78.5 41 105.5s62.666 40.5 105.999 40.5c39.333 0 71.666 -15 96.999 -45s38 -65.667 38 -107zM2622 1h-2337l-116 251h603c-50 72 -75 142 -75 210c0 122 34 216 102 282
s163.333 99 286 99h799l283 -591h339zM638.002 317l-144 0.000976562l-404 865h254c60.667 -120.667 146.667 -303.334 258 -548.001l-8 -48v-148c0 -10.667 14.667 -51 44 -121zM1840 249.001l-148 318h-455c-56 0 -103.333 -16.167 -142 -48.5s-58 -75.5 -58 -129.5
c0 -46 17 -92.667 51 -140h752z" />
    <glyph glyph-name="uniFEC7" unicode="&#x638;" horiz-adv-x="2034" arabic-form="initial" 
d="M1248 1055c0 -92 -46.666 -138 -139.999 -138c-95.333 0 -143 48 -143 144c0 43.333 14.333 78.5 43 105.5s63.667 40.5 105 40.5s74.166 -15 98.499 -45s36.5 -65.667 36.5 -107zM1974 1h-1985l-116 251h647c-50 73.333 -75 145 -75 215
c0 120.667 33.167 213.5 99.5 278.5s158.833 97.5 277.5 97.5h755zM386.001 317l-144 0.000976562l-404 865h254c60.667 -118.667 147.667 -299.334 261 -542.001c-6 -17.333 -9 -31.666 -9 -42.999v-146c0 -8.66699 14 -53.334 42 -134.001zM1588 249.001l-148 323h-455
c-58 0 -105.833 -16 -143.5 -48s-56.5 -77 -56.5 -135c0 -52 18 -98.667 54 -140h749z" />
    <glyph glyph-name="uniFEC8" unicode="&#x638;" horiz-adv-x="2025" arabic-form="medial" 
d="M1254 1055c0 -92 -47.999 -138 -143.999 -138c-96.667 0 -145 48.667 -145 146c0 40 15.333 74 46 102s65.667 42 105 42s72.166 -15 98.499 -45s39.5 -65.667 39.5 -107zM2314 1l-2325 0.000976562l-110 251h646c-53.333 60.667 -80 129.667 -80 207
c0 103.333 27.667 190.666 83 261.999c61.333 77.333 142.333 116 243 116h811l276 -585h340zM386.001 317.001l-144 -0.000976562l-404 865h259l143 -268c56 -111.333 93.667 -205.666 113 -282.999c0 -5.33301 -1 -28.666 -3 -69.999c-5.33301 -49.333 -8 -77 -8 -83
c0 -46.667 14.667 -100.334 44 -161.001zM1588 249l-148 317.999h-455c-56 0 -103.333 -17.167 -142 -51.5s-58 -78.833 -58 -133.5c0 -45.333 17 -89.666 51 -132.999h752z" />
    <glyph glyph-name="uniFECA" unicode="&#x639;" horiz-adv-x="1526" arabic-form="final" 
d="M1727 1l-952.002 -0.000976562c-52 0 -78 -73 -78 -219c0 -226.667 177.333 -340 532 -340c53.333 0 121.833 2.33301 205.5 7s137.834 7 162.501 7l84 -197h-984l-456 996l65 -3l42 3l-266 566h865l158 -340h-214c3.33301 60.667 -30.667 107 -102 139
c-54.667 24 -116 36 -184 36c-41.333 0 -76.666 -12.667 -105.999 -38s-44 -58.666 -44 -99.999c0 -82.667 32 -149.667 96 -201c58 -45.333 129 -67 213 -65h850z" />
    <glyph glyph-name="uniFECB" unicode="&#x639;" horiz-adv-x="1360" arabic-form="initial" 
d="M1250 1l-1260 -0.000976562l-108 251h385l-271 591h864l152 -338h-208c-14 120 -112 180 -294 180c-41.333 0 -75.333 -14.167 -102 -42.5s-40 -63.166 -40 -104.499c0 -198 172.333 -297 517 -297c38 0 85.667 1.33301 143 4s93.333 4 108 4z" />
    <glyph glyph-name="uniFECC" unicode="&#x639;" horiz-adv-x="1432" arabic-form="medial" 
d="M1649 1l-1661 0.000976562l-108 251h491c-12.667 39.333 -38.667 70.666 -78 93.999c-18.667 10.667 -58.334 27.667 -119.001 51v19c-4 115.333 30.333 215.333 103 300s165.334 127 278.001 127c138 0 278.667 -38.667 422 -116c171.333 -92 248.666 -202 231.999 -330
c-46 -14 -71 -22.667 -75 -26c-16 -11.333 -27 -34 -33 -68c7.33301 -18.667 14.666 -35.667 21.999 -51h413zM829.002 389.001c0 41.333 -15.333 77.333 -46 108s-67 46 -109 46c-40 0 -76.833 -14 -110.5 -42s-50.5 -61.667 -50.5 -101c0 -41.333 15.5 -79.5 46.5 -114.5
s67.167 -52.5 108.5 -52.5c39.333 0 76 16 110 48s51 68 51 108z" />
    <glyph glyph-name="uniFECE" unicode="&#x63a;" horiz-adv-x="1518" arabic-form="final" 
d="M619 1004c0 -95.333 -48.667 -143 -146 -143c-91.333 0 -137 54 -137 162c0 83.333 49.333 125 148 125c90 0 135 -48 135 -144zM1727 1l-951.999 -0.000976562c-52 -20 -78 -94 -78 -222c0 -224.667 180.333 -337 541 -337c50.667 0 117.5 2.33301 200.5 7
s135.833 7 158.5 7c20.667 -43.333 48.667 -109 84 -197h-984l-456 996l54 -6l53 6l-266 566h865l158 -340h-214c-18 116.667 -112.333 175 -283 175l-71 -8c-54.667 -43.333 -82 -87.333 -82 -132c0 -79.333 31.167 -143.666 93.5 -192.999s134.166 -73 215.499 -71h850z
" />
    <glyph glyph-name="uniFECF" unicode="&#x63a;" horiz-adv-x="1334" arabic-form="initial" 
d="M583 1004c0 -95.333 -49.334 -143 -148.001 -143c-41.333 0 -74.166 14.333 -98.499 43s-36.5 63 -36.5 103c0 94 48.333 141 145 141c92 0 138 -48 138 -144zM1250 1h-1254l-114 251h378c0 -2 2.33301 -0.333008 7 5c-180.667 384.667 -269.334 580 -266.001 586h859
l158 -338h-214l3 22c0 48.667 -38.667 88 -116 118c-60.667 23.333 -120 35 -178 35c-41.333 0 -75.833 -13.333 -103.5 -40s-41.5 -60.667 -41.5 -102c0 -198 173.333 -297 520 -297c38 0 85.167 1.33301 141.5 4s91.833 4 106.5 4z" />
    <glyph glyph-name="uniFED0" unicode="&#x63a;" horiz-adv-x="1448" arabic-form="medial" 
d="M601 1055c0 -92 -49.333 -138 -148 -138c-93.333 0 -140 48 -140 144c0 43.333 13.5 78.5 40.5 105.5s62.167 40.5 105.5 40.5c38 0 71.167 -15.5 99.5 -46.5s42.5 -66.167 42.5 -105.5zM1624 1h-1661l-114 251h497c-13.333 38 -40.666 69.333 -81.999 94
c-12.667 7.33301 -51.334 24.333 -116.001 51v14c-3.33301 116.667 30.334 217.834 101.001 303.501s163.667 128.5 279 128.5c124 0 258.333 -36 403 -108c170 -84.667 255 -184.334 255 -299.001c0 -13.333 -1 -26.333 -3 -39c-41.333 -12 -66 -20.667 -74 -26
c-22 -13.333 -33 -36 -33 -68c0 -7.33301 5.33301 -24.333 16 -51h419zM803.999 386c0 41.333 -15.333 77.833 -46 109.5s-67 47.5 -109 47.5c-44 0 -81.833 -14 -113.5 -42s-47.5 -63.667 -47.5 -107c0 -41.333 15.833 -78.5 47.5 -111.5s67.5 -49.5 107.5 -49.5
c37.333 0 73.5 16 108.5 48s52.5 67 52.5 105z" />
    <glyph glyph-name="uniFED2" unicode="&#x641;" horiz-adv-x="2491" arabic-form="final" 
d="M1766 1055c0 -92 -49 -137.999 -147 -137.999c-42 0 -76 13.667 -102 41s-39 61.666 -39 102.999s14.5 76 43.5 104s64.167 42 105.5 42c39.333 0 72.333 -15 99 -45s40 -65.667 40 -107zM2684 1.00098h-2331l-269 577h259c48 -126 92.667 -209 134 -249
c56 -53.333 145.333 -80 268 -80l620 3c-57.333 32 -104.833 79.167 -142.5 141.5s-56.5 126.5 -56.5 192.5s26.5 125.333 79.5 178s112.5 79 178.5 79h523l282 -591h339zM1872 433.001c0 58.667 -20.667 110.5 -62 155.5s-90 67.5 -146 67.5
c-56.667 0 -108.5 -20.167 -155.5 -60.5s-70.5 -88.5 -70.5 -144.5c0 -57.333 21.667 -109.833 65 -157.5s92.333 -71.5 147 -71.5c58 0 109.5 21.167 154.5 63.5s67.5 91.5 67.5 147.5z" />
    <glyph glyph-name="uniFED3" unicode="&#x641;" horiz-adv-x="1402" arabic-form="initial" 
d="M760 1063c0 -92 -48.333 -138 -145 -138c-92 0 -138 48 -138 144c0 92 47.667 138 143 138c93.333 0 140 -48 140 -144zM1299 1h-1348l-116 251h529c-45.333 3.33301 -90.666 50.666 -135.999 141.999c-43.333 82.667 -65 149.334 -65 200.001
c0 70 27.167 130.333 81.5 181s117.5 76 189.5 76h466zM872.999 436c0 62 -19.832 115.668 -59.499 161.001s-89.834 68 -150.501 68c-56 0 -107.667 -21.167 -155 -63.5s-71 -91.833 -71 -148.5c0 -58.667 21.167 -111.834 63.5 -159.501s91.833 -71.5 148.5 -71.5
c60 0 112.333 21.167 157 63.5s67 92.5 67 150.5z" />
    <glyph glyph-name="uniFED4" unicode="&#x641;" horiz-adv-x="1482" arabic-form="medial" 
d="M788 1058c0 -94 -47.333 -141 -142 -141c-94 0 -141 48 -141 144c0 41.333 13.5 76 40.5 104s61.167 42 102.5 42c40 0 73.333 -14.5 100 -43.5s40 -64.167 40 -105.5zM1664 1h-1684l-114 251h526c-48.667 14 -94.667 61.333 -138 142c-40 75.333 -60 140.333 -60 195
c0 58 24 113.833 72 167.5s100 80.5 156 80.5h512l278 -585h339zM907 427c0 59.333 -21.168 112.333 -63.501 159s-92.166 70 -149.499 70c-58 0 -110.667 -20.667 -158 -62s-71 -90 -71 -146c0 -55.333 22 -106.833 66 -154.5s93.667 -71.5 149 -71.5
c52.667 0 103.667 21.167 153 63.5s74 89.5 74 141.5z" />
    <glyph glyph-name="uniFED6" unicode="&#x642;" horiz-adv-x="1886" arabic-form="final" 
d="M1303 1055c0 -92 -47.667 -138 -143 -138c-42.667 0 -77.667 13.667 -105 41s-41 62.333 -41 105c0 42 15 76.5 45 103.5s64.667 40.5 104 40.5c38 0 70.833 -15.5 98.5 -46.5s41.5 -66.167 41.5 -105.5zM985 1058c0 -94 -46.999 -141 -140.999 -141
c-93.333 0 -140 48.667 -140 146c0 42 14 76.5 42 103.5s62.667 40.5 104 40.5s74.166 -14.5 98.499 -43.5s36.5 -64.167 36.5 -105.5zM2063 1h-342.002c0 -1.33301 60 -131 180 -389h-1367l-450 966h259c100.667 -228.667 172.667 -379.667 216 -453
c116.667 -187.333 236.334 -281 359.001 -281c50 0 103.333 18 160 54s99.334 75.667 128.001 119c-152.667 12 -291 69.667 -415 173c-138 113.333 -207 243.333 -207 390c0 58 25 113.5 75 166.5s103 79.5 159 79.5h518l272 -574h339zM1263 416
c0 54.667 -22.168 106.501 -66.501 155.501s-94.166 73.5 -149.499 73.5c-58 0 -109 -20.167 -153 -60.5s-66 -89.833 -66 -148.5c0 -56.667 20.667 -108.334 62 -155.001s90 -70 146 -70c55.333 0 107 20.667 155 62s72 89 72 143z" />
    <glyph glyph-name="uniFED7" unicode="&#x642;" horiz-adv-x="1385" arabic-form="initial" 
d="M833 1063c0 -92 -47 -137.999 -141 -137.999c-42 0 -77.167 13.667 -105.5 41s-42.5 61.666 -42.5 102.999c0 92 50.333 138 151 138c92 0 138 -48 138 -144zM522 1063c0 -92 -48.333 -138 -145 -138c-95.333 0 -143 48 -143 144c0 92 47.667 138 143 138
c41.333 0 75.833 -13.5 103.5 -40.5s41.5 -61.5 41.5 -103.5zM1299 1.00098l-1348 0.000976562l-116 251h529c-50.667 17.333 -96.834 64.666 -138.501 141.999s-62.5 145 -62.5 203c0 68 26.833 127.333 80.5 178s115.167 76 184.5 76h472zM873.001 436.002
c0 58.667 -20.332 111.501 -60.999 158.501s-90.334 70.5 -149.001 70.5c-58 0 -110.167 -20.833 -156.5 -62.5s-69.5 -91.5 -69.5 -149.5c0 -58.667 21.167 -111.834 63.5 -159.501s91.833 -71.5 148.5 -71.5c58 0 109.833 21.5 155.5 64.5s68.5 92.833 68.5 149.5z" />
    <glyph glyph-name="uniFED8" unicode="&#x642;" horiz-adv-x="1465" arabic-form="medial" 
d="M861 1055c0 -92 -47.332 -137.999 -141.999 -137.999c-94 0 -141 48.667 -141 146c0 43.333 14.333 78.166 43 104.499s63.667 39.5 105 39.5c39.333 0 71.666 -15 96.999 -45s38 -65.667 38 -107zM550.001 1055c0 -92 -47.333 -138 -142 -138
c-43.333 0 -78.5 13.667 -105.5 41s-40.5 62.333 -40.5 105c0 40 15 74 45 102s64.667 42 104 42c38 0 70.667 -15.5 98 -46.5s41 -66.167 41 -105.5zM1664 1.00098h-1684l-114 251h526c-47.333 14 -93.333 61.333 -138 142c-40 75.333 -60 139.333 -60 192
c0 58 23 114.333 69 169s97.333 82 154 82h517l278 -585h339zM907.001 427.001c0 59.333 -21.168 112.333 -63.501 159s-92.166 70 -149.499 70c-58 0 -110.667 -20.167 -158 -60.5s-71 -88.5 -71 -144.5c0 -55.333 21.667 -107.333 65 -156s92.333 -73 147 -73
s106.667 21.167 156 63.5s74 89.5 74 141.5z" />
    <glyph glyph-name="uniFEDE" unicode="&#x644;" horiz-adv-x="1377" arabic-form="final" 
d="M1522 1h-329l-5 -5l175 -384h-955l-294 637h257l107 -245c48.667 -92 116 -138 202 -138c88 0 152 53.333 192 160l-543 1156h303l437 -930h339z" />
    <glyph glyph-name="uniFEDF" unicode="&#x644;" horiz-adv-x="743" arabic-form="initial" 
d="M632 1h-639l-113 251h372l-429 930h251z" />
    <glyph glyph-name="uniFEE0" unicode="&#x644;" horiz-adv-x="797" arabic-form="medial" 
d="M970 1h-977l-113 251h372l-429 930h251l445 -930h339z" />
    <glyph glyph-name="uniFEE2" unicode="&#x645;" horiz-adv-x="1314" arabic-form="final" 
d="M1604 1h-1130l181 -389h-199l-294 640h199l-272 591h785l278 -591h339zM880 433c0 64 -22.1689 116.333 -66.502 157s-98.166 61 -161.499 61c-53.333 0 -100.166 -20.667 -140.499 -62s-60.5 -88.333 -60.5 -141c0 -60.667 20.167 -112.667 60.5 -156
s90.833 -65 151.5 -65c56 0 106.167 20.333 150.5 61s66.5 89 66.5 145z" />
    <glyph glyph-name="uniFEE3" unicode="&#x645;" horiz-adv-x="1164" arabic-form="initial" 
d="M1073 1h-1068l-113 251h305c0 -2 2 -1 6 3l-270 588h750zM701 424c0 61.333 -20.832 114.501 -62.499 159.501s-91.834 67.5 -150.501 67.5c-58 0 -108.833 -20.333 -152.5 -61s-65.5 -90.334 -65.5 -149.001c0 -58 21 -108.167 63 -150.5s92 -63.5 150 -63.5
c52 0 101.333 20.333 148 61s70 86 70 136z" />
    <glyph glyph-name="uniFEE4" unicode="&#x645;" horiz-adv-x="1061" arabic-form="medial" 
d="M1353 1h-1401l-114 251h299l-270 591h751l283 -591h339zM636 436c0 54.667 -21.832 104.167 -65.499 148.5s-92.834 66.5 -147.501 66.5c-56.667 0 -108 -19.833 -154 -59.5s-69 -86.5 -69 -140.5c0 -59.333 21.5 -111.5 64.5 -156.5s94.167 -67.5 153.5 -67.5
c54 0 103.833 21.167 149.5 63.5s68.5 90.833 68.5 145.5z" />
    <glyph glyph-name="uniFEE6" unicode="&#x646;" horiz-adv-x="1621" arabic-form="final" 
d="M656 1015c0 -95.333 -48.333 -143 -145 -143c-40 0 -74.5 14.833 -103.5 44.5s-43.5 65.167 -43.5 106.5c0 93.333 50.667 140 152 140c93.333 0 140 -49.333 140 -148zM1778 1h-336.999l-6 -5l178 -381h-955l-571 1233h259l207 -426
c84.667 -173.333 146 -318.333 184 -435c11.333 -34 37.166 -64 77.499 -90s78.5 -39 114.5 -39c30 0 69.667 16 119 48s74 63 74 93c0 4.66699 -1 10 -3 16l-382 833h299l286 -596h342z" />
    <glyph glyph-name="uniFEE7" unicode="&#x646;" horiz-adv-x="778" arabic-form="initial" 
d="M267 1004c0 -43.333 -14 -78.001 -42 -104.001s-63.667 -39 -107 -39c-39.333 0 -72 14.833 -98 44.5s-39 64.5 -39 104.5c0 92 47.667 138 143 138c41.333 0 75.5 -13.167 102.5 -39.5s40.5 -61.166 40.5 -104.499zM669 0.999023h-661l-108 251h385
c0 -2 2 -0.333008 6 5l-267 580h254z" />
    <glyph glyph-name="uniFEE8" unicode="&#x646;" horiz-adv-x="642" arabic-form="medial" 
d="M172 1015c0 -43.333 -14.168 -78 -42.501 -104s-64.166 -39 -107.499 -39c-36.667 0 -68.667 15.333 -96 46s-41 65.667 -41 105c0 93.333 47.667 140 143 140c96 0 144 -49.333 144 -148zM906.999 1h-960l-114 251h353l-272 602h253l286 -602h340z" />
    <glyph glyph-name="uniFEEA" unicode="&#x647;" horiz-adv-x="1400" arabic-form="final" 
d="M1653 1h-677l-122 256c18.667 43.333 28 86.333 28 129c0 61.333 -24.333 127 -73 197s-102.667 105 -162 105c-52 0 -94.167 -16.167 -126.5 -48.5s-48.5 -74.5 -48.5 -126.5c0 -68 19.833 -126 59.5 -174s93.5 -75.333 161.5 -82l121 -256h-321l-399 857h817l288 -606
h343z" />
    <glyph glyph-name="uniFEEB" unicode="&#x647;" horiz-adv-x="1258" arabic-form="initial" 
d="M1186 1l-1181 0.00195312l-113 251h391c-34.667 5.33301 -66.167 29.833 -94.5 73.5s-42.5 83.5 -42.5 119.5c0 67.333 25.667 119.666 77 156.999c45.333 32.667 103.666 49 174.999 49c84.667 0 166.167 -45.333 244.5 -136s120.166 -179.334 125.499 -266.001h76l3 8
c-30.667 125.333 -88.334 233 -173.001 323c-93.333 103.333 -199.333 155 -318 155c-81.333 0 -141.333 -10.333 -180 -31s-83.334 -64.667 -134.001 -132l-150 322h882zM615.004 389.002c0 39.333 -15 74.832 -45 106.499s-64.667 47.5 -104 47.5
c-41.333 0 -78.5 -14.5 -111.5 -43.5s-49.5 -63.167 -49.5 -102.5s15.5 -75.666 46.5 -108.999s66.5 -50 106.5 -50c41.333 0 77.833 14.667 109.5 44s47.5 65 47.5 107z" />
    <glyph glyph-name="uniFEEC" unicode="&#x647;" horiz-adv-x="1234" arabic-form="medial" 
d="M1504 1h-1534l-116 251h381c-82.667 43.333 -124 112.333 -124 207c0 61.333 27.333 112 82 152c47.333 36 104 54 170 54c82.667 0 164.5 -45.667 245.5 -137s122.5 -178.333 124.5 -261l8 -12h71l2 12c-30.667 128 -87 236 -169 324c-94 102.667 -202.333 154 -325 154
c-76.667 0 -135.834 -11.5 -177.501 -34.5s-87.834 -66.5 -138.501 -130.5l-143 322h880l305 -650h343zM588.002 389c0 41.333 -16.333 78.667 -49 112s-68.667 50 -108 50c-41.333 0 -77.666 -14.5 -108.999 -43.5s-47 -64.167 -47 -105.5
c0 -44.667 14.667 -83.167 44 -115.5s65.666 -48.5 108.999 -48.5c39.333 0 75.833 15.667 109.5 47s50.5 66 50.5 104z" />
    <glyph glyph-name="uniFEEE" unicode="&#x648;" horiz-adv-x="1322" arabic-form="final" 
d="M1503 1l-326.999 0.000976562l-7 -8l175 -375h-756l-97 212l87.5 -7.5c58.333 -5 109.166 -7.5 152.499 -7.5c171.333 0 257 38.667 257 116c0 17.333 -6.33301 40.666 -19 69.999h-562l-385 836h752l276 -585h340zM796.001 430.001
c0 58.667 -20.667 110.168 -62 154.501s-91 66.5 -149 66.5c-62.667 0 -114.667 -19.833 -156 -59.5s-62 -89.834 -62 -150.501c0 -60 20.167 -110.667 60.5 -152s90.5 -62 150.5 -62c55.333 0 105.5 20.667 150.5 62s67.5 88.333 67.5 141z" />
    <glyph glyph-name="uniFEF0" unicode="&#x649;" horiz-adv-x="1770" arabic-form="final" 
d="M2021 1l-485.999 0.00195312l-305 308c-168.667 170 -264 256 -286 258l-23 -38c1.33301 -19.333 44 -69.333 128 -150c191.333 -191.333 298.666 -303 321.999 -335c42.667 -61.333 107.334 -203.333 194.001 -426h-1114l-437 931h259l185 -398
c98 -186 185.667 -279 263 -279c73.333 0 131.666 34 174.999 102c36 57.333 54 125.666 54 204.999c0 106 -36 196.167 -108 270.5s-160.333 114.166 -265 119.499c-36 64 -78 153.333 -126 268h512l608 -585h328z" />
    <glyph glyph-name="space" unicode=" " horiz-adv-x="303" 
 />
    <glyph glyph-name="exclam" unicode="!" horiz-adv-x="1028" 
d="M810 1h-259l-283 593c-152.667 327.333 -229 506.333 -229 537c0 55.333 30.333 83 91 83c63.333 0 112 -23 146 -69c59.333 -77.333 151 -259 275 -545zM980 -306c0 -56.667 -35.667 -85 -107 -85c-58 0 -114 20.833 -168 62.5s-81 90.5 -81 146.5
c0 58.667 35 88 105 88c58 0 114.333 -20.667 169 -62s82 -91.333 82 -150z" />
    <glyph glyph-name="percent" unicode="%" horiz-adv-x="1679" 
d="M400 1323c0 -56 -35 -84.001 -105 -84.001c-56 0 -111.833 21.167 -167.5 63.5s-83.5 90.833 -83.5 145.5c0 56.667 35 85 105 85c56 0 111.833 -21.167 167.5 -63.5s83.5 -91.166 83.5 -146.499zM991 14.999h-265l-97 1518h260zM1592 91.999
c0 -57.333 -35.667 -85.999 -107 -85.999c-56 0 -111.5 21.667 -166.5 65s-82.5 93.666 -82.5 150.999c0 54 37 81 111 81c60.667 0 116.667 -20.167 168 -60.5s77 -90.5 77 -150.5z" />
    <glyph glyph-name="parenleft" unicode="(" horiz-adv-x="1249" 
d="M991 9l-254 -0.000976562l-712 1518h259c19.333 -271.333 93 -543.666 221 -816.999s290 -507 486 -701z" />
    <glyph glyph-name="parenright" unicode=")" horiz-adv-x="1104" 
d="M1044 1h-259c-7.33301 256.667 -80 528 -218 814c-130 271.333 -291 503.333 -483 696h257z" />
    <glyph glyph-name="asterisk" unicode="*" horiz-adv-x="1186" 
d="M850 1547c19.333 -15.333 32.3359 -33.667 39.0029 -55c7.33301 -24.667 4.33301 -46.667 -9 -66c-62.667 -84.667 -121.334 -133 -176.001 -145c-18 -4 -34.833 0.166992 -50.5 12.5s-22.834 24.5 -21.501 36.5c-2.66699 57.333 24.666 127.333 81.999 210
c16 22 38 33 66 33c22.667 0 46 -8.66699 70 -26zM599.003 1590c35.333 -118 44.332 -202.333 26.999 -253c-5.33301 -14.667 -18.333 -22 -39 -22c-18.667 2 -34.667 10 -48 24c-44 50.667 -83 133 -117 247c-19.333 64 1 96 61 96c58.667 0 97.334 -30.667 116.001 -92z
M1078 1225c16 -54 -8.66699 -81 -74 -81c-121.333 0 -213.333 17 -276 51c-15.333 9.33301 -25.333 21.333 -30 36c-2 14.667 1.66699 26 11 34c44 30.667 124.333 46 241 46c68 0 110.667 -28.667 128 -86zM985.002 882.999c-28.667 0 -56.666 10.667 -83.999 32
c-110 86.667 -179.333 158 -208 214c-6.66699 14.667 -5.66699 28 3 40s23 15.333 43 10c63.333 -16 147.666 -64.333 252.999 -145c30 -23.333 48.667 -47 56 -71c6 -20 3 -38.333 -9 -55s-30 -25 -54 -25zM541.003 1328
c7.33301 -15.333 6.66895 -28.8311 -1.99805 -40.498s-23.334 -14.834 -44.001 -9.50098c-62.667 15.333 -146.334 63.666 -251.001 144.999c-30.667 22.667 -49.667 46 -57 70c-6.66699 20.667 -3.66699 40 9 58c12 14.667 30.333 22 55 22c28.667 0 56 -10.667 82 -32
c110 -86 179.333 -157 208 -213zM525.006 1191c-43.333 -30.667 -123.334 -46 -240.001 -46c-68 0 -110.667 28.667 -128 86c-16 54 8.33301 81 73 81c121.333 0 213 -17 275 -51c16.667 -8.66699 27.334 -20.667 32.001 -36c2.66699 -14.667 -1.33301 -26 -12 -34z
M813.005 871.001c19.333 -64.667 -1.33301 -97 -62 -97c-58 0 -96 31 -114 93c-35.333 117.333 -44.666 201.333 -27.999 252c5.33301 14.667 17.666 22 36.999 22c20 -1.33301 36.667 -9 50 -23c44 -50.667 83 -133 117 -247zM604.006 1126
c2 -56.667 -25.667 -126.667 -83 -210c-16 -22 -37.333 -33 -64 -33c-24 0 -47.667 8.66699 -71 26c-20.667 16 -34.334 34.667 -41.001 56c-7.33301 24.667 -4 46.667 10 66c62 84.667 120.333 133 175 145c18.667 3.33301 35.834 -1.16699 51.501 -13.5
s23.167 -24.5 22.5 -36.5z" />
    <glyph glyph-name="plus" unicode="+" horiz-adv-x="1020" 
d="M911 260h-249l-7 -5l119 -254h-138l-127 259h-283c-36 72 -77.333 164.667 -124 278h272l5 5l-118 261h132l133 -266h255z" />
    <glyph glyph-name="comma" unicode="," horiz-adv-x="815" 
d="M176 269c0 68 37 102.001 111 102.001h211l266 -571h-367c3.33301 5.33301 22.5 19 57.5 41s52.5 47 52.5 75c0 62.667 0 93 0 91c-3.33301 16.667 -23 25 -59 25c-64.667 0 -126.167 24.167 -184.5 72.5s-87.5 103.166 -87.5 164.499z" />
    <glyph glyph-name="hyphen" unicode="-" horiz-adv-x="1122" 
d="M969 260h-679l-130 278h684z" />
    <glyph glyph-name="period" unicode="." horiz-adv-x="944" 
d="M515 85c0 -56 -37.667 -84.001 -113 -84.001c-56 0 -110.5 20.167 -163.5 60.5s-79.5 87.833 -79.5 142.5c0 60.667 36 91 108 91c52 0 106.333 -22.167 163 -66.5s85 -92.166 85 -143.499z" />
    <glyph glyph-name="slash" unicode="/" horiz-adv-x="733" 
d="M430 1h-146l-97 1510h141z" />
    <glyph glyph-name="zero" unicode="0" horiz-adv-x="1554" 
d="M1021 643c0 -74 -50.667 -111.001 -152 -111.001c-76.667 0 -151 26.333 -223 79c-77.333 56.667 -116 122.667 -116 198c0 79.333 48.667 119 146 119c77.333 0 153 -27.667 227 -83c78.667 -59.333 118 -126.666 118 -201.999z" />
    <glyph glyph-name="zero" unicode="&#x6f0;" horiz-adv-x="1554" 
d="M1021 643c0 -74 -50.667 -111.001 -152 -111.001c-76.667 0 -151 26.333 -223 79c-77.333 56.667 -116 122.667 -116 198c0 79.333 48.667 119 146 119c77.333 0 153 -27.667 227 -83c78.667 -59.333 118 -126.666 118 -201.999z" />
    <glyph glyph-name="zero" unicode="&#x660;" horiz-adv-x="1554" 
d="M1021 643c0 -74 -50.667 -111.001 -152 -111.001c-76.667 0 -151 26.333 -223 79c-77.333 56.667 -116 122.667 -116 198c0 79.333 48.667 119 146 119c77.333 0 153 -27.667 227 -83c78.667 -59.333 118 -126.666 118 -201.999z" />
    <glyph glyph-name="one" unicode="1" horiz-adv-x="1554" 
d="M1255 1h-251l-709 1510h257z" />
    <glyph glyph-name="one" unicode="&#x6f1;" horiz-adv-x="1554" 
d="M1255 1h-251l-709 1510h257z" />
    <glyph glyph-name="one" unicode="&#x661;" horiz-adv-x="1554" 
d="M1255 1h-251l-709 1510h257z" />
    <glyph glyph-name="two" unicode="2" horiz-adv-x="1554" 
d="M1258 1l-257.001 -0.000976562l-709 1510h798l135 -292c-9.33301 0 -47.166 2.33301 -113.499 7s-120.833 7 -163.5 7c-144 0 -216 -27 -216 -81c0 -21.333 80.667 -203.666 242 -546.999z" />
    <glyph glyph-name="two" unicode="&#x6f2;" horiz-adv-x="1554" 
d="M1258 1l-257.001 -0.000976562l-709 1510h798l135 -292c-9.33301 0 -47.166 2.33301 -113.499 7s-120.833 7 -163.5 7c-144 0 -216 -27 -216 -81c0 -21.333 80.667 -203.666 242 -546.999z" />
    <glyph glyph-name="two" unicode="&#x662;" horiz-adv-x="1554" 
d="M1258 1l-257.001 -0.000976562l-709 1510h798l135 -292c-9.33301 0 -47.166 2.33301 -113.499 7s-120.833 7 -163.5 7c-144 0 -216 -27 -216 -81c0 -21.333 80.667 -203.666 242 -546.999z" />
    <glyph glyph-name="three" unicode="3" horiz-adv-x="1554" 
d="M1317 718c0 -102.667 -81 -154.001 -243 -154.001c-40 0 -85 2.66699 -135 8l-6 -5l259 -566h-259l-701 1510h257l164 -372c88 -160 177.667 -240 269 -240c24 0 49.833 8.5 77.5 25.5s41.5 37.167 41.5 60.5c0 24 -37 80.333 -111 169l-59 9l-159 348h254
c234 -485.333 351 -749.666 351 -792.999z" />
    <glyph glyph-name="three" unicode="&#x6f3;" horiz-adv-x="1554" 
d="M1317 718c0 -102.667 -81 -154.001 -243 -154.001c-40 0 -85 2.66699 -135 8l-6 -5l259 -566h-259l-701 1510h257l164 -372c88 -160 177.667 -240 269 -240c24 0 49.833 8.5 77.5 25.5s41.5 37.167 41.5 60.5c0 24 -37 80.333 -111 169l-59 9l-159 348h254
c234 -485.333 351 -749.666 351 -792.999z" />
    <glyph glyph-name="three" unicode="&#x663;" horiz-adv-x="1554" 
d="M1317 718c0 -102.667 -81 -154.001 -243 -154.001c-40 0 -85 2.66699 -135 8l-6 -5l259 -566h-259l-701 1510h257l164 -372c88 -160 177.667 -240 269 -240c24 0 49.833 8.5 77.5 25.5s41.5 37.167 41.5 60.5c0 24 -37 80.333 -111 169l-59 9l-159 348h254
c234 -485.333 351 -749.666 351 -792.999z" />
    <glyph glyph-name="four" unicode="4" horiz-adv-x="1553" 
d="M1496 1l-740 0.000976562l-328 734c8 34 21.333 57 40 69c0 11.333 -18 25 -54 41s-59.667 31.333 -71 46c-48.667 73.333 -100.667 175 -156 305c-86 206 -130 311 -132 315h734l131 -292c-8 0 -29.333 1 -64 3s-64.334 3 -89.001 3c-131.333 0 -197 -35 -197 -105
c0 -126 116.667 -189 350 -189c22 0 48.333 1 79 3h62l153 -334c-22.667 0 -54.667 1.83301 -96 5.5s-70.333 5.5 -87 5.5c-89.333 0 -151 -37.667 -185 -113c28.667 -74.667 64.334 -126.334 107.001 -155.001c34 -24.667 83.333 -37 148 -37c20 0 57.5 1.83301 112.5 5.5
s100.167 5.5 135.5 5.5z" />
    <glyph glyph-name="four" unicode="&#x6f4;" horiz-adv-x="1553" 
d="M1496 1l-740 0.000976562l-328 734c8 34 21.333 57 40 69c0 11.333 -18 25 -54 41s-59.667 31.333 -71 46c-48.667 73.333 -100.667 175 -156 305c-86 206 -130 311 -132 315h734l131 -292c-8 0 -29.333 1 -64 3s-64.334 3 -89.001 3c-131.333 0 -197 -35 -197 -105
c0 -126 116.667 -189 350 -189c22 0 48.333 1 79 3h62l153 -334c-22.667 0 -54.667 1.83301 -96 5.5s-70.333 5.5 -87 5.5c-89.333 0 -151 -37.667 -185 -113c28.667 -74.667 64.334 -126.334 107.001 -155.001c34 -24.667 83.333 -37 148 -37c20 0 57.5 1.83301 112.5 5.5
s100.167 5.5 135.5 5.5z" />
    <glyph glyph-name="four" unicode="&#x664;" horiz-adv-x="1553" 
d="M1496 1l-740 0.000976562l-328 734c8 34 21.333 57 40 69c0 11.333 -18 25 -54 41s-59.667 31.333 -71 46c-48.667 73.333 -100.667 175 -156 305c-86 206 -130 311 -132 315h734l131 -292c-8 0 -29.333 1 -64 3s-64.334 3 -89.001 3c-131.333 0 -197 -35 -197 -105
c0 -126 116.667 -189 350 -189c22 0 48.333 1 79 3h62l153 -334c-22.667 0 -54.667 1.83301 -96 5.5s-70.333 5.5 -87 5.5c-89.333 0 -151 -37.667 -185 -113c28.667 -74.667 64.334 -126.334 107.001 -155.001c34 -24.667 83.333 -37 148 -37c20 0 57.5 1.83301 112.5 5.5
s100.167 5.5 135.5 5.5z" />
    <glyph glyph-name="five" unicode="5" horiz-adv-x="1554" 
d="M1522 1h-785l-707 1510h785zM1087 332c0 4 -56.6689 129.001 -170.002 375.001c-120 256.667 -186.667 405.667 -200 447c-5.33301 16.667 -24.166 32.667 -56.499 48s-58.833 23 -79.5 23c-47.333 0 -71 -36 -71 -108c0 4 112.333 -235 337 -717
c7.33301 -21.333 21.333 -50 42 -86s61.334 -54 122.001 -54c16.667 0 33.5 7.66699 50.5 23s25.5 31.666 25.5 48.999z" />
    <glyph glyph-name="five" unicode="&#x6f5;" horiz-adv-x="1554" 
d="M1522 1h-785l-707 1510h785zM1087 332c0 4 -56.6689 129.001 -170.002 375.001c-120 256.667 -186.667 405.667 -200 447c-5.33301 16.667 -24.166 32.667 -56.499 48s-58.833 23 -79.5 23c-47.333 0 -71 -36 -71 -108c0 4 112.333 -235 337 -717
c7.33301 -21.333 21.333 -50 42 -86s61.334 -54 122.001 -54c16.667 0 33.5 7.66699 50.5 23s25.5 31.666 25.5 48.999z" />
    <glyph glyph-name="five" unicode="&#x665;" horiz-adv-x="1554" 
d="M1522 1h-785l-707 1510h785zM1087 332c0 4 -56.6689 129.001 -170.002 375.001c-120 256.667 -186.667 405.667 -200 447c-5.33301 16.667 -24.166 32.667 -56.499 48s-58.833 23 -79.5 23c-47.333 0 -71 -36 -71 -108c0 4 112.333 -235 337 -717
c7.33301 -21.333 21.333 -50 42 -86s61.334 -54 122.001 -54c16.667 0 33.5 7.66699 50.5 23s25.5 31.666 25.5 48.999z" />
    <glyph glyph-name="six" unicode="6" horiz-adv-x="1554" 
d="M1525 1h-256l-286 628c-158 334.667 -256 519 -294 553c-26 24.667 -112.333 38 -259 40c210.667 -2 121.667 -3 -267 -3l-135 292h798z" />
    <glyph glyph-name="six" unicode="&#x6f6;" horiz-adv-x="1554" 
d="M1525 1h-256l-286 628c-158 334.667 -256 519 -294 553c-26 24.667 -112.333 38 -259 40c210.667 -2 121.667 -3 -267 -3l-135 292h798z" />
    <glyph glyph-name="six" unicode="&#x666;" horiz-adv-x="1554" 
d="M1525 1h-256l-286 628c-158 334.667 -256 519 -294 553c-26 24.667 -112.333 38 -259 40c210.667 -2 121.667 -3 -267 -3l-135 292h798z" />
    <glyph glyph-name="seven" unicode="7" horiz-adv-x="1553" 
d="M1502 1l-404 0.000976562l-1049 1510h257l347 -470c196 -256.667 314.667 -385 356 -385c12 0 23.167 6.66699 33.5 20s14.5 24.666 12.5 33.999l-130 801h254z" />
    <glyph glyph-name="seven" unicode="&#x6f7;" horiz-adv-x="1553" 
d="M1502 1l-404 0.000976562l-1049 1510h257l347 -470c196 -256.667 314.667 -385 356 -385c12 0 23.167 6.66699 33.5 20s14.5 24.666 12.5 33.999l-130 801h254z" />
    <glyph glyph-name="seven" unicode="&#x667;" horiz-adv-x="1553" 
d="M1502 1l-404 0.000976562l-1049 1510h257l347 -470c196 -256.667 314.667 -385 356 -385c12 0 23.167 6.66699 33.5 20s14.5 24.666 12.5 33.999l-130 801h254z" />
    <glyph glyph-name="eight" unicode="8" horiz-adv-x="1554" 
d="M1522 1h-257l-647 836l-62 24c-14.667 0 -26.5 -10.5 -35.5 -31.5s-12.5 -38.167 -10.5 -51.5l130 -777h-254l-356 1512h404z" />
    <glyph glyph-name="eight" unicode="&#x6f8;" horiz-adv-x="1554" 
d="M1522 1h-257l-647 836l-62 24c-14.667 0 -26.5 -10.5 -35.5 -31.5s-12.5 -38.167 -10.5 -51.5l130 -777h-254l-356 1512h404z" />
    <glyph glyph-name="eight" unicode="&#x668;" horiz-adv-x="1554" 
d="M1522 1h-257l-647 836l-62 24c-14.667 0 -26.5 -10.5 -35.5 -31.5s-12.5 -38.167 -10.5 -51.5l130 -777h-254l-356 1512h404z" />
    <glyph glyph-name="nine" unicode="9" horiz-adv-x="1555" 
d="M1418 1h-258l-270 571h-478l-164 333c-75.333 164.667 -113 273 -113 325c0 70 17 132.333 51 187c41.333 64 95.333 96 162 96h369zM734 996c0 46.667 -23.5 88.834 -70.5 126.501s-93.833 56.5 -140.5 56.5c-66.667 0 -100 -25.333 -100 -76
c0 -44.667 24 -85.834 72 -123.501s96 -56.5 144 -56.5c63.333 0 95 24.333 95 73z" />
    <glyph glyph-name="nine" unicode="&#x6f9;" horiz-adv-x="1555" 
d="M1418 1h-258l-270 571h-478l-164 333c-75.333 164.667 -113 273 -113 325c0 70 17 132.333 51 187c41.333 64 95.333 96 162 96h369zM734 996c0 46.667 -23.5 88.834 -70.5 126.501s-93.833 56.5 -140.5 56.5c-66.667 0 -100 -25.333 -100 -76
c0 -44.667 24 -85.834 72 -123.501s96 -56.5 144 -56.5c63.333 0 95 24.333 95 73z" />
    <glyph glyph-name="nine" unicode="&#x669;" horiz-adv-x="1555" 
d="M1418 1h-258l-270 571h-478l-164 333c-75.333 164.667 -113 273 -113 325c0 70 17 132.333 51 187c41.333 64 95.333 96 162 96h369zM734 996c0 46.667 -23.5 88.834 -70.5 126.501s-93.833 56.5 -140.5 56.5c-66.667 0 -100 -25.333 -100 -76
c0 -44.667 24 -85.834 72 -123.501s96 -56.5 144 -56.5c63.333 0 95 24.333 95 73z" />
    <glyph glyph-name="colon" unicode=":" horiz-adv-x="1146" 
d="M535 626c0 -39.333 -8 -65.666 -24 -78.999s-44.667 -20 -86 -20c-56.667 0 -111.834 20.667 -165.501 62s-80.5 89 -80.5 143c0 55.333 37.667 83 113 83c48.667 0 101.334 -19.333 158.001 -58s85 -82.334 85 -131.001zM778 82c0 -54 -36.002 -81.001 -108.002 -81.001
c-63.333 0 -119.666 20.667 -168.999 62s-74 94.333 -74 159c0 44.667 36 67 108 67c60.667 0 116.334 -19.667 167.001 -59s76 -88.666 76 -147.999z" />
    <glyph glyph-name="equal" unicode="=" horiz-adv-x="1189" 
d="M799 362h-678.999l-79 176h679c33.333 -70 59.666 -128.667 78.999 -176zM968.001 1h-679l-73 175h672c34 -70 60.667 -128.333 80 -175z" />
    <glyph glyph-name="bracketleft" unicode="[" horiz-adv-x="1249" 
d="M371 1159l472 -1000h240l94 -198h-484c-46 106.667 -86.333 204.667 -121 294c-44.667 102.667 -88 186 -130 250c-6 8 -25.667 24 -59 48c-28.667 18.667 -64.667 44 -108 76l57 118l-288 616h472c26 -40.667 58.667 -108.667 98 -204h-243z" />
    <glyph glyph-name="bracketright" unicode="]" horiz-adv-x="1268" 
d="M864 159l-473 1000h-240c-21.333 45.333 -49.333 113.333 -84 204h473l131 -314c48.667 -110 93.667 -198 135 -264l175 -135l-56 -118l265 -571h-476c-18 35.333 -47.667 101.333 -89 198h239z" />
    <glyph glyph-name="braceleft" unicode="{" horiz-adv-x="1373" 
d="M1344 -7l-211.999 -0.000976562c-100.667 0 -204.667 35.667 -312 107c-104.667 68.667 -181.667 152.667 -231 252l-119 238c-30 39.333 -59 71 -87 95c-18 15.333 -87.333 32 -208 50l-94 188c100 15.333 153.667 32.333 161 51c8 20.667 6.66699 47 -4 79l-120 240
c-49.333 98.667 -56.333 183.667 -21 255c35.333 70 103.666 105 204.999 105h208l96 -199h-186c-72 -8.66699 -105 -33.667 -99 -75c7.33301 -53.333 17 -92.333 29 -117l61 -119c40 -80 63.667 -145.333 71 -196c8 -63.333 2.66699 -105 -16 -125
c62.667 -31.333 126.667 -95 192 -191l20 -33l29 -53l37 -76c14.667 -31.333 29 -64 43 -98c12 -24.667 42 -63 90 -115c36.667 -39.333 94.667 -61.666 174 -66.999h181z" />
    </font>
</defs>
</svg>
