<?xml version="1.0" standalone="no"?>
<!DOCTYPE svg PUBLIC "-//W3C//DTD SVG 1.1//EN" "http://www.w3.org/Graphics/SVG/1.1/DTD/svg11.dtd" >
<svg>
<metadata>
Created by FontForge 20090914 at Wed Oct 19 00:44:03 2011
 By www-data
(c) by Abolfazl Seilsepour - +98 912 591 3420  -  seilsepor@yahoo.com
</metadata>
<defs>
<font id="FarAdab" horiz-adv-x="0" >
  <font-face 
    font-family="Far.Adab"
    font-weight="400"
    font-stretch="normal"
    units-per-em="2048"
    panose-1="0 0 4 0 0 0 0 0 0 0"
    ascent="1638"
    descent="-410"
    bbox="-183 -1360 1806 1988"
    underline-thickness="60"
    underline-position="-970"
    unicode-range="U+0020-U+FEFC"
  />
<missing-glyph horiz-adv-x="1024" 
d="M128 0v1215h768v-1215h-768zM256 128h512v959h-512v-959z" />
    <glyph glyph-name="uE818" unicode="&#x651;&#x64b;" 
d="M481 1403c0 -28.667 -9.33398 -57.999 -28.001 -87.999c-22.667 -36.667 -50.667 -55 -84 -55c-14 0 -28.333 3.33301 -43 10c-37.333 -67.333 -82.333 -101 -135 -101c-21.333 0 -38 10.667 -50 32c-10.667 18 -16 38.333 -16 61c0 36.667 12.667 78 38 124
c4 7.33301 9 11.666 15 12.999c2.66699 -4 5.33398 -7.66699 8.00098 -11c-2 -19.333 -3 -36.333 -3 -51c0 -46.667 11 -70 33 -70c30 0 55.667 33.333 77 100s33 100 35 100c6 0 11.5 -17.667 16.5 -53s17.167 -53 36.5 -53c22 0 38.333 27.667 49 83s18 83 22 83
c19.333 0 29 -41.333 29 -124zM520.999 1731l-38 -97l-371 -181l37 89zM520.999 1901l-38 -97l-371 -181l37 89z" />
    <glyph glyph-name="uFC5E" unicode="&#x651;&#x64c;" arabic-form="isolated" 
d="M438 1403c0 -28 -9 -56.6641 -27 -85.9971c-22.667 -36 -50.334 -54 -83.001 -54c-13.333 0 -27.333 3 -42 9c-36.667 -66 -80.667 -99 -132 -99c-43.333 0 -65 30.667 -65 92c0 35.333 12.333 75.666 37 120.999c4 7.33301 9 11.666 15 12.999
c2.66699 -4 5.33398 -7.66699 8.00098 -11c-2 -18.667 -3 -35.334 -3 -50.001c0 -45.333 10.667 -68 32 -68c29.333 0 54.5 32.667 75.5 98s32.5 98 34.5 98c6 0 11.5 -17.333 16.5 -52s16.833 -52 35.5 -52c22 0 38.167 27 48.5 81s17.5 81 21.5 81
c18.667 0 28 -40.333 28 -121zM476 1854c0 -63.333 -21.332 -115.999 -63.999 -157.999l52 -23l-9 -87c-36.667 6 -71.334 24.333 -104.001 55c-88.667 -68 -171.667 -108 -249 -120l-52 35c48 27.333 73 62.333 75 105c1.33301 23.333 -1 37.333 -7 42
c-14.667 10.667 -41.334 5.66699 -80.001 -15l-1 30c36.667 38.667 68.334 58 95.001 58c39.333 0 59 -20.333 59 -61c0 -35.333 -12.333 -74 -37 -116c77.333 32 123.333 59.667 138 83c-27.333 27.333 -41 59.666 -41 96.999c0 29.333 18.833 63.5 56.5 102.5
s71.5 58.5 101.5 58.5c44.667 0 67 -28.667 67 -86zM391.001 1860c-12.667 0 -27.666 -6.33301 -44.999 -19c-19.333 -13.333 -29 -26 -29 -38c0 -11.333 5.5 -25.5 16.5 -42.5s21.833 -25.5 32.5 -25.5c13.333 0 24.666 13 33.999 39c7.33301 20 11 38.667 11 56
c0 20 -6.66699 30 -20 30z" />
    <glyph glyph-name="uFC5F" unicode="&#x651;&#x64d;" arabic-form="isolated" 
d="M449 1864c0 -28.667 -9.33398 -57.999 -28.001 -87.999c-22.667 -36.667 -50.667 -55 -84 -55c-14 0 -28.333 3.33301 -43 10c-37.333 -67.333 -82.333 -101 -135 -101c-21.333 0 -38 10.667 -50 32c-10.667 18 -16 38.333 -16 61c0 36.667 12.667 78 38 124
c4 7.33301 9 11.666 15 12.999c2.66699 -4 5.33398 -7.66699 8.00098 -11c-2 -19.333 -3 -36.333 -3 -51c0 -46.667 11 -70 33 -70c30 0 55.667 33.333 77 100s33 100 35 100c6 0 11.5 -17.667 16.5 -53s17.167 -53 36.5 -53c22 0 38.333 27.667 49 83s18 83 22 83
c19.333 0 29 -41.333 29 -124zM468.999 1672l-38 -97l-371 -181l37 89zM468.999 1512l-38 -97l-371 -181l37 89z" />
    <glyph glyph-name="uFC60" unicode="&#x651;&#x64e;" arabic-form="isolated" 
d="M487 1397c0 -28 -9 -56.6641 -27 -85.9971c-22.667 -36 -50.334 -54 -83.001 -54c-13.333 0 -27.333 3 -42 9c-36.667 -66 -80.667 -99 -132 -99c-43.333 0 -65 30.667 -65 92c0 35.333 12.333 75.666 37 120.999c4 7.33301 9 11.666 15 12.999
c2.66699 -4 5.33398 -7.66699 8.00098 -11c-2 -18.667 -3 -35.334 -3 -50.001c0 -45.333 10.667 -68 32 -68c29.333 0 54.5 32.667 75.5 98s32.5 98 34.5 98c6 0 11.5 -17.333 16.5 -52s16.833 -52 35.5 -52c22 0 38.167 27 48.5 81s17.5 81 21.5 81
c18.667 0 28 -40.333 28 -121zM533 1738l-38 -97l-371 -181l37 89z" />
    <glyph glyph-name="uFC61" unicode="&#x651;&#x64f;" arabic-form="isolated" 
d="M457 1427c0 -28.667 -9.33398 -57.999 -28.001 -87.999c-22.667 -36.667 -50.667 -55 -84 -55c-14 0 -28.333 3.33301 -43 10c-37.333 -67.333 -82.333 -101 -135 -101c-21.333 0 -38 10.667 -50 32c-10.667 18 -16 38.333 -16 61c0 36.667 12.667 78 38 124
c4 7.33301 9 11.666 15 12.999c2.66699 -4 5.33398 -7.66699 8.00098 -11c-2 -19.333 -3 -36.333 -3 -51c0 -46.667 11 -70 33 -70c30 0 55.667 33.333 77 100s33 100 35 100c6 0 11.5 -17.667 16.5 -53s17.167 -53 36.5 -53c22 0 38.333 27.667 49 83s18 83 22 83
c19.333 0 29 -41.333 29 -124zM491.999 1872c0 -61.333 -21.333 -113.668 -64 -157.001c11.333 -8.66699 28.333 -18 51 -28l-7 -85c-47.333 14.667 -85.333 35 -114 61c-87.333 -73.333 -174.666 -116.333 -261.999 -129c-30 4 -45.667 17 -47 39
c121.333 40 207.666 82.333 258.999 127c-30.667 29.333 -46 61 -46 95c0 30.667 19.167 65.834 57.5 105.501s72.5 59.5 102.5 59.5c46.667 0 70 -29.333 70 -88zM401.999 1878c-12 0 -27.167 -6.66797 -45.5 -20.001s-27.5 -25.666 -27.5 -36.999
c0 -12 5.5 -26.667 16.5 -44s22.167 -26 33.5 -26c12.667 0 23.667 13.333 33 40c7.33301 22 11 40.667 11 56c0 20.667 -7 31 -21 31z" />
    <glyph glyph-name="uFC62" unicode="&#x651;&#x650;" arabic-form="isolated" 
d="M512 1672c0 -28.667 -9.33398 -57.999 -28.001 -87.999c-22.667 -36.667 -50.667 -55 -84 -55c-14 0 -28.333 3.33301 -43 10c-37.333 -67.333 -82.333 -101 -135 -101c-21.333 0 -38 10.667 -50 32c-10.667 18 -16 38.333 -16 61c0 36.667 12.667 78 38 124
c4 7.33301 9 11.666 15 12.999c2.66699 -4 5.33398 -7.66699 8.00098 -11c-2 -19.333 -3 -36.333 -3 -51c0 -46.667 11 -70 33 -70c30 0 55.667 33.333 77 100s33 100 35 100c6 0 11.5 -17.667 16.5 -53s17.167 -53 36.5 -53c22 0 38.333 27.667 49 83s18 83 22 83
c19.333 0 29 -41.333 29 -124zM531.999 1480l-38 -97l-371 -181l37 89z" />
    <glyph glyph-name="uFDF2" unicode="&#xfedf;&#xfee0;&#xfeea;" horiz-adv-x="1859" arabic-form="isolated" 
d="M1266 1321c24.667 -22 36.999 -51.998 36.999 -89.998c0 -17.333 -3 -31.333 -9 -42c-3.33301 -9.33301 -8.33301 -15.666 -15 -18.999c-14.667 -17.333 -33.334 -26 -56.001 -26c-23.333 0 -41.333 6.33301 -54 19c-13.333 16 -21 34 -23 54l3 9
c0 16 6.66699 32.667 20 50l-2 2c-18.667 -10.667 -30.334 -25.334 -35.001 -44.001v-1114h375v1092c2 37.333 15.333 70.666 40 99.999c9.33301 10 22 20 38 30c15.333 9.33301 36.666 14 63.999 14c28 0 50 -4.66699 66 -14c12.667 -6.66699 22.334 -13.667 29.001 -21
c24.667 -22 37 -52 37 -90c0 -16 -2.33301 -30 -7 -42c-8 -12.667 -13 -19 -15 -19c-16.667 -17.333 -36 -26 -58 -26c-25.333 0 -42.666 6.33301 -51.999 19c-12.667 12.667 -20 30.667 -22 54l3 9c0 19.333 6.33301 36 19 50l-5 2
c-19.333 -10.667 -29.666 -25.334 -30.999 -44.001v-1234h-826c-65.333 -0 -124 18.333 -176 55c-60.667 40.667 -91 98 -91 172v432c0 44.667 -21 79 -63 103c-32 23.333 -73 35 -123 35c-59.333 0 -105 -18.333 -137 -55c-33.333 -40 -50 -87.333 -50 -142
c-3.33301 -36.667 7.66699 -72 33 -106c24.667 -38 55.667 -57 93 -57c24 0 47.333 8.33301 70 25c18.667 18.667 29.667 40.334 33 65.001l-7 8c-5.33301 0 -17 -4.33301 -35 -13c-15.333 -8 -27.333 -12 -36 -12c-32 0 -56.333 10 -73 30c-18.667 23.333 -28 50 -28 80
c0 34 11.333 65.333 34 94c26 21.333 56 32 90 32c50 0 90.333 -17.333 121 -52c30 -35.333 45 -78.333 45 -129c0 -27.333 -2.33301 -51 -7 -71c-7.33301 -30 -21.666 -59.333 -42.999 -88c-33.333 -46.667 -81.333 -70 -144 -70c-79.333 0 -141.333 25.333 -186 76
c-44 44.667 -66 107.334 -66 188.001c0 94.667 28.333 168.667 85 222c56 56 130 84 222 84c64 0 126.333 -19.667 187 -59c3.33301 22.667 15 46.334 35 71.001c2 1.33301 15.667 12 41 32c21.333 9.33301 43 14 65 14s44.667 -4.66699 68 -14
c15.333 -9.33301 25.333 -16.333 30 -21c26 -24 39 -56 39 -96c0 -16.667 -3.66699 -30.334 -11 -41.001c-2 -6.66699 -7 -14.334 -15 -23.001c-16.667 -18 -35.667 -27 -57 -27c-22.667 0 -41.667 7.33301 -57 22c-12.667 18.667 -19 37.334 -19 56.001v10
c2 15.333 8.33301 32.333 19 51l-2 2c-18.667 -10 -30.334 -26 -35.001 -48v-588c0 -6 2.33301 -19.667 7 -41c10.667 -20 30 -40 58 -60c22.667 -16.667 51.334 -25.334 86.001 -26.001h242v1092c0 33.333 13 66.666 39 99.999c12.667 13.333 26 23.333 40 30
c14 9.33301 34.333 14 61 14c29.333 0 52 -4.66699 68 -14c10 -5.33301 19.667 -12.333 29 -21zM1248 1448c-28 6.66699 -86 8 -174 4c-82 -4 -129 -2.66699 -141 4c-22.667 10 -38 43.333 -46 100c-3.33301 22 -9.33301 49.667 -18 83l47 -23
c15.333 -8 27.5 -25.167 36.5 -51.5s16.833 -41.166 23.5 -44.499c25.333 -12 43 -7 53 15c6 15.333 7.33301 35.666 4 60.999c-4 22.667 -9.33301 40 -16 52l48 -24c14.667 -7.33301 23.667 -22.333 27 -45c6 -40 12 -61.667 18 -65c23.333 -12 41 -4.33301 53 23
c12.667 28.667 8.66699 58 -12 88l42 -17c27.333 -10.667 40.5 -34.5 39.5 -71.5s4.16699 -66.5 15.5 -88.5z" />
    <glyph glyph-name="uFEF5" unicode="&#xfedf;&#xfe82;" horiz-adv-x="876" arabic-form="isolated" 
d="M797 1252c0 -11.333 -3.33203 -25.334 -9.99902 -42.001c-2.66699 -8 -7.66699 -15.667 -15 -23c-16 -16 -35 -25 -57 -27c-26 2 -45 9.33301 -57 22c-12.667 20 -19 38.333 -19 55v10c0 8.66699 6.33301 25.334 19 50.001h-3c-20 -12 -30.667 -27 -32 -45v-1253h-359
l-95 2c-38 2 -71 16 -99 42c-31.333 23.333 -47 57.333 -47 102c0 40 11.667 71.667 35 95c21.333 24.667 51.666 37 90.999 37c20 0 34.333 -2.33301 43 -7c6.66699 -3.33301 14 -8.66602 22 -15.999c16.667 -16 25 -35.333 25 -58c0 -20 -6.66699 -37.667 -20 -53
c-16 -12.667 -34 -20 -54 -22l-10 3c-20 1.33301 -36.667 8.33301 -50 21l-3 -7c12 -18.667 27 -28.667 45 -30h157v1018h103v-1005h109v1111c2 39.333 16.333 72.666 43 99.999c10 12.667 23.333 23.334 40 32.001c16 10 36.333 15 61 15s47 -5 67 -15
c10.667 -5.33301 20.667 -12 30 -20c26.667 -24.667 40 -55.334 40 -92.001zM390.001 1241c-6 -4.66699 -12.3359 -6.99805 -19.0029 -6.99805h-6c-1.33301 0 -5.5 0.666992 -12.5 2s-13 6 -18 14s-6 16.5 -3 25.5s9 15.667 18 20s18.167 6.16602 27.5 5.49902v2
c-12 4 -20.667 5 -26 3l-104 -64c-14 -6.66699 -30 -9 -48 -7s-31.333 12 -40 30c-10 13.333 -13.333 28 -10 44v1c6.66699 16 14.167 26.667 22.5 32s14.833 8 19.5 8c22.667 0 36.334 -10.333 41.001 -31c3.33301 -14.667 -3 -26 -19 -34
c-5.33301 -2 -12.666 -3 -21.999 -3v-2c8 -6 15.667 -6.66699 23 -2l107 61c10.667 7.33301 25.667 10.666 45 9.99902c16.667 -4 30.334 -14 41.001 -30c8 -16 10.667 -31.5 8 -46.5s-11 -25.5 -25 -31.5z" />
    <glyph glyph-name="uFEF6" unicode="&#xfee0;&#xfe82;" horiz-adv-x="854" arabic-form="final" 
d="M792 1244c0 -10.667 -3 -24.667 -9 -42c-3.33301 -8 -8.66602 -15 -15.999 -21c-16 -16.667 -34.667 -26 -56 -28c-26.667 2 -44.667 9.33301 -54 22c-14 15.333 -21 33.666 -21 54.999v10c2 14 9 30.333 21 49h-5c-20 -11.333 -30.667 -26.333 -32 -45v-1123h234v-121
h-592l-92 2c-39.333 2 -73 16 -101 42c-31.333 25.333 -47 59 -47 101c0 40 11.667 71.667 35 95c21.333 24 52.333 36 93 36c18.667 0 32 -2.33301 40 -7c9.33301 -4.66699 16.666 -9.66699 21.999 -15c16.667 -14.667 25 -34 25 -58c0 -22 -6.33301 -39.667 -19 -53
c-17.333 -12.667 -36 -20 -56 -22l-9 3c-20 1.33301 -36.333 8.33301 -49 21v-7c9.33301 -17.333 24 -27 44 -29h154v1009h105v-997h109v1104c2 39.333 15 72.333 39 99c10 12.667 23 23.334 39 32.001c17.333 9.33301 38.333 14 63 14s46.667 -4.66699 66 -14
c10 -5.33301 20 -12 30 -20c26 -25.333 39 -56 39 -92zM390 1241c-6 -4.66699 -12.333 -6.99805 -19 -6.99805h-6c-1.33301 0 -5.5 0.666992 -12.5 2s-13 6 -18 14s-6 16.5 -3 25.5s9 15.667 18 20s18.167 6.16602 27.5 5.49902v2c-12 4 -20.667 5 -26 3l-103 -64
c-14.667 -6.66699 -30.667 -9 -48 -7c-18.667 2 -32.334 12 -41.001 30c-10 13.333 -13.333 28 -10 44v1c6.66699 16 14.167 26.667 22.5 32s14.833 8 19.5 8c22.667 0 36.334 -10.333 41.001 -31c3.33301 -14.667 -3 -26 -19 -34c-4.66699 -2 -12 -3 -22 -3v-2
c8 -6 15.667 -6.66699 23 -2l107 61c11.333 7.33301 26.333 10.666 45 9.99902c17.333 -4 31 -14 41 -30c8 -16 10.667 -31.5 8 -46.5s-11 -25.5 -25 -31.5z" />
    <glyph glyph-name="uFEF7" unicode="&#xfedf;&#xfe84;" horiz-adv-x="876" arabic-form="isolated" 
d="M797 1252c0 -11.333 -3.33203 -25.334 -9.99902 -42.001c-2.66699 -8 -7.66699 -15.667 -15 -23c-16 -16 -35 -25 -57 -27c-26 2 -45 9.33301 -57 22c-12.667 20 -19 38.333 -19 55v10c0 8.66699 6.33301 25.334 19 50.001h-3c-20 -12 -30.667 -27 -32 -45v-1253h-359
l-95 2c-38 2 -71 16 -99 42c-31.333 23.333 -47 57.333 -47 102c0 40 11.667 71.667 35 95c21.333 24.667 51.666 37 90.999 37c20 0 34.333 -2.33301 43 -7c6.66699 -3.33301 14 -8.66602 22 -15.999c16.667 -16 25 -35.333 25 -58c0 -20 -6.66699 -37.667 -20 -53
c-16 -12.667 -34 -20 -54 -22l-10 3c-20 1.33301 -36.667 8.33301 -50 21l-3 -7c12 -18.667 27 -28.667 45 -30h157v1018h103v-1005h109v1111c2 39.333 16.333 72.666 43 99.999c10 12.667 23.333 23.334 40 32.001c16 10 36.333 15 61 15s47 -5 67 -15
c10.667 -5.33301 20.667 -12 30 -20c26.667 -24.667 40 -55.334 40 -92.001zM439.001 1235h-297.999v35h94c-26.667 18 -40 44.333 -40 79c0 30 9.33301 55.667 28 77c19.333 18.667 44.666 28 75.999 28c25.333 0 47.333 -6.66699 66 -20c20.667 -16 31 -36.333 31 -61
c0 -22 -6 -39.333 -18 -52s-28 -19 -48 -19c-19.333 0 -34 4.66699 -44 14c-12.667 9.33301 -19 23 -19 41c0 12 4 22 12 30c8.66699 6.66699 18.667 10 30 10c10 0 17.333 -4 22 -12c4 -8 6.66699 -17.667 8 -29l-3 -13l3 -3c12.667 3.33301 19 13 19 29
c0 15.333 -5.66699 27.666 -17 36.999c-11.333 8 -25 12 -41 12c-19.333 0 -35.666 -5.33301 -48.999 -16c-12.667 -13.333 -19 -30 -19 -50c0 -26.667 11.667 -47.667 35 -63c17.333 -11.333 38.666 -17.666 63.999 -18.999h108v-35z" />
    <glyph glyph-name="uFEF8" unicode="&#xfee0;&#xfe84;" horiz-adv-x="854" arabic-form="final" 
d="M792 1244c0 -10.667 -3 -24.667 -9 -42c-3.33301 -8 -8.66602 -15 -15.999 -21c-16 -16.667 -34.667 -26 -56 -28c-26.667 2 -44.667 9.33301 -54 22c-14 15.333 -21 33.666 -21 54.999v10c2 14 9 30.333 21 49h-5c-20 -11.333 -30.667 -26.333 -32 -45v-1123h234v-121
h-592l-92 2c-39.333 2 -73 16 -101 42c-31.333 25.333 -47 59 -47 101c0 40 11.667 71.667 35 95c21.333 24 52.333 36 93 36c18.667 0 32 -2.33301 40 -7c9.33301 -4.66699 16.666 -9.66699 21.999 -15c16.667 -14.667 25 -34 25 -58c0 -22 -6.33301 -39.667 -19 -53
c-17.333 -12.667 -36 -20 -56 -22l-9 3c-20 1.33301 -36.333 8.33301 -49 21v-7c9.33301 -17.333 24 -27 44 -29h154v1009h105v-997h109v1104c2 39.333 15 72.333 39 99c10 12.667 23 23.334 39 32.001c17.333 9.33301 38.333 14 63 14s46.667 -4.66699 66 -14
c10 -5.33301 20 -12 30 -20c26 -25.333 39 -56 39 -92zM440 1235h-298.999v35h95c-27.333 18 -41 44.333 -41 79c0 30 9.66699 55.667 29 77c18.667 18.667 43.667 28 75 28c26 0 48 -6.66699 66 -20c20.667 -16 31 -36.333 31 -61c0 -22 -6 -39.333 -18 -52
s-28 -19 -48 -19c-18.667 0 -33.334 4.66699 -44.001 14c-12.667 9.33301 -19 23 -19 41c0 12 4 22 12 30c8.66699 6.66699 18.667 10 30 10c10 0 17.667 -4 23 -12c4 -8 6.33301 -17.667 7 -29l-3 -13l3 -3c12.667 3.33301 19 13 19 29
c0 15.333 -5.66699 27.666 -17 36.999c-11.333 8 -25 12 -41 12c-18.667 0 -35 -5.33301 -49 -16c-12.667 -13.333 -19 -30 -19 -50c0 -26.667 11.667 -47.667 35 -63c17.333 -11.333 39 -17.666 65 -18.999h108v-35z" />
    <glyph glyph-name="uFEF9" unicode="&#xfedf;&#xfe88;" horiz-adv-x="876" arabic-form="isolated" 
d="M797 1252c0 -11.333 -3.33203 -25.334 -9.99902 -42.001c-2.66699 -8 -7.66699 -15.667 -15 -23c-16 -16 -35 -25 -57 -27c-26 2 -45 9.33301 -57 22c-12.667 20 -19 38.333 -19 55v10c0 8.66699 6.33301 25.334 19 50.001h-3c-20 -12 -30.667 -27 -32 -45v-1253h-359
l-95 2c-38 2 -71 16 -99 42c-31.333 23.333 -47 57.333 -47 102c0 40 11.667 71.667 35 95c21.333 24.667 51.666 37 90.999 37c20 0 34.333 -2.33301 43 -7c6.66699 -3.33301 14 -8.66602 22 -15.999c16.667 -16 25 -35.333 25 -58c0 -20 -6.66699 -37.667 -20 -53
c-16 -12.667 -34 -20 -54 -22l-10 3c-20 1.33301 -36.667 8.33301 -50 21l-3 -7c12 -18.667 27 -28.667 45 -30h157v1018h103v-1005h109v1111c2 39.333 16.333 72.666 43 99.999c10 12.667 23.333 23.334 40 32.001c16 10 36.333 15 61 15s47 -5 67 -15
c10.667 -5.33301 20.667 -12 30 -20c26.667 -24.667 40 -55.334 40 -92.001zM451.001 -312.001l-297.999 -0.00195312v35h94c-26.667 18.667 -40 45 -40 79c0 30.667 9.33301 56.334 28 77.001c19.333 19.333 44.666 29 75.999 29c25.333 0 47.333 -6.66699 66 -20
c20.667 -16 31 -36.667 31 -62c0 -21.333 -6 -38.333 -18 -51s-28 -19 -48 -19c-19.333 0 -34 4.66699 -44 14c-12.667 8.66699 -19 22.334 -19 41.001c0 12 4 22 12 30c8.66699 6 18.667 9 30 9c10 0 17.333 -4 22 -12c4 -8 6.66699 -17.333 8 -28l-3 -14l3 -2
c12.667 3.33301 19 13 19 29c0 15.333 -5.66699 27.666 -17 36.999c-11.333 8 -25 12 -41 12c-19.333 0 -35.666 -5.66699 -48.999 -17c-12.667 -12.667 -19 -29 -19 -49c0 -27.333 11.667 -48.666 35 -63.999c17.333 -10.667 38.666 -17 63.999 -19h108v-35z" />
    <glyph glyph-name="uFEFA" unicode="&#xfee0;&#xfe88;" horiz-adv-x="854" arabic-form="final" 
d="M792 1244c0 -10.667 -3 -24.667 -9 -42c-3.33301 -8 -8.66602 -15 -15.999 -21c-16 -16.667 -34.667 -26 -56 -28c-26.667 2 -44.667 9.33301 -54 22c-14 15.333 -21 33.666 -21 54.999v10c2 14 9 30.333 21 49h-5c-20 -11.333 -30.667 -26.333 -32 -45v-1123h234v-121
h-592l-92 2c-39.333 2 -73 16 -101 42c-31.333 25.333 -47 59 -47 101c0 40 11.667 71.667 35 95c21.333 24 52.333 36 93 36c18.667 0 32 -2.33301 40 -7c9.33301 -4.66699 16.666 -9.66699 21.999 -15c16.667 -14.667 25 -34 25 -58c0 -22 -6.33301 -39.667 -19 -53
c-17.333 -12.667 -36 -20 -56 -22l-9 3c-20 1.33301 -36.333 8.33301 -49 21v-7c9.33301 -17.333 24 -27 44 -29h154v1009h105v-997h109v1104c2 39.333 15 72.333 39 99c10 12.667 23 23.334 39 32.001c17.333 9.33301 38.333 14 63 14s46.667 -4.66699 66 -14
c10 -5.33301 20 -12 30 -20c26 -25.333 39 -56 39 -92zM452 -312l-298.999 -0.00195312v35h95c-27.333 18.667 -41 45 -41 79c0 30.667 9.66699 56.334 29 77.001c18.667 19.333 43.667 29 75 29c26 0 48 -6.66699 66 -20c20.667 -16 31 -36.667 31 -62
c0 -21.333 -6 -38.333 -18 -51s-28 -19 -48 -19c-18.667 0 -33.334 4.66699 -44.001 14c-12.667 8.66699 -19 22.334 -19 41.001c0 12 4 22 12 30c8.66699 6 18.667 9 30 9c10 0 17.667 -4 23 -12c4 -8 6.33301 -17.333 7 -28l-3 -14l3 -2c12.667 3.33301 19 13 19 29
c0 15.333 -5.66699 27.666 -17 36.999c-11.333 8 -25 12 -41 12c-18.667 0 -35 -5.66699 -49 -17c-12.667 -12.667 -19 -29 -19 -49c0 -27.333 11.667 -48.666 35 -63.999c17.333 -10.667 39 -17 65 -19h108v-35z" />
    <glyph glyph-name="uFEFB" unicode="&#xfedf;&#xfe8e;" horiz-adv-x="876" arabic-form="isolated" 
d="M797 1252c0 -11.333 -3.33203 -25.334 -9.99902 -42.001c-2.66699 -8 -7.66699 -15.667 -15 -23c-16 -16 -35 -25 -57 -27c-26 2 -45 9.33301 -57 22c-12.667 20 -19 38.333 -19 55v10c0 8.66699 6.33301 25.334 19 50.001h-3c-20 -12 -30.667 -27 -32 -45v-1253h-359
l-95 2c-38 2 -71 16 -99 42c-31.333 23.333 -47 57.333 -47 102c0 40 11.667 71.667 35 95c21.333 24.667 51.666 37 90.999 37c20 0 34.333 -2.33301 43 -7c6.66699 -3.33301 14 -8.66602 22 -15.999c16.667 -16 25 -35.333 25 -58c0 -20 -6.66699 -37.667 -20 -53
c-16 -12.667 -34 -20 -54 -22l-10 3c-20 1.33301 -36.667 8.33301 -50 21l-3 -7c12 -18.667 27 -28.667 45 -30h157v1018h103v-1005h109v1111c2 39.333 16.333 72.666 43 99.999c10 12.667 23.333 23.334 40 32.001c16 10 36.333 15 61 15s47 -5 67 -15
c10.667 -5.33301 20.667 -12 30 -20c26.667 -24.667 40 -55.334 40 -92.001z" />
    <glyph glyph-name="uFEFC" unicode="&#xfee0;&#xfe8e;" horiz-adv-x="854" arabic-form="final" 
d="M620 121h234v-121h-592l-92 2c-39.333 2 -73 16 -101 42c-31.333 25.333 -47 59 -47 101c0 40 11.667 71.667 35 95c21.333 24 52.333 36 93 36c18.667 0 32 -2.33301 40 -7c9.33301 -4.66699 16.666 -9.66699 21.999 -15c16.667 -14.667 25 -34 25 -58
c0 -22 -6.33301 -39.667 -19 -53c-17.333 -12.667 -36 -20 -56 -22l-9 3c-20 1.33301 -36.333 8.33301 -49 21v-7c9.33301 -17.333 24 -27 44 -29h154v1009h105v-997h109v1104c2 39.333 15 72.333 39 99c10 12.667 23 23.334 39 32.001c17.333 9.33301 38.333 14 63 14
s46.667 -4.66699 66 -14c10 -5.33301 20 -12 30 -20c26 -25.333 39 -56 39 -92c0 -10.667 -3 -24.667 -9 -42c-3.33301 -8 -8.66602 -15 -15.999 -21c-16 -16.667 -34.667 -26 -56 -28c-26.667 2 -44.667 9.33301 -54 22c-14 15.333 -21 33.666 -21 54.999v10
c2 14 9 30.333 21 49h-5c-20 -11.333 -30.667 -26.333 -32 -45v-1123z" />
    <glyph glyph-name="u0652_u064E.liga" unicode="&#x652;&#x64e;" horiz-adv-x="1" 
d="M233 969c0.666992 -2 1 -5 1 -9c0 -30 -9.66699 -56 -29 -78c-2 -2 -5 -3 -9 -3s-5.66699 1.66699 -5 5c3.33301 25.333 0.333008 65.333 -9 120c-3.33301 16 -8.66602 44.333 -15.999 85c-4.66699 26 -7.33398 50.667 -8.00098 74c0 4 5.66699 12 17 24
c17.333 18.667 29.333 28 36 28c4 0 5.33301 -4.33301 4 -13c-1.33301 -9.33301 -2 -20.333 -2 -33c0 -32 6.66699 -98.667 20 -200z" />
    <glyph glyph-name="u0652_u064B.liga" unicode="&#x652;&#x64b;" horiz-adv-x="1" 
d="M547 803l-79 -121l-123 81l-65 -101l-129 89l82 129l120 -81l61 95z" />
    <glyph glyph-name="u0652_u064D.liga" unicode="&#x652;&#x64d;" horiz-adv-x="1" 
d="M809 -702l-79 -121l-123 81l-65 -101l-129 89l82 129l120 -81l61 95z" />
    <glyph glyph-name="u0622" unicode="&#x622;" horiz-adv-x="534" arabic-form="isolated" 
d="M30 1193c-6.66699 8 -9.99902 20.6699 -9.99902 38.0029c0 39.333 12 68.666 36 87.999c6.66699 6 16.334 13 29.001 21c16 8 37 12 63 12s47 -4 63 -12c9.33301 -4.66699 22 -15 38 -31c26 -28 39 -60.333 39 -97v-1092c1.33301 -20.667 11.666 -35.334 30.999 -44.001
l5 2c-13.333 18.667 -20 33.334 -20 44.001v12c0 19.333 6.66699 37 20 53c12.667 12.667 29 19 49 19c20.667 0 39 -8 55 -24c8 -6 13.667 -13 17 -21c6 -16 9 -29.667 9 -41c0 -34.667 -12 -64 -36 -88c-22 -22 -53.333 -33 -94 -33c-37.333 0 -70.333 14.333 -99 43
c-22 25.333 -35.667 57.666 -41 96.999v1095c-2.66699 18.667 -13 32.667 -31 42l-2 -3c9.33301 -13.333 15.666 -28 18.999 -44l2 -10c-2.66699 -20.667 -9.66699 -38.334 -21 -53.001c-12.667 -12.667 -30 -19.667 -52 -21c-24 1.33301 -42.333 10 -55 26
c-8 4.66699 -12.667 12 -14 22zM308.001 1409c-9.33301 -7.33301 -18.0039 -10.999 -26.0039 -10.999h-8c-2.66699 0 -8.5 1.16699 -17.5 3.5s-17 8.83301 -24 19.5s-8.33301 22 -4 34s12.333 21 24 27s24.167 8.33301 37.5 7v3c-16 5.33301 -28 6.33301 -36 3l-138 -85
c-19.333 -8.66699 -40.666 -11.667 -63.999 -9c-25.333 2.66699 -43.666 16 -54.999 40c-12.667 18 -16.667 37.667 -12 59v1c8 21.333 17.5 35.666 28.5 42.999s20.167 11 27.5 11c29.333 0 47.333 -14 54 -42c4 -19.333 -4.66699 -34.333 -26 -45c-6 -4 -15.333 -6 -28 -6
v-1c10.667 -8 20.334 -9 29.001 -3l144 82c15.333 10 36 14.667 62 14c22 -5.33301 40 -19 54 -41c11.333 -21.333 14.833 -42 10.5 -62s-15.166 -34 -32.499 -42z" />
    <glyph glyph-name="u0623" unicode="&#x623;" horiz-adv-x="534" arabic-form="isolated" 
d="M29 1193c-6.66699 8 -9.99902 20.6699 -9.99902 38.0029c0 39.333 12 68.666 36 87.999c6.66699 6 16.334 13 29.001 21c16 8 37 12 63 12s47 -4 63 -12c9.33301 -4.66699 22 -15 38 -31c26 -28 39 -60.333 39 -97v-1092c1.33301 -20.667 11.666 -35.334 30.999 -44.001
l5 2c-13.333 18.667 -20 33.334 -20 44.001v12c0 19.333 6.66699 37 20 53c12.667 12.667 29 19 49 19c20.667 0 39 -8 55 -24c8 -6 13.667 -13 17 -21c6 -16 9 -29.667 9 -41c0 -34.667 -12 -64 -36 -88c-22 -22 -53.333 -33 -94 -33c-37.333 0 -70.333 14.333 -99 43
c-22 25.333 -35.667 57.666 -41 96.999v1095c-2.66699 18.667 -13 32.667 -31 42l-2 -3c9.33301 -13.333 15.666 -28 18.999 -44l2 -10c-2.66699 -20.667 -9.66699 -38.334 -21 -53.001c-12.667 -12.667 -30 -19.667 -52 -21c-24 1.33301 -42.333 10 -55 26
c-8 4.66699 -12.667 12 -14 22zM319.001 1392l-299.001 -0.00390625v35h95c-27.333 18 -41 44.333 -41 79c0 30.667 9.66699 56.334 29 77.001c19.333 19.333 44.666 29 75.999 29c25.333 0 47.333 -7 66 -21c20.667 -16 31 -36.333 31 -61
c0 -21.333 -6 -38.666 -18 -51.999c-12 -12.667 -28 -19 -48 -19c-19.333 0 -34.333 5 -45 15c-12.667 8.66699 -19 22 -19 40c0 12 4 22 12 30c8.66699 6.66699 18.667 10 30 10c10.667 0 18.334 -4 23.001 -12c4 -8 6.33301 -17.667 7 -29l-2 -13l2 -2
c12.667 2.66699 19 12 19 28c0 15.333 -5.33301 28 -16 38c-11.333 8 -25 12 -41 12c-19.333 0 -35.666 -5.66699 -48.999 -17c-13.333 -12.667 -20 -29 -20 -49c0 -27.333 11.667 -48.666 35 -63.999c18 -11.333 39.667 -17.666 65 -18.999h108v-35z" />
    <glyph glyph-name="u0624" unicode="&#x624;" horiz-adv-x="702" arabic-form="isolated" 
d="M305 523c86.667 0 161.668 -30.335 225.001 -91.002c60.667 -60 91 -133.667 91 -221c0 -83.333 -86 -296.666 -258 -639.999h-112c180 386 270 594.667 270 626c0 62 -20.667 115 -62 159c-38.667 44 -89.334 66 -152.001 66c-50.667 0 -92.334 -15.333 -125.001 -46
c-36 -30 -54 -70 -54 -120c0 -26.667 5.66699 -54 17 -82c12 -25.333 30.667 -46.666 56 -63.999s51 -26 77 -26c14.667 0 32.667 8 54 24c19.333 15.333 29 31 29 47c0 4.66699 -0.333008 9.33398 -1 14.001s-1 9 -1 13c-39.333 -20 -70 -30 -92 -30
c-26.667 0 -49.334 11 -68.001 33c-17.333 22 -26 45.667 -26 71c0 36 13.333 66.333 40 91c28 22 59.333 33 94 33c54.667 0 97.334 -21 128.001 -63c27.333 -40.667 41 -88.334 41 -143.001c0 -60 -20.333 -106.333 -61 -139c-39.333 -34 -88.666 -51 -147.999 -51
c-76.667 0 -136 25 -178 75c-42.667 46 -64 108.333 -64 187c0 84.667 25.333 152.667 76 204c50.667 48.667 118.667 73 204 73zM351.001 616.998h-297.999v35h94c-26.667 18 -40 44.333 -40 79c0 30 9.33301 55.667 28 77c19.333 18.667 44.666 28 75.999 28
c25.333 0 47.333 -6.66699 66 -20c20.667 -16 31 -36.333 31 -61c0 -22 -6 -39.333 -18 -52s-28 -19 -48 -19c-19.333 0 -34 4.66699 -44 14c-12.667 9.33301 -19 23 -19 41c0 12 4 22 12 30c8.66699 6.66699 18.667 10 30 10c10 0 17.333 -4 22 -12
c4 -8 6.66699 -17.667 8 -29l-3 -13l3 -3c12.667 3.33301 19 13 19 29c0 15.333 -5.66699 27.666 -17 36.999c-11.333 8 -25 12 -41 12c-19.333 0 -35.666 -5.33301 -48.999 -16c-12.667 -13.333 -19 -30 -19 -50c0 -26.667 11.667 -47.667 35 -63
c17.333 -11.333 38.666 -17.666 63.999 -18.999h108v-35z" />
    <glyph glyph-name="u0625" unicode="&#x625;" horiz-adv-x="534" arabic-form="isolated" 
d="M29 1193c-6.66699 8 -9.99902 20.6699 -9.99902 38.0029c0 39.333 12 68.666 36 87.999c6.66699 6 16.334 13 29.001 21c16 8 37 12 63 12s47 -4 63 -12c9.33301 -4.66699 22 -15 38 -31c26 -28 39 -60.333 39 -97v-1092c1.33301 -20.667 11.666 -35.334 30.999 -44.001
l5 2c-13.333 18.667 -20 33.334 -20 44.001v12c0 19.333 6.66699 37 20 53c12.667 12.667 29 19 49 19c20.667 0 39 -8 55 -24c8 -6 13.667 -13 17 -21c6 -16 9 -29.667 9 -41c0 -34.667 -12 -64 -36 -88c-22 -22 -53.333 -33 -94 -33c-37.333 0 -70.333 14.333 -99 43
c-22 25.333 -35.667 57.666 -41 96.999v1095c-2.66699 18.667 -13 32.667 -31 42l-2 -3c9.33301 -13.333 15.666 -28 18.999 -44l2 -10c-2.66699 -20.667 -9.66699 -38.334 -21 -53.001c-12.667 -12.667 -30 -19.667 -52 -21c-24 1.33301 -42.333 10 -55 26
c-8 4.66699 -12.667 12 -14 22zM451.001 -311.997l-299.001 -0.00195312v35h95c-27.333 18.667 -41 45 -41 79c0 30.667 9.66699 56.334 29 77.001c19.333 19.333 44.666 29 75.999 29c25.333 0 47.333 -6.66699 66 -20c20.667 -16 31 -36.667 31 -62
c0 -21.333 -6 -38.333 -18 -51s-28 -19 -48 -19c-19.333 0 -34.333 4.66699 -45 14c-12.667 8.66699 -19 22.334 -19 41.001c0 12 4 22 12 30c8.66699 6 18.667 9 30 9c10.667 0 18.334 -4 23.001 -12c4 -8 6.33301 -17.333 7 -28l-2 -14l2 -2c12.667 3.33301 19 13 19 29
c0 15.333 -5.33301 27.666 -16 36.999c-11.333 8 -25 12 -41 12c-19.333 0 -35.666 -5.66699 -48.999 -17c-13.333 -12.667 -20 -29 -20 -49c0 -27.333 11.667 -48.666 35 -63.999c18 -10.667 39.667 -17 65 -19h108v-35z" />
    <glyph glyph-name="u0626" unicode="&#x626;" horiz-adv-x="1412" arabic-form="isolated" 
d="M540 710c44.667 0 81.3359 -14.668 110.003 -44.001c3.33301 -2.66699 7.33301 -6.33398 12 -11.001c30 -38 45 -81 45 -129c0 -49.333 -19 -89.333 -57 -120c-35.333 -32 -82 -56.667 -140 -74c-34 -4.66699 -90 -16 -168 -34c-31.333 -5.33301 -61.333 -16.333 -90 -33
c-66.667 -33.333 -104 -85 -112 -155h1069v137c-2.66699 16.667 -9.33398 35 -20.001 55c1.33301 -2.66699 -2.66699 3.33301 -12 18h-2c-29.333 31.333 -64.666 47 -105.999 47h-319v376c0 72 30 129.667 90 173c55.333 34.667 119.333 53.667 192 57h272v-445h-104v323
h-168c-3.33301 -2 -7.33301 -3 -12 -3c-38.667 0 -70.334 -7.33301 -95.001 -22c-7.33301 -3.33301 -13.333 -7.33301 -18 -12l-5 -4c-30 -29.333 -45 -64 -45 -104v-231h250c71.333 0 128.666 -30 171.999 -90c13.333 -20 24 -40.667 32 -62
c10.667 -24.667 17.667 -50 21 -76v-247h-1307v110c4.66699 63.333 24.667 115 60 155c13.333 22 36.666 43.667 69.999 65c52 36.667 128.667 67.334 230 92.001c91.333 22 144.666 35.667 159.999 41l20 28c-61.333 6 -95.666 11.667 -102.999 17
c-30 14.667 -45 45.334 -45 92.001c0 30.667 13.333 56.667 40 78c23.333 21.333 51 32 83 32zM589.002 838.999h-299.001v35h95c-27.333 18 -41 44.333 -41 79c0 30 9.66699 55.667 29 77c19.333 18.667 44.666 28 75.999 28c25.333 0 47.333 -6.66699 66 -20
c20.667 -16 31 -36.333 31 -61c0 -22 -6 -39.333 -18 -52s-28 -19 -48 -19c-19.333 0 -34.333 4.66699 -45 14c-12.667 9.33301 -19 23 -19 41c0 12 4 22 12 30c8.66699 6.66699 18.667 10 30 10c10.667 0 18.334 -4 23.001 -12c4 -8 6.33301 -17.667 7 -29l-2 -13l2 -3
c12.667 3.33301 19 13 19 29c0 15.333 -5.33301 27.666 -16 36.999c-11.333 8 -25 12 -41 12c-19.333 0 -35.666 -5.33301 -48.999 -16c-13.333 -13.333 -20 -30 -20 -50c0 -26.667 11.667 -47.667 35 -63c18 -11.333 39.667 -17.666 65 -18.999h108v-35z" />
    <glyph glyph-name="u0627" unicode="&#x627;" horiz-adv-x="534" arabic-form="isolated" 
d="M29 1193c-6.66699 8 -9.99902 20.6699 -9.99902 38.0029c0 39.333 12 68.666 36 87.999c6.66699 6 16.334 13 29.001 21c16 8 37 12 63 12s47 -4 63 -12c9.33301 -4.66699 22 -15 38 -31c26 -28 39 -60.333 39 -97v-1092c1.33301 -20.667 11.666 -35.334 30.999 -44.001
l5 2c-13.333 18.667 -20 33.334 -20 44.001v12c0 19.333 6.66699 37 20 53c12.667 12.667 29 19 49 19c20.667 0 39 -8 55 -24c8 -6 13.667 -13 17 -21c6 -16 9 -29.667 9 -41c0 -34.667 -12 -64 -36 -88c-22 -22 -53.333 -33 -94 -33c-37.333 0 -70.333 14.333 -99 43
c-22 25.333 -35.667 57.666 -41 96.999v1095c-2.66699 18.667 -13 32.667 -31 42l-2 -3c9.33301 -13.333 15.666 -28 18.999 -44l2 -10c-2.66699 -20.667 -9.66699 -38.334 -21 -53.001c-12.667 -12.667 -30 -19.667 -52 -21c-24 1.33301 -42.333 10 -55 26
c-8 4.66699 -12.667 12 -14 22z" />
    <glyph glyph-name="u0628" unicode="&#x628;" horiz-adv-x="1080" arabic-form="isolated" 
d="M244 647c22.667 -28.667 35.667 -61.665 39 -98.998v-291c0 -30.667 7 -55.667 21 -75c10 -14.667 17.333 -23 22 -25l6 -5l14 -12c26 -14 56.667 -21 92 -21h459v582c-3.33301 20.667 -13.666 35 -30.999 43h-2c9.33301 -17.333 15.666 -32.666 18.999 -45.999v-9
c0 -22.667 -6.33301 -40.667 -19 -54c-14.667 -14.667 -32.667 -22 -54 -22c-19.333 0 -38 8 -56 24c-9.33301 12 -14 19.667 -14 23c-6.66699 19.333 -10 33 -10 41c0 35.333 12 65.333 36 90c24 22 55.667 33 95 33c38.667 0 72.667 -14.333 102 -43
c24 -32.667 36 -65.667 36 -99v-682h-549c-54.667 1.33301 -103.334 12.666 -146.001 33.999l-19 9c-6 3.33301 -11.667 7.33301 -17 12c-58 39.333 -87 94.666 -87 165.999v347c-3.33301 17.333 -13.666 31.666 -30.999 42.999h-5c9.33301 -18 15.666 -33.333 18.999 -46
v-9c0 -23.333 -6.33301 -41.333 -19 -54c-12.667 -14.667 -29.667 -22 -51 -22s-40.666 8 -57.999 24l-15 22c-4.66699 12 -7 25 -7 39c0 40 12 70 36 90c21.333 24 53 36 95 36c36.667 0 69.667 -14.667 99 -44zM612 -183.998c0 22 8.33398 41.5 25.001 58.5
s36 25.5 58 25.5c21.333 0 39.5 -8 54.5 -24s22.5 -36 22.5 -60s-7.83301 -44.333 -23.5 -61s-34.834 -25 -57.501 -25c-20.667 0 -39 8.5 -55 25.5s-24 37.167 -24 60.5z" />
    <glyph glyph-name="u0629" unicode="&#x629;" horiz-adv-x="768" arabic-form="isolated" 
d="M160 547c64.667 63.333 140.667 95 228 95c85.333 0 161.333 -31.667 228 -95c63.333 -61.333 95 -137.333 95 -228c0 -90 -31.667 -165 -95 -225c-63.333 -64.667 -139.333 -97 -228 -97c-90.667 0 -166.667 32.333 -228 97c-63.333 62.667 -95 137.667 -95 225
c0 88.667 31.667 164.667 95 228zM227 486c-44.667 -48 -67 -101.999 -67 -161.999c0 -52.667 18.667 -104 56 -154c38 -52.667 83.333 -79 136 -79c27.333 0 50.333 10.333 69 31c17.333 20 26 46.667 26 80c-17.333 -7.33301 -37 -11 -59 -11c-38 0 -67.333 12 -88 36
c-25.333 27.333 -38 57.333 -38 90c0 37.333 12.667 68 38 92c20.667 26 50.667 39 90 39c44.667 0 80 -18 106 -54c25.333 -31.333 38 -70 38 -116c0 -72 -20.667 -129 -62 -171c41.333 6 76.333 33 105 81c26 38 39 81 39 129c0 63.333 -21.333 117.666 -64 162.999
c-46 46.667 -100.667 70 -164 70c-60 0 -113.667 -21.333 -161 -64zM439 835.001h-297.999v35h94c-26.667 18 -40 44.333 -40 79c0 30 9.33301 55.667 28 77c19.333 18.667 44.666 28 75.999 28c25.333 0 47.333 -6.66699 66 -20c20.667 -16 31 -36.333 31 -61
c0 -22 -6 -39.333 -18 -52s-28 -19 -48 -19c-19.333 0 -34 4.66699 -44 14c-12.667 9.33301 -19 23 -19 41c0 12 4 22 12 30c8.66699 6.66699 18.667 10 30 10c10 0 17.333 -4 22 -12c4 -8 6.66699 -17.667 8 -29l-3 -13l3 -3c12.667 3.33301 19 13 19 29
c0 15.333 -5.66699 27.666 -17 36.999c-11.333 8 -25 12 -41 12c-19.333 0 -35.666 -5.33301 -48.999 -16c-12.667 -13.333 -19 -30 -19 -50c0 -26.667 11.667 -47.667 35 -63c17.333 -11.333 38.666 -17.666 63.999 -18.999h108v-35z" />
    <glyph glyph-name="u062A" unicode="&#x62a;" horiz-adv-x="1080" arabic-form="isolated" 
d="M494 968c0 22.667 8.33301 42.333 25 59s35.667 25 57 25c22 0 40.333 -8 55 -24s22 -36 22 -60s-7.83301 -44.167 -23.5 -60.5s-34.5 -24.5 -56.5 -24.5c-20.667 0 -39 8.5 -55 25.5s-24 36.833 -24 59.5zM326 967.999c0 22.667 8.33301 42.333 25 59s35.667 25 57 25
c22 0 40.333 -8 55 -24s22 -36 22 -60s-7.83301 -44.167 -23.5 -60.5s-34.5 -24.5 -56.5 -24.5c-20.667 0 -39 8.5 -55 25.5s-24 36.833 -24 59.5zM244 646.998c22.667 -28.667 35.667 -61.665 39 -98.998v-291c0 -30.667 7 -55.667 21 -75c10 -14.667 17.333 -23 22 -25
l6 -5l14 -12c26 -14 56.667 -21 92 -21h459v582c-3.33301 20.667 -13.666 35 -30.999 43h-2c9.33301 -17.333 15.666 -32.666 18.999 -45.999v-9c0 -22.667 -6.33301 -40.667 -19 -54c-14.667 -14.667 -32.667 -22 -54 -22c-19.333 0 -38 8 -56 24
c-9.33301 12 -14 19.667 -14 23c-6.66699 19.333 -10 33 -10 41c0 35.333 12 65.333 36 90c24 22 55.667 33 95 33c38.667 0 72.667 -14.333 102 -43c24 -32.667 36 -65.667 36 -99v-682h-549c-54.667 1.33301 -103.334 12.666 -146.001 33.999l-19 9
c-6 3.33301 -11.667 7.33301 -17 12c-58 39.333 -87 94.666 -87 165.999v347c-3.33301 17.333 -13.666 31.666 -30.999 42.999h-5c9.33301 -18 15.666 -33.333 18.999 -46v-9c0 -23.333 -6.33301 -41.333 -19 -54c-12.667 -14.667 -29.667 -22 -51 -22s-40.666 8 -57.999 24
l-15 22c-4.66699 12 -7 25 -7 39c0 40 12 70 36 90c21.333 24 53 36 95 36c36.667 0 69.667 -14.667 99 -44z" />
    <glyph glyph-name="u062B" unicode="&#x62b;" horiz-adv-x="1080" arabic-form="isolated" 
d="M390 1136c0 22.667 8.33301 42.333 25 59s35.667 25 57 25c22 0 40.333 -8 55 -24s22 -36 22 -60s-7.83301 -44.167 -23.5 -60.5s-34.5 -24.5 -56.5 -24.5c-20.667 0 -39 8.5 -55 25.5s-24 36.833 -24 59.5zM474 967.999c0 22.667 8.33301 42.333 25 59s35.667 25 57 25
c22 0 40.333 -8 55 -24s22 -36 22 -60s-7.83301 -44.167 -23.5 -60.5s-34.5 -24.5 -56.5 -24.5c-20.667 0 -39 8.5 -55 25.5s-24 36.833 -24 59.5zM306 967.998c0 22.667 8.33301 42.333 25 59s35.667 25 57 25c22 0 40.333 -8 55 -24s22 -36 22 -60
s-7.83301 -44.167 -23.5 -60.5s-34.5 -24.5 -56.5 -24.5c-20.667 0 -39 8.5 -55 25.5s-24 36.833 -24 59.5zM244 646.997c22.667 -28.667 35.667 -61.665 39 -98.998v-291c0 -30.667 7 -55.667 21 -75c10 -14.667 17.333 -23 22 -25l6 -5l14 -12c26 -14 56.667 -21 92 -21
h459v582c-3.33301 20.667 -13.666 35 -30.999 43h-2c9.33301 -17.333 15.666 -32.666 18.999 -45.999v-9c0 -22.667 -6.33301 -40.667 -19 -54c-14.667 -14.667 -32.667 -22 -54 -22c-19.333 0 -38 8 -56 24c-9.33301 12 -14 19.667 -14 23c-6.66699 19.333 -10 33 -10 41
c0 35.333 12 65.333 36 90c24 22 55.667 33 95 33c38.667 0 72.667 -14.333 102 -43c24 -32.667 36 -65.667 36 -99v-682h-549c-54.667 1.33301 -103.334 12.666 -146.001 33.999l-19 9c-6 3.33301 -11.667 7.33301 -17 12c-58 39.333 -87 94.666 -87 165.999v347
c-3.33301 17.333 -13.666 31.666 -30.999 42.999h-5c9.33301 -18 15.666 -33.333 18.999 -46v-9c0 -23.333 -6.33301 -41.333 -19 -54c-12.667 -14.667 -29.667 -22 -51 -22s-40.666 8 -57.999 24l-15 22c-4.66699 12 -7 25 -7 39c0 40 12 70 36 90c21.333 24 53 36 95 36
c36.667 0 69.667 -14.667 99 -44z" />
    <glyph glyph-name="u062C" unicode="&#x62c;" horiz-adv-x="1567" arabic-form="isolated" 
d="M695 -293c0 22 8.33301 41.5 25 58.5s35.667 25.5 57 25.5c22 0 40.333 -8 55 -24s22 -36 22 -60s-7.83301 -44.333 -23.5 -61s-34.5 -25 -56.5 -25c-20.667 0 -39 8.5 -55 25.5s-24 37.167 -24 60.5zM297 -33c110 92.667 246.001 143.664 408.001 152.997h548v299
c-3.33301 16.667 -7.33301 32.334 -12 47.001c-3.33301 2.66699 -6 5.66699 -8 9s-3.66699 7.66602 -5 12.999l-10 15l-2 5c-28 29.333 -61.667 44 -101 44h-703c-41.333 1.33301 -75 15.333 -101 42c-29.333 24.667 -44 57.334 -44 98.001c0 41.333 11 73.333 33 96
c0 3.33301 1.66699 5 5 5c18.667 22 47.667 33 87 33c13.333 0 27.333 -2.66699 42 -8c10 -6 16.667 -10.667 20 -14c0 -1.33301 1.16699 -3.5 3.5 -6.5s4.5 -4.5 6.5 -4.5c10.667 -17.333 16 -33.666 16 -48.999c0 -19.333 -7 -36.666 -21 -51.999
c-16.667 -12.667 -34.667 -19 -54 -19h-11c-11.333 0 -27 6.33301 -47 19l-2 -4c10 -20 24.667 -30 44 -30h761c64 0 117.333 -27.333 160 -82c2.66699 -3.33301 5 -6.66602 7 -9.99902c29.333 -40.667 47.666 -89.667 54.999 -147c0 -12.667 0.666992 -22 2 -28v-271h146
v-120h-734c-164 0 -294.5 -38.667 -391.5 -116s-148.667 -161.166 -155 -251.499s32.167 -143.5 115.5 -159.5h693c41.333 -1.33301 78.333 -15.333 111 -42c29.333 -38 44 -77.333 44 -118c-6.66699 -41.333 -21 -73.333 -43 -96c0 -3.33301 -1.66699 -5 -5 -5
c-18.667 -22 -47.667 -33 -87 -33c-13.333 0 -27.333 2.66699 -42 8c-10 6 -16.667 10.667 -20 14c0 1.33301 -1.16699 3.5 -3.5 6.5s-4.5 4.5 -6.5 4.5c-10.667 17.333 -16 33.666 -16 48.999c0 19.333 7 36.666 21 51.999c16.667 12.667 34.667 19 54 19h11
c11.333 0 27 -6.33301 47 -19l2 4c-10 20 -24.667 30 -44 30h-721c-80.667 12 -142.667 40.5 -186 85.5s-59.5 122.167 -48.5 231.5s71.5 210.333 181.5 303z" />
    <glyph glyph-name="u062D" unicode="&#x62d;" horiz-adv-x="1567" arabic-form="isolated" 
d="M297 -33c110 92.667 246.001 143.664 408.001 152.997h548v299c-3.33301 16.667 -7.33301 32.334 -12 47.001c-3.33301 2.66699 -6 5.66699 -8 9s-3.66699 7.66602 -5 12.999l-10 15l-2 5c-28 29.333 -61.667 44 -101 44h-703c-41.333 1.33301 -75 15.333 -101 42
c-29.333 24.667 -44 57.334 -44 98.001c0 41.333 11 73.333 33 96c0 3.33301 1.66699 5 5 5c18.667 22 47.667 33 87 33c13.333 0 27.333 -2.66699 42 -8c10 -6 16.667 -10.667 20 -14c0 -1.33301 1.16699 -3.5 3.5 -6.5s4.5 -4.5 6.5 -4.5
c10.667 -17.333 16 -33.666 16 -48.999c0 -19.333 -7 -36.666 -21 -51.999c-16.667 -12.667 -34.667 -19 -54 -19h-11c-11.333 0 -27 6.33301 -47 19l-2 -4c10 -20 24.667 -30 44 -30h761c64 0 117.333 -27.333 160 -82c2.66699 -3.33301 5 -6.66602 7 -9.99902
c29.333 -40.667 47.666 -89.667 54.999 -147c0 -12.667 0.666992 -22 2 -28v-271h146v-120h-734c-164 0 -294.5 -38.667 -391.5 -116s-148.667 -161.166 -155 -251.499s32.167 -143.5 115.5 -159.5h693c41.333 -1.33301 78.333 -15.333 111 -42
c29.333 -38 44 -77.333 44 -118c-6.66699 -41.333 -21 -73.333 -43 -96c0 -3.33301 -1.66699 -5 -5 -5c-18.667 -22 -47.667 -33 -87 -33c-13.333 0 -27.333 2.66699 -42 8c-10 6 -16.667 10.667 -20 14c0 1.33301 -1.16699 3.5 -3.5 6.5s-4.5 4.5 -6.5 4.5
c-10.667 17.333 -16 33.666 -16 48.999c0 19.333 7 36.666 21 51.999c16.667 12.667 34.667 19 54 19h11c11.333 0 27 -6.33301 47 -19l2 4c-10 20 -24.667 30 -44 30h-721c-80.667 12 -142.667 40.5 -186 85.5s-59.5 122.167 -48.5 231.5s71.5 210.333 181.5 303z" />
    <glyph glyph-name="u062E" unicode="&#x62e;" horiz-adv-x="1567" arabic-form="isolated" 
d="M712 902c0 22 8.5 41.5 25.5 58.5s36.167 25.5 57.5 25.5c22 0 40.333 -8 55 -24s22 -36 22 -60s-7.83301 -44.333 -23.5 -61s-34.5 -25 -56.5 -25c-21.333 0 -40 8.5 -56 25.5s-24 37.167 -24 60.5zM297 -33c110 92.667 246.001 143.664 408.001 152.997h548v299
c-3.33301 16.667 -7.33301 32.334 -12 47.001c-3.33301 2.66699 -6 5.66699 -8 9s-3.66699 7.66602 -5 12.999l-10 15l-2 5c-28 29.333 -61.667 44 -101 44h-703c-41.333 1.33301 -75 15.333 -101 42c-29.333 24.667 -44 57.334 -44 98.001c0 41.333 11 73.333 33 96
c0 3.33301 1.66699 5 5 5c18.667 22 47.667 33 87 33c13.333 0 27.333 -2.66699 42 -8c10 -6 16.667 -10.667 20 -14c0 -1.33301 1.16699 -3.5 3.5 -6.5s4.5 -4.5 6.5 -4.5c10.667 -17.333 16 -33.666 16 -48.999c0 -19.333 -7 -36.666 -21 -51.999
c-16.667 -12.667 -34.667 -19 -54 -19h-11c-11.333 0 -27 6.33301 -47 19l-2 -4c10 -20 24.667 -30 44 -30h761c64 0 117.333 -27.333 160 -82c2.66699 -3.33301 5 -6.66602 7 -9.99902c29.333 -40.667 47.666 -89.667 54.999 -147c0 -12.667 0.666992 -22 2 -28v-271h146
v-120h-734c-164 0 -294.5 -38.667 -391.5 -116s-148.667 -161.166 -155 -251.499s32.167 -143.5 115.5 -159.5h693c41.333 -1.33301 78.333 -15.333 111 -42c29.333 -38 44 -77.333 44 -118c-6.66699 -41.333 -21 -73.333 -43 -96c0 -3.33301 -1.66699 -5 -5 -5
c-18.667 -22 -47.667 -33 -87 -33c-13.333 0 -27.333 2.66699 -42 8c-10 6 -16.667 10.667 -20 14c0 1.33301 -1.16699 3.5 -3.5 6.5s-4.5 4.5 -6.5 4.5c-10.667 17.333 -16 33.666 -16 48.999c0 19.333 7 36.666 21 51.999c16.667 12.667 34.667 19 54 19h11
c11.333 0 27 -6.33301 47 -19l2 4c-10 20 -24.667 30 -44 30h-721c-80.667 12 -142.667 40.5 -186 85.5s-59.5 122.167 -48.5 231.5s71.5 210.333 181.5 303z" />
    <glyph glyph-name="u062F" unicode="&#x62f;" horiz-adv-x="962" arabic-form="isolated" 
d="M882 212l0.000976562 -211.999h-718c-38.667 1.33301 -72.667 15.666 -102 42.999c-32 24 -48 59.333 -48 106c0 32 7.66699 58 23 78c1.33301 8.66699 5.66602 14.667 12.999 18c21.333 25.333 52.666 38 93.999 38c20.667 0 35.334 -2.33301 44.001 -7l23 -16
c10 -14.667 18.333 -30.667 25 -48v-13c0 -20 -6.66699 -38 -20 -54c-17.333 -13.333 -36.333 -20 -57 -20h-9c-19.333 2 -36.666 8.66699 -51.999 20l-2 -2c13.333 -20 28.333 -31 45 -33h616v105c0 35.333 -7.66699 67.666 -23 96.999l-13 17l-3 3
c-28.667 31.333 -63.334 46.333 -104.001 45h-306c-39.333 2 -74.666 16 -105.999 42c-32 27.333 -48 63 -48 107c0 38.667 12 71.667 36 99c27.333 26 60 39 98 39c9.33301 0 22.666 -3.66699 39.999 -11c6.66699 -3.33301 14.334 -8.33301 23.001 -15
c16.667 -20.667 25 -40 25 -58c0 -27.333 -6.66699 -46.333 -20 -57c-16.667 -13.333 -35.334 -20 -56.001 -20h-10c-13.333 1.33301 -30.666 8 -51.999 20v-2c9.33301 -18.667 24.666 -30.667 45.999 -36h366c71.333 0 129 -29.667 173 -89
c34 -51.333 53.667 -112.666 59 -183.999z" />
    <glyph glyph-name="u0630" unicode="&#x630;" horiz-adv-x="962" arabic-form="isolated" 
d="M882 212l0.000976562 -211.999h-718c-38.667 1.33301 -72.667 15.666 -102 42.999c-32 24 -48 59.333 -48 106c0 32 7.66699 58 23 78c1.33301 8.66699 5.66602 14.667 12.999 18c21.333 25.333 52.666 38 93.999 38c20.667 0 35.334 -2.33301 44.001 -7l23 -16
c10 -14.667 18.333 -30.667 25 -48v-13c0 -20 -6.66699 -38 -20 -54c-17.333 -13.333 -36.333 -20 -57 -20h-9c-19.333 2 -36.666 8.66699 -51.999 20l-2 -2c13.333 -20 28.333 -31 45 -33h616v105c0 35.333 -7.66699 67.666 -23 96.999l-13 17l-3 3
c-28.667 31.333 -63.334 46.333 -104.001 45h-306c-39.333 2 -74.666 16 -105.999 42c-32 27.333 -48 63 -48 107c0 38.667 12 71.667 36 99c27.333 26 60 39 98 39c9.33301 0 22.666 -3.66699 39.999 -11c6.66699 -3.33301 14.334 -8.33301 23.001 -15
c16.667 -20.667 25 -40 25 -58c0 -27.333 -6.66699 -46.333 -20 -57c-16.667 -13.333 -35.334 -20 -56.001 -20h-10c-13.333 1.33301 -30.666 8 -51.999 20v-2c9.33301 -18.667 24.666 -30.667 45.999 -36h366c71.333 0 129 -29.667 173 -89
c34 -51.333 53.667 -112.666 59 -183.999zM528.001 770.001c0 22.667 8.33301 42.333 25 59s35.667 25 57 25c22 0 40.333 -8 55 -24s22 -36 22 -60s-7.83301 -44.167 -23.5 -60.5s-34.5 -24.5 -56.5 -24.5c-20.667 0 -39 8.5 -55 25.5s-24 36.833 -24 59.5z" />
    <glyph glyph-name="u0631" unicode="&#x631;" horiz-adv-x="772" arabic-form="isolated" 
d="M701 539c0 -10 -3.33203 -23.334 -9.99902 -40.001l-15 -23c-20.667 -16 -40.667 -24 -60 -24c-23.333 0 -41 7.33301 -53 22c-12.667 12 -20.334 30.333 -23.001 55l4 10c0 16.667 6.33301 31.667 19 45l-2 3c-18.667 -10.667 -30.334 -26 -35.001 -46v-920h-106
l-240 140c-18 2.66699 -36 1 -54 -5l-2 -9c17.333 3.33301 34.333 2 51 -4l10 -8c15.333 -8 27.666 -22 36.999 -42c4 -16.667 1.66699 -35.667 -7 -57c-11.333 -18.667 -28.666 -31 -51.999 -37c-6.66699 -2 -15 -3 -25 -3c-3.33301 0 -17.333 4 -42 12
c-37.333 20 -57.666 47 -60.999 81c-8 32.667 -2 66.667 18 102c20.667 36 50.667 56.667 90 62c36.667 8.66699 73 4.66699 109 -12l168 -98v777c2 38.667 15.333 73.334 40 104.001c30 30.667 64.333 46 103 46c36.667 0 70 -12 100 -36c25.333 -25.333 38 -57 38 -95z
" />
    <glyph glyph-name="u0632" unicode="&#x632;" horiz-adv-x="772" arabic-form="isolated" 
d="M363 868c0 22 8.33301 41.5 25 58.5s35.667 25.5 57 25.5c22 0 40.333 -8 55 -24s22 -36 22 -60s-7.83301 -44.333 -23.5 -61s-34.5 -25 -56.5 -25c-20.667 0 -39 8.5 -55 25.5s-24 37.167 -24 60.5zM701 539c0 -10 -3.33203 -23.334 -9.99902 -40.001l-15 -23
c-20.667 -16 -40.667 -24 -60 -24c-23.333 0 -41 7.33301 -53 22c-12.667 12 -20.334 30.333 -23.001 55l4 10c0 16.667 6.33301 31.667 19 45l-2 3c-18.667 -10.667 -30.334 -26 -35.001 -46v-920h-106l-240 140c-18 2.66699 -36 1 -54 -5l-2 -9
c17.333 3.33301 34.333 2 51 -4l10 -8c15.333 -8 27.666 -22 36.999 -42c4 -16.667 1.66699 -35.667 -7 -57c-11.333 -18.667 -28.666 -31 -51.999 -37c-6.66699 -2 -15 -3 -25 -3c-3.33301 0 -17.333 4 -42 12c-37.333 20 -57.666 47 -60.999 81
c-8 32.667 -2 66.667 18 102c20.667 36 50.667 56.667 90 62c36.667 8.66699 73 4.66699 109 -12l168 -98v777c2 38.667 15.333 73.334 40 104.001c30 30.667 64.333 46 103 46c36.667 0 70 -12 100 -36c25.333 -25.333 38 -57 38 -95z" />
    <glyph glyph-name="u0633" unicode="&#x633;" horiz-adv-x="1374" arabic-form="isolated" 
d="M155 319c40.667 0 74.3359 -15.6641 101.003 -46.9971c26.667 -29.333 40 -62 40 -98v-295c0 -40.667 14.333 -74.334 43 -101.001l6 -4l14 -12c2 0 6 -1.66699 12 -5c23.333 -12 50.666 -18 81.999 -18c3.33301 1.33301 8 1.33301 14 0h89v920
c0 40.667 14 78.334 42 113.001c29.333 29.333 63.666 44 102.999 44c40.667 0 73.667 -12.333 99 -37c24.667 -22 37 -52.333 37 -91c0 -16 -3.66699 -30.333 -11 -43c-3.33301 -8.66699 -7.33301 -15.667 -12 -21c-17.333 -18.667 -37 -28 -59 -28c-21.333 0 -40 7 -56 21
c-14 14.667 -21 33.667 -21 57v9c0 10.667 7 27 21 49h-3c-21.333 -10.667 -33.666 -27 -36.999 -49v-563h111c37.333 0 58.666 0.666992 63.999 2c26 13.333 39 40.666 39 81.999v428h104v-421c2 -40.667 11.667 -68.667 29 -84c9.33301 -4.66699 27.333 -7 54 -7h128
c2 366 2 555.333 0 568c-2.66699 20 -13.334 34.667 -32.001 44h-7c11.333 -14 18.333 -30.333 21 -49v-9c0 -25.333 -6.33301 -44.333 -19 -57c-14 -14 -32 -21 -54 -21c-24.667 0 -44.334 9.33301 -59.001 28c-4.66699 3.33301 -10.667 10.333 -18 21
c-4.66699 14 -7 28.333 -7 43c0 38.667 12.333 69 37 91c22 24.667 55 37 99 37c40.667 0 75.667 -14.667 105 -44c26.667 -31.333 40 -69 40 -113v-659h-246c-51.333 1.33301 -90.666 19.333 -117.999 54c-18 -20 -44.333 -34.667 -79 -44
c-32.667 -6.66699 -59.667 -10 -81 -10h-111v-379h-192c-70 0 -132.333 18 -187 54c-34.667 23.333 -58.334 50.666 -71.001 81.999c-12 24 -18 53 -18 87v350c-3.33301 21.333 -13.666 36 -30.999 44h-5c12.667 -16 19 -31.667 19 -47v-10c0 -22 -6.33301 -40 -19 -54
c-13.333 -14 -30.333 -21 -51 -21c-22 0 -41 8 -57 24c-5.33301 4.66699 -11.333 12 -18 22c-4.66699 11.333 -7 24.333 -7 39c0 41.333 12.333 71.666 37 90.999c24.667 24.667 56.667 37 96 37z" />
    <glyph glyph-name="u0634" unicode="&#x634;" horiz-adv-x="1374" arabic-form="isolated" 
d="M155 319c40.667 0 74.3359 -15.6641 101.003 -46.9971c26.667 -29.333 40 -62 40 -98v-295c0 -40.667 14.333 -74.334 43 -101.001l6 -4l14 -12c2 0 6 -1.66699 12 -5c23.333 -12 50.666 -18 81.999 -18c3.33301 1.33301 8 1.33301 14 0h89v920
c0 40.667 14 78.334 42 113.001c29.333 29.333 63.666 44 102.999 44c40.667 0 73.667 -12.333 99 -37c24.667 -22 37 -52.333 37 -91c0 -16 -3.66699 -30.333 -11 -43c-3.33301 -8.66699 -7.33301 -15.667 -12 -21c-17.333 -18.667 -37 -28 -59 -28c-21.333 0 -40 7 -56 21
c-14 14.667 -21 33.667 -21 57v9c0 10.667 7 27 21 49h-3c-21.333 -10.667 -33.666 -27 -36.999 -49v-563h111c37.333 0 58.666 0.666992 63.999 2c26 13.333 39 40.666 39 81.999v428h104v-421c2 -40.667 11.667 -68.667 29 -84c9.33301 -4.66699 27.333 -7 54 -7h128
c2 366 2 555.333 0 568c-2.66699 20 -13.334 34.667 -32.001 44h-7c11.333 -14 18.333 -30.333 21 -49v-9c0 -25.333 -6.33301 -44.333 -19 -57c-14 -14 -32 -21 -54 -21c-24.667 0 -44.334 9.33301 -59.001 28c-4.66699 3.33301 -10.667 10.333 -18 21
c-4.66699 14 -7 28.333 -7 43c0 38.667 12.333 69 37 91c22 24.667 55 37 99 37c40.667 0 75.667 -14.667 105 -44c26.667 -31.333 40 -69 40 -113v-659h-246c-51.333 1.33301 -90.666 19.333 -117.999 54c-18 -20 -44.333 -34.667 -79 -44
c-32.667 -6.66699 -59.667 -10 -81 -10h-111v-379h-192c-70 0 -132.333 18 -187 54c-34.667 23.333 -58.334 50.666 -71.001 81.999c-12 24 -18 53 -18 87v350c-3.33301 21.333 -13.666 36 -30.999 44h-5c12.667 -16 19 -31.667 19 -47v-10c0 -22 -6.33301 -40 -19 -54
c-13.333 -14 -30.333 -21 -51 -21c-22 0 -41 8 -57 24c-5.33301 4.66699 -11.333 12 -18 22c-4.66699 11.333 -7 24.333 -7 39c0 41.333 12.333 71.666 37 90.999c24.667 24.667 56.667 37 96 37zM842.002 1199c0 22.667 8.33301 42.333 25 59s35.667 25 57 25
c22 0 40.333 -8 55 -24s22 -36 22 -60s-7.83301 -44.167 -23.5 -60.5s-34.5 -24.5 -56.5 -24.5c-20.667 0 -39 8.33301 -55 25s-24 36.667 -24 60zM926.002 1031c0 22.667 8.33301 42.333 25 59s35.667 25 57 25c22 0 40.333 -8 55 -24s22 -36 22 -60
s-7.83301 -44.167 -23.5 -60.5s-34.5 -24.5 -56.5 -24.5c-20.667 0 -39 8.33301 -55 25s-24 36.667 -24 60zM758.002 1031c0 22.667 8.33301 42.333 25 59s35.667 25 57 25c22 0 40.333 -8 55 -24s22 -36 22 -60s-7.83301 -44.167 -23.5 -60.5s-34.5 -24.5 -56.5 -24.5
c-20.667 0 -39 8.33301 -55 25s-24 36.667 -24 60z" />
    <glyph glyph-name="u0635" unicode="&#x635;" horiz-adv-x="1585" arabic-form="isolated" 
d="M23 197c0 36.667 12.334 67.335 37.001 92.002c24.667 23.333 57 35 97 35c42 0 76 -16 102 -48c26.667 -29.333 40 -62.666 40 -99.999l2 -111v-189c-2.66699 -40 12.666 -74 45.999 -102v-3l19 -9c26 -17.333 57.667 -26 95 -26h102v542
c0 30.667 -0.666992 47.667 -2 51c-8 31.333 -26 52 -54 62h-6c14.667 -18 22 -38 22 -60c0 -23.333 -6.33301 -42.333 -19 -57c-16.667 -13.333 -35.667 -20 -57 -20c-22 0 -42 8 -60 24c-15.333 17.333 -23 40 -23 68c0 38 12.333 68.667 37 92
c21.333 24.667 54.666 37 99.999 37c42.667 0 78.667 -15.667 108 -47c10.667 -14.667 20.667 -31.334 30 -50.001c9.33301 16.667 17.833 31.167 25.5 43.5s13.834 23.833 18.501 34.5c58.667 91.333 145 137 259 137h563v-593h-836v-386h-195
c-76.667 1.33301 -139.667 20.666 -189 57.999c-60 41.333 -90 97.666 -90 168.999v358c-3.33301 16.667 -14.333 31.667 -33 45l-5 -3c12 -14 19.667 -30.333 23 -49v-11c0 -21.333 -6.66699 -39.333 -20 -54c-16.667 -13.333 -34 -20 -52 -20c-27.333 0 -47.333 9 -60 27
c-8.66699 3.33301 -13.667 10.333 -15 21c-6.66699 9.33301 -10 23.333 -10 42zM720.001 287.001l-1 -12c-0.666992 -7.33301 -1 -16.333 -1 -27v-129h683v369h-399c-152.667 0 -246.667 -67 -282 -201z" />
    <glyph glyph-name="u0636" unicode="&#x636;" horiz-adv-x="1585" arabic-form="isolated" 
d="M23 197c0 36.667 12.334 67.335 37.001 92.002c24.667 23.333 57 35 97 35c42 0 76 -16 102 -48c26.667 -29.333 40 -62.666 40 -99.999l2 -111v-189c-2.66699 -40 12.666 -74 45.999 -102v-3l19 -9c26 -17.333 57.667 -26 95 -26h102v542
c0 30.667 -0.666992 47.667 -2 51c-8 31.333 -26 52 -54 62h-6c14.667 -18 22 -38 22 -60c0 -23.333 -6.33301 -42.333 -19 -57c-16.667 -13.333 -35.667 -20 -57 -20c-22 0 -42 8 -60 24c-15.333 17.333 -23 40 -23 68c0 38 12.333 68.667 37 92
c21.333 24.667 54.666 37 99.999 37c42.667 0 78.667 -15.667 108 -47c10.667 -14.667 20.667 -31.334 30 -50.001c9.33301 16.667 17.833 31.167 25.5 43.5s13.834 23.833 18.501 34.5c58.667 91.333 145 137 259 137h563v-593h-836v-386h-195
c-76.667 1.33301 -139.667 20.666 -189 57.999c-60 41.333 -90 97.666 -90 168.999v358c-3.33301 16.667 -14.333 31.667 -33 45l-5 -3c12 -14 19.667 -30.333 23 -49v-11c0 -21.333 -6.66699 -39.333 -20 -54c-16.667 -13.333 -34 -20 -52 -20c-27.333 0 -47.333 9 -60 27
c-8.66699 3.33301 -13.667 10.333 -15 21c-6.66699 9.33301 -10 23.333 -10 42zM720.001 287.001l-1 -12c-0.666992 -7.33301 -1 -16.333 -1 -27v-129h683v369h-399c-152.667 0 -246.667 -67 -282 -201zM553.001 773.001c0 22 8.5 41.5 25.5 58.5s36.167 25.5 57.5 25.5
c22 0 40.333 -8 55 -24s22 -36 22 -60s-7.83301 -44.167 -23.5 -60.5s-34.5 -24.5 -56.5 -24.5c-21.333 0 -40 8.33301 -56 25s-24 36.667 -24 60z" />
    <glyph glyph-name="u0637" unicode="&#x637;" horiz-adv-x="1314" arabic-form="isolated" 
d="M1234 0h-1126v120h188v776c-2.66699 20 -13.334 35 -32.001 45l-5 -3c11.333 -13.333 18.666 -28 21.999 -44v-11c0 -19.333 -6.33301 -37.333 -19 -54c-15.333 -14 -34 -21 -56 -21c-24 1.33301 -42.667 9.33301 -56 24c-8 8 -12.667 15.333 -14 22
c-7.33301 10 -11 23.333 -11 40c0 40.667 12.333 71 37 91c13.333 14 28 23.333 44 28c14 6 31.667 9 53 9c40.667 0 74.334 -15.333 101.001 -46c24.667 -30 38.667 -64 42 -102v-443c1.33301 4.66699 3.5 8.66699 6.5 12s5.16699 7 6.5 11c24.667 37.333 56 68.333 94 93
c43.333 28 97.666 42 162.999 42h562v-589zM458.002 316c-4.66699 -21.333 -6 -86.667 -4 -196h673v367h-393c-98.667 0 -173.667 -28.667 -225 -86c-28 -36 -45 -64.333 -51 -85z" />
    <glyph glyph-name="u0638" unicode="&#x638;" horiz-adv-x="1314" arabic-form="isolated" 
d="M1234 0h-1126v120h188v776c-2.66699 20 -13.334 35 -32.001 45l-5 -3c11.333 -13.333 18.666 -28 21.999 -44v-11c0 -19.333 -6.33301 -37.333 -19 -54c-15.333 -14 -34 -21 -56 -21c-24 1.33301 -42.667 9.33301 -56 24c-8 8 -12.667 15.333 -14 22
c-7.33301 10 -11 23.333 -11 40c0 40.667 12.333 71 37 91c13.333 14 28 23.333 44 28c14 6 31.667 9 53 9c40.667 0 74.334 -15.333 101.001 -46c24.667 -30 38.667 -64 42 -102v-443c1.33301 4.66699 3.5 8.66699 6.5 12s5.16699 7 6.5 11c24.667 37.333 56 68.333 94 93
c43.333 28 97.666 42 162.999 42h562v-589zM458.002 316c-4.66699 -21.333 -6 -86.667 -4 -196h673v367h-393c-98.667 0 -173.667 -28.667 -225 -86c-28 -36 -45 -64.333 -51 -85zM553.002 772.999c0 22 8.50098 41.5 25.501 58.5s36.167 25.5 57.5 25.5s39.5 -8 54.5 -24
s22.5 -36 22.5 -60s-7.83301 -44.167 -23.5 -60.5s-34.834 -24.5 -57.501 -24.5c-20.667 0 -39 8.33301 -55 25s-24 36.667 -24 60z" />
    <glyph glyph-name="u0639" unicode="&#x639;" horiz-adv-x="1467" arabic-form="isolated" 
d="M629 104c-22.667 10.667 -38.6641 20.6689 -47.9971 30.002c-97.333 69.333 -146 169 -146 299c0 122.667 37 222.667 111 300c70 72.667 167.667 109 293 109c104 0 191.667 -26.333 263 -79c77.333 -56 116 -134.333 116 -235c0 -84 -21.667 -150.667 -65 -200
c-48 -50 -112.333 -75 -193 -75c-72.667 0 -129.334 17.333 -170.001 52c-48 40 -72 93.667 -72 161c0 48 15.667 86 47 114c28 28 66 42 114 42c37.333 0 66.666 -16.667 87.999 -50c17.333 -32.667 26 -69 26 -109c0 -11.333 -1.66699 -28.333 -5 -51l9 -10
c50 14.667 75 51.334 75 110.001c0 60 -23.333 109 -70 147c-44.667 33.333 -96.667 50 -156 50c-80.667 0 -144.334 -23 -191.001 -69c-50.667 -48 -76 -111 -76 -189c0 -108.667 44.667 -191.334 134 -248.001c49.333 -32.667 103 -55.667 161 -69
c32.667 -8.66699 74.667 -13.334 126 -14.001h297v-120h-467c-164 0 -294.5 -38.5 -391.5 -115.5s-148.667 -160.667 -155 -251s32.167 -143.5 115.5 -159.5h693c41.333 -1.33301 78.333 -15.333 111 -42c29.333 -38 44 -77.333 44 -118
c-6.66699 -41.333 -21 -73.333 -43 -96c0 -3.33301 -1.66699 -5 -5 -5c-18.667 -22 -47.667 -33 -87 -33c-13.333 0 -27.333 2.66699 -42 8c-10 6 -16.667 10.667 -20 14c0 1.33301 -1.16699 3.5 -3.5 6.5s-4.5 4.5 -6.5 4.5c-10.667 17.333 -16 33.666 -16 48.999
c0 19.333 7 36.666 21 51.999c16.667 12.667 34.667 19 54 19h11c11.333 0 27 -6.33301 47 -19l2 4c-10 20 -24.667 30 -44 30h-721c-80.667 12 -142.667 40.5 -186 85.5s-59.5 122 -48.5 231s71.5 209.833 181.5 302.5c82 68.667 178 114.334 288 137.001z" />
    <glyph glyph-name="u063A" unicode="&#x63a;" horiz-adv-x="1467" arabic-form="isolated" 
d="M754 1069c0 22.667 8.33301 42.333 25 59s36 25 58 25c21.333 0 39.333 -8 54 -24s22 -36 22 -60s-7.66699 -44.167 -23 -60.5s-34.333 -24.5 -57 -24.5c-20.667 0 -39 8.33301 -55 25s-24 36.667 -24 60zM629 103.999c-22.667 10.667 -38.6641 20.6689 -47.9971 30.002
c-97.333 69.333 -146 169 -146 299c0 122.667 37 222.667 111 300c70 72.667 167.667 109 293 109c104 0 191.667 -26.333 263 -79c77.333 -56 116 -134.333 116 -235c0 -84 -21.667 -150.667 -65 -200c-48 -50 -112.333 -75 -193 -75
c-72.667 0 -129.334 17.333 -170.001 52c-48 40 -72 93.667 -72 161c0 48 15.667 86 47 114c28 28 66 42 114 42c37.333 0 66.666 -16.667 87.999 -50c17.333 -32.667 26 -69 26 -109c0 -11.333 -1.66699 -28.333 -5 -51l9 -10c50 14.667 75 51.334 75 110.001
c0 60 -23.333 109 -70 147c-44.667 33.333 -96.667 50 -156 50c-80.667 0 -144.334 -23 -191.001 -69c-50.667 -48 -76 -111 -76 -189c0 -108.667 44.667 -191.334 134 -248.001c49.333 -32.667 103 -55.667 161 -69c32.667 -8.66699 74.667 -13.334 126 -14.001h297v-120
h-467c-164 0 -294.5 -38.5 -391.5 -115.5s-148.667 -160.667 -155 -251s32.167 -143.5 115.5 -159.5h693c41.333 -1.33301 78.333 -15.333 111 -42c29.333 -38 44 -77.333 44 -118c-6.66699 -41.333 -21 -73.333 -43 -96c0 -3.33301 -1.66699 -5 -5 -5
c-18.667 -22 -47.667 -33 -87 -33c-13.333 0 -27.333 2.66699 -42 8c-10 6 -16.667 10.667 -20 14c0 1.33301 -1.16699 3.5 -3.5 6.5s-4.5 4.5 -6.5 4.5c-10.667 17.333 -16 33.666 -16 48.999c0 19.333 7 36.666 21 51.999c16.667 12.667 34.667 19 54 19h11
c11.333 0 27 -6.33301 47 -19l2 4c-10 20 -24.667 30 -44 30h-721c-80.667 12 -142.667 40.5 -186 85.5s-59.5 122 -48.5 231s71.5 209.833 181.5 302.5c82 68.667 178 114.334 288 137.001z" />
    <glyph glyph-name="u0641" unicode="&#x641;" horiz-adv-x="1672" arabic-form="isolated" 
d="M209 592c53.333 0 95.3379 -16.002 126.005 -48.002c32 -27.333 48 -67.333 48 -120c0 -23.333 -4 -41 -12 -53c-6.66699 -14 -12.667 -24 -18 -30c-22 -20.667 -48 -31 -78 -31c-28.667 0 -52 9 -70 27c-16.667 18 -25 41.333 -25 70v14
c1.33301 22.667 10.666 43 27.999 61l-8 3c-26.667 -14 -40 -33 -40 -57v-307h1327l-1 417c-5.33301 28.667 -23.333 54 -54 76c-34 22 -73 33 -117 33h-2c-48.667 0 -90.334 -17.667 -125.001 -53c-30.667 -36.667 -46 -80 -46 -130c0 -33.333 9.66699 -66.666 29 -99.999
c3.33301 -4 6.16602 -8 8.49902 -12s5.83301 -7.66699 10.5 -11c21.333 -19.333 44.333 -29 69 -29c25.333 0 47 6.66699 65 20c0 2 2.33301 5 7 9c10 14 18.333 31.667 25 53l-7 12c-8.66699 -3.33301 -21.667 -9 -39 -17c-8.66699 -4 -21.334 -6 -38.001 -6
c-27.333 0 -48.666 9.66699 -63.999 29c-13.333 20 -20 43.333 -20 70c0 32 12.667 60 38 84c22.667 23.333 50.667 35 84 35h5c38 -3.33301 73 -22.333 105 -57c0 -2 1.33301 -4 4 -6c22.667 -35.333 34 -73.333 34 -114c0 -30.667 -4.33301 -58.334 -13 -83.001
c-6.66699 -19.333 -18.667 -40.666 -36 -63.999c-34 -44 -79 -66 -135 -66c-72.667 0 -129.334 25.333 -170.001 76c-16.667 18 -28.334 36 -35.001 54c-16.667 33.333 -25 74.333 -25 123c0 86.667 26 155.334 78 206.001c45.333 48 109.666 73.333 192.999 76h16
c71.333 0 132 -18.333 182 -55c54.667 -40.667 82 -91.667 82 -153v-538h-1572v389c-3.33301 55.333 13.334 103.333 50.001 144c32.667 39.333 78 59 136 59zM960.005 907.998c0 22.667 8.33398 42.333 25.001 59s36 25 58 25c21.333 0 39.5 -8 54.5 -24s22.5 -36 22.5 -60
s-7.83301 -44.167 -23.5 -60.5s-34.834 -24.5 -57.501 -24.5c-20.667 0 -39 8.5 -55 25.5s-24 36.833 -24 59.5z" />
    <glyph glyph-name="u0642" unicode="&#x642;" horiz-adv-x="1128" arabic-form="isolated" 
d="M83 532c36 38.667 80.333 57.9951 133 57.9951s94.334 -16 125.001 -48c33.333 -26.667 50 -66.667 50 -120c0 -18 -4 -35 -12 -51c-2 -8 -8 -18 -18 -30c-20.667 -22 -46.334 -33 -77.001 -33c-32 0 -55.333 9.33301 -70 28c-18 18.667 -27 42.334 -27 71.001
c0 5.33301 1 9.66602 3 12.999c0.666992 21.333 8.66699 41.666 24 60.999l-4 3c-24.667 -12 -39 -31 -43 -57c-3.33301 -33.333 -5 -77.333 -5 -132v-554h779v773c0 4.66699 -0.5 8.33398 -1.5 11.001s-1.5 6.33398 -1.5 11.001
c-6.66699 30.667 -25.334 56.334 -56.001 77.001c-33.333 22 -71.333 33 -114 33h-2c-54.667 0 -96.334 -17.667 -125.001 -53c-32 -34.667 -48 -78 -48 -130c0 -34 10.667 -67 32 -99c2 -5.33301 4.33301 -9.66602 7 -12.999s5.66699 -6.66602 9 -9.99902
c24 -20 47.667 -30 71 -30c20.667 0 41.667 6.66699 63 20c4.66699 10 7 13.333 7 10c14 13.333 22 31 24 53l-6 10c-9.33301 -2.66699 -21.666 -7.66699 -36.999 -15c-10 -4.66699 -22.667 -7 -38 -7c-27.333 0 -48.666 10 -63.999 30c-13.333 16.667 -20 39.667 -20 69
c0 32 12 60 36 84c23.333 23.333 52 35 86 35h5c39.333 -3.33301 73.333 -22.666 102 -57.999c1.33301 -0.666992 2 -2.66699 2 -6c25.333 -33.333 38 -71.333 38 -114c0 -26.667 -4 -53.667 -12 -81c-9.33301 -20 -22.333 -41.333 -39 -64c-33.333 -44 -78 -66 -134 -66
c-71.333 0 -128.333 25.333 -171 76c-5.33301 5.33301 -17.333 23.333 -36 54c-14.667 39.333 -22 80 -22 122c0 84.667 25.333 153 76 205c49.333 48 114.666 73.667 195.999 77h14c70.667 0 131.334 -18 182.001 -54c49.333 -38 77.333 -89.667 84 -155v-915h-1018v768
c0 54 17.667 101.667 53 143zM781 918.995c0 22.667 8.50098 42.333 25.501 59s36.167 25 57.5 25s39.5 -8 54.5 -24s22.5 -36 22.5 -60s-7.83301 -44.167 -23.5 -60.5s-34.834 -24.5 -57.501 -24.5c-20.667 0 -39 8.33301 -55 25s-24 36.667 -24 60zM613.001 918.994
c0 22.667 8.50098 42.333 25.501 59s36.167 25 57.5 25s39.5 -8 54.5 -24s22.5 -36 22.5 -60s-7.83301 -44.167 -23.5 -60.5s-34.834 -24.5 -57.501 -24.5c-20.667 0 -39 8.33301 -55 25s-24 36.667 -24 60z" />
    <glyph glyph-name="u0643" unicode="&#x643;" horiz-adv-x="996" arabic-form="isolated" 
d="M861 1246c24 0 45.332 -4.66797 63.999 -14.001c8 -2 17.333 -8.33301 28 -19c24 -22 36 -52 36 -90c0 -14.667 -2.33301 -27.667 -7 -39c-8 -12 -13.667 -18.667 -17 -20c-18.667 -16 -36.667 -24 -54 -24c-24 0 -41.667 7 -53 21c-12.667 13.333 -19 30.666 -19 51.999
v10c1.33301 12.667 7.66602 27.667 18.999 45h-2c-18.667 -9.33301 -28.667 -23.666 -30 -42.999v-1125h-550c-71.333 1.33301 -130.333 19.666 -177 54.999c-57.333 38 -86.666 91.667 -87.999 161v316c1.33301 34.667 14 66 38 94l3 5l11 12c24 22.667 54.333 34 91 34
c36 0 66.667 -11.333 92 -34h3c22.667 -24 34 -54.667 34 -92c0 -16 -2.33301 -29.667 -7 -41c-5.33301 -9.33301 -10.333 -16 -15 -20c-16 -16 -35.333 -24 -58 -24c-24.667 0 -42 6.33301 -52 19c-12.667 12 -19 30 -19 54v9c0 13.333 6.33301 29.333 19 48h-4
c-19.333 -9.33301 -30 -23.666 -32 -42.999v-303c-1.33301 -40 13.334 -72.667 44.001 -98l2 -2l16 -12c24 -14.667 54.333 -22 91 -22h456v990c1.33301 36.667 13.666 69 36.999 97c4.66699 6.66699 17.334 16.334 38.001 29.001c19.333 9.33301 40 14 62 14zM1498 1663
l-460 -281.001l-49 -28l-38 -24h-3l-19 -11l-116 -68c-38.667 -21.333 -79.334 -28 -122.001 -20c-41.333 6.66699 -72.333 30 -93 70c-22 32 -28.333 67.333 -19 106c6 32 27.333 59.333 64 82c14 8 27.667 12 41 12h28c27.333 -8 45 -21.333 53 -40
c13.333 -22.667 16.666 -43 9.99902 -61c-8.66699 -20 -21.334 -36 -38.001 -48l-10 -3c-18 -8 -36.667 -10.333 -56 -7l4 -5c20 -13.333 38.333 -15.333 55 -6c14 6.66699 34.667 17.334 62 32.001l460 280l49 29l38 23h3l19 11l116 68c38.667 22 79.334 29 122.001 21
c41.333 -7.33301 72.333 -31 93 -71c22 -32 28.333 -67.333 19 -106c-6 -32 -27.333 -59 -64 -81c-14 -8 -27.667 -12 -41 -12h-28c-27.333 8 -45 21 -53 39c-13.333 22.667 -16.666 43 -9.99902 61c8.66699 20 21.334 36 38.001 48l10 3c18 8 36.667 10.333 56 7l-4 5
c-20 13.333 -38.333 15.333 -55 6z" />
    <glyph glyph-name="u0644" unicode="&#x644;" horiz-adv-x="709" arabic-form="isolated" 
d="M502 1351c24 0 45.666 -4.66797 64.999 -14.001c8 -2 17 -8.33301 27 -19c24 -22 36 -52 36 -90c0 -14.667 -2.33301 -27.667 -7 -39c-8 -12 -13.667 -18.667 -17 -20c-18 -16 -36 -24 -54 -24c-24 0 -41.667 7 -53 21c-12.667 13.333 -19 30.666 -19 51.999v10
c2 12.667 8.33301 27.667 19 45h-2c-18.667 -9.33301 -28.667 -23.666 -30 -42.999v-1609h-191c-71.333 1.33301 -130.333 19.666 -177 54.999c-57.333 38 -86.666 91.667 -87.999 161v695c1.33301 34.667 14 66 38 94l3 5l11 12c24 22.667 54.333 34 91 34
c36 0 66.667 -11.333 92 -34h3c22.667 -24 34 -54.667 34 -92c0 -16 -2.33301 -29.667 -7 -41c-5.33301 -9.33301 -10.333 -16 -15 -20c-16 -16 -35.333 -24 -58 -24c-24.667 0 -42 6.33301 -52 19c-12.667 12 -19 30 -19 54v9c0 13.333 6.33301 29.333 19 48h-4
c-19.333 -9.33301 -30 -23.666 -32 -42.999v-682c-1.33301 -40 13.334 -72.667 44.001 -98l2 -2l16 -12c24 -14.667 54.333 -22 91 -22h97v1474c1.33301 36.667 13.666 69 36.999 97c4.66699 6.66699 17.667 16.334 39 29.001c18.667 9.33301 39 14 61 14z" />
    <glyph glyph-name="u0645" unicode="&#x645;" horiz-adv-x="784" arabic-form="isolated" 
d="M705 252c0 -72.667 -24.667 -134.668 -74 -186.001c-51.333 -50 -113.333 -75 -186 -75c-59.333 0 -111.333 17 -156 51v-314c0 -36.667 -13.333 -70.667 -40 -102c-28 -29.333 -62 -44 -102 -44c-19.333 0 -37.333 2.33301 -54 7c-11.333 4.66699 -25.333 13.667 -42 27
c-24.667 22 -37 52.667 -37 92c0 13.333 2.33301 27.333 7 42c6.66699 10 12.667 17.333 18 22c12.667 13.333 30.667 22 54 26h3c21.333 0 38.333 -7.66699 51 -23c14 -14 21 -32 21 -54v-11c0 -16 -7 -31.667 -21 -47h6c18 6.66699 28.333 21.667 31 45v546
c0 70 25.667 130.667 77 182c50 52.667 111.333 79 184 79s134.667 -26.333 186 -79c49.333 -53.333 74 -114.666 74 -183.999zM319 135.999c31.333 -34.667 69.333 -51.999 114 -51.999c54 6.66699 84.333 40.667 91 102c0 8 -0.666992 12.667 -2 14
c-2 -2.66699 -7.66699 -9.33398 -17 -20.001c-24.667 -17.333 -48 -26 -70 -26c-28 0 -49.667 10.667 -65 32c-17.333 19.333 -26 42 -26 68c0 26.667 9.66699 50 29 70c20 16.667 44 25 72 25c24.667 0 51.667 -15.667 81 -47c20 -28.667 30 -60 30 -94
c2 -34.667 -5 -66 -21 -94c9.33301 8 16.333 13.667 21 17c34.667 29.333 52 67.333 52 114c0 44.667 -14 85 -42 121c-36 36.667 -75.667 55 -119 55c-48 0 -88.333 -16 -121 -48c-34.667 -29.333 -52 -68 -52 -116c0 -46 15 -86.333 45 -121z" />
    <glyph glyph-name="u0646" unicode="&#x646;" horiz-adv-x="720" arabic-form="isolated" 
d="M244 647c22.667 -28.667 35.667 -61.665 39 -98.998v-670c0 -30.667 7 -55.667 21 -75c10 -14.667 17.333 -23 22 -25l6 -5l14 -12c26 -14 56.667 -21 92 -21h99v961c-3.33301 20.667 -13.666 35 -30.999 43h-2c9.33301 -17.333 15.666 -32.666 18.999 -45.999v-9
c0 -22.667 -6.33301 -40.667 -19 -54c-14.667 -14.667 -32.667 -22 -54 -22c-19.333 0 -38 8 -56 24c-9.33301 12 -14 19.667 -14 23c-6.66699 19.333 -10 33 -10 41c0 35.333 12 65.333 36 90c24 22 55.667 33 95 33c38.667 0 72.667 -14.333 102 -43
c24 -32.667 36 -65.667 36 -99v-1061h-189c-54.667 1.33301 -103.334 12.666 -146.001 33.999l-19 9c-6 3.33301 -11.667 7.33301 -17 12c-58 39.333 -87 94.666 -87 165.999v726c-3.33301 17.333 -13.666 31.666 -30.999 42.999h-5c9.33301 -18 15.666 -33.333 18.999 -46
v-9c0 -23.333 -6.33301 -41.333 -19 -54c-12.667 -14.667 -29.667 -22 -51 -22s-40.666 8 -57.999 24l-15 22c-4.66699 12 -7 25 -7 39c0 40 12 70 36 90c21.333 24 53 36 95 36c36.667 0 69.667 -14.667 99 -44zM194 978.002c0 22.667 8.33398 42.333 25.001 59
s36 25 58 25c21.333 0 39.5 -8 54.5 -24s22.5 -36 22.5 -60s-7.83301 -44.167 -23.5 -60.5s-34.834 -24.5 -57.501 -24.5c-20.667 0 -39 8.33301 -55 25s-24 36.667 -24 60z" />
    <glyph glyph-name="u0647" unicode="&#x647;" horiz-adv-x="768" arabic-form="isolated" 
d="M160 547c64.667 63.333 140.667 95 228 95c85.333 0 161.333 -31.667 228 -95c63.333 -61.333 95 -137.333 95 -228c0 -90 -31.667 -165 -95 -225c-63.333 -64.667 -139.333 -97 -228 -97c-90.667 0 -166.667 32.333 -228 97c-63.333 62.667 -95 137.667 -95 225
c0 88.667 31.667 164.667 95 228zM227 486c-44.667 -48 -67 -101.999 -67 -161.999c0 -52.667 18.667 -104 56 -154c38 -52.667 83.333 -79 136 -79c27.333 0 50.333 10.333 69 31c17.333 20 26 46.667 26 80c-17.333 -7.33301 -37 -11 -59 -11c-38 0 -67.333 12 -88 36
c-25.333 27.333 -38 57.333 -38 90c0 37.333 12.667 68 38 92c20.667 26 50.667 39 90 39c44.667 0 80 -18 106 -54c25.333 -31.333 38 -70 38 -116c0 -72 -20.667 -129 -62 -171c41.333 6 76.333 33 105 81c26 38 39 81 39 129c0 63.333 -21.333 117.666 -64 162.999
c-46 46.667 -100.667 70 -164 70c-60 0 -113.667 -21.333 -161 -64z" />
    <glyph glyph-name="u0648" unicode="&#x648;" horiz-adv-x="702" arabic-form="isolated" 
d="M305 523c86.667 0 161.668 -30.334 225.001 -91.001c60.667 -60 91 -133.667 91 -221c0 -83.333 -79.333 -280 -238 -590h-112c166.667 352.667 250 544.667 250 576c0 62 -20.667 115 -62 159c-38.667 44 -89.334 66 -152.001 66
c-50.667 0 -92.334 -15.333 -125.001 -46c-36 -30 -54 -70 -54 -120c0 -26.667 5.66699 -54 17 -82c12 -25.333 30.667 -46.666 56 -63.999s51 -26 77 -26c14.667 0 32.667 8 54 24c19.333 15.333 29 31 29 47c0 4.66699 -0.333008 9.33398 -1 14.001s-1 9 -1 13
c-39.333 -20 -70 -30 -92 -30c-26.667 0 -49.334 11 -68.001 33c-17.333 22 -26 45.667 -26 71c0 36 13.333 66.333 40 91c28 22 59.333 33 94 33c54.667 0 97.334 -21 128.001 -63c27.333 -40.667 41 -88.334 41 -143.001c0 -60 -20.333 -106.333 -61 -139
c-39.333 -34 -88.666 -51 -147.999 -51c-76.667 0 -136 25 -178 75c-42.667 46 -64 108.333 -64 187c0 84.667 25.333 152.667 76 204c50.667 48.667 118.667 73 204 73z" />
    <glyph glyph-name="u0649" unicode="&#x649;" horiz-adv-x="1412" arabic-form="isolated" 
d="M540 710c44.667 0 81.3359 -14.668 110.003 -44.001c3.33301 -2.66699 7.33301 -6.33398 12 -11.001c30 -38 45 -81 45 -129c0 -49.333 -19 -89.333 -57 -120c-35.333 -32 -82 -56.667 -140 -74c-34 -4.66699 -90 -16 -168 -34c-31.333 -5.33301 -61.333 -16.333 -90 -33
c-66.667 -33.333 -104 -85 -112 -155h1069v137c-2.66699 16.667 -9.33398 35 -20.001 55c1.33301 -2.66699 -2.66699 3.33301 -12 18h-2c-29.333 31.333 -64.666 47 -105.999 47h-319v376c0 72 30 129.667 90 173c55.333 34.667 119.333 53.667 192 57h272v-445h-104v323
h-168c-3.33301 -2 -7.33301 -3 -12 -3c-38.667 0 -70.334 -7.33301 -95.001 -22c-7.33301 -3.33301 -13.333 -7.33301 -18 -12l-2 -2l-3 -2c-30 -29.333 -45 -64 -45 -104v-231h250c71.333 0 128.666 -30 171.999 -90c13.333 -20 24 -40.667 32 -62
c10.667 -24.667 17.667 -50 21 -76v-247h-1307v110c4.66699 63.333 24.667 115 60 155c13.333 22 36.666 43.667 69.999 65c52 36.667 128.667 67.334 230 92.001c91.333 22 144.666 35.667 159.999 41l20 28c-61.333 6 -95.666 11.667 -102.999 17
c-30 14.667 -45 45.334 -45 92.001c0 30.667 13.333 56.667 40 78c23.333 21.333 51 32 83 32z" />
    <glyph glyph-name="u064A" unicode="&#x64a;" horiz-adv-x="1412" arabic-form="isolated" 
d="M540 710c44.667 0 81.3359 -14.668 110.003 -44.001c3.33301 -2.66699 7.33301 -6.33398 12 -11.001c30 -38 45 -81 45 -129c0 -49.333 -19 -89.333 -57 -120c-35.333 -32 -82 -56.667 -140 -74c-34 -4.66699 -90 -16 -168 -34c-31.333 -5.33301 -61.333 -16.333 -90 -33
c-66.667 -33.333 -104 -85 -112 -155h1069v137c-2.66699 16.667 -9.33398 35 -20.001 55c1.33301 -2.66699 -2.66699 3.33301 -12 18h-2c-29.333 31.333 -64.666 47 -105.999 47h-319v376c0 72 30 129.667 90 173c55.333 34.667 119.333 53.667 192 57h272v-445h-104v323
h-168c-3.33301 -2 -7.33301 -3 -12 -3c-38.667 0 -70.334 -7.33301 -95.001 -22c-7.33301 -3.33301 -13.333 -7.33301 -18 -12l-2 -2l-3 -2c-30 -29.333 -45 -64 -45 -104v-231h250c71.333 0 128.666 -30 171.999 -90c13.333 -20 24 -40.667 32 -62
c10.667 -24.667 17.667 -50 21 -76v-247h-1307v110c4.66699 63.333 24.667 115 60 155c13.333 22 36.666 43.667 69.999 65c52 36.667 128.667 67.334 230 92.001c91.333 22 144.666 35.667 159.999 41l20 28c-61.333 6 -95.666 11.667 -102.999 17
c-30 14.667 -45 45.334 -45 92.001c0 30.667 13.333 56.667 40 78c23.333 21.333 51 32 83 32z" />
    <glyph glyph-name="u067E" unicode="&#x67e;" horiz-adv-x="1080" arabic-form="isolated" 
d="M644 -282c22.667 0 41.667 -8.16699 57 -24.5s23 -36.5 23 -60.5s-7.33301 -44 -22 -60s-32.667 -24 -54 -24c-22 0 -41.333 8.5 -58 25.5s-25 36.5 -25 58.5c0 23.333 8 43.333 24 60s34.333 25 55 25zM728 -114c22.667 0 41.667 -8.16699 57 -24.5s23 -36.5 23 -60.5
s-7.33301 -44 -22 -60s-32.667 -24 -54 -24c-22 0 -41.333 8.5 -58 25.5s-25 36.5 -25 58.5c0 23.333 8 43.333 24 60s34.333 25 55 25zM560 -114c22.667 0 41.667 -8.16699 57 -24.5s23 -36.5 23 -60.5s-7.33301 -44 -22 -60s-32.667 -24 -54 -24
c-22 0 -41.333 8.5 -58 25.5s-25 36.5 -25 58.5c0 23.333 8 43.333 24 60s34.333 25 55 25zM244 647c22.667 -28.667 35.667 -61.665 39 -98.998v-291c0 -30.667 7 -55.667 21 -75c10 -14.667 17.333 -23 22 -25l6 -5l14 -12c26 -14 56.667 -21 92 -21h459v582
c-3.33301 20.667 -13.666 35 -30.999 43h-2c9.33301 -17.333 15.666 -32.666 18.999 -45.999v-9c0 -22.667 -6.33301 -40.667 -19 -54c-14.667 -14.667 -32.667 -22 -54 -22c-19.333 0 -38 8 -56 24c-9.33301 12 -14 19.667 -14 23c-6.66699 19.333 -10 33 -10 41
c0 35.333 12 65.333 36 90c24 22 55.667 33 95 33c38.667 0 72.667 -14.333 102 -43c24 -32.667 36 -65.667 36 -99v-682h-549c-54.667 1.33301 -103.334 12.666 -146.001 33.999l-19 9c-6 3.33301 -11.667 7.33301 -17 12c-58 39.333 -87 94.666 -87 165.999v347
c-3.33301 17.333 -13.666 31.666 -30.999 42.999h-5c9.33301 -18 15.666 -33.333 18.999 -46v-9c0 -23.333 -6.33301 -41.333 -19 -54c-12.667 -14.667 -29.667 -22 -51 -22s-40.666 8 -57.999 24l-15 22c-4.66699 12 -7 25 -7 39c0 40 12 70 36 90c21.333 24 53 36 95 36
c36.667 0 69.667 -14.667 99 -44z" />
    <glyph glyph-name="u0686" unicode="&#x686;" horiz-adv-x="1567" arabic-form="isolated" 
d="M778 -185c0 22 8.33301 41.5 25 58.5s36 25.5 58 25.5c21.333 0 39.333 -8 54 -24s22 -36 22 -60s-7.66699 -44.333 -23 -61s-34.333 -25 -57 -25c-20.667 0 -39 8.5 -55 25.5s-24 37.167 -24 60.5zM862 -353c0 22 8.33301 41.5 25 58.5s36 25.5 58 25.5
c21.333 0 39.333 -8 54 -24s22 -36 22 -60s-7.66699 -44.333 -23 -61s-34.333 -25 -57 -25c-20.667 0 -39 8.5 -55 25.5s-24 37.167 -24 60.5zM694 -353c0 22 8.33301 41.5 25 58.5s36 25.5 58 25.5c21.333 0 39.333 -8 54 -24s22 -36 22 -60s-7.66699 -44.333 -23 -61
s-34.333 -25 -57 -25c-20.667 0 -39 8.5 -55 25.5s-24 37.167 -24 60.5zM297 -33c110 92.667 246.001 143.664 408.001 152.997h548v299c-3.33301 16.667 -7.33301 32.334 -12 47.001c-3.33301 2.66699 -6 5.66699 -8 9s-3.66699 7.66602 -5 12.999l-10 15l-2 5
c-28 29.333 -61.667 44 -101 44h-703c-41.333 1.33301 -75 15.333 -101 42c-29.333 24.667 -44 57.334 -44 98.001c0 41.333 11 73.333 33 96c0 3.33301 1.66699 5 5 5c18.667 22 47.667 33 87 33c13.333 0 27.333 -2.66699 42 -8c10 -6 16.667 -10.667 20 -14
c0 -1.33301 1.16699 -3.5 3.5 -6.5s4.5 -4.5 6.5 -4.5c10.667 -17.333 16 -33.666 16 -48.999c0 -19.333 -7 -36.666 -21 -51.999c-16.667 -12.667 -34.667 -19 -54 -19h-11c-11.333 0 -27 6.33301 -47 19l-2 -4c10 -20 24.667 -30 44 -30h761c64 0 117.333 -27.333 160 -82
c2.66699 -3.33301 5 -6.66602 7 -9.99902c29.333 -40.667 47.666 -89.667 54.999 -147c0 -12.667 0.666992 -22 2 -28v-271h146v-120h-734c-164 0 -294.5 -38.667 -391.5 -116s-148.667 -161.166 -155 -251.499s32.167 -143.5 115.5 -159.5h693
c41.333 -1.33301 78.333 -15.333 111 -42c29.333 -38 44 -77.333 44 -118c-6.66699 -41.333 -21 -73.333 -43 -96c0 -3.33301 -1.66699 -5 -5 -5c-18.667 -22 -47.667 -33 -87 -33c-13.333 0 -27.333 2.66699 -42 8c-10 6 -16.667 10.667 -20 14
c0 1.33301 -1.16699 3.5 -3.5 6.5s-4.5 4.5 -6.5 4.5c-10.667 17.333 -16 33.666 -16 48.999c0 19.333 7 36.666 21 51.999c16.667 12.667 34.667 19 54 19h11c11.333 0 27 -6.33301 47 -19l2 4c-10 20 -24.667 30 -44 30h-721c-80.667 12 -142.667 40.5 -186 85.5
s-59.5 122.167 -48.5 231.5s71.5 210.333 181.5 303z" />
    <glyph glyph-name="u0698" unicode="&#x698;" horiz-adv-x="772" arabic-form="isolated" 
d="M701 539c0 -10 -3.33203 -23.334 -9.99902 -40.001l-15 -23c-20.667 -16 -40.667 -24 -60 -24c-23.333 0 -41 7.33301 -53 22c-12.667 12 -20.334 30.333 -23.001 55l4 10c0 16.667 6.33301 31.667 19 45l-2 3c-18.667 -10.667 -30.334 -26 -35.001 -46v-920h-106
l-240 140c-18 2.66699 -36 1 -54 -5l-2 -9c17.333 3.33301 34.333 2 51 -4l10 -8c15.333 -8 27.666 -22 36.999 -42c4 -16.667 1.66699 -35.667 -7 -57c-11.333 -18.667 -28.666 -31 -51.999 -37c-6.66699 -2 -15 -3 -25 -3c-3.33301 0 -17.333 4 -42 12
c-37.333 20 -57.666 47 -60.999 81c-8 32.667 -2 66.667 18 102c20.667 36 50.667 56.667 90 62c36.667 8.66699 73 4.66699 109 -12l168 -98v777c2 38.667 15.333 73.334 40 104.001c30 30.667 64.333 46 103 46c36.667 0 70 -12 100 -36c25.333 -25.333 38 -57 38 -95z
M447.001 1128c0 22.667 8.33301 42.333 25 59s35.667 25 57 25c22 0 40.333 -8 55 -24s22 -36 22 -60s-7.83301 -44.167 -23.5 -60.5s-34.5 -24.5 -56.5 -24.5c-20.667 0 -39 8.33301 -55 25s-24 36.667 -24 60zM531.001 959.998c0 22.667 8.33301 42.333 25 59
s35.667 25 57 25c22 0 40.333 -8 55 -24s22 -36 22 -60s-7.83301 -44.167 -23.5 -60.5s-34.5 -24.5 -56.5 -24.5c-20.667 0 -39 8.33301 -55 25s-24 36.667 -24 60zM363.001 959.997c0 22.667 8.33301 42.333 25 59s35.667 25 57 25c22 0 40.333 -8 55 -24s22 -36 22 -60
s-7.83301 -44.167 -23.5 -60.5s-34.5 -24.5 -56.5 -24.5c-20.667 0 -39 8.33301 -55 25s-24 36.667 -24 60z" />
    <glyph glyph-name="u06AF" unicode="&#x6af;" horiz-adv-x="996" arabic-form="isolated" 
d="M861 1246c24 0 45.332 -4.66797 63.999 -14.001c8 -2 17.333 -8.33301 28 -19c24 -22 36 -52 36 -90c0 -14.667 -2.33301 -27.667 -7 -39c-8 -12 -13.667 -18.667 -17 -20c-18.667 -16 -36.667 -24 -54 -24c-24 0 -41.667 7 -53 21c-12.667 13.333 -19 30.666 -19 51.999
v10c1.33301 12.667 7.66602 27.667 18.999 45h-2c-18.667 -9.33301 -28.667 -23.666 -30 -42.999v-1125h-550c-71.333 1.33301 -130.333 19.666 -177 54.999c-57.333 38 -86.666 91.667 -87.999 161v316c1.33301 34.667 14 66 38 94l3 5l11 12c24 22.667 54.333 34 91 34
c36 0 66.667 -11.333 92 -34h3c22.667 -24 34 -54.667 34 -92c0 -16 -2.33301 -29.667 -7 -41c-5.33301 -9.33301 -10.333 -16 -15 -20c-16 -16 -35.333 -24 -58 -24c-24.667 0 -42 6.33301 -52 19c-12.667 12 -19 30 -19 54v9c0 13.333 6.33301 29.333 19 48h-4
c-19.333 -9.33301 -30 -23.666 -32 -42.999v-303c-1.33301 -40 13.334 -72.667 44.001 -98l2 -2l16 -12c24 -14.667 54.333 -22 91 -22h456v990c1.33301 36.667 13.666 69 36.999 97c4.66699 6.66699 17.334 16.334 38.001 29.001c19.333 9.33301 40 14 62 14zM1498 1663
l-460 -281.001l-49 -28l-38 -24h-3l-19 -11l-116 -68c-38.667 -21.333 -79.334 -28 -122.001 -20c-41.333 6.66699 -72.333 30 -93 70c-22 32 -28.333 67.333 -19 106c6 32 27.333 59.333 64 82c14 8 27.667 12 41 12h28c27.333 -8 45 -21.333 53 -40
c13.333 -22.667 16.666 -43 9.99902 -61c-8.66699 -20 -21.334 -36 -38.001 -48l-10 -3c-18 -8 -36.667 -10.333 -56 -7l4 -5c20 -13.333 38.333 -15.333 55 -6c14 6.66699 34.667 17.334 62 32.001l460 280l49 29l38 23h3l19 11l116 68c38.667 22 79.334 29 122.001 21
c41.333 -7.33301 72.333 -31 93 -71c22 -32 28.333 -67.333 19 -106c-6 -32 -27.333 -59 -64 -81c-14 -8 -27.667 -12 -41 -12h-28c-27.333 8 -45 21 -53 39c-13.333 22.667 -16.666 43 -9.99902 61c8.66699 20 21.334 36 38.001 48l10 3c18 8 36.667 10.333 56 7l-4 5
c-20 13.333 -38.333 15.333 -55 6zM1437 1798l-293.001 -178.999l-109 -62l-117 -68c-38 -22 -78.333 -29 -121 -21c-41.333 7.33301 -72.666 31 -93.999 71c-21.333 32 -27.666 67.333 -18.999 106c6.66699 32 28.334 59 65.001 81c13.333 8 27 12 41 12h27
c27.333 -8 45 -21 53 -39c14 -22.667 17.667 -43.334 11 -62.001c-8.66699 -20 -21.334 -36 -38.001 -48l-10 -2c-18.667 -8 -37.334 -10.333 -56.001 -7l3 -5c20 -13.333 38.333 -15.333 55 -6c20 8.66699 51.333 24.667 94 48l106 64v2h2l188 115h212z" />
    <glyph glyph-name="uFB57" unicode="&#x67e;" horiz-adv-x="999" arabic-form="final" 
d="M644 -282c22.667 0 41.667 -8.16699 57 -24.5s23 -36.5 23 -60.5s-7.33301 -44 -22 -60s-32.667 -24 -54 -24c-22 0 -41.333 8.5 -58 25.5s-25 36.5 -25 58.5c0 23.333 8 43.333 24 60s34.333 25 55 25zM728 -114c22.667 0 41.667 -8.16699 57 -24.5s23 -36.5 23 -60.5
s-7.33301 -44 -22 -60s-32.667 -24 -54 -24c-22 0 -41.333 8.5 -58 25.5s-25 36.5 -25 58.5c0 23.333 8 43.333 24 60s34.333 25 55 25zM560 -114c22.667 0 41.667 -8.16699 57 -24.5s23 -36.5 23 -60.5s-7.33301 -44 -22 -60s-32.667 -24 -54 -24
c-22 0 -41.333 8.5 -58 25.5s-25 36.5 -25 58.5c0 23.333 8 43.333 24 60s34.333 25 55 25zM244 647c22.667 -28.667 35.667 -61.665 39 -98.998v-291c0 -30.667 7 -55.667 21 -75c10 -14.667 17.333 -23 22 -25l6 -5l14 -12c26 -14 56.667 -21 92 -21h459v582
c-3.33301 20.667 -13.666 35 -30.999 43h-2c9.33301 -17.333 15.666 -32.666 18.999 -45.999v-9c0 -22.667 -6.33301 -40.667 -19 -54c-14.667 -14.667 -32.667 -22 -54 -22c-19.333 0 -38 8 -56 24c-9.33301 12 -14 19.667 -14 23c-6.66699 19.333 -10 33 -10 41
c0 35.333 12 65.333 36 90c24 22 55.667 33 95 33c38.667 0 72.667 -14.333 102 -43c24 -32.667 36 -65.667 36 -99v-682h-549c-54.667 1.33301 -103.334 12.666 -146.001 33.999l-19 9c-6 3.33301 -11.667 7.33301 -17 12c-58 39.333 -87 94.666 -87 165.999v347
c-3.33301 17.333 -13.666 31.666 -30.999 42.999h-5c9.33301 -18 15.666 -33.333 18.999 -46v-9c0 -23.333 -6.33301 -41.333 -19 -54c-12.667 -14.667 -29.667 -22 -51 -22s-40.666 8 -57.999 24l-15 22c-4.66699 12 -7 25 -7 39c0 40 12 70 36 90c21.333 24 53 36 95 36
c36.667 0 69.667 -14.667 99 -44z" />
    <glyph glyph-name="uFB58" unicode="&#x67e;" horiz-adv-x="418" arabic-form="initial" 
d="M70 694c0 36.667 11.998 65.999 35.998 87.999c24 22.667 54.667 34 92 34c38.667 0 72.334 -14.333 101.001 -43c22 -28.667 34.667 -61.667 38 -99v-674h-337v120h236v574c-2.66699 20.667 -13 35 -31 43h-5c10 -12.667 16.667 -28 20 -46l2 -9
c-3.33301 -26 -10.666 -43.667 -21.999 -53c-13.333 -14.667 -30.333 -22 -51 -22s-40 8 -58 24c-8 16 -12 23.333 -12 22c-6 12.667 -9 26.334 -9 41.001zM196.998 -282.001c22 0 40.833 -8.16699 56.5 -24.5s23.5 -36.5 23.5 -60.5s-7.33301 -44 -22 -60s-33 -24 -55 -24
c-21.333 0 -40.333 8.5 -57 25.5s-25 36.5 -25 58.5c0 23.333 8 43.333 24 60s34.333 25 55 25zM280.998 -114.001c22 0 40.833 -8.16699 56.5 -24.5s23.5 -36.5 23.5 -60.5s-7.33301 -44 -22 -60s-33 -24 -55 -24c-21.333 0 -40.333 8.5 -57 25.5s-25 36.5 -25 58.5
c0 23.333 8 43.333 24 60s34.333 25 55 25zM112.998 -114.001c22 0 40.833 -8.16699 56.5 -24.5s23.5 -36.5 23.5 -60.5s-7.33301 -44 -22 -60s-33 -24 -55 -24c-21.333 0 -40.333 8.5 -57 25.5s-25 36.5 -25 58.5c0 23.333 8 43.333 24 60s34.333 25 55 25z" />
    <glyph glyph-name="uFB59" unicode="&#x67e;" horiz-adv-x="360" arabic-form="medial" 
d="M94 694c0 36.667 11.998 65.999 35.998 87.999c24 22.667 54.667 34 92 34c38.667 0 72.334 -14.333 101.001 -43c22 -28.667 34.667 -61.667 38 -99v-674h-421v120h320v574c-2.66699 20.667 -13 35 -31 43h-5c10 -12.667 16.667 -28 20 -46l2 -9
c-3.33301 -26 -10.666 -43.667 -21.999 -53c-13.333 -14.667 -30.333 -22 -51 -22s-40 8 -58 24c-8 16 -12 23.333 -12 22c-6 12.667 -9 26.334 -9 41.001zM173.998 -282.001c22.667 0 41.667 -8.16699 57 -24.5s23 -36.5 23 -60.5s-7.33301 -44 -22 -60
s-32.667 -24 -54 -24c-22 0 -41.333 8.5 -58 25.5s-25 36.5 -25 58.5c0 23.333 8 43.333 24 60s34.333 25 55 25zM257.998 -114.001c22.667 0 41.667 -8.16699 57 -24.5s23 -36.5 23 -60.5s-7.33301 -44 -22 -60s-32.667 -24 -54 -24c-22 0 -41.333 8.5 -58 25.5
s-25 36.5 -25 58.5c0 23.333 8 43.333 24 60s34.333 25 55 25zM89.998 -114.001c22.667 0 41.667 -8.16699 57 -24.5s23 -36.5 23 -60.5s-7.33301 -44 -22 -60s-32.667 -24 -54 -24c-22 0 -41.333 8.5 -58 25.5s-25 36.5 -25 58.5c0 23.333 8 43.333 24 60s34.333 25 55 25z
" />
    <glyph glyph-name="uFB7B" unicode="&#x686;" horiz-adv-x="1520" arabic-form="final" 
d="M778 -185c0 22 8.33301 41.5 25 58.5s36 25.5 58 25.5c21.333 0 39.333 -8 54 -24s22 -36 22 -60s-7.66699 -44.333 -23 -61s-34.333 -25 -57 -25c-20.667 0 -39 8.5 -55 25.5s-24 37.167 -24 60.5zM862 -353c0 22 8.33301 41.5 25 58.5s36 25.5 58 25.5
c21.333 0 39.333 -8 54 -24s22 -36 22 -60s-7.66699 -44.333 -23 -61s-34.333 -25 -57 -25c-20.667 0 -39 8.5 -55 25.5s-24 37.167 -24 60.5zM694 -353c0 22 8.33301 41.5 25 58.5s36 25.5 58 25.5c21.333 0 39.333 -8 54 -24s22 -36 22 -60s-7.66699 -44.333 -23 -61
s-34.333 -25 -57 -25c-20.667 0 -39 8.5 -55 25.5s-24 37.167 -24 60.5zM297 -33c110 92.667 246.001 143.664 408.001 152.997h548v299c-3.33301 16.667 -7.33301 32.334 -12 47.001c-3.33301 2.66699 -6 5.66699 -8 9s-3.66699 7.66602 -5 12.999l-10 15l-2 5
c-28 29.333 -61.667 44 -101 44h-703c-41.333 1.33301 -75 15.333 -101 42c-29.333 24.667 -44 57.334 -44 98.001c0 41.333 11 73.333 33 96c0 3.33301 1.66699 5 5 5c18.667 22 47.667 33 87 33c13.333 0 27.333 -2.66699 42 -8c10 -6 16.667 -10.667 20 -14
c0 -1.33301 1.16699 -3.5 3.5 -6.5s4.5 -4.5 6.5 -4.5c10.667 -17.333 16 -33.666 16 -48.999c0 -19.333 -7 -36.666 -21 -51.999c-16.667 -12.667 -34.667 -19 -54 -19h-11c-11.333 0 -27 6.33301 -47 19l-2 -4c10 -20 24.667 -30 44 -30h761c64 0 117.333 -27.333 160 -82
c2.66699 -3.33301 5 -6.66602 7 -9.99902c29.333 -40.667 47.666 -89.667 54.999 -147c0 -12.667 0.666992 -22 2 -28v-271h146v-120h-734c-164 0 -294.5 -38.667 -391.5 -116s-148.667 -161.166 -155 -251.499s32.167 -143.5 115.5 -159.5h693
c41.333 -1.33301 78.333 -15.333 111 -42c29.333 -38 44 -77.333 44 -118c-6.66699 -41.333 -21 -73.333 -43 -96c0 -3.33301 -1.66699 -5 -5 -5c-18.667 -22 -47.667 -33 -87 -33c-13.333 0 -27.333 2.66699 -42 8c-10 6 -16.667 10.667 -20 14
c0 1.33301 -1.16699 3.5 -3.5 6.5s-4.5 4.5 -6.5 4.5c-10.667 17.333 -16 33.666 -16 48.999c0 19.333 7 36.666 21 51.999c16.667 12.667 34.667 19 54 19h11c11.333 0 27 -6.33301 47 -19l2 4c-10 20 -24.667 30 -44 30h-721c-80.667 12 -142.667 40.5 -186 85.5
s-59.5 122.167 -48.5 231.5s71.5 210.333 181.5 303z" />
    <glyph glyph-name="uFB7C" unicode="&#x686;" horiz-adv-x="1416" arabic-form="initial" 
d="M211 739c18.667 23.333 48.333 34.999 89 34.999c12.667 0 26.667 -2.33301 42 -7c10.667 -7.33301 17.334 -12.666 20.001 -15.999c6 -4.66699 9.66699 -8.66699 11 -12c11.333 -15.333 17 -31.333 17 -48c0 -22 -7.33301 -40.667 -22 -56
c-14.667 -11.333 -33.334 -17 -56.001 -17h-10c-12 0 -28 6.66699 -48 20l-2 -6c9.33301 -20 24.666 -30.667 45.999 -32h658c71.333 0 128.666 -30.333 171.999 -91c28.667 -42 47.334 -92.333 56.001 -151v-237h152v-121h-1336v121h1063v237
c-7.33301 25.333 -15.666 48.666 -24.999 69.999l-13 16v5c-30.667 30 -65 45 -103 45h-603c-40 2 -74.333 15.333 -103 40c-30.667 27.333 -46 62 -46 104c0 38.667 12 71.334 36 98.001c0 2 1.66699 3 5 3zM687.999 -304.001c22 0 40.833 -8.33301 56.5 -25
s23.5 -37 23.5 -61s-7.33301 -44 -22 -60s-33 -24 -55 -24c-21.333 0 -40.5 8.5 -57.5 25.5s-25.5 36.5 -25.5 58.5c0 23.333 8 43.5 24 60.5s34.667 25.5 56 25.5zM771.999 -136.001c22 0 40.833 -8.33301 56.5 -25s23.5 -37 23.5 -61s-7.33301 -44 -22 -60
s-33 -24 -55 -24c-21.333 0 -40.5 8.5 -57.5 25.5s-25.5 36.5 -25.5 58.5c0 23.333 8 43.5 24 60.5s34.667 25.5 56 25.5zM603.999 -136.001c22 0 40.833 -8.33301 56.5 -25s23.5 -37 23.5 -61s-7.33301 -44 -22 -60s-33 -24 -55 -24c-21.333 0 -40.5 8.5 -57.5 25.5
s-25.5 36.5 -25.5 58.5c0 23.333 8 43.5 24 60.5s34.667 25.5 56 25.5z" />
    <glyph glyph-name="uFB7D" unicode="&#x686;" horiz-adv-x="1336" arabic-form="medial" 
d="M211 739c18.667 23.333 48.333 34.999 89 34.999c12.667 0 26.667 -2.33301 42 -7c10.667 -7.33301 17.334 -12.666 20.001 -15.999c6 -4.66699 9.66699 -8.66699 11 -12c11.333 -15.333 17 -31.333 17 -48c0 -22 -7.33301 -40.667 -22 -56
c-14.667 -11.333 -33.334 -17 -56.001 -17h-10c-12 0 -28 6.66699 -48 20l-2 -6c9.33301 -20 24.666 -30.667 45.999 -32h658c71.333 0 128.666 -30.333 171.999 -91c28.667 -42 47.334 -92.333 56.001 -151v-237h152v-121h-1336v121h1063v237
c-7.33301 25.333 -15.666 48.666 -24.999 69.999l-13 16v5c-30.667 30 -65 45 -103 45h-603c-40 2 -74.333 15.333 -103 40c-30.667 27.333 -46 62 -46 104c0 38.667 12 71.334 36 98.001c0 2 1.66699 3 5 3zM687.999 -304.001c22 0 40.833 -8.33301 56.5 -25
s23.5 -37 23.5 -61s-7.33301 -44 -22 -60s-33 -24 -55 -24c-21.333 0 -40.5 8.5 -57.5 25.5s-25.5 36.5 -25.5 58.5c0 23.333 8 43.5 24 60.5s34.667 25.5 56 25.5zM771.999 -136.001c22 0 40.833 -8.33301 56.5 -25s23.5 -37 23.5 -61s-7.33301 -44 -22 -60
s-33 -24 -55 -24c-21.333 0 -40.5 8.5 -57.5 25.5s-25.5 36.5 -25.5 58.5c0 23.333 8 43.5 24 60.5s34.667 25.5 56 25.5zM603.999 -136.001c22 0 40.833 -8.33301 56.5 -25s23.5 -37 23.5 -61s-7.33301 -44 -22 -60s-33 -24 -55 -24c-21.333 0 -40.5 8.5 -57.5 25.5
s-25.5 36.5 -25.5 58.5c0 23.333 8 43.5 24 60.5s34.667 25.5 56 25.5z" />
    <glyph glyph-name="uFB8B" unicode="&#x698;" horiz-adv-x="714" arabic-form="final" 
d="M679 479c-16.667 -16.667 -36.0039 -25 -58.0039 -25c-24 0 -41.333 7.33301 -52 22c-14 10.667 -21.667 29.334 -23 56.001l2 9c2 18.667 9 34 21 46l-5 2c-16.667 -8 -28 -23 -34 -45v-423h192v-121h-192v-379h-104l-241 141
c-18.667 3.33301 -36.667 1.66602 -54 -5.00098l-4 -8c16.667 4 33.334 2.33301 50.001 -5l11 -7c18.667 -10.667 31 -25.334 37 -44.001c6.66699 -16 4.33398 -35 -6.99902 -57c-12 -16 -28.667 -28.333 -50 -37c-7.33301 -2 -16.666 -3 -27.999 -3c-6 0 -19.667 4 -41 12
c-34 20.667 -54.667 47.667 -62 81c-8 32 -1.33301 66.333 20 103c17.333 34.667 47.333 55.334 90 62.001c37.333 10 73.333 6 108 -12l171 -98v778c1.33301 40 14.333 74.667 39 104c30.667 30.667 66 46 106 46c36.667 0 68.334 -11.667 95.001 -35
c24.667 -23.333 37 -55.333 37 -96c0 -16 -3.33301 -29 -10 -39c0 -5.33301 -4.66699 -13 -14 -23zM445.996 1128c0 22.667 8.50098 42.333 25.501 59s36.167 25 57.5 25s39.5 -8 54.5 -24s22.5 -36 22.5 -60s-7.83301 -44.167 -23.5 -60.5s-34.834 -24.5 -57.501 -24.5
c-20.667 0 -39 8.33301 -55 25s-24 36.667 -24 60zM529.997 959.999c0 22.667 8.50098 42.333 25.501 59s36.167 25 57.5 25s39.5 -8 54.5 -24s22.5 -36 22.5 -60s-7.83301 -44.167 -23.5 -60.5s-34.834 -24.5 -57.501 -24.5c-20.667 0 -39 8.33301 -55 25
s-24 36.667 -24 60zM361.998 959.998c0 22.667 8.50098 42.333 25.501 59s36.167 25 57.5 25s39.5 -8 54.5 -24s22.5 -36 22.5 -60s-7.83301 -44.167 -23.5 -60.5s-34.834 -24.5 -57.501 -24.5c-20.667 0 -39 8.33301 -55 25s-24 36.667 -24 60z" />
    <glyph glyph-name="uFEDA" unicode="&#x6a9;" horiz-adv-x="1050" arabic-form="final" 
d="M861 1252c24 0 45.332 -4.66797 63.999 -14.001c8 -2 17.333 -8.33301 28 -19c24 -22 36 -52 36 -90c0 -14.667 -2.33301 -27.667 -7 -39c-8 -12 -13.667 -18.667 -17 -20c-18.667 -16 -36.667 -24 -54 -24c-24 0 -41.667 7 -53 21c-12.667 13.333 -19 30.666 -19 51.999
v10c1.33301 12.667 7.66602 27.667 18.999 45h-2c-18.667 -9.33301 -28.667 -23.666 -30 -42.999v-1011h260v-120h-810c-71.333 1.33301 -130.333 19.666 -177 54.999c-57.333 38 -86.666 91.667 -87.999 161v316c1.33301 34.667 14 66 38 94l3 5l11 12
c24 22.667 54.333 34 91 34c36 0 66.667 -11.333 92 -34h3c22.667 -24 34 -54.667 34 -92c0 -16 -2.33301 -29.667 -7 -41c-5.33301 -9.33301 -10.333 -16 -15 -20c-16 -16 -35.333 -24 -58 -24c-24.667 0 -42 6.33301 -52 19c-12.667 12 -19 30 -19 54v9
c0 13.333 6.33301 29.333 19 48h-4c-19.333 -9.33301 -30 -23.666 -32 -42.999v-303c-1.33301 -40 13.334 -72.667 44.001 -98l2 -2l16 -12c24 -14.667 54.333 -22 91 -22h456v996c1.33301 36.667 13.666 69 36.999 97c4.66699 6.66699 17.334 16.334 38.001 29.001
c19.333 9.33301 40 14 62 14zM1498 1669l-460 -281.001l-49 -28l-38 -24h-3l-19 -11l-116 -68c-38.667 -21.333 -79.334 -28 -122.001 -20c-41.333 6.66699 -72.333 30 -93 70c-22 32 -28.333 67.333 -19 106c6 32 27.333 59.333 64 82c14 8 27.667 12 41 12h28
c27.333 -8 45 -21.333 53 -40c13.333 -22.667 16.666 -43 9.99902 -61c-8.66699 -20 -21.334 -36 -38.001 -48l-10 -3c-18 -8 -36.667 -10.333 -56 -7l4 -5c20 -13.333 38.333 -15.333 55 -6c14 6.66699 34.667 17.334 62 32.001l460 280l49 29l38 23h3l19 11l116 68
c38.667 22 79.334 29 122.001 21c41.333 -7.33301 72.333 -31 93 -71c22 -32 28.333 -67.333 19 -106c-6 -32 -27.333 -59 -64 -81c-14 -8 -27.667 -12 -41 -12h-28c-27.333 8 -45 21 -53 39c-13.333 22.667 -16.666 43 -9.99902 61c8.66699 20 21.334 36 38.001 48l10 3
c18 8 36.667 10.333 56 7l-4 5c-20 13.333 -38.333 15.333 -55 6z" />
    <glyph glyph-name="uFEDB" unicode="&#x6a9;" horiz-adv-x="899" arabic-form="initial" 
d="M1124 1800h213l-789 -481v-1319h-548v121h439v1135l-116 -68c-38.667 -21.333 -79 -28 -121 -20c-42 6.66699 -73.333 30 -94 70c-21.333 32 -27.666 67.333 -18.999 106c6 32 27.667 59.333 65 82c13.333 8 26.666 12 39.999 12h28c27.333 -8 45 -21.333 53 -40
c13.333 -22.667 17 -43 11 -61c-9.33301 -20 -22.333 -36 -39 -48l-9 -3c-18.667 -8 -37.667 -10.333 -57 -7l4 -5c20 -13.333 38.333 -15.333 55 -6c20 9.33301 51.333 25.333 94 48l105 64v2h3z" />
    <glyph glyph-name="uFEDC" unicode="&#x6a9;" horiz-adv-x="946" arabic-form="medial" 
d="M946 0l-945.999 -0.000976562v120h440v1136l-118 -67c-37.333 -22 -76.666 -28.667 -117.999 -20c-40 6 -72 28.333 -96 67c-21.333 39.333 -27.333 75 -18 107c7.33301 33.333 28.666 61 63.999 83c9.33301 4.66699 23.666 8.66699 42.999 12c11.333 0 20.333 -1 27 -3
c22 -6 39.667 -18.333 53 -37c11.333 -20 13.666 -40.333 6.99902 -61c-4.66699 -18.667 -18 -34.667 -40 -48l-8 -3c-18 -9.33301 -35.333 -11.666 -52 -6.99902v-5c18.667 -13.333 37.334 -16 56.001 -8c-4 -1.33301 27.667 16 95 52l105 62h3l692 419h211l-800 -479
v-1200h400v-120z" />
    <glyph glyph-name="uFB93" unicode="&#x6af;" horiz-adv-x="1050" arabic-form="final" 
d="M861 1252c24 0 45.332 -4.66797 63.999 -14.001c8 -2 17.333 -8.33301 28 -19c24 -22 36 -52 36 -90c0 -14.667 -2.33301 -27.667 -7 -39c-8 -12 -13.667 -18.667 -17 -20c-18.667 -16 -36.667 -24 -54 -24c-24 0 -41.667 7 -53 21c-12.667 13.333 -19 30.666 -19 51.999
v10c1.33301 12.667 7.66602 27.667 18.999 45h-2c-18.667 -9.33301 -28.667 -23.666 -30 -42.999v-1011h260v-120h-810c-71.333 1.33301 -130.333 19.666 -177 54.999c-57.333 38 -86.666 91.667 -87.999 161v316c1.33301 34.667 14 66 38 94l3 5l11 12
c24 22.667 54.333 34 91 34c36 0 66.667 -11.333 92 -34h3c22.667 -24 34 -54.667 34 -92c0 -16 -2.33301 -29.667 -7 -41c-5.33301 -9.33301 -10.333 -16 -15 -20c-16 -16 -35.333 -24 -58 -24c-24.667 0 -42 6.33301 -52 19c-12.667 12 -19 30 -19 54v9
c0 13.333 6.33301 29.333 19 48h-4c-19.333 -9.33301 -30 -23.666 -32 -42.999v-303c-1.33301 -40 13.334 -72.667 44.001 -98l2 -2l16 -12c24 -14.667 54.333 -22 91 -22h456v996c1.33301 36.667 13.666 69 36.999 97c4.66699 6.66699 17.334 16.334 38.001 29.001
c19.333 9.33301 40 14 62 14zM1498 1669l-460 -281.001l-49 -28l-38 -24h-3l-19 -11l-116 -68c-38.667 -21.333 -79.334 -28 -122.001 -20c-41.333 6.66699 -72.333 30 -93 70c-22 32 -28.333 67.333 -19 106c6 32 27.333 59.333 64 82c14 8 27.667 12 41 12h28
c27.333 -8 45 -21.333 53 -40c13.333 -22.667 16.666 -43 9.99902 -61c-8.66699 -20 -21.334 -36 -38.001 -48l-10 -3c-18 -8 -36.667 -10.333 -56 -7l4 -5c20 -13.333 38.333 -15.333 55 -6c14 6.66699 34.667 17.334 62 32.001l460 280l49 29l38 23h3l19 11l116 68
c38.667 22 79.334 29 122.001 21c41.333 -7.33301 72.333 -31 93 -71c22 -32 28.333 -67.333 19 -106c-6 -32 -27.333 -59 -64 -81c-14 -8 -27.667 -12 -41 -12h-28c-27.333 8 -45 21 -53 39c-13.333 22.667 -16.666 43 -9.99902 61c8.66699 20 21.334 36 38.001 48l10 3
c18 8 36.667 10.333 56 7l-4 5c-20 13.333 -38.333 15.333 -55 6zM1437 1804l-293.001 -178.999l-109 -62l-117 -68c-38 -22 -78.333 -29 -121 -21c-41.333 7.33301 -72.666 31 -93.999 71c-21.333 32 -27.666 67.333 -18.999 106c6.66699 32 28.334 59 65.001 81
c13.333 8 27 12 41 12h27c27.333 -8 45 -21 53 -39c14 -22.667 17.667 -43.334 11 -62.001c-8.66699 -20 -21.334 -36 -38.001 -48l-10 -2c-18.667 -8 -37.334 -10.333 -56.001 -7l3 -5c20 -13.333 38.333 -15.333 55 -6c20 8.66699 51.333 24.667 94 48l106 64v2h2l188 115
h212z" />
    <glyph glyph-name="uFB94" unicode="&#x6af;" horiz-adv-x="899" arabic-form="initial" 
d="M1124 1800h213l-789 -481v-1319h-548v121h439v1135l-116 -68c-38.667 -21.333 -79 -28 -121 -20c-42 6.66699 -73.333 30 -94 70c-21.333 32 -27.666 67.333 -18.999 106c6 32 27.667 59.333 65 82c13.333 8 26.666 12 39.999 12h28c27.333 -8 45 -21.333 53 -40
c13.333 -22.667 17 -43 11 -61c-9.33301 -20 -22.333 -36 -39 -48l-9 -3c-18.667 -8 -37.667 -10.333 -57 -7l4 -5c20 -13.333 38.333 -15.333 55 -6c20 9.33301 51.333 25.333 94 48l105 64v2h3zM977 1765l-293 -178.999l-109 -62l-117 -68c-38 -22 -78.333 -29 -121 -21
c-41.333 7.33301 -72.333 31 -93 71c-22 32 -28.667 67.333 -20 106c6.66699 32 28.334 59 65.001 81c14 8 27.667 12 41 12h28c26.667 -8 44 -21 52 -39c14 -22.667 17.667 -43.334 11 -62.001c-8.66699 -20 -21.334 -36 -38.001 -48l-10 -2c-18 -8 -36.667 -10.333 -56 -7
l3 -5c20 -13.333 38.667 -15.333 56 -6c20 8.66699 51 24.667 93 48l106 64v2h2l189 115h211z" />
    <glyph glyph-name="uFB95" unicode="&#x6af;" horiz-adv-x="946" arabic-form="medial" 
d="M946 0l-945.999 -0.000976562v120h440v1136l-118 -67c-37.333 -22 -76.666 -28.667 -117.999 -20c-40 6 -72 28.333 -96 67c-21.333 39.333 -27.333 75 -18 107c7.33301 33.333 28.666 61 63.999 83c9.33301 4.66699 23.666 8.66699 42.999 12c11.333 0 20.333 -1 27 -3
c22 -6 39.667 -18.333 53 -37c11.333 -20 13.666 -40.333 6.99902 -61c-4.66699 -18.667 -18 -34.667 -40 -48l-8 -3c-18 -9.33301 -35.333 -11.666 -52 -6.99902v-5c18.667 -13.333 37.334 -16 56.001 -8c-4 -1.33301 27.667 16 95 52l105 62h3l692 419h211l-800 -479
v-1200h400v-120zM977.001 1765l-293 -178.999l-109 -62l-117 -68c-38 -22 -78.333 -29 -121 -21c-41.333 7.33301 -72.333 31 -93 71c-22 32 -28.667 67.333 -20 106c6.66699 32 28.334 59 65.001 81c14 8 27.667 12 41 12h28c26.667 -8 44 -21 52 -39
c14 -22.667 17.667 -43.334 11 -62.001c-8.66699 -20 -21.334 -36 -38.001 -48l-10 -2c-18 -8 -36.667 -10.333 -56 -7l3 -5c20 -13.333 38.667 -15.333 56 -6c20 8.66699 51 24.667 93 48l106 64v2h2l189 115h211z" />
    <glyph glyph-name="uFE94" unicode="&#x6c0;" horiz-adv-x="865" arabic-form="final" 
d="M348 906c64 0 126.332 -19.668 186.999 -59.001c3.33301 22.667 15 46.334 35 71.001c2 1.33301 15.667 12 41 32c21.333 9.33301 43 14 65 14s44.667 -4.66699 68 -14c15.333 -9.33301 25.333 -16.333 30 -21c26 -24 39 -56 39 -96
c0 -16.667 -3.66699 -30.334 -11 -41.001c-2 -6.66699 -7 -14.334 -15 -23.001c-16.667 -18 -35.667 -27 -57 -27c-22.667 0 -41.667 7.33301 -57 22c-12.667 18.667 -19 37.334 -19 56.001v10c2 15.333 8.33301 32.333 19 51l-2 2c-18.667 -10 -30.334 -26 -35.001 -48
v-588c0 -6 2.33301 -19.667 7 -41c10.667 -20 30 -40 58 -60c22.667 -16.667 51.334 -25.334 86.001 -26.001h78v-120h-78c-65.333 0 -124 18.333 -176 55c-60.667 40.667 -91 98 -91 172v432c0 44.667 -21 79 -63 103c-32 23.333 -73 35 -123 35
c-59.333 0 -105 -18.333 -137 -55c-33.333 -40 -50 -87.333 -50 -142c-3.33301 -36.667 7.66699 -72 33 -106c24.667 -38 55.667 -57 93 -57c24 0 47.333 8.33301 70 25c18.667 18.667 29.667 40.334 33 65.001l-7 8c-5.33301 0 -17 -4.33301 -35 -13
c-15.333 -8 -27.333 -12 -36 -12c-32 0 -56.333 10 -73 30c-18.667 23.333 -28 50 -28 80c0 34 11.333 65.333 34 94c26 21.333 56 32 90 32c50 0 90.333 -17.333 121 -52c30 -35.333 45 -78.333 45 -129c0 -27.333 -2.33301 -51 -7 -71
c-7.33301 -30 -21.666 -59.333 -42.999 -88c-33.333 -46.667 -81.333 -70 -144 -70c-79.333 0 -141.333 25.333 -186 76c-44 44.667 -66 107.334 -66 188.001c0 94.667 28.333 168.667 85 222c56 56 130 84 222 84zM438.999 1035h-297.999v35h94
c-26.667 18 -40 44.333 -40 79c0 30 9.33301 55.667 28 77c19.333 18.667 44.666 28 75.999 28c25.333 0 47.333 -6.66699 66 -20c20.667 -16 31 -36.333 31 -61c0 -22 -6 -39.333 -18 -52s-28 -19 -48 -19c-19.333 0 -34 4.66699 -44 14c-12.667 9.33301 -19 23 -19 41
c0 12 4 22 12 30c8.66699 6.66699 18.667 10 30 10c10 0 17.333 -4 22 -12c4 -8 6.66699 -17.667 8 -29l-3 -13l3 -3c12.667 3.33301 19 13 19 29c0 15.333 -5.66699 27.666 -17 36.999c-11.333 8 -25 12 -41 12c-19.333 0 -35.666 -5.33301 -48.999 -16
c-12.667 -13.333 -19 -30 -19 -50c0 -26.667 11.667 -47.667 35 -63c17.333 -11.333 38.666 -17.666 63.999 -18.999h108v-35z" />
    <glyph glyph-name="uFEF2" unicode="&#x6cc;" horiz-adv-x="1766" arabic-form="final" 
d="M138 109l1072 -0.00195312v138c-5.33301 18.667 -12.666 37 -21.999 55c0 3.33301 -4.66699 9.33301 -14 18c-28 28 -59.333 43.667 -94 47h-334v148c0 70 31.333 127.667 94 173c52.667 34.667 115 53.667 187 57h501v-625h238v-120h-346v623h-388
c-3.33301 0 -5 -1 -5 -3h-10c-36.667 0 -67.334 -7.33301 -92.001 -22c-6 -2 -12 -6 -18 -12l-3 -2l-2 -2c-30.667 -28 -46 -62.667 -46 -104v-3h249c72 0 130.333 -30 175 -90c10.667 -18 21.334 -38.667 32.001 -62c9.33301 -28 16.333 -53.333 21 -76v-247h-1313v110
c4.66699 63.333 24.667 115 60 155c18.667 24.667 42.334 46.334 71.001 65.001c56.667 36.667 133.334 67.334 230.001 92.001c90 20 143.333 33.667 160 41l20 28c-52.667 -6.66699 -88.334 -3 -107.001 11c-25.333 17.333 -38 50 -38 98c0 32 12 58.667 36 80
c24 20 52.667 30 86 30c53.333 0 94.333 -18.333 123 -55s43 -79.667 43 -129c0 -47.333 -18.333 -87.333 -55 -120c-38.667 -34 -86.334 -58.667 -143.001 -74c-40 -6 -95.333 -17.333 -166 -34c-30.667 -5.33301 -60.667 -16.333 -90 -33
c-68.667 -33.333 -106 -85.333 -112 -156z" />
    <glyph glyph-name="uFEF3" unicode="&#x6cc;" horiz-adv-x="418" arabic-form="initial" 
d="M70 694c0 36.667 11.998 65.999 35.998 87.999c24 22.667 54.667 34 92 34c38.667 0 72.334 -14.333 101.001 -43c22 -28.667 34.667 -61.667 38 -99v-674h-337v120h236v574c-2.66699 20.667 -13 35 -31 43h-5c10 -12.667 16.667 -28 20 -46l2 -9
c-3.33301 -26 -10.666 -43.667 -21.999 -53c-13.333 -14.667 -30.333 -22 -51 -22s-40 8 -58 24c-8 16 -12 23.333 -12 22c-6 12.667 -9 26.334 -9 41.001zM9.99805 -206.001c0 22.667 8.33496 42.335 25.002 59.002s35.667 25 57 25c22 0 40 -8 54 -24
c14 -14.667 21.667 -32.334 23 -53.001c2 19.333 10.333 36.666 25 51.999c17.333 16.667 36.666 25 57.999 25s39.5 -8 54.5 -24s22.5 -36 22.5 -60s-7.83301 -44.167 -23.5 -60.5s-34.834 -24.5 -57.501 -24.5c-20.667 0 -39 8.33301 -55 25c-14 15.333 -22 33.333 -24 54
c-1.33301 -21.333 -9.33301 -39.333 -24 -54c-15.333 -16.667 -34 -25 -56 -25c-20.667 0 -39 8.33301 -55 25s-24 36.667 -24 60z" />
    <glyph glyph-name="uFEF4" unicode="&#x6cc;" horiz-adv-x="337" arabic-form="medial" 
d="M70 694c0 36.667 11.998 65.999 35.998 87.999c24 22.667 54.667 34 92 34c38.667 0 72.334 -14.333 101.001 -43c22 -28.667 34.667 -61.667 38 -99v-674h-337v120h236v574c-2.66699 20.667 -13 35 -31 43h-5c10 -12.667 16.667 -28 20 -46l2 -9
c-3.33301 -26 -10.666 -43.667 -21.999 -53c-13.333 -14.667 -30.333 -22 -51 -22s-40 8 -58 24c-8 16 -12 23.333 -12 22c-6 12.667 -9 26.334 -9 41.001zM9.99805 -206.001c0 22.667 8.33496 42.335 25.002 59.002s35.667 25 57 25c22 0 40 -8 54 -24
c14 -14.667 21.667 -32.334 23 -53.001c2 19.333 10.333 36.666 25 51.999c17.333 16.667 36.666 25 57.999 25s39.5 -8 54.5 -24s22.5 -36 22.5 -60s-7.83301 -44.167 -23.5 -60.5s-34.834 -24.5 -57.501 -24.5c-20.667 0 -39 8.33301 -55 25c-14 15.333 -22 33.333 -24 54
c-1.33301 -21.333 -9.33301 -39.333 -24 -54c-15.333 -16.667 -34 -25 -56 -25c-20.667 0 -39 8.33301 -55 25s-24 36.667 -24 60z" />
    <glyph glyph-name="Hcircumflex" unicode="&#x622;" horiz-adv-x="435" arabic-form="final" 
d="M287 1210v-1089h149v-121h-251v1231c-6 20 -16.333 35 -31 45l-7 -3c11.333 -9.33301 18.666 -25 21.999 -47l2 -9c-3.33301 -20.667 -10.666 -38.667 -21.999 -54c-10 -12.667 -27 -20 -51 -22c-26 2 -45.667 11 -59 27c-8 4.66699 -12.667 12 -14 22
c-6.66699 8 -10 21 -10 39c0 40.667 12 70.667 36 90l30 23c12.667 8 34.667 12 66 12c25.333 0 46 -4 62 -12c10 -5.33301 23.333 -16.333 40 -33c25.333 -32 38 -65 38 -99zM308 1409c-9.33301 -7.33301 -18.0039 -10.999 -26.0039 -10.999h-8
c-2.66699 0 -8.5 1.16699 -17.5 3.5s-17 8.83301 -24 19.5s-8.33301 22 -4 34s12.333 21 24 27s24.167 8.33301 37.5 7v3c-16 5.33301 -28 6.33301 -36 3l-138 -85c-19.333 -8.66699 -40.666 -11.667 -63.999 -9c-25.333 2.66699 -43.666 16 -54.999 40
c-12.667 18 -16.667 37.667 -12 59v1c8 21.333 17.5 35.666 28.5 42.999s20.167 11 27.5 11c29.333 0 47.333 -14 54 -42c4 -19.333 -4.66699 -34.333 -26 -45c-6 -4 -15.333 -6 -28 -6v-1c10.667 -8 20.334 -9 29.001 -3l144 82c15.333 10 36 14.667 62 14
c22 -5.33301 40 -19 54 -41c11.333 -21.333 14.833 -42 10.5 -62s-15.166 -34 -32.499 -42z" />
    </font>
</defs>
</svg>
