<?xml version="1.0" standalone="no"?>
<!DOCTYPE svg PUBLIC "-//W3C//DTD SVG 1.1//EN" "http://www.w3.org/Graphics/SVG/1.1/DTD/svg11.dtd" >
<svg>
<metadata>
Created by FontForge 20090914 at Wed Oct 19 00:44:31 2011
 By www-data
(c) by Abolfazl Seilsepour - +98 912 591 3420  -  seilsepor@yahoo.com
</metadata>
<defs>
<font id="FarAdvertisingMedium" horiz-adv-x="0" >
  <font-face 
    font-family="Far.Advertising Medium"
    font-weight="400"
    font-stretch="normal"
    units-per-em="2048"
    panose-1="0 0 4 0 0 0 0 0 0 0"
    ascent="1638"
    descent="-410"
    bbox="-183 -1360 2254 1988"
    underline-thickness="60"
    underline-position="-970"
    unicode-range="U+0020-U+FEFC"
  />
<missing-glyph horiz-adv-x="1024" 
d="M128 0v1215h768v-1215h-768zM256 128h512v959h-512v-959z" />
    <glyph glyph-name="uE818" unicode="&#x651;&#x64b;" 
d="M481 1403c0 -28.667 -9.33398 -57.999 -28.001 -87.999c-22.667 -36.667 -50.667 -55 -84 -55c-14 0 -28.333 3.33301 -43 10c-37.333 -67.333 -82.333 -101 -135 -101c-21.333 0 -38 10.667 -50 32c-10.667 18 -16 38.333 -16 61c0 36.667 12.667 78 38 124
c4 7.33301 9 11.666 15 12.999c2.66699 -4 5.33398 -7.66699 8.00098 -11c-2 -19.333 -3 -36.333 -3 -51c0 -46.667 11 -70 33 -70c30 0 55.667 33.333 77 100s33 100 35 100c6 0 11.5 -17.667 16.5 -53s17.167 -53 36.5 -53c22 0 38.333 27.667 49 83s18 83 22 83
c19.333 0 29 -41.333 29 -124zM520.999 1731l-38 -97l-371 -181l37 89zM520.999 1901l-38 -97l-371 -181l37 89z" />
    <glyph glyph-name="uFC5E" unicode="&#x651;&#x64c;" arabic-form="isolated" 
d="M438 1403c0 -28 -9 -56.6641 -27 -85.9971c-22.667 -36 -50.334 -54 -83.001 -54c-13.333 0 -27.333 3 -42 9c-36.667 -66 -80.667 -99 -132 -99c-43.333 0 -65 30.667 -65 92c0 35.333 12.333 75.666 37 120.999c4 7.33301 9 11.666 15 12.999
c2.66699 -4 5.33398 -7.66699 8.00098 -11c-2 -18.667 -3 -35.334 -3 -50.001c0 -45.333 10.667 -68 32 -68c29.333 0 54.5 32.667 75.5 98s32.5 98 34.5 98c6 0 11.5 -17.333 16.5 -52s16.833 -52 35.5 -52c22 0 38.167 27 48.5 81s17.5 81 21.5 81
c18.667 0 28 -40.333 28 -121zM476 1854c0 -63.333 -21.332 -115.999 -63.999 -157.999l52 -23l-9 -87c-36.667 6 -71.334 24.333 -104.001 55c-88.667 -68 -171.667 -108 -249 -120l-52 35c48 27.333 73 62.333 75 105c1.33301 23.333 -1 37.333 -7 42
c-14.667 10.667 -41.334 5.66699 -80.001 -15l-1 30c36.667 38.667 68.334 58 95.001 58c39.333 0 59 -20.333 59 -61c0 -35.333 -12.333 -74 -37 -116c77.333 32 123.333 59.667 138 83c-27.333 27.333 -41 59.666 -41 96.999c0 29.333 18.833 63.5 56.5 102.5
s71.5 58.5 101.5 58.5c44.667 0 67 -28.667 67 -86zM391.001 1860c-12.667 0 -27.666 -6.33301 -44.999 -19c-19.333 -13.333 -29 -26 -29 -38c0 -11.333 5.5 -25.5 16.5 -42.5s21.833 -25.5 32.5 -25.5c13.333 0 24.666 13 33.999 39c7.33301 20 11 38.667 11 56
c0 20 -6.66699 30 -20 30z" />
    <glyph glyph-name="uFC5F" unicode="&#x651;&#x64d;" arabic-form="isolated" 
d="M449 1864c0 -28.667 -9.33398 -57.999 -28.001 -87.999c-22.667 -36.667 -50.667 -55 -84 -55c-14 0 -28.333 3.33301 -43 10c-37.333 -67.333 -82.333 -101 -135 -101c-21.333 0 -38 10.667 -50 32c-10.667 18 -16 38.333 -16 61c0 36.667 12.667 78 38 124
c4 7.33301 9 11.666 15 12.999c2.66699 -4 5.33398 -7.66699 8.00098 -11c-2 -19.333 -3 -36.333 -3 -51c0 -46.667 11 -70 33 -70c30 0 55.667 33.333 77 100s33 100 35 100c6 0 11.5 -17.667 16.5 -53s17.167 -53 36.5 -53c22 0 38.333 27.667 49 83s18 83 22 83
c19.333 0 29 -41.333 29 -124zM468.999 1672l-38 -97l-371 -181l37 89zM468.999 1512l-38 -97l-371 -181l37 89z" />
    <glyph glyph-name="uFC60" unicode="&#x651;&#x64e;" arabic-form="isolated" 
d="M487 1397c0 -28 -9 -56.6641 -27 -85.9971c-22.667 -36 -50.334 -54 -83.001 -54c-13.333 0 -27.333 3 -42 9c-36.667 -66 -80.667 -99 -132 -99c-43.333 0 -65 30.667 -65 92c0 35.333 12.333 75.666 37 120.999c4 7.33301 9 11.666 15 12.999
c2.66699 -4 5.33398 -7.66699 8.00098 -11c-2 -18.667 -3 -35.334 -3 -50.001c0 -45.333 10.667 -68 32 -68c29.333 0 54.5 32.667 75.5 98s32.5 98 34.5 98c6 0 11.5 -17.333 16.5 -52s16.833 -52 35.5 -52c22 0 38.167 27 48.5 81s17.5 81 21.5 81
c18.667 0 28 -40.333 28 -121zM533 1738l-38 -97l-371 -181l37 89z" />
    <glyph glyph-name="uFC61" unicode="&#x651;&#x64f;" arabic-form="isolated" 
d="M457 1427c0 -28.667 -9.33398 -57.999 -28.001 -87.999c-22.667 -36.667 -50.667 -55 -84 -55c-14 0 -28.333 3.33301 -43 10c-37.333 -67.333 -82.333 -101 -135 -101c-21.333 0 -38 10.667 -50 32c-10.667 18 -16 38.333 -16 61c0 36.667 12.667 78 38 124
c4 7.33301 9 11.666 15 12.999c2.66699 -4 5.33398 -7.66699 8.00098 -11c-2 -19.333 -3 -36.333 -3 -51c0 -46.667 11 -70 33 -70c30 0 55.667 33.333 77 100s33 100 35 100c6 0 11.5 -17.667 16.5 -53s17.167 -53 36.5 -53c22 0 38.333 27.667 49 83s18 83 22 83
c19.333 0 29 -41.333 29 -124zM491.999 1872c0 -61.333 -21.333 -113.668 -64 -157.001c11.333 -8.66699 28.333 -18 51 -28l-7 -85c-47.333 14.667 -85.333 35 -114 61c-87.333 -73.333 -174.666 -116.333 -261.999 -129c-30 4 -45.667 17 -47 39
c121.333 40 207.666 82.333 258.999 127c-30.667 29.333 -46 61 -46 95c0 30.667 19.167 65.834 57.5 105.501s72.5 59.5 102.5 59.5c46.667 0 70 -29.333 70 -88zM401.999 1878c-12 0 -27.167 -6.66797 -45.5 -20.001s-27.5 -25.666 -27.5 -36.999
c0 -12 5.5 -26.667 16.5 -44s22.167 -26 33.5 -26c12.667 0 23.667 13.333 33 40c7.33301 22 11 40.667 11 56c0 20.667 -7 31 -21 31z" />
    <glyph glyph-name="uFC62" unicode="&#x651;&#x650;" arabic-form="isolated" 
d="M512 1672c0 -28.667 -9.33398 -57.999 -28.001 -87.999c-22.667 -36.667 -50.667 -55 -84 -55c-14 0 -28.333 3.33301 -43 10c-37.333 -67.333 -82.333 -101 -135 -101c-21.333 0 -38 10.667 -50 32c-10.667 18 -16 38.333 -16 61c0 36.667 12.667 78 38 124
c4 7.33301 9 11.666 15 12.999c2.66699 -4 5.33398 -7.66699 8.00098 -11c-2 -19.333 -3 -36.333 -3 -51c0 -46.667 11 -70 33 -70c30 0 55.667 33.333 77 100s33 100 35 100c6 0 11.5 -17.667 16.5 -53s17.167 -53 36.5 -53c22 0 38.333 27.667 49 83s18 83 22 83
c19.333 0 29 -41.333 29 -124zM531.999 1480l-38 -97l-371 -181l37 89z" />
    <glyph glyph-name="uFDF2" unicode="&#xfedf;&#xfee0;&#xfeea;" horiz-adv-x="1911" arabic-form="isolated" 
d="M663 787l117 -573.001h252v821l175 187v-899c0 -36 1.66699 -59.333 5 -70c7.33301 -26 24.666 -39 51.999 -39h298l-61 755c-26 8 -45 26.333 -57 55c7.33301 28.667 24 63.667 50 105l64 98l25 -73c19.333 -14 85.333 -46 198 -96l-73 -168l-41 16
c7.33301 -94 15 -187.333 23 -280c10.667 -112.667 16 -206.667 16 -282c0 -84 -32 -198.667 -96 -344h-482c-54.667 0 -86.667 22 -96 66l-48 -66h-334l-27 127l-69 -97l-491 72c52.667 161.333 81.334 248 86.001 260c20 42.667 54.333 77.334 103 104.001l270 139l-11 50
zM1222 1620c57.333 -68 86 -128.667 86 -182c0 -30 -10.333 -69.333 -31 -118h-162l-27 41l-46 -41h-98c-94 0 -141 40.333 -141 121c0 50 17.667 101.333 53 154l-12 -79c0 -64 37.333 -96 112 -96h93l-86 128l50 52l125 -180h109c-10.667 53.333 -38 101 -82 143z
M547 486.999l-252 -139c-24.667 -13.333 -40 -32.333 -46 -57l348 -52z" />
    <glyph glyph-name="uFEF5" unicode="&#xfedf;&#xfe82;" horiz-adv-x="1030" arabic-form="isolated" 
d="M902 885l-10.999 -19.998l-94 -144c-22.667 -34.667 -59.667 -81.667 -111 -141l-16 -18l150 -230c18.667 -28.667 28 -58.334 28 -89.001c0 -25.333 -8.66699 -60.666 -26 -105.999l-50 -137h-623l7 30l36 229c62 53.333 116.667 102.666 164 147.999
c54.667 52 101.667 102.333 141 151l-121 136c-34.667 39.333 -79.334 80.333 -134.001 123c-13.333 -32 -30 -48 -50 -48c-15.333 0 -29 6 -41 18c-63.333 66.667 -95 123 -95 169c0 28.667 15.667 72.667 47 132c23.333 40.667 44 61 62 61c19.333 0 42 -13 68 -39
c53.333 -52.667 106.333 -111 159 -175c38 -46.667 96.667 -125.334 176 -236.001l16 -25c80 102.667 136.667 208 170 316c-25.333 21.333 -38 41.666 -38 60.999c0 16.667 5 30.334 15 41.001l44 46l98 95l-5 -38c0 -27.333 19 -56.333 57 -87l127 -100l-113 -152z
M577.001 464.002l-119 -120.001l-129 -114l-5 -16h403l4 20c0 10.667 -3.66699 21.334 -11 32.001zM-55.999 1402l59.001 70c52 60.667 93 91 123 91c12 0 28 -3.66699 48 -11l18 -9l118 -50c32 -14 54 -21 66 -21c23.333 0 48.666 9.33301 75.999 28l20 13l48 25l-71 -77
c-46.667 -51.333 -86.667 -77 -120 -77c-15.333 0 -35 5 -59 15l-144 64c-12 6 -24 9 -36 9c-10.667 0 -25 -5.33301 -43 -16l-32 -18l-21 -9z" />
    <glyph glyph-name="uFEF6" unicode="&#xfee0;&#xfe82;" horiz-adv-x="1135" arabic-form="final" 
d="M722 1044l171.001 182.999v-929c0 -39.333 7.66699 -63.666 23 -72.999c10.667 -7.33301 38 -11 82 -11h193v-214l-325 2c-62.667 3.33301 -103.667 27.666 -123 72.999c-14 28.667 -21 80.334 -21 155.001v52l-61 -86l-32 -48c-34.667 -53.333 -68 -90.5 -100 -111.5
s-77.667 -35.5 -137 -43.5c-52.667 -6 -120.667 -9 -204 -9c18 0 -61 3 -237 9c124.667 35.333 222.334 68.666 293.001 99.999l80 37c77.333 38 142.666 75.667 195.999 113l-9 30c-48.667 156 -97.334 276 -146.001 360c-32 54.667 -81.333 122.667 -148 204
c-12 -30 -28.667 -45 -50 -45c-15.333 0 -29 9.66699 -41 29c-46.667 74.667 -70 128 -70 160c0 19.333 18 56.333 54 111c27.333 42.667 49.333 64 66 64c82 0 173 -123 273 -369c71.333 -171.333 123 -329.666 155 -474.999l43 41l43 43l23 25l7 32v29l2 28v534z
M-55.999 1402l59.001 70c52 60.667 93 91 123 91c12 0 28 -3.66699 48 -11l18 -9l118 -50c32 -14 54 -21 66 -21c23.333 0 48.666 9.33301 75.999 28l20 13l48 25l-71 -77c-46.667 -51.333 -86.667 -77 -120 -77c-15.333 0 -35 5 -59 15l-144 64c-12 6 -24 9 -36 9
c-10.667 0 -25 -5.33301 -43 -16l-32 -18l-21 -9z" />
    <glyph glyph-name="uFEF7" unicode="&#xfedf;&#xfe84;" horiz-adv-x="1037" arabic-form="isolated" 
d="M900 885l-10.999 -19.998l-94 -144c-22.667 -34.667 -59.667 -81.667 -111 -141l-16 -18l150 -230c18.667 -28.667 28 -58.334 28 -89.001c0 -25.333 -8.66699 -60.666 -26 -105.999l-50 -137h-623l7 30l36 229c62 53.333 116.667 102.666 164 147.999
c54.667 52 101.667 102.333 141 151l-121 136c-34.667 39.333 -79.334 80.333 -134.001 123c-13.333 -32 -30 -48 -50 -48c-15.333 0 -29 6 -41 18c-63.333 66.667 -95 123 -95 169c0 28.667 15.667 72.667 47 132c23.333 40.667 44 61 62 61c19.333 0 42 -13 68 -39
c53.333 -52.667 106.333 -111 159 -175c38 -46.667 96.667 -125.334 176 -236.001l16 -25c80 102.667 136.667 208 170 316c-25.333 21.333 -38 41.666 -38 60.999c0 16.667 5 30.334 15 41.001l44 46l98 95l-5 -38c0 -27.333 19 -56.333 57 -87l127 -100l-113 -152z
M575.001 464.002l-119 -120.001l-129 -114l-5 -16h403l4 20c0 10.667 -3.66699 21.334 -11 32.001zM352.001 1502l-41 -105c-112.667 -16.667 -200.667 -63 -264 -139c7.33301 54.667 29.333 102.667 66 144c-56 12 -84 44.667 -84 98c0 40.667 23.333 90 70 148
c38 45.333 89.667 68 155 68c38 0 57 -13.667 57 -41c0 -20 -10 -45 -30 -75c-19.333 6 -36.666 9 -51.999 9c-56 0 -101.667 -22 -137 -66c44 -41.333 99.333 -62 166 -62c21.333 0 52.666 7 93.999 21z" />
    <glyph glyph-name="uFEF8" unicode="&#xfee0;&#xfe84;" horiz-adv-x="1137" arabic-form="final" 
d="M721 1044l171.001 182.999v-929c0 -39.333 7.66699 -63.666 23 -72.999c10.667 -7.33301 38 -11 82 -11h193v-214l-325 2c-62.667 3.33301 -103.667 27.666 -123 72.999c-14 28.667 -21 80.334 -21 155.001v52l-61 -86l-32 -48c-34.667 -53.333 -68 -90.5 -100 -111.5
s-77.667 -35.5 -137 -43.5c-52.667 -6 -120.667 -9 -204 -9c18 0 -61 3 -237 9c124.667 35.333 222.334 68.666 293.001 99.999l80 37c77.333 38 142.666 75.667 195.999 113l-9 30c-48.667 156 -97.334 276 -146.001 360c-32 54.667 -81.333 122.667 -148 204
c-12 -30 -28.667 -45 -50 -45c-15.333 0 -29 9.66699 -41 29c-46.667 74.667 -70 128 -70 160c0 19.333 18 56.333 54 111c27.333 42.667 49.333 64 66 64c82 0 173 -123 273 -369c71.333 -171.333 123 -329.666 155 -474.999l43 41l43 43l23 25l7 32v29l2 28v534z
M353.001 1502l-41 -105c-112.667 -16.667 -200.667 -63 -264 -139c7.33301 54.667 29.333 102.667 66 144c-56 12 -84 44.667 -84 98c0 40.667 23.333 90 70 148c38 45.333 89.667 68 155 68c38 0 57 -13.667 57 -41c0 -20 -10 -45 -30 -75c-19.333 6 -36.666 9 -51.999 9
c-56 0 -101.667 -22 -137 -66c44 -41.333 99.333 -62 166 -62c21.333 0 52.666 7 93.999 21z" />
    <glyph glyph-name="uFEF9" unicode="&#xfedf;&#xfe88;" horiz-adv-x="1033" arabic-form="isolated" 
d="M901 885l-10.999 -19.998l-94 -144c-22.667 -34.667 -59.667 -81.667 -111 -141l-16 -18l150 -230c18.667 -28.667 28 -58.334 28 -89.001c0 -25.333 -8.66699 -60.666 -26 -105.999l-50 -137h-623l7 30l36 229c62 53.333 116.667 102.666 164 147.999
c54.667 52 101.667 102.333 141 151l-121 136c-34.667 39.333 -79.334 80.333 -134.001 123c-13.333 -32 -30 -48 -50 -48c-15.333 0 -29 6 -41 18c-63.333 66.667 -95 123 -95 169c0 28.667 15.667 72.667 47 132c23.333 40.667 44 61 62 61c19.333 0 42 -13 68 -39
c53.333 -52.667 106.333 -111 159 -175c38 -46.667 96.667 -125.334 176 -236.001l16 -25c80 102.667 136.667 208 170 316c-25.333 21.333 -38 41.666 -38 60.999c0 16.667 5 30.334 15 41.001l44 46l98 95l-5 -38c0 -27.333 19 -56.333 57 -87l127 -100l-113 -152z
M576.001 464.002l-119 -120.001l-129 -114l-5 -16h403l4 20c0 10.667 -3.66699 21.334 -11 32.001zM287.001 -368.999l-41.001 -104c-38 -8 -64 -13.333 -78 -16c-7.33301 -2 -21 -7.33301 -41 -16c-54 -21.333 -101.667 -57 -143 -107c7.33301 56 29.333 103.667 66 143
c-56 12 -84 44.667 -84 98c0 42.667 23.333 92 70 148c38 45.333 89 68 153 68c39.333 0 59 -13.667 59 -41c0 -19.333 -10 -45 -30 -77c-14.667 6 -32 9 -52 9c-57.333 0 -102.666 -21.333 -135.999 -64c40.667 -40.667 96 -61 166 -61h29c8 1.33301 28.667 8 62 20z" />
    <glyph glyph-name="uFEFA" unicode="&#xfee0;&#xfe88;" horiz-adv-x="1137" arabic-form="final" 
d="M721 1044l171.001 182.999v-929c0 -39.333 7.66699 -63.666 23 -72.999c10.667 -7.33301 38 -11 82 -11h193v-214l-325 2c-62.667 3.33301 -103.667 27.666 -123 72.999c-14 28.667 -21 80.334 -21 155.001v52l-61 -86l-32 -48c-34.667 -53.333 -68 -90.5 -100 -111.5
s-77.667 -35.5 -137 -43.5c-52.667 -6 -120.667 -9 -204 -9c18 0 -61 3 -237 9c124.667 35.333 222.334 68.666 293.001 99.999l80 37c77.333 38 142.666 75.667 195.999 113l-9 30c-48.667 156 -97.334 276 -146.001 360c-32 54.667 -81.333 122.667 -148 204
c-12 -30 -28.667 -45 -50 -45c-15.333 0 -29 9.66699 -41 29c-46.667 74.667 -70 128 -70 160c0 19.333 18 56.333 54 111c27.333 42.667 49.333 64 66 64c82 0 173 -123 273 -369c71.333 -171.333 123 -329.666 155 -474.999l43 41l43 43l23 25l7 32v29l2 28v534z
M287.001 -369.001l-41.001 -104c-38 -8 -64 -13.333 -78 -16c-7.33301 -2 -21 -7.33301 -41 -16c-54 -21.333 -101.667 -57 -143 -107c7.33301 56 29.333 103.667 66 143c-56 12 -84 44.667 -84 98c0 42.667 23.333 92 70 148c38 45.333 89 68 153 68
c39.333 0 59 -13.667 59 -41c0 -19.333 -10 -45 -30 -77c-14.667 6 -32 9 -52 9c-57.333 0 -102.666 -21.333 -135.999 -64c40.667 -40.667 96 -61 166 -61h29c8 1.33301 28.667 8 62 20z" />
    <glyph glyph-name="uFEFB" unicode="&#xfedf;&#xfe8e;" horiz-adv-x="1035" arabic-form="isolated" 
d="M900 885l-10.999 -19.998l-94 -144c-22.667 -34.667 -59.667 -81.667 -111 -141l-16 -18l150 -230c18.667 -28.667 28 -58.334 28 -89.001c0 -25.333 -8.66699 -60.666 -26 -105.999l-50 -137h-623l7 30l36 229c62 53.333 116.667 102.666 164 147.999
c54.667 52 101.667 102.333 141 151l-121 136c-34.667 39.333 -79.334 80.333 -134.001 123c-13.333 -32 -30 -48 -50 -48c-15.333 0 -29 6 -41 18c-63.333 66.667 -95 123 -95 169c0 28.667 15.667 72.667 47 132c23.333 40.667 44 61 62 61c19.333 0 42 -13 68 -39
c53.333 -52.667 106.333 -111 159 -175c38 -46.667 96.667 -125.334 176 -236.001l16 -25c80 102.667 136.667 208 170 316c-25.333 21.333 -38 41.666 -38 60.999c0 16.667 5 30.334 15 41.001l44 46l98 95l-5 -38c0 -27.333 19 -56.333 57 -87l127 -100l-113 -152z
M575.001 464.002l-119 -120.001l-129 -114l-5 -16h403l4 20c0 10.667 -3.66699 21.334 -11 32.001z" />
    <glyph glyph-name="uFEFC" unicode="&#xfee0;&#xfe8e;" horiz-adv-x="1137" arabic-form="final" 
d="M721 1044l171.001 182.999v-929c0 -39.333 7.66699 -63.666 23 -72.999c10.667 -7.33301 38 -11 82 -11h193v-214l-325 2c-62.667 3.33301 -103.667 27.666 -123 72.999c-14 28.667 -21 80.334 -21 155.001v52l-61 -86l-32 -48c-34.667 -53.333 -68 -90.5 -100 -111.5
s-77.667 -35.5 -137 -43.5c-52.667 -6 -120.667 -9 -204 -9c18 0 -61 3 -237 9c124.667 35.333 222.334 68.666 293.001 99.999l80 37c77.333 38 142.666 75.667 195.999 113l-9 30c-48.667 156 -97.334 276 -146.001 360c-32 54.667 -81.333 122.667 -148 204
c-12 -30 -28.667 -45 -50 -45c-15.333 0 -29 9.66699 -41 29c-46.667 74.667 -70 128 -70 160c0 19.333 18 56.333 54 111c27.333 42.667 49.333 64 66 64c82 0 173 -123 273 -369c71.333 -171.333 123 -329.666 155 -474.999l43 41l43 43l23 25l7 32v29l2 28v534z" />
    <glyph glyph-name="u0652_u064E.liga" unicode="&#x652;&#x64e;" horiz-adv-x="1" 
d="M233 969c0.666992 -2 1 -5 1 -9c0 -30 -9.66699 -56 -29 -78c-2 -2 -5 -3 -9 -3s-5.66699 1.66699 -5 5c3.33301 25.333 0.333008 65.333 -9 120c-3.33301 16 -8.66602 44.333 -15.999 85c-4.66699 26 -7.33398 50.667 -8.00098 74c0 4 5.66699 12 17 24
c17.333 18.667 29.333 28 36 28c4 0 5.33301 -4.33301 4 -13c-1.33301 -9.33301 -2 -20.333 -2 -33c0 -32 6.66699 -98.667 20 -200z" />
    <glyph glyph-name="u0652_u064B.liga" unicode="&#x652;&#x64b;" horiz-adv-x="1" 
d="M547 803l-79 -121l-123 81l-65 -101l-129 89l82 129l120 -81l61 95z" />
    <glyph glyph-name="u0652_u064D.liga" unicode="&#x652;&#x64d;" horiz-adv-x="1" 
d="M809 -702l-79 -121l-123 81l-65 -101l-129 89l82 129l120 -81l61 95z" />
    <glyph glyph-name="u0622" unicode="&#x622;" horiz-adv-x="427" arabic-form="isolated" 
d="M144 -75c0 28.667 2.99902 78 8.99902 148c4.66699 63.333 6.33398 112.666 5.00098 147.999c-10.667 272.667 -16 418.334 -16 437.001c0 68 -9.66699 181 -29 339l182 225l43 -269l-41 -47l2 -28c14 -163.333 21 -299 21 -407c0 -106 -11.667 -200.667 -35 -284
c-16.667 -60.667 -63.667 -148 -141 -262zM-56.001 1402l59.001 70c52 60.667 93 91 123 91c12 0 28 -3.66699 48 -11l18 -9l118 -50c32 -14 54 -21 66 -21c23.333 0 48.666 9.33301 75.999 28l20 13l48 25l-71 -77c-46.667 -51.333 -86.667 -77 -120 -77
c-15.333 0 -35 5 -59 15l-144 64c-12 6 -24 9 -36 9c-10.667 0 -25 -5.33301 -43 -16l-32 -18l-21 -9z" />
    <glyph glyph-name="u0623" unicode="&#x623;" horiz-adv-x="432" arabic-form="isolated" 
d="M142 -75c0 28.667 2.99902 78 8.99902 148c4.66699 63.333 6.33398 112.666 5.00098 147.999c-10.667 272.667 -16 418.334 -16 437.001c0 68 -9.66699 181 -29 339l182 225l43 -269l-41 -47l2 -28c14 -163.333 21 -299 21 -407c0 -106 -11.667 -200.667 -35 -284
c-16.667 -60.667 -63.667 -148 -141 -262zM351.999 1502l-41 -105c-112.667 -16.667 -200.667 -63 -264 -139c7.33301 54.667 29.333 102.667 66 144c-56 12 -84 44.667 -84 98c0 40.667 23.333 90 70 148c38 45.333 89.667 68 155 68c38 0 57 -13.667 57 -41
c0 -20 -10 -45 -30 -75c-19.333 6 -36.666 9 -51.999 9c-56 0 -101.667 -22 -137 -66c44 -41.333 99.333 -62 166 -62c21.333 0 52.666 7 93.999 21z" />
    <glyph glyph-name="u0624" unicode="&#x624;" horiz-adv-x="694" arabic-form="isolated" 
d="M485 0l-154.998 -0.000976562l-112 5c-40.667 7.33301 -73.834 25.833 -99.501 55.5s-38.5 65.5 -38.5 107.5c0 141.333 59 273.333 177 396c30.667 32 65 48 103 48c50 0 97 -31.667 141 -95c75.333 -108 113 -236.333 113 -385c0 -170 -56 -324.667 -168 -464
c-62 -77.333 -119.667 -116 -173 -116c-59.333 0 -144.333 72 -255 216c53.333 -20 102 -30 146 -30c74 0 140.667 26.667 200 80c51.333 46.667 91.666 107.334 120.999 182.001zM469.002 213.999c-16.667 139.333 -58.333 209 -125 209c-32 0 -59.833 -15.5 -83.5 -46.5
s-35.5 -62.5 -35.5 -94.5c0 -22.667 8.33301 -40.667 25 -54l23 -10l36 -4h160zM453.003 934.999l-41.001 -103.999c-110.667 -15.333 -198.667 -61 -264 -137c12 60.667 34.667 107.667 68 141c-57.333 12 -86 45.333 -86 100c0 39.333 24.333 88 73 146
c37.333 45.333 88 68 152 68c38 0 57 -13 57 -39c0 -22.667 -10 -48.334 -30 -77.001c-18 6 -34.667 9 -50 9c-56 0 -101.333 -22 -136 -66c44 -39.333 98.667 -59 164 -59c26.667 0 43.334 0.666992 50.001 2c18 8 32.333 13.333 43 16z" />
    <glyph glyph-name="u0625" unicode="&#x625;" horiz-adv-x="432" arabic-form="isolated" 
d="M143 -75c0 28.667 2.99902 78 8.99902 148c4.66699 63.333 6.33398 112.666 5.00098 147.999c-10.667 272.667 -16 418.334 -16 437.001c0 68 -9.66699 181 -29 339l182 225l43 -269l-41 -47l2 -28c14 -163.333 21 -299 21 -407c0 -106 -11.667 -200.667 -35 -284
c-16.667 -60.667 -63.667 -148 -141 -262zM286.999 -369l-41.001 -104c-38 -8 -64 -13.333 -78 -16c-7.33301 -2 -21 -7.33301 -41 -16c-54 -21.333 -101.667 -57 -143 -107c7.33301 56 29.333 103.667 66 143c-56 12 -84 44.667 -84 98c0 42.667 23.333 92 70 148
c38 45.333 89 68 153 68c39.333 0 59 -13.667 59 -41c0 -19.333 -10 -45 -30 -77c-14.667 6 -32 9 -52 9c-57.333 0 -102.666 -21.333 -135.999 -64c40.667 -40.667 96 -61 166 -61h29c8 1.33301 28.667 8 62 20z" />
    <glyph glyph-name="u0626" unicode="&#x626;" horiz-adv-x="1112" arabic-form="isolated" 
d="M642 316c60.667 -24 120.331 -49.001 178.998 -75.001c73.333 -30 132 -59.667 176 -89l16 -38c-36.667 -154.667 -112.667 -283.667 -228 -387c-121.333 -106 -259.333 -159 -414 -159c-95.333 0 -173 31.5 -233 94.5s-90 142.833 -90 239.5
c0 121.333 44 272.333 132 453c-27.333 -109.333 -41 -198 -41 -266c0 -208 83.333 -312 250 -312c76 0 156.5 22 241.5 66s147.833 97 188.5 159l-195 78c-105.333 48 -158 91 -158 129c0 98.667 61 200.334 183 305.001c116.667 103.333 226.334 155 329.001 155
c64 0 96 -22 96 -66c0 -7.33301 -16 -59 -48 -155c-39.333 16.667 -78.666 25 -117.999 25c-108 0 -196.667 -52.333 -266 -157zM295.997 654.999l-41 -104c-109.333 -14 -196.666 -59.667 -261.999 -137c8 56 30 103 66 141c-56 10.667 -84 44 -84 100
c0 53.333 23.833 102.333 71.5 147s98.167 67 151.5 67c39.333 0 59 -12.667 59 -38c0 -21.333 -9.66699 -47.333 -29 -78c-20 6 -37.667 9 -53 9c-56 0 -101.333 -22 -136 -66c44 -40.667 99.333 -61 166 -61c15.333 0 45.666 6.66699 90.999 20z" />
    <glyph glyph-name="u0627" unicode="&#x627;" horiz-adv-x="432" arabic-form="isolated" 
d="M142 -75c0 28.667 2.99902 78 8.99902 148c4.66699 63.333 6.33398 112.666 5.00098 147.999c-10.667 272.667 -16 418.334 -16 437.001c0 68 -9.66699 181 -29 339l182 225l43 -269l-41 -47l2 -28c14 -163.333 21 -299 21 -407c0 -106 -11.667 -200.667 -35 -284
c-16.667 -60.667 -63.667 -148 -141 -262z" />
    <glyph glyph-name="u0628" unicode="&#x628;" horiz-adv-x="1333" arabic-form="isolated" 
d="M686 -177l144 -130l-114 -105l-139 134zM1169 0h-781.002c-103.333 -0 -177.666 14.333 -222.999 43c-57.333 36.667 -86 104.334 -86 203.001c0 118 37.667 231 113 339c-14.667 -50 -22 -104 -22 -162c0 -88 23.333 -147 70 -177
c36.667 -21.333 101.334 -32 194.001 -32h696c0 83.333 -28 163.666 -84 240.999l120 162c70 -86.667 105 -174 105 -262c0 -45.333 -13 -106 -39 -182z" />
    <glyph glyph-name="u0629" unicode="&#x629;" horiz-adv-x="741" arabic-form="isolated" 
d="M591 0l-403 2c-78.667 10.667 -118 66 -118 166c0 71.333 35.333 207.333 106 408c29.333 82 66 123 110 123c52.667 0 133.667 -44 243 -132c103.333 -84 155 -164.667 155 -242c0 -14.667 -13.667 -67.667 -41 -159l-30 -98zM543 214c0 60.667 -15.333 114.333 -46 161
c-39.333 60.667 -90.666 101 -153.999 121l-25 5c-24.667 0 -48.334 -30.333 -71.001 -91c-18 -52 -27 -94 -27 -126c0 -46.667 32.667 -70 98 -70h225zM453 1112l-41 -105c-112.667 -16.667 -200.667 -63 -264 -139c7.33301 54.667 29.333 102.667 66 144
c-56 12 -84 44.667 -84 98c0 40.667 23.333 90 70 148c38 45.333 89.667 68 155 68c38 0 57 -13.667 57 -41c0 -20 -10 -45 -30 -75c-19.333 6 -36.666 9 -51.999 9c-56 0 -101.667 -22 -137 -66c44 -41.333 99.333 -62 166 -62c21.333 0 52.666 7 93.999 21z" />
    <glyph glyph-name="u062A" unicode="&#x62a;" horiz-adv-x="1333" arabic-form="isolated" 
d="M1169 0h-781.002c-103.333 -0 -177.666 14.333 -222.999 43c-57.333 36.667 -86 104.334 -86 203.001c0 118 37.667 231 113 339c-14.667 -50 -22 -104 -22 -162c0 -88 23.333 -147 70 -177c36.667 -21.333 101.334 -32 194.001 -32h696
c0 83.333 -28 163.666 -84 240.999l120 162c70 -86.667 105 -174 105 -262c0 -45.333 -13 -106 -39 -182zM872.998 655l-114 -100l-86 80l-91 -80l-139 132l111 98l84 -77l96 77z" />
    <glyph glyph-name="u062B" unicode="&#x62b;" horiz-adv-x="1333" arabic-form="isolated" 
d="M1169 0h-781.002c-103.333 -0 -177.666 14.333 -222.999 43c-57.333 36.667 -86 104.334 -86 203.001c0 118 37.667 231 113 339c-14.667 -50 -22 -104 -22 -162c0 -88 23.333 -147 70 -177c36.667 -21.333 101.334 -32 194.001 -32h696
c0 83.333 -28 163.666 -84 240.999l120 162c70 -86.667 105 -174 105 -262c0 -45.333 -13 -106 -39 -182zM872.998 655l-114 -100l-86 80l-91 -80l-139 132l111 98l84 -77l96 77zM749.998 915l-112 -98l-141 127l112 105z" />
    <glyph glyph-name="u062C" unicode="&#x62c;" horiz-adv-x="1169" arabic-form="isolated" 
d="M1153 701l-110.001 -200c-190.667 0 -368.667 -48 -534 -144c-194.667 -112 -292 -256.667 -292 -434c0 -126 62.333 -223.333 187 -292c102 -54.667 221 -82 357 -82c118.667 0 237 14.667 355 44c-40.667 -32 -90.667 -79 -150 -141
c-39.333 -41.333 -75.666 -68.666 -108.999 -81.999c-45.333 -18.667 -116 -28 -212 -28c-170 0 -303.333 38 -400 114c-110.667 83.333 -166 207.666 -166 372.999c0 252 123.667 476.667 371 674c-64 13.333 -113.333 20 -148 20c-71.333 0 -138.333 -15 -201 -45l69 152
c34.667 58 78.667 87 132 87c71.333 0 177.5 -4.66699 318.5 -14s246.5 -14 316.5 -14c77.333 0 149.333 4 216 12zM731.999 -16l-109 -100l-144 130l114 102z" />
    <glyph glyph-name="u062D" unicode="&#x62d;" horiz-adv-x="1169" arabic-form="isolated" 
d="M1153 701l-110.001 -200c-190.667 0 -368.667 -48 -534 -144c-194.667 -112 -292 -256.667 -292 -434c0 -126 62.333 -223.333 187 -292c102 -54.667 221 -82 357 -82c118.667 0 237 14.667 355 44c-40.667 -32 -90.667 -79 -150 -141
c-39.333 -41.333 -75.666 -68.666 -108.999 -81.999c-45.333 -18.667 -116 -28 -212 -28c-170 0 -303.333 38 -400 114c-110.667 83.333 -166 207.666 -166 372.999c0 252 123.667 476.667 371 674c-64 13.333 -113.333 20 -148 20c-71.333 0 -138.333 -15 -201 -45l69 152
c34.667 58 78.667 87 132 87c71.333 0 177.5 -4.66699 318.5 -14s246.5 -14 316.5 -14c77.333 0 149.333 4 216 12z" />
    <glyph glyph-name="u062E" unicode="&#x62e;" horiz-adv-x="1169" arabic-form="isolated" 
d="M1153 701l-109.999 -200c-190.667 0 -368.667 -48 -534 -144c-194.667 -112 -292 -256.667 -292 -434c0 -126 62.333 -223.333 187 -292c102 -54.667 221 -82 357 -82c118.667 0 237 14.667 355 44c-40.667 -32 -90.667 -79 -150 -141
c-39.333 -41.333 -75.666 -68.666 -108.999 -81.999c-45.333 -18.667 -116 -28 -212 -28c-170 0 -303.333 38 -400 114c-110.667 83.333 -166 207.666 -166 372.999c0 252 123.667 476.667 371 674c-64 13.333 -113.333 20 -148 20c-71.333 0 -138.333 -15 -201 -45l69 152
c34.667 58 78.667 87 132 87c71.333 0 177.166 -4.66699 317.499 -14s245.166 -14 314.499 -14c79.333 0 152.333 4 219 12zM732.001 981l-109 -100l-144 129l114 103z" />
    <glyph glyph-name="u062F" unicode="&#x62f;" horiz-adv-x="669" arabic-form="isolated" 
d="M324 671c178 -77.333 267 -188.667 267 -334c0 -58 -13.667 -121.667 -41 -191l-57 -146h-455l47 214h371c0 76 -18 136.667 -54 182c-32 39.333 -85.333 75 -160 107z" />
    <glyph glyph-name="u0630" unicode="&#x630;" horiz-adv-x="669" arabic-form="isolated" 
d="M324 671c178 -77.333 267 -188.667 267 -334c0 -58 -13.667 -121.667 -41 -191l-57 -146h-455l47 214h371c0 76 -18 136.667 -54 182c-32 39.333 -85.333 75 -160 107zM434 952.999l-110 -100l-143 130l114 102z" />
    <glyph glyph-name="u0631" unicode="&#x631;" horiz-adv-x="552" arabic-form="isolated" 
d="M321 457c84.667 -110.667 127.002 -222.001 127.002 -334.001c0 -109.333 -34.667 -226.333 -104 -351c-82 -145.333 -164.667 -218 -248 -218c-32 0 -69.333 19 -112 57c-46.667 42.667 -89 90.334 -127 143.001l-16 23c51.333 -22.667 102.666 -34 153.999 -34
c78 0 150.333 34 217 102c56 56 100.667 125 134 207c-15.333 48.667 -35.833 95 -61.5 139s-53.834 85.667 -84.501 125z" />
    <glyph glyph-name="u0632" unicode="&#x632;" horiz-adv-x="552" arabic-form="isolated" 
d="M321 457c84.667 -110.667 127.002 -222.001 127.002 -334.001c0 -109.333 -34.667 -226.333 -104 -351c-82 -145.333 -164.667 -218 -248 -218c-32 0 -69.333 19 -112 57c-46.667 42.667 -89 90.334 -127 143.001l-16 23c51.333 -22.667 102.666 -34 153.999 -34
c78 0 150.333 34 217 102c56 56 100.667 125 134 207c-15.333 48.667 -35.833 95 -61.5 139s-53.834 85.667 -84.501 125zM360.002 716.999l-110 -100l-143 129l111 105z" />
    <glyph glyph-name="u0633" unicode="&#x633;" horiz-adv-x="1754" arabic-form="isolated" 
d="M873 0c0 -4.66699 -14 -51.001 -42 -139.001s-45 -136.333 -51 -145c-147.333 -100.667 -286.333 -151 -417 -151c-92.667 0 -168.5 32 -227.5 96s-88.5 142 -88.5 234c0 141.333 45.333 298.333 136 471c-28.667 -115.333 -43 -213 -43 -293
c0 -198.667 79.667 -298 239 -298c64 0 131.5 15.167 202.5 45.5s130.167 68.166 177.5 113.499c0 132 -46.333 277 -139 435l121 141c54.667 -74.667 91.667 -156 111 -244c3.33301 -16 6.33301 -33.333 9 -52h296l-114 255l110 141l184 -396h203
c0 82 -28.333 162.333 -85 241l119 162c69.333 -83.333 104 -170.666 104 -261.999c0 -53.333 -15.667 -124.666 -47 -213.999l-25 -73l-30 -68h-323l-34 82l-64 -82h-282z" />
    <glyph glyph-name="u0634" unicode="&#x634;" horiz-adv-x="1754" arabic-form="isolated" 
d="M873 0c0 -4.66699 -14 -51.001 -42 -139.001s-45 -136.333 -51 -145c-147.333 -100.667 -286.333 -151 -417 -151c-92.667 0 -168.5 32 -227.5 96s-88.5 142 -88.5 234c0 141.333 45.333 298.333 136 471c-28.667 -115.333 -43 -213 -43 -293
c0 -198.667 79.667 -298 239 -298c64 0 131.5 15.167 202.5 45.5s130.167 68.166 177.5 113.499c0 132 -46.333 277 -139 435l121 141c54.667 -74.667 91.667 -156 111 -244c3.33301 -16 6.33301 -33.333 9 -52h296l-114 255l110 141l184 -396h203
c0 82 -28.333 162.333 -85 241l119 162c69.333 -83.333 104 -170.666 104 -261.999c0 -53.333 -15.667 -124.666 -47 -213.999l-25 -73l-30 -68h-323l-34 82l-64 -82h-282zM1319 866.999l-114 -100l-86 80l-94 -80l-136 132l111 98l84 -78l94 78zM1196 1126l-112 -97
l-141 127l112 105z" />
    <glyph glyph-name="u0635" unicode="&#x635;" horiz-adv-x="2036" arabic-form="isolated" 
d="M873 0c0 -4.66699 -14 -50.999 -42 -138.999s-45 -136.333 -51 -145c-147.333 -100.667 -286.333 -151 -417 -151c-92.667 0 -168.5 32 -227.5 96s-88.5 142 -88.5 234c0 141.333 45.333 298.333 136 471c-28.667 -115.333 -43 -213 -43 -293
c0 -198.667 79.667 -298 239 -298c64 0 131.5 15.167 202.5 45.5s130.167 68.166 177.5 113.499c0 132 -46.333 277 -139 435l121 141c54.667 -74.667 91.667 -156 111 -244c3.33301 -15.333 6 -32 8 -50h4l571 362c84.667 51.333 149 77 193 77
c64 0 134.667 -38.667 212 -116c68 -68 102 -146.667 102 -236c0 -38 -6 -73 -18 -105l-77 -198h-974zM1822 214.001c-18.667 68 -51.334 129.333 -98.001 184c-54.667 62.667 -114 94 -178 94l-34 -5c-27.333 -9.33301 -76.666 -35 -147.999 -77l-102 -62l-64 -41l-150 -93
h774z" />
    <glyph glyph-name="u0636" unicode="&#x636;" horiz-adv-x="2036" arabic-form="isolated" 
d="M873 0c0 -4.66699 -14 -50.999 -42 -138.999s-45 -136.333 -51 -145c-147.333 -100.667 -286.333 -151 -417 -151c-92.667 0 -168.5 32 -227.5 96s-88.5 142 -88.5 234c0 141.333 45.333 298.333 136 471c-28.667 -115.333 -43 -213 -43 -293
c0 -198.667 79.667 -298 239 -298c64 0 131.5 15.167 202.5 45.5s130.167 68.166 177.5 113.499c0 132 -46.333 277 -139 435l121 141c54.667 -74.667 91.667 -156 111 -244c3.33301 -15.333 6 -32 8 -50h4l571 362c84.667 51.333 149 77 193 77
c64 0 134.667 -38.667 212 -116c68 -68 102 -146.667 102 -236c0 -38 -6 -73 -18 -105l-77 -198h-974zM1822 214.001c-18.667 68 -51.334 129.333 -98.001 184c-54.667 62.667 -114 94 -178 94l-34 -5c-27.333 -9.33301 -76.666 -35 -147.999 -77l-102 -62l-64 -41l-150 -93
h774zM1364 796.001l-111 -100l-141 130l111 102z" />
    <glyph glyph-name="u0637" unicode="&#x637;" horiz-adv-x="1517" arabic-form="isolated" 
d="M154 0l-138.999 214h355l114 70l-62 692c-24 9.33301 -42 27 -54 53c6 30 22.667 64.667 50 104c21.333 33.333 43.333 66 66 98c1.33301 -24 8.66602 -47.333 21.999 -70c29.333 -18.667 95.333 -50.667 198 -96l-72 -168l-44 15c16.667 -222.667 25 -353 25 -391
c0 -56 -12 -113.667 -36 -173l266 173c146 89.333 243.333 134 292 134c70.667 0 144 -39.833 220 -119.5s114 -155.167 114 -226.5c0 -48 -37 -151 -111 -309h-1204zM1330 214c-16.667 66.667 -48.332 127.333 -94.999 182c-56.667 64 -115.334 96 -176.001 96
c-40.667 0 -127.667 -41 -261 -123l-239 -155h771z" />
    <glyph glyph-name="u0638" unicode="&#x638;" horiz-adv-x="1517" arabic-form="isolated" 
d="M154 0l-138.999 214h355l114 70l-62 692c-24 9.33301 -42 27 -54 53c6 30 22.667 64.667 50 104c21.333 33.333 43.333 66 66 98c1.33301 -24 8.66602 -47.333 21.999 -70c29.333 -18.667 95.333 -50.667 198 -96l-72 -168l-44 15c16.667 -222.667 25 -353 25 -391
c0 -56 -12 -113.667 -36 -173l266 173c146 89.333 243.333 134 292 134c70.667 0 144 -39.833 220 -119.5s114 -155.167 114 -226.5c0 -48 -37 -151 -111 -309h-1204zM1094 890l-112 -98l-141 130l111 102zM1330 214c-16.667 66.667 -48.332 127.333 -94.999 182
c-56.667 64 -115.334 96 -176.001 96c-40.667 0 -127.667 -41 -261 -123l-239 -155h771z" />
    <glyph glyph-name="u0639" unicode="&#x639;" horiz-adv-x="962" arabic-form="isolated" 
d="M907 335l-70.999 -212c-200 0 -329.667 -7 -389 -21c-162 -34.667 -243 -118.667 -243 -252c0 -106 67.333 -190.333 202 -253c108 -48.667 222 -73 342 -73c100 0 225 16.667 375 50l-209 -193c-52 -38 -147.667 -57 -287 -57c-159.333 0 -286.666 33.333 -381.999 100
c-110.667 76 -166 190.667 -166 344c0 170 72 330 216 480c-92.667 80.667 -139 155.667 -139 225c0 77.333 36.833 160.5 110.5 249.5s149.167 133.5 226.5 133.5c121.333 0 214.666 -82.667 279.999 -248c-88 51.333 -161.667 77 -221 77
c-118.667 0 -214.334 -65.333 -287.001 -196c47.333 -60.667 107.333 -112 180 -154h462z" />
    <glyph glyph-name="u063A" unicode="&#x63a;" horiz-adv-x="962" arabic-form="isolated" 
d="M907 335l-70.999 -212c-200 0 -329.667 -7 -389 -21c-162 -34.667 -243 -118.667 -243 -252c0 -106 67.333 -190.333 202 -253c108 -48.667 222 -73 342 -73c100 0 225 16.667 375 50l-209 -193c-52 -38 -147.667 -57 -287 -57c-159.333 0 -286.666 33.333 -381.999 100
c-110.667 76 -166 190.667 -166 344c0 170 72 330 216 480c-92.667 80.667 -139 155.667 -139 225c0 77.333 36.833 160.5 110.5 249.5s149.167 133.5 226.5 133.5c121.333 0 214.666 -82.667 279.999 -248c-88 51.333 -161.667 77 -221 77
c-118.667 0 -214.334 -65.333 -287.001 -196c47.333 -60.667 107.333 -112 180 -154h462zM557.001 1090l-112 -100l-141 130l111 102z" />
    <glyph glyph-name="u0641" unicode="&#x641;" horiz-adv-x="1447" arabic-form="isolated" 
d="M1287 0l-933 -0.000976562c-183.333 0 -275 79 -275 237c0 122.667 38.667 238 116 346c-15.333 -58 -23 -108.333 -23 -151c0 -94 24.333 -156 73 -186c36 -21.333 106.333 -32 211 -32h804l6 93l-4 41l-59 -75h-187c-107.333 0 -161 53 -161 159
c0 73.333 28 154 84 242c60.667 95.333 125 143 193 143c72.667 0 135 -57 187 -171c42.667 -95.333 64 -184.666 64 -267.999c0 -82 -32 -208 -96 -378zM1246 470.999c0 39.333 -11.333 79.167 -34 119.5s-53 60.5 -91 60.5c-27.333 0 -53.5 -13 -78.5 -39
s-37.5 -52.667 -37.5 -80c0 -40.667 36.333 -61 109 -61h132zM1223 1063l-111 -100l-141 129l111 103z" />
    <glyph glyph-name="u0642" unicode="&#x642;" horiz-adv-x="998" arabic-form="isolated" 
d="M167 314c-25.333 -115.333 -37.998 -204.663 -37.998 -267.996c0 -202 81.667 -303 245 -303c115.333 0 246.666 50.667 393.999 152c16.667 91.333 25 166.666 25 225.999l-32 -44h-107c-78.667 0 -137 9.33301 -175 28c-54.667 27.333 -82 76.666 -82 147.999
c0 74 27.333 162 82 264c62 113.333 126.667 170 194 170c84.667 0 152 -66 202 -198c39.333 -102.667 59 -205 59 -307c0 -122.667 -40 -284.334 -120 -485.001c-173.333 -106 -329 -159 -467 -159c-92.667 0 -165.834 30.667 -219.501 92s-80.5 138.333 -80.5 231
c0 77.333 11.333 154.666 34 231.999c15.333 47.333 44 121 86 221zM871.002 956.003l-114 -100l-87 79l-93 -79l-137 132l112 97l84 -79l93 79zM782.002 291.003c-15.333 141.333 -57 212 -125 212c-27.333 0 -53.5 -16 -78.5 -48s-37.5 -62.333 -37.5 -91
c0 -48.667 36.333 -73 109 -73h132z" />
    <glyph glyph-name="u0643" unicode="&#x643;" horiz-adv-x="1575" arabic-form="isolated" 
d="M377 0c-97.333 0 -168.666 14.334 -213.999 43.001c-56 38 -84 104 -84 198c0 114 37.667 228.667 113 344c-14.667 -60.667 -22 -112.334 -22 -155.001c0 -82 18.167 -138.5 54.5 -169.5s96.166 -46.5 179.499 -46.5h809l-371 412l-35 -37l-79 78l-25 22
c-15.333 14 -23 29.333 -23 46c0 12 4.66699 28 14 48l11 25l87 193l776 216l-91 -195l-597 -175l471 -519c41.333 -46 62 -79.333 62 -100c0 -12.667 -5.33301 -28.667 -16 -48l-23 -43l-70 -137h-927z" />
    <glyph glyph-name="u0644" unicode="&#x644;" horiz-adv-x="1024" arabic-form="isolated" 
d="M982 1060l-72.998 -170.001l-38 16c7.33301 -118.667 15.666 -236.334 24.999 -353.001c8.66699 -141.333 13 -259.666 13 -354.999c0 -127.333 -31.667 -280.666 -95 -459.999c-154.667 -112 -304.334 -168 -449.001 -168c-95.333 0 -172.166 31.167 -230.499 93.5
s-87.5 141.833 -87.5 238.5c0 104.667 43 255 129 451c-25.333 -112.667 -38 -206 -38 -280c0 -198.667 80.333 -298 241 -298c124.667 0 250.667 53 378 159c-10.667 230.667 -28.334 575.667 -53.001 1035l-47 23l-14 32c7.33301 28.667 24 62.667 50 102l64 96
c1.33301 -40.667 30 -75.667 86 -105z" />
    <glyph glyph-name="u0645" unicode="&#x645;" horiz-adv-x="910" arabic-form="isolated" 
d="M190 221l107 240.999c66.667 132 126 198 178 198c69.333 0 149.5 -49.333 240.5 -148s136.5 -183.667 136.5 -255c0 -36 -24 -121.667 -72 -257h-626c18 -291.333 27 -438.333 27 -441c0 -44 -40.333 -134.333 -121 -271c-30 295.333 -45 485 -45 569
c0 46.667 19.667 119.334 59 218.001c44 108 82.667 156.667 116 146zM308 213.999l428 -0.000976562c-12 48.667 -43.667 102.334 -95 161.001c-56 65.333 -106 98 -150 98c-27.333 0 -64 -38.667 -110 -116z" />
    <glyph glyph-name="u0646" unicode="&#x646;" horiz-adv-x="944" arabic-form="isolated" 
d="M741 510c92.667 -135.333 139 -279.667 139 -433c0 -75.333 -31.333 -195 -94 -359c-150 -102 -291 -153 -423 -153c-90.667 0 -166 31.5 -226 94.5s-90 140.167 -90 231.5c0 76 22.667 180 68 312c15.333 45.333 37.333 99 66 161c-27.333 -136.667 -41 -239 -41 -307
c0 -85.333 19 -153 57 -203c42.667 -54.667 105 -82 187 -82c58.667 0 124.667 17 198 51c68 28.667 126.333 65 175 109c0 68 -11.333 142.333 -34 223c-16.667 57.333 -51.667 127 -105 209zM534 593.999l-112 -100l-141 130l112 102z" />
    <glyph glyph-name="u0647" unicode="&#x647;" horiz-adv-x="741" arabic-form="isolated" 
d="M591 0l-403 2c-78.667 10.667 -118 66 -118 166c0 71.333 35.333 207.333 106 408c29.333 82 66 123 110 123c52.667 0 133.667 -44 243 -132c103.333 -84 155 -164.667 155 -242c0 -14.667 -13.667 -67.667 -41 -159l-30 -98zM543 214c0 60.667 -15.333 114.333 -46 161
c-39.333 60.667 -90.666 101 -153.999 121l-25 5c-24.667 0 -48.334 -30.333 -71.001 -91c-18 -52 -27 -94 -27 -126c0 -46.667 32.667 -70 98 -70h225z" />
    <glyph glyph-name="u0648" unicode="&#x648;" horiz-adv-x="694" arabic-form="isolated" 
d="M485 0l-154.998 -0.000976562l-112 5c-40.667 7.33301 -73.834 25.833 -99.501 55.5s-38.5 65.5 -38.5 107.5c0 141.333 59 273.333 177 396c30.667 32 65 48 103 48c50 0 97 -31.667 141 -95c75.333 -108 113 -236.333 113 -385c0 -170 -56 -324.667 -168 -464
c-62 -77.333 -119.667 -116 -173 -116c-59.333 0 -144.333 72 -255 216c53.333 -20 102 -30 146 -30c74 0 140.667 26.667 200 80c51.333 46.667 91.666 107.334 120.999 182.001zM469.002 213.999c-16.667 139.333 -58.333 209 -125 209c-32 0 -59.833 -15.5 -83.5 -46.5
s-35.5 -62.5 -35.5 -94.5c0 -22.667 8.33301 -40.667 25 -54l23 -10l36 -4h160z" />
    <glyph glyph-name="u0649" unicode="&#x649;" horiz-adv-x="1112" arabic-form="isolated" 
d="M641 316l277.003 -123c62.667 -27.333 94 -53.666 94 -78.999c0 -21.333 -14.667 -59.333 -44 -114l-25 -48l-82 -161c-58.667 -56.667 -115.334 -100 -170.001 -130c-112.667 -62 -219.667 -93 -321 -93c-97.333 0 -175.5 31.5 -234.5 94.5s-88.5 142.833 -88.5 239.5
c0 77.333 19.667 170.666 59 279.999c21.333 59.333 45.666 117 72.999 173l-9 -36c-21.333 -85.333 -32 -161.333 -32 -228c0 -209.333 83.333 -314 250 -314c72.667 0 152.667 22.333 240 67s150.666 97.334 189.999 158.001l-271 123c-16.667 8 -40 21.667 -70 41
c-8 7.33301 -12 21.666 -12 42.999c0 33.333 17.667 79 53 137c130.667 215.333 283.667 323 459 323c64 0 96 -22 96 -66c0 -12 -0.666992 -21 -2 -27l-25 -66l-21 -62c-39.333 16.667 -79.333 25 -120 25c-108 0 -196 -52.333 -264 -157z" />
    <glyph glyph-name="u064A" unicode="&#x64a;" horiz-adv-x="1112" arabic-form="isolated" 
d="M641 316l277.003 -123c62.667 -27.333 94 -53.666 94 -78.999c0 -21.333 -14.667 -59.333 -44 -114l-25 -48l-82 -161c-58.667 -56.667 -115.334 -100 -170.001 -130c-112.667 -62 -219.667 -93 -321 -93c-97.333 0 -175.5 31.5 -234.5 94.5s-88.5 142.833 -88.5 239.5
c0 77.333 19.667 170.666 59 279.999c21.333 59.333 45.666 117 72.999 173l-9 -36c-21.333 -85.333 -32 -161.333 -32 -228c0 -209.333 83.333 -314 250 -314c72.667 0 152.667 22.333 240 67s150.666 97.334 189.999 158.001l-271 123c-16.667 8 -40 21.667 -70 41
c-8 7.33301 -12 21.666 -12 42.999c0 33.333 17.667 79 53 137c130.667 215.333 283.667 323 459 323c64 0 96 -22 96 -66c0 -12 -0.666992 -21 -2 -27l-25 -66l-21 -62c-39.333 16.667 -79.333 25 -120 25c-108 0 -196 -52.333 -264 -157z" />
    <glyph glyph-name="u067E" unicode="&#x67e;" horiz-adv-x="1333" arabic-form="isolated" 
d="M1169 0l-899 2c-24.667 0 -52.667 9.33301 -84 28c-71.333 40.667 -107 112.667 -107 216c0 118 37.667 231 113 339c-14.667 -50 -22 -104 -22 -162c0 -94 28.667 -156 86 -186c28.667 -15.333 88 -23 178 -23h696c0 83.333 -28 163.666 -84 240.999l120 162
c70 -86.667 105 -174 105 -262c0 -53.333 -16.667 -124.666 -50 -213.999zM502 -287l114 100l88 -79l91 79l139 -132l-114 -97l-84 77l-93 -77zM625 -546l111 98l141 -128l-111 -104z" />
    <glyph glyph-name="u0686" unicode="&#x686;" horiz-adv-x="1169" arabic-form="isolated" 
d="M1153 701l-109.999 -200.001c-81.333 0 -161.666 -8.33301 -240.999 -25c-146.667 -30.667 -276.334 -93 -389.001 -187c-130.667 -108 -196 -230 -196 -366c0 -124.667 63 -222.667 189 -294c94 -53.333 212.333 -80 355 -80c118.667 0 237 14.667 355 44
c-62 -48.667 -114.333 -96.667 -157 -144l-45 -50l-32 -25c-39.333 -21.333 -118.333 -32 -237 -32c-254.667 0 -424.334 82 -509.001 246c-38 72.667 -57 153 -57 241c0 252 123.667 476.667 371 674c-62.667 13.333 -112 20 -148 20c-71.333 0 -138.333 -15 -201 -45
l57 125c36.667 78.667 90.667 116.667 162 114l91 -5l114 -9c46.667 -1.33301 121 -3.66602 223 -6.99902c78.667 -6 131 -9 157 -9h45c58 0 125.667 4.66699 203 14zM386.001 31.999l114 100l88 -80l91 80l139 -132l-114 -98l-84 78l-93 -78zM509.001 -228.001l111 98
l141 -127l-111 -105z" />
    <glyph glyph-name="u0698" unicode="&#x698;" horiz-adv-x="552" arabic-form="isolated" 
d="M321 457c84.667 -110.667 127.002 -222.001 127.002 -334.001c0 -109.333 -34.667 -226.333 -104 -351c-82 -145.333 -164.667 -218 -248 -218c-32 0 -69.333 19 -112 57c-46.667 42.667 -89 90.334 -127 143.001l-16 23c51.333 -22.667 102.666 -34 153.999 -34
c78 0 150.333 34 217 102c56 56 100.667 125 134 207c-15.333 48.667 -35.833 95 -61.5 139s-53.834 85.667 -84.501 125zM33.002 753.999l114 102l89 -80l91 80l139 -134l-114 -98l-84 80l-94 -80zM352.002 987.999l-112 -98l-141 128l112 104z" />
    <glyph glyph-name="u06AF" unicode="&#x6af;" horiz-adv-x="1575" arabic-form="isolated" 
d="M377 0c-97.333 0 -168.666 14.334 -213.999 43.001c-56 38 -84 104 -84 198c0 114 37.667 228.667 113 344c-14.667 -60.667 -22 -112.334 -22 -155.001c0 -82 18.167 -138.5 54.5 -169.5s96.166 -46.5 179.499 -46.5h809l-371 412l-35 -37l-79 78l-25 22
c-15.333 14 -23 29.333 -23 46c0 12 4.66699 28 14 48l11 25l87 193l776 216l-91 -195l-597 -175l471 -519c41.333 -46 62 -79.333 62 -100c0 -12.667 -5.33301 -28.667 -16 -48l-23 -43l-70 -137h-927zM927 1113l60 139l595 166l-62 -132l-473 -139z" />
    <glyph glyph-name="uFB57" unicode="&#x67e;" horiz-adv-x="1549" arabic-form="final" 
d="M1230 498l82.001 -284h289v-214h-394l-22 71l-60 -71l-855 2c-15.333 0 -26 1 -32 3c-59.333 14.667 -103.333 51 -132 109c-18 36 -27 80 -27 132c0 113.333 37.667 226.333 113 339c-14.667 -50 -22 -104 -22 -162c0 -92.667 28.667 -154.667 86 -186
c27.333 -15.333 86.666 -23 177.999 -23h710l-48 155zM502.001 -275l114 100l88 -80l91 80l139 -132l-114 -98l-84 77l-93 -77zM625.001 -535l111 98l141 -127l-111 -105z" />
    <glyph glyph-name="uFB58" unicode="&#x67e;" horiz-adv-x="539" arabic-form="initial" 
d="M-50 214h387c0 83.333 -28 163.666 -84 240.999l118 162c70 -83.333 105 -170.666 105 -261.999c0 -60.667 -16 -132 -48 -214l-55 -141h-423v214zM84 -280l114 100l89 -79l91 79l139 -132l-114 -98l-84 78l-94 -78zM207 -539l112 98l141 -128l-112 -105z" />
    <glyph glyph-name="uFB59" unicode="&#x67e;" horiz-adv-x="723" arabic-form="medial" 
d="M405 498l82 -284h289v-214h-394l-22 71l-60 -71h-350v214h369l-46 155zM148 -284l114 100l88 -80l91 80l139 -132l-114 -98l-84 77l-93 -77zM271 -544l111 98l141 -127l-111 -105z" />
    <glyph glyph-name="uFB7B" unicode="&#x686;" horiz-adv-x="1388" arabic-form="final" 
d="M816 478c-147.333 -28.667 -279.33 -90.001 -395.997 -184.001c-135.333 -109.333 -203 -232.333 -203 -369c0 -127.333 62.333 -225.333 187 -294c100 -54.667 219 -82 357 -82c118.667 0 237 14.667 355 44c-62 -48.667 -114.333 -96.667 -157 -144l-45 -50l-32 -25
c-39.333 -21.333 -118.333 -32 -237 -32c-254.667 0 -424.334 82 -509.001 246c-38 72.667 -57 153 -57 241c0 252 122 475 366 669l5 5l-37 9c-30 7.33301 -66.333 11 -109 11c-72.667 0 -140.334 -15 -203.001 -45l57 125c36.667 78.667 90.667 116.667 162 114l91 -5
l114 -9c46.667 -1.33301 121 -3.66602 223 -6.99902c78.667 -6 131 -9 157 -9h43c63.333 0 131.666 4.66699 204.999 14l-110 -200l-63 -3l-30 -2l48 -143l20 -53c15.333 -38 29.833 -61.833 43.5 -71.5s41.167 -14.5 82.5 -14.5h295v-214h-348c-62 0 -107 12.5 -135 37.5
s-49 68.5 -63 130.5l-11 50zM386.003 31.999l114 100l88 -80l91 80l139 -132l-114 -98l-84 78l-93 -78zM509.003 -228.001l111 98l141 -127l-111 -105z" />
    <glyph glyph-name="uFB7C" unicode="&#x686;" horiz-adv-x="1247" arabic-form="initial" 
d="M1231 341l-115.998 -183.999c-66.667 13.333 -122.667 20 -168 20c-126 0 -233 -40.667 -321 -122c-39.333 -36.667 -82 -55 -128 -55h-548v214h623c30.667 27.333 66.334 47.666 107.001 60.999c-54.667 44 -115.334 84.333 -182.001 121
c-84.667 45.333 -152 68 -202 68l-43 -7l70 71c53.333 53.333 102.666 80 147.999 80c30.667 0 87.667 -20.667 171 -62l176 -84c58.667 -27.333 102.334 -47 131.001 -59c51.333 -20 98.666 -34.167 141.999 -42.5s81.666 -13.833 114.999 -16.5zM435.002 -256.999l113 100
l89 -80l91 80l139 -132l-114 -98l-84 78l-93 -78zM558.002 -516.999l111 98l141 -127l-111 -105z" />
    <glyph glyph-name="uFB7D" unicode="&#x686;" horiz-adv-x="1456" arabic-form="medial" 
d="M1231 341l-65.998 -101.999l-25 2c4.66699 -18 23.667 -27 57 -27h312v-214h-346c-54.667 0 -93.334 4.66699 -116.001 14c-38 14.667 -63 51 -75 109l-5 20l-9 34c-133.333 0 -244 -40.667 -332 -122c-39.333 -36.667 -82 -55 -128 -55h-548v214h623
c30.667 27.333 66.334 47.666 107.001 60.999c-54.667 44 -115.334 84.333 -182.001 121c-84.667 45.333 -152 68 -202 68l-43 -7l70 71c53.333 53.333 102.666 80 147.999 80c28.667 0 87 -20.667 175 -62l178 -89c110.667 -50 210.667 -84 300 -102
c39.333 -9.33301 75 -14 107 -14zM423.002 -245.999l114 100l89 -79l91 79l139 -132l-114 -97l-84 77l-94 -77zM546.002 -504.999l112 98l141 -128l-112 -104z" />
    <glyph glyph-name="uFB8B" unicode="&#x698;" horiz-adv-x="687" arabic-form="final" 
d="M437 214l299.999 -0.000976562v-214h-302c-20 -91.333 -59.667 -183 -119 -275c-71.333 -114 -144.666 -171 -219.999 -171c-38 0 -86 28.667 -144 86c-42.667 42.667 -79.667 88.334 -111 137.001c51.333 -22.667 102.666 -34 153.999 -34c78 0 150.333 34 217 102
c54.667 54.667 99.334 123.667 134.001 207c-27.333 86.667 -76 174.667 -146 264l121 141c57.333 -77.333 96 -158.333 116 -243zM90.999 753.999l114 102l89 -80l91 80l139 -134l-114 -98l-84 80l-94 -80zM409.999 987.999l-112 -98l-141 128l112 104z" />
    <glyph glyph-name="uFEDA" unicode="&#x6a9;" horiz-adv-x="1554" arabic-form="final" 
d="M356 0c-184.667 0 -277.001 77.333 -277.001 232c0 118.667 37 235.667 111 351c-12 -67.333 -18 -119.666 -18 -156.999c0 -90 25 -150 75 -180c36.667 -21.333 103.334 -32 200.001 -32h769l-371 412l-35 -37l-79 78l-25 22c-15.333 14 -23 29.333 -23 46
c0 12 4.66699 28 14 48l11 25l87 193l776 216l-91 -195l-597 -175l471 -519c34.667 -38.667 54.667 -68.334 60 -89.001l39 -25h284v-214h-344l-64 65l-40 -65h-933z" />
    <glyph glyph-name="uFEDB" unicode="&#x6a9;" horiz-adv-x="1174" arabic-form="initial" 
d="M1161 1217l-91 -195l-597 -175l471 -519c41.333 -46 62 -79.333 62 -100c0 -12.667 -5.33301 -28.667 -16 -48l-23 -43l-70 -137h-947v214h856l-371 412l-35 -37l-79 78l-25 22c-15.333 14 -23 29.333 -23 46c0 12 4.66699 28 14 48l11 25l87 193z" />
    <glyph glyph-name="uFEDC" unicode="&#x6a9;" horiz-adv-x="1328" arabic-form="medial" 
d="M983 0l-57 66l-41 -66h-935v214h856l-48 53l-323 359l-32 -37l-73 66c-30.667 29.333 -49.667 56 -57 80c9.33301 38 26 83.667 50 137l62 129l776 216l-91 -195l-597 -175l294 -294c107.333 -112.667 180 -205 218 -277c10 -18 17.667 -35 23 -51l-2 -11h373v-214h-396z
" />
    <glyph glyph-name="uFB93" unicode="&#x6af;" horiz-adv-x="1554" arabic-form="final" 
d="M356 0c-184.667 0 -277.001 77.333 -277.001 232c0 118.667 37 235.667 111 351c-12 -67.333 -18 -119.666 -18 -156.999c0 -90 25 -150 75 -180c36.667 -21.333 103.334 -32 200.001 -32h769l-371 412l-35 -37l-79 78l-25 22c-15.333 14 -23 29.333 -23 46
c0 12 4.66699 28 14 48l11 25l87 193l776 216l-91 -195l-597 -175l471 -519c34.667 -38.667 54.667 -68.334 60 -89.001l39 -25h284v-214h-344l-64 65l-40 -65h-933zM926.999 1113l60 139l595 166l-62 -132l-473 -139z" />
    <glyph glyph-name="uFB94" unicode="&#x6af;" horiz-adv-x="1174" arabic-form="initial" 
d="M1161 1217l-91 -195l-597 -175l471 -519c41.333 -46 62 -79.333 62 -100c0 -12.667 -5.33301 -28.667 -16 -48l-23 -43l-70 -137h-947v214h856l-371 412l-35 -37l-79 78l-25 22c-15.333 14 -23 29.333 -23 46c0 12 4.66699 28 14 48l11 25l87 193zM505 1113l60 139
l595 166l-62 -132l-473 -139z" />
    <glyph glyph-name="uFB95" unicode="&#x6af;" horiz-adv-x="1328" arabic-form="medial" 
d="M983 0l-57 66l-41 -66h-935v214h856l-48 53l-323 359l-32 -37l-73 66c-30.667 29.333 -49.667 56 -57 80c9.33301 38 26 83.667 50 137l62 129l776 216l-91 -195l-597 -175l294 -294c107.333 -112.667 180 -205 218 -277c10 -18 17.667 -35 23 -51l-2 -11h373v-214h-396z
M505 1113l60 139l595 166l-62 -132l-473 -139z" />
    <glyph glyph-name="uFE94" unicode="&#x6c0;" horiz-adv-x="1028" arabic-form="final" 
d="M663 787l117 -573h298v-214h-428l-27 127l-69 -97l-491 72l93 283c9.33301 19.333 31.333 38 66 56l300 164l-11 50zM547 487l-252 -139c-24.667 -13.333 -40 -32.333 -46 -57l348 -52zM453 1112l-41 -105c-112.667 -16.667 -200.667 -63 -264 -139
c7.33301 54.667 29.333 102.667 66 144c-56 12 -84 44.667 -84 98c0 40.667 23.333 90 70 148c38 45.333 89.667 68 155 68c38 0 57 -13.667 57 -41c0 -20 -10 -45 -30 -75c-19.333 6 -36.666 9 -51.999 9c-56 0 -101.667 -22 -137 -66c44 -41.333 99.333 -62 166 -62
c21.333 0 52.666 7 93.999 21z" />
    <glyph glyph-name="uFEF2" unicode="&#x6cc;" horiz-adv-x="1276" arabic-form="final" 
d="M1326 214l0.000976562 -213.999h-321l-78 -166l-81 -159c-174.667 -126 -336.334 -189 -485.001 -189c-96 0 -172.333 32.5 -229 97.5s-85 146.167 -85 243.5c0 104.667 44 252.667 132 444c-27.333 -106 -41 -196.333 -41 -271c0 -200 86.333 -300 259 -300
c68.667 0 140.667 19 216 57c44 22.667 86.667 50.667 128 84c24 21.333 49 48.666 75 81.999c-70 54.667 -171 82 -303 82h-16l94 209h735z" />
    <glyph glyph-name="uFEF3" unicode="&#x6cc;" horiz-adv-x="539" arabic-form="initial" 
d="M-50 214l387 0.000976562c0 83.333 -28 163.666 -84 240.999l118 162c70 -82 105 -169.333 105 -262c0 -54.667 -16 -126 -48 -214l-25 -73l-30 -68h-423v214zM66 -281.999l116 100l87 -80l91 80l138 -132l-111 -98l-87 80l-93 -80z" />
    <glyph glyph-name="uFEF4" unicode="&#x6cc;" horiz-adv-x="723" arabic-form="medial" 
d="M405 498l82 -284h289v-214h-394l-22 71l-60 -71h-350v214h369l-46 155zM152 -282l117 100l86 -80l91 80l139 -132l-112 -98l-86 80l-93 -80z" />
    <glyph glyph-name="Hcircumflex" unicode="&#x622;" horiz-adv-x="540" arabic-form="final" 
d="M595 0h-391c-40 -0 -66 11.333 -78 34c-8.66699 15.333 -13 45 -13 89v917l172 182c0 1.33301 -0.666992 -96.667 -2 -294c-2.66699 -186 -3.33398 -334.667 -2.00098 -446c1.33301 -156 6 -239.333 14 -250c19.333 -12 50.333 -19.667 93 -23
c28.667 -1.33301 67.334 -1.33301 116.001 0l91 5v-214zM-56 1402l59.001 70c52 60.667 93 91 123 91c12 0 28 -3.66699 48 -11l18 -9l118 -50c32 -14 54 -21 66 -21c23.333 0 48.666 9.33301 75.999 28l20 13l48 25l-71 -77c-46.667 -51.333 -86.667 -77 -120 -77
c-15.333 0 -35 5 -59 15l-144 64c-12 6 -24 9 -36 9c-10.667 0 -25 -5.33301 -43 -16l-32 -18l-21 -9z" />
    <glyph glyph-name="uFE84" unicode="&#x623;" horiz-adv-x="540" arabic-form="final" 
d="M593 0h-391c-40 -0 -66 11.333 -78 34c-8.66699 15.333 -13 45 -13 89v917l172 182c0 1.33301 -0.666992 -96.667 -2 -294c-2.66699 -186 -3.33398 -334.667 -2.00098 -446c1.33301 -156 6 -239.333 14 -250c19.333 -12 50.333 -19.667 93 -23
c28.667 -1.33301 67.334 -1.33301 116.001 0l91 5v-214zM352 1502l-41 -105c-112.667 -16.667 -200.667 -63 -264 -139c7.33301 54.667 29.333 102.667 66 144c-56 12 -84 44.667 -84 98c0 40.667 23.333 90 70 148c38 45.333 89.667 68 155 68c38 0 57 -13.667 57 -41
c0 -20 -10 -45 -30 -75c-19.333 6 -36.666 9 -51.999 9c-56 0 -101.667 -22 -137 -66c44 -41.333 99.333 -62 166 -62c21.333 0 52.666 7 93.999 21z" />
    <glyph glyph-name="uFE86" unicode="&#x624;" horiz-adv-x="860" arabic-form="final" 
d="M610 214l302.001 -0.000976562v-214h-311c-12 -65.333 -36.667 -134.333 -74 -207s-79.166 -131 -125.499 -175s-89.166 -66 -128.499 -66c-59.333 0 -144.333 72 -255 216c53.333 -20 102 -30 146 -30c74 0 140.667 26.667 200 80
c51.333 46.667 91.666 107.334 120.999 182.001h-155l-112 5c-40.667 7.33301 -73.834 25.833 -99.501 55.5s-38.5 65.5 -38.5 107.5c0 141.333 59 273.333 177 396c30.667 32 65 48 103 48c68 0 127 -51.667 177 -155c39.333 -80 63.666 -161 72.999 -243zM469.001 213.999
c-16.667 139.333 -58.333 209 -125 209c-32 0 -59.833 -15.5 -83.5 -46.5s-35.5 -62.5 -35.5 -94.5c0 -22.667 8.33301 -40.667 25 -54l23 -10l36 -4h160zM453.002 934.999l-41.001 -103.999c-110.667 -15.333 -198.667 -61 -264 -137c12 60.667 34.667 107.667 68 141
c-57.333 12 -86 45.333 -86 100c0 39.333 24.333 88 73 146c37.333 45.333 88 68 152 68c38 0 57 -13 57 -39c0 -22.667 -10 -48.334 -30 -77.001c-18 6 -34.667 9 -50 9c-56 0 -101.333 -22 -136 -66c44 -39.333 98.667 -59 164 -59c26.667 0 43.334 0.666992 50.001 2
c18 8 32.333 13.333 43 16z" />
    <glyph glyph-name="uFE88" unicode="&#x625;" horiz-adv-x="540" arabic-form="final" 
d="M594 0h-391c-40 -0 -66 11.333 -78 34c-8.66699 15.333 -13 45 -13 89v917l172 182c0 1.33301 -0.666992 -96.667 -2 -294c-2.66699 -186 -3.33398 -334.667 -2.00098 -446c1.33301 -156 6 -239.333 14 -250c19.333 -12 50.333 -19.667 93 -23
c28.667 -1.33301 67.334 -1.33301 116.001 0l91 5v-214zM287 -369l-41.001 -104c-38 -8 -64 -13.333 -78 -16c-7.33301 -2 -21 -7.33301 -41 -16c-54 -21.333 -101.667 -57 -143 -107c7.33301 56 29.333 103.667 66 143c-56 12 -84 44.667 -84 98c0 42.667 23.333 92 70 148
c38 45.333 89 68 153 68c39.333 0 59 -13.667 59 -41c0 -19.333 -10 -45 -30 -77c-14.667 6 -32 9 -52 9c-57.333 0 -102.666 -21.333 -135.999 -64c40.667 -40.667 96 -61 166 -61h29c8 1.33301 28.667 8 62 20z" />
    <glyph glyph-name="uFE8A" unicode="&#x626;" horiz-adv-x="1276" arabic-form="final" 
d="M1327 214v-214h-319c-21.333 -36.667 -48.666 -90.667 -81.999 -162c-34.667 -75.333 -61 -129.666 -79 -162.999c-21.333 -38 -96.666 -80 -225.999 -126c-116.667 -42 -203 -63 -259 -63c-96 0 -172.333 33 -229 99s-85 146.667 -85 242
c0 71.333 13.667 147.333 41 228c13.333 40.667 43.666 112.667 90.999 216c-27.333 -112.667 -41 -202.334 -41 -269.001c0 -201.333 86.333 -302 259 -302c77.333 0 155.666 21 234.999 63c74 42.667 135.333 96 184 160c-74.667 54.667 -181 82 -319 82l94 209h735z
M300 578l-41.001 -107c-108.667 -13.333 -195.667 -58.666 -261 -135.999c7.33301 56 29.333 103 66 141c-56 13.333 -84 46.666 -84 99.999c0 54.667 23.5 104 70.5 148s97.833 66 152.5 66c37.333 0 56 -13 56 -39c0 -21.333 -9 -47 -27 -77
c-15.333 6 -32.666 9 -51.999 9c-58 0 -103.667 -21.333 -137 -64c44 -40.667 98.667 -61 164 -61c22.667 0 53.667 6.66699 93 20z" />
    <glyph glyph-name="uFE8B" unicode="&#x626;" horiz-adv-x="539" arabic-form="initial" 
d="M-50 214l387 -0.00195312c0 84.667 -28 165 -84 241l118 162c70 -83.333 105 -170.666 105 -261.999c0 -53.333 -16 -124.666 -48 -213.999l-25 -73l-30 -68h-423v214zM471 934.998l-41.001 -103.999c-109.333 -14 -196.666 -59.667 -261.999 -137
c8 53.333 30 100.333 66 141c-56 12 -84 45.333 -84 100c0 41.333 23.667 90 71 146c38 45.333 88.667 68 152 68c39.333 0 59 -13 59 -39c0 -20.667 -9.66699 -46.334 -29 -77.001c-20 6 -37.667 9 -53 9c-56 0 -101.333 -22 -136 -66c44 -39.333 98.667 -59 164 -59
c27.333 0 58.333 6 93 18z" />
    <glyph glyph-name="uFE8C" unicode="&#x626;" horiz-adv-x="723" arabic-form="medial" 
d="M405 498l82 -284h289v-214h-394l-22 71l-60 -71h-350v214h369l-46 155zM505 817l-39 -105c-110.667 -13.333 -198.334 -58.666 -263.001 -135.999c7.33301 56 29.333 103 66 141c-56.667 13.333 -85 46.666 -85 99.999c0 54.667 23.5 104 70.5 148s97.833 66 152.5 66
c39.333 0 59 -13 59 -39c0 -19.333 -9.66699 -45 -29 -77c-15.333 6 -32.666 9 -51.999 9c-58 0 -103.667 -22 -137 -66c44 -39.333 99.333 -59 166 -59c26 0 56.333 6 91 18z" />
    <glyph glyph-name="uFE8E" unicode="&#x627;" horiz-adv-x="541" arabic-form="final" 
d="M593 0h-391c-40 -0 -66 11.333 -78 34c-8.66699 15.333 -13 45 -13 89v917l172 182c0 1.33301 -0.666992 -96.667 -2 -294c-2.66699 -186 -3.33398 -334.667 -2.00098 -446c1.33301 -156 6 -239.333 14 -250c19.333 -12 50.333 -19.667 93 -23
c28.667 -1.33301 67.334 -1.33301 116.001 0l91 5v-214z" />
    <glyph glyph-name="uFE90" unicode="&#x628;" horiz-adv-x="1549" arabic-form="final" 
d="M1230 498l81.999 -284.001h289v-214h-394l-22 71l-60 -71h-737c-104.667 0 -179 14.333 -223 43c-57.333 36.667 -86 104.334 -86 203.001c0 113.333 37.667 226.333 113 339c-14.667 -50 -22 -104 -22 -162c0 -88 23.333 -147 70 -177
c36.667 -21.333 101.334 -32 194.001 -32h710l-48 155zM585.999 -278.001l109 101l144 -130l-114 -105z" />
    <glyph glyph-name="uFE91" unicode="&#x628;" horiz-adv-x="539" arabic-form="initial" 
d="M-50 214h387c0 83.333 -28 163.666 -84 240.999l118 162c70 -83.333 105 -170.666 105 -261.999c0 -60.667 -16 -132 -48 -214l-55 -141h-423v214zM177 -278l112 101l141 -130l-111 -105z" />
    <glyph glyph-name="uFE92" unicode="&#x628;" horiz-adv-x="723" arabic-form="medial" 
d="M405 498l82 -284h289v-214h-394l-22 71l-60 -71h-350v214h369l-46 155zM239 -284l111 100l142 -130l-112 -102z" />
    <glyph glyph-name="uFE96" unicode="&#x62a;" horiz-adv-x="1549" arabic-form="final" 
d="M1230 498l81.999 -284.001h289v-214h-394l-22 71l-60 -71h-737c-104.667 0 -179 14.333 -223 43c-57.333 36.667 -86 104.334 -86 203.001c0 113.333 37.667 226.333 113 339c-14.667 -50 -22 -104 -22 -162c0 -88 23.333 -147 70 -177
c36.667 -21.333 101.334 -32 194.001 -32h710l-48 155zM885.999 657.999l-113 -100l-87 79l-93 -79l-137 131l112 98l84 -79l93 79z" />
    <glyph glyph-name="uFE97" unicode="&#x62a;" horiz-adv-x="541" arabic-form="initial" 
d="M-50 214h387c0 83.333 -28 163.666 -84 240.999l118 162c70 -83.333 105 -170.666 105 -261.999c0 -60.667 -16 -132 -48 -214l-55 -141h-423v214zM478 862l-114 -100l-89 80l-91 -80l-138 132l113 98l84 -77l94 77z" />
    <glyph glyph-name="uFE98" unicode="&#x62a;" horiz-adv-x="723" arabic-form="medial" 
d="M405 498l82 -284h289v-214h-394l-22 71l-60 -71h-350v214h369l-46 155zM546 755l-116 -100l-86 80l-91 -80l-139 132l111 100l87 -79l93 79z" />
    <glyph glyph-name="uFE9A" unicode="&#x62b;" horiz-adv-x="1549" arabic-form="final" 
d="M1230 498l81.999 -284.001h289v-214h-394l-22 71l-60 -71h-737c-104.667 0 -179 14.333 -223 43c-57.333 36.667 -86 104.334 -86 203.001c0 113.333 37.667 226.333 113 339c-14.667 -50 -22 -104 -22 -162c0 -88 23.333 -147 70 -177
c36.667 -21.333 101.334 -32 194.001 -32h710l-48 155zM885.999 657.999l-113 -100l-87 79l-93 -79l-137 131l112 98l84 -79l93 79zM763.999 916.999l-112 -100l-141 130l112 104z" />
    <glyph glyph-name="uFE9B" unicode="&#x62b;" horiz-adv-x="541" arabic-form="initial" 
d="M-50 214h387c0 83.333 -28 163.666 -84 240.999l118 162c70 -83.333 105 -170.666 105 -261.999c0 -60.667 -16 -132 -48 -214l-55 -141h-423v214zM478 862l-114 -100l-89 80l-91 -80l-138 132l113 98l84 -77l94 77zM355 1122l-112 -98l-141 127l112 105z" />
    <glyph glyph-name="uFE9C" unicode="&#x62b;" horiz-adv-x="723" arabic-form="medial" 
d="M405 498l82 -284h289v-214h-394l-22 71l-60 -71h-350v214h369l-46 155zM546 755l-116 -100l-86 80l-91 -80l-139 132l111 100l87 -79l93 79zM421 1017l-109 -100l-144 130l112 102z" />
    <glyph glyph-name="uFE9E" unicode="&#x62c;" horiz-adv-x="1388" arabic-form="final" 
d="M816 478c-147.333 -28.667 -279.332 -90.001 -395.999 -184.001c-135.333 -109.333 -203 -232.333 -203 -369c0 -127.333 62.333 -225.333 187 -294c100 -54.667 219 -82 357 -82c118.667 0 237 14.667 355 44c-40.667 -32 -90.667 -79 -150 -141
c-39.333 -41.333 -75.666 -68.666 -108.999 -81.999c-45.333 -18.667 -116 -28 -212 -28c-170 0 -303.333 38 -400 114c-110.667 83.333 -166 207.666 -166 372.999c0 108 17.333 200.667 52 278c27.333 60.667 72.166 125.167 134.499 193.5l184.5 202.5
c-52 13.333 -100.667 20 -146 20c-72.667 0 -140.334 -15 -203.001 -45l69 152c34.667 58 78.667 87 132 87c71.333 0 177.5 -4.66699 318.5 -14s246.5 -14 316.5 -14c77.333 0 149.333 4 216 12l-110 -200l-93 -5c27.333 -84.667 42.666 -131 45.999 -139
c21.333 -58.667 43.333 -101.667 66 -129c42 -14 96.667 -21 164 -21c25.333 0 62 1.16699 110 3.5s82.333 3.5 103 3.5v-214h-348c-71.333 0 -126.666 28.667 -165.999 86c-28.667 41.333 -52 105.333 -70 192c-14 66.667 -27 133.334 -39 200.001zM732.001 -16.001
l-109 -100l-144 130l114 102z" />
    <glyph glyph-name="uFE9F" unicode="&#x62c;" horiz-adv-x="1247" arabic-form="initial" 
d="M1231 341l-115.998 -183.999c-66.667 13.333 -122.667 20 -168 20c-126 0 -233 -40.667 -321 -122c-39.333 -36.667 -82 -55 -128 -55h-548v214h623c30.667 27.333 66.334 47.666 107.001 60.999c-54.667 44 -115.334 84.333 -182.001 121
c-84.667 45.333 -152 68 -202 68l-43 -7l70 71c53.333 53.333 102.666 80 147.999 80c30.667 0 87.667 -20.667 171 -62l176 -84c58.667 -27.333 102.334 -47 131.001 -59c51.333 -20 98.666 -34.167 141.999 -42.5s81.666 -13.833 114.999 -16.5zM523.002 -252.999l112 101
l141 -130l-112 -105z" />
    <glyph glyph-name="uFEA0" unicode="&#x62c;" horiz-adv-x="1456" arabic-form="medial" 
d="M1231 341l-66.0029 -101.999l-25 2l14 -23c31.333 -7.33301 69 -11 113 -11c30.667 -1.33301 73.334 -0.5 128.001 2.5s92.667 4.5 114 4.5v-214h-346c-76 0 -125.333 11.333 -148 34c-15.333 15.333 -34.333 63 -57 143c-80.667 0 -152 -15 -214 -45
c-18 -9.33301 -60.333 -38 -127 -86c-44 -30.667 -83.667 -46 -119 -46h-548v214h623c30.667 26 66.334 46.333 107.001 61c-151.333 123.333 -281 185.666 -389 186.999c-13.333 0 -26 -1.66699 -38 -5c60.667 60.667 93 92.667 97 96c42.667 36.667 83 55 121 55
c30.667 0 93.667 -23 189 -69c139.333 -68 232 -111 278 -129c114.667 -46 212.334 -69 293.001 -69zM522.997 -252.999l112 101l141 -130l-112 -105z" />
    <glyph glyph-name="uFEA2" unicode="&#x62d;" horiz-adv-x="1388" arabic-form="final" 
d="M816 478c-147.333 -28.667 -279.332 -90.001 -395.999 -184.001c-135.333 -109.333 -203 -232.333 -203 -369c0 -127.333 62.333 -225.333 187 -294c100 -54.667 219 -82 357 -82c118.667 0 237 14.667 355 44c-40.667 -32 -90.667 -79 -150 -141
c-39.333 -41.333 -75.666 -68.666 -108.999 -81.999c-45.333 -18.667 -116 -28 -212 -28c-170 0 -303.333 38 -400 114c-110.667 83.333 -166 207.666 -166 372.999c0 108 17.333 200.667 52 278c27.333 60.667 72.166 125.167 134.499 193.5l184.5 202.5
c-52 13.333 -100.667 20 -146 20c-72.667 0 -140.334 -15 -203.001 -45l69 152c34.667 58 78.667 87 132 87c71.333 0 177.5 -4.66699 318.5 -14s246.5 -14 316.5 -14c77.333 0 149.333 4 216 12l-110 -200l-93 -5c27.333 -84.667 42.666 -131 45.999 -139
c21.333 -58.667 43.333 -101.667 66 -129c42 -14 96.667 -21 164 -21c25.333 0 62 1.16699 110 3.5s82.333 3.5 103 3.5v-214h-348c-71.333 0 -126.666 28.667 -165.999 86c-28.667 41.333 -52 105.333 -70 192c-14 66.667 -27 133.334 -39 200.001z" />
    <glyph glyph-name="uFEA3" unicode="&#x62d;" horiz-adv-x="1247" arabic-form="initial" 
d="M1231 341l-115.998 -183.999c-66.667 13.333 -122.667 20 -168 20c-126 0 -233 -40.667 -321 -122c-39.333 -36.667 -82 -55 -128 -55h-548v214h623c30.667 27.333 66.334 47.666 107.001 60.999c-54.667 44 -115.334 84.333 -182.001 121
c-84.667 45.333 -152 68 -202 68l-43 -7l70 71c53.333 53.333 102.666 80 147.999 80c30.667 0 87.667 -20.667 171 -62l176 -84c58.667 -27.333 102.334 -47 131.001 -59c51.333 -20 98.666 -34.167 141.999 -42.5s81.666 -13.833 114.999 -16.5z" />
    <glyph glyph-name="uFEA4" unicode="&#x62d;" horiz-adv-x="1456" arabic-form="medial" 
d="M1231 341l-66.0029 -101.999l-25 2l14 -23c31.333 -7.33301 69 -11 113 -11c30.667 -1.33301 73.334 -0.5 128.001 2.5s92.667 4.5 114 4.5v-214h-346c-76 0 -125.333 11.333 -148 34c-15.333 15.333 -34.333 63 -57 143c-80.667 0 -152 -15 -214 -45
c-18 -9.33301 -60.333 -38 -127 -86c-44 -30.667 -83.667 -46 -119 -46h-548v214h623c30.667 26 66.334 46.333 107.001 61c-151.333 123.333 -281 185.666 -389 186.999c-13.333 0 -26 -1.66699 -38 -5c60.667 60.667 93 92.667 97 96c42.667 36.667 83 55 121 55
c30.667 0 93.667 -23 189 -69c139.333 -68 232 -111 278 -129c114.667 -46 212.334 -69 293.001 -69z" />
    <glyph glyph-name="uFEA6" unicode="&#x62e;" horiz-adv-x="1388" arabic-form="final" 
d="M816 478c-147.333 -28.667 -279.332 -90.001 -395.999 -184.001c-135.333 -109.333 -203 -232.333 -203 -369c0 -127.333 62.333 -225.333 187 -294c100 -54.667 219 -82 357 -82c118.667 0 237 14.667 355 44c-40.667 -32 -90.667 -79 -150 -141
c-39.333 -41.333 -75.666 -68.666 -108.999 -81.999c-45.333 -18.667 -116 -28 -212 -28c-170 0 -303.333 38 -400 114c-110.667 83.333 -166 207.666 -166 372.999c0 108 17.333 200.667 52 278c27.333 60.667 72.166 125.167 134.499 193.5l184.5 202.5
c-52 13.333 -100.667 20 -146 20c-72.667 0 -140.334 -15 -203.001 -45l69 152c34.667 58 78.667 87 132 87c71.333 0 177.5 -4.66699 318.5 -14s246.5 -14 316.5 -14c77.333 0 149.333 4 216 12l-110 -200l-93 -5c27.333 -84.667 42.666 -131 45.999 -139
c21.333 -58.667 43.333 -101.667 66 -129c42 -14 96.667 -21 164 -21c25.333 0 62 1.16699 110 3.5s82.333 3.5 103 3.5v-214h-348c-71.333 0 -126.666 28.667 -165.999 86c-28.667 41.333 -52 105.333 -70 192c-14 66.667 -27 133.334 -39 200.001zM736.001 973.999
l-111 -98l-141 130l111 102z" />
    <glyph glyph-name="uFEA7" unicode="&#x62e;" horiz-adv-x="1247" arabic-form="initial" 
d="M1231 341l-115.998 -183.999c-66.667 13.333 -122.667 20 -168 20c-126 0 -233 -40.667 -321 -122c-39.333 -36.667 -82 -55 -128 -55h-548v214h623c30.667 27.333 66.334 47.666 107.001 60.999c-54.667 44 -115.334 84.333 -182.001 121
c-84.667 45.333 -152 68 -202 68l-43 -7l70 71c53.333 53.333 102.666 80 147.999 80c30.667 0 87.667 -20.667 171 -62l176 -84c58.667 -27.333 102.334 -47 131.001 -59c51.333 -20 98.666 -34.167 141.999 -42.5s81.666 -13.833 114.999 -16.5zM810.002 828.001l-111 -98
l-141 128l111 105z" />
    <glyph glyph-name="uFEA8" unicode="&#x62e;" horiz-adv-x="1456" arabic-form="medial" 
d="M1231 341l-66.0029 -101.999l-25 2l14 -23c31.333 -7.33301 69 -11 113 -11c30.667 -1.33301 73.334 -0.5 128.001 2.5s92.667 4.5 114 4.5v-214h-346c-76 0 -125.333 11.333 -148 34c-15.333 15.333 -34.333 63 -57 143c-80.667 0 -152 -15 -214 -45
c-18 -9.33301 -60.333 -38 -127 -86c-44 -30.667 -83.667 -46 -119 -46h-548v214h623c30.667 26 66.334 46.333 107.001 61c-151.333 123.333 -281 185.666 -389 186.999c-13.333 0 -26 -1.66699 -38 -5c60.667 60.667 93 92.667 97 96c42.667 36.667 83 55 121 55
c30.667 0 93.667 -23 189 -69c139.333 -68 232 -111 278 -129c114.667 -46 212.334 -69 293.001 -69zM807.997 828.001l-112 -98l-141 128l112 105z" />
    <glyph glyph-name="uFEAA" unicode="&#x62f;" horiz-adv-x="1014" arabic-form="final" 
d="M1064 214v-214h-362l-39 73l-52 -73h-425c-27.333 -0 -44.5 0.833008 -51.5 2.5s-19.5 6.16699 -37.5 13.5c-28.667 15.333 -43 43.333 -43 84c0 38 9 78.333 27 121l30 68c10 -33.333 28 -55.333 54 -66c18 -6 48.333 -9 91 -9h328l-194 337l96 164l291 -501h287z" />
    <glyph glyph-name="uFEAC" unicode="&#x630;" horiz-adv-x="1014" arabic-form="final" 
d="M1064 214v-214h-362l-39 73l-52 -73h-425c-88 -0 -132 33.333 -132 100c0 38 19 101 57 189c14.667 -50 60.667 -75 138 -75h335l-194 337l96 164l291 -501h287zM582 1004l-110 -101l-143 130l114 103z" />
    <glyph glyph-name="uFEAE" unicode="&#x631;" horiz-adv-x="687" arabic-form="final" 
d="M437 214l299.999 -0.000976562v-214h-302c-20 -91.333 -59.667 -183 -119 -275c-71.333 -114 -144.666 -171 -219.999 -171c-38 0 -86 28.667 -144 86c-42.667 42.667 -79.667 88.334 -111 137.001c51.333 -22.667 102.666 -34 153.999 -34c78 0 150.333 34 217 102
c54.667 54.667 99.334 123.667 134.001 207c-27.333 86.667 -76 174.667 -146 264l121 141c57.333 -77.333 96 -158.333 116 -243z" />
    <glyph glyph-name="uFEB0" unicode="&#x632;" horiz-adv-x="687" arabic-form="final" 
d="M437 214l299.999 -0.000976562v-214h-302c-20 -91.333 -59.667 -183 -119 -275c-71.333 -114 -144.666 -171 -219.999 -171c-38 0 -86 28.667 -144 86c-42.667 42.667 -79.667 88.334 -111 137.001c51.333 -22.667 102.666 -34 153.999 -34c78 0 150.333 34 217 102
c54.667 54.667 99.334 123.667 134.001 207c-27.333 86.667 -76 174.667 -146 264l121 141c57.333 -77.333 96 -158.333 116 -243zM359.999 716.999l-110 -100l-143 129l114 105z" />
    <glyph glyph-name="uFEB2" unicode="&#x633;" horiz-adv-x="1906" arabic-form="final" 
d="M873 0c0 -4.66699 -14 -50.999 -42 -138.999s-45 -136.333 -51 -145c-147.333 -100.667 -286.333 -151 -417 -151c-92.667 0 -168.5 32 -227.5 96s-88.5 142 -88.5 234c0 141.333 45.333 298.333 136 471c-28.667 -115.333 -43 -213 -43 -293
c0 -198.667 79.667 -298 239 -298c64 0 131.5 15.167 202.5 45.5s130.167 68.166 177.5 113.499c0 132 -46.333 277 -139 435l121 141c54.667 -74.667 91.667 -156 111 -244c3.33301 -16 6.33301 -33.333 9 -52h294l-114 255l109 141l185 -396h202v9
c-12 91.333 -40 168.666 -84 231.999l118 162c70 -82 105 -170 105 -264c0 -35.333 -7.66699 -81.666 -23 -138.999h308v-214h-312l-48 82l-39 -82h-311l-35 82l-63 -82h-280z" />
    <glyph glyph-name="uFEB3" unicode="&#x633;" horiz-adv-x="1665" arabic-form="initial" 
d="M1065 0l-398 -0.00195312l-34 82l-66 -82h-617v214h621l-114 255l107 141l187 -396h316l-114 255l110 141l184 -396h203c0 82 -28.333 162.333 -85 241l119 162c69.333 -83.333 104 -170.666 104 -261.999c0 -53.333 -15.667 -124.666 -47 -213.999l-25 -73l-30 -68h-323
l-34 82z" />
    <glyph glyph-name="uFEB4" unicode="&#x633;" horiz-adv-x="1809" arabic-form="medial" 
d="M1065 214l-114 255l109 141l185 -396h202v9c-12 91.333 -40 168.666 -84 231.999l118 162c70 -82 105 -170 105 -264c0 -35.333 -7.66699 -81.666 -23 -138.999h308v-214h-312l-48 82l-39 -82h-311l-35 82l-63 -82h-396l-34 82l-66 -82h-617v214h621l-114 255l107 141
l187 -396h314z" />
    <glyph glyph-name="uFEB6" unicode="&#x634;" horiz-adv-x="1906" arabic-form="final" 
d="M873 0c0 -4.66699 -14 -50.999 -42 -138.999s-45 -136.333 -51 -145c-147.333 -100.667 -286.333 -151 -417 -151c-92.667 0 -168.5 32 -227.5 96s-88.5 142 -88.5 234c0 141.333 45.333 298.333 136 471c-28.667 -115.333 -43 -213 -43 -293
c0 -198.667 79.667 -298 239 -298c64 0 131.5 15.167 202.5 45.5s130.167 68.166 177.5 113.499c0 132 -46.333 277 -139 435l121 141c54.667 -74.667 91.667 -156 111 -244c3.33301 -16 6.33301 -33.333 9 -52h294l-114 255l109 141l185 -396h202v9
c-12 91.333 -40 168.666 -84 231.999l118 162c70 -82 105 -170 105 -264c0 -35.333 -7.66699 -81.666 -23 -138.999h308v-214h-312l-48 82l-39 -82h-311l-35 82l-63 -82h-280zM1317 867.001l-114 -100l-87 80l-93 -80l-137 132l112 98l84 -78l93 78zM1194 1126l-112 -97
l-141 127l112 105z" />
    <glyph glyph-name="uFEB7" unicode="&#x634;" horiz-adv-x="1665" arabic-form="initial" 
d="M1065 0l-398 -0.00195312l-34 82l-66 -82h-617v214h621l-114 255l107 141l187 -396h316l-114 255l110 141l184 -396h203c0 82 -28.333 162.333 -85 241l119 162c69.333 -83.333 104 -170.666 104 -261.999c0 -53.333 -15.667 -124.666 -47 -213.999l-25 -73l-30 -68h-323
l-34 82zM1229 866.998l-114 -100l-86 80l-94 -80l-136 132l111 98l84 -78l94 78zM1106 1126l-112 -97l-141 127l112 105z" />
    <glyph glyph-name="uFEB8" unicode="&#x634;" horiz-adv-x="1809" arabic-form="medial" 
d="M1065 214l-114 255l109 141l185 -396h202v9c-12 91.333 -40 168.666 -84 231.999l118 162c70 -82 105 -170 105 -264c0 -35.333 -7.66699 -81.666 -23 -138.999h308v-214h-312l-48 82l-39 -82h-311l-35 82l-63 -82h-396l-34 82l-66 -82h-617v214h621l-114 255l107 141
l187 -396h314zM1227 867l-114 -100l-87 80l-93 -80l-137 132l112 98l84 -78l93 78zM1104 1126l-112 -97l-141 127l112 105z" />
    <glyph glyph-name="uFEBA" unicode="&#x635;" horiz-adv-x="2200" arabic-form="final" 
d="M873 0c0 -4.66699 -14 -50.999 -42 -138.999s-45 -136.333 -51 -145c-147.333 -100.667 -286.333 -151 -417 -151c-92.667 0 -168.5 32 -227.5 96s-88.5 142 -88.5 234c0 141.333 45.333 298.333 136 471c-28.667 -115.333 -43 -213 -43 -293
c0 -198.667 79.667 -298 239 -298c64 0 131.5 15.167 202.5 45.5s130.167 68.166 177.5 113.499c0 132 -46.333 277 -139 435l121 141c54.667 -74.667 91.667 -156 111 -244c3.33301 -15.333 6 -32 8 -50h4l569 362c83.333 51.333 148.333 77 195 77
c64 0 134 -38.667 210 -116c68 -69.333 102 -148 102 -236c0 -32 -3.66699 -61.667 -11 -89h325v-214h-1381zM1819 214.001c-16.667 68 -48.333 129.333 -95 184c-54.667 62.667 -114.667 94 -180 94l-34 -5c-28.667 -9.33301 -78 -35 -148 -77l-314 -196h771z" />
    <glyph glyph-name="uFEBB" unicode="&#x635;" horiz-adv-x="1938" arabic-form="initial" 
d="M751 216l571.001 362c85.333 51.333 150 77 194 77c63.333 0 133.666 -38.667 210.999 -116c68.667 -68 103 -146.667 103 -236c0 -38 -6.33301 -73 -19 -105l-77 -198h-1067l-34 82l-66 -82h-617v214h621l-114 255l107 141l186 -394h1zM1709 214
c-18 68 -50.667 129.333 -98 184c-54.667 62.667 -113.667 94 -177 94l-35 -5c-26.667 -9.33301 -75.667 -35 -147 -77l-103 -62l-64 -41l-150 -93h774z" />
    <glyph glyph-name="uFEBC" unicode="&#x635;" horiz-adv-x="2070" arabic-form="medial" 
d="M751 216l569.001 362c83.333 51.333 148.666 77 195.999 77c63.333 0 133 -38.667 209 -116c68 -69.333 102 -148 102 -236c0 -32 -3.66699 -61.667 -11 -89h325v-214h-1474l-34 82l-66 -82h-617v214h621l-114 255l107 141l186 -394h1zM1707 214
c-16.667 68 -48.667 129.333 -96 184c-54.667 62.667 -114.667 94 -180 94l-34 -5c-28.667 -9.33301 -78 -35 -148 -77l-314 -196h772z" />
    <glyph glyph-name="uFEBE" unicode="&#x636;" horiz-adv-x="2200" arabic-form="final" 
d="M873 0c0 -4.66699 -14 -50.999 -42 -138.999s-45 -136.333 -51 -145c-147.333 -100.667 -286.333 -151 -417 -151c-92.667 0 -168.5 32 -227.5 96s-88.5 142 -88.5 234c0 141.333 45.333 298.333 136 471c-28.667 -115.333 -43 -213 -43 -293
c0 -198.667 79.667 -298 239 -298c64 0 131.5 15.167 202.5 45.5s130.167 68.166 177.5 113.499c0 132 -46.333 277 -139 435l121 141c54.667 -74.667 91.667 -156 111 -244c3.33301 -15.333 6 -32 8 -50h4l569 362c83.333 51.333 148.333 77 195 77
c64 0 134 -38.667 210 -116c68 -69.333 102 -148 102 -236c0 -32 -3.66699 -61.667 -11 -89h325v-214h-1381zM1819 214.001c-16.667 68 -48.333 129.333 -95 184c-54.667 62.667 -114.667 94 -180 94l-34 -5c-28.667 -9.33301 -78 -35 -148 -77l-314 -196h771zM1369 796.001
l-109 -100l-144 130l114 102z" />
    <glyph glyph-name="uFEBF" unicode="&#x636;" horiz-adv-x="1938" arabic-form="initial" 
d="M751 216l571.001 362c85.333 51.333 150 77 194 77c63.333 0 133.666 -38.667 210.999 -116c68.667 -68 103 -146.667 103 -236c0 -38 -6.33301 -73 -19 -105l-77 -198h-1067l-34 82l-66 -82h-617v214h621l-114 255l107 141l186 -394h1zM1709 214
c-18 68 -50.667 129.333 -98 184c-54.667 62.667 -113.667 94 -177 94l-35 -5c-26.667 -9.33301 -75.667 -35 -147 -77l-103 -62l-64 -41l-150 -93h774zM1252 796l-112 -100l-141 130l111 102z" />
    <glyph glyph-name="uFEC0" unicode="&#x636;" horiz-adv-x="2070" arabic-form="medial" 
d="M751 216l569.001 362c83.333 51.333 148.666 77 195.999 77c63.333 0 133 -38.667 209 -116c68 -69.333 102 -148 102 -236c0 -32 -3.66699 -61.667 -11 -89h325v-214h-1474l-34 82l-66 -82h-617v214h621l-114 255l107 141l186 -394h1zM1707 214
c-16.667 68 -48.667 129.333 -96 184c-54.667 62.667 -114.667 94 -180 94l-34 -5c-28.667 -9.33301 -78 -35 -148 -77l-314 -196h772zM1256 796l-109 -100l-143 130l113 102z" />
    <glyph glyph-name="uFEC2" unicode="&#x637;" horiz-adv-x="1715" arabic-form="final" 
d="M1446 214h319.002v-214h-1611l-139 214h355l114 70l-62 692c-24 10.667 -42 28.334 -54 53.001c6 30 22.667 65.667 50 107l66 95c1.33301 -24 8.66602 -47.333 21.999 -70c29.333 -18.667 95.333 -50.667 198 -96l-72 -168l-44 15
c16.667 -222.667 25 -352.334 25 -389.001c0 -57.333 -12 -115.666 -36 -174.999l266 173c147.333 89.333 244.666 134 291.999 134c70.667 0 144 -39.833 220 -119.5s114 -155.834 114 -228.501c0 -27.333 -7.66699 -58.333 -23 -93zM1330 214
c-15.333 65.333 -46.999 126 -94.999 182c-56.667 64 -115.334 96 -176.001 96c-40.667 0 -127.667 -41 -261 -123l-239 -155h771z" />
    <glyph glyph-name="uFEC3" unicode="&#x637;" horiz-adv-x="1394" arabic-form="initial" 
d="M-50 0l-0.000976562 214h298l114 70l-59 692c-38 12 -57 29.667 -57 53c0 12 9 32.333 27 61l89 141c2.66699 -38 13.334 -64.667 32.001 -80c7.33301 -6 35.333 -19.667 84 -41l105 -45l-73 -168l-44 15l23 -300l3 -70c1.33301 -65.333 -11 -130 -37 -194l121 75l77 50
l118 75c112.667 71.333 194 107 244 107c32 0 69 -12 111 -36c56.667 -32 106 -75.333 148 -130c48.667 -62 73 -122 73 -180c0 -30 -9.66699 -68.667 -29 -116l-82 -193h-1286zM1211 214c-18.667 68 -51.333 128.667 -98 182c-54.667 64 -113 96 -175 96l-37 -5
c-56 -18 -137 -62 -243 -132l-73 -48l-148 -93h774z" />
    <glyph glyph-name="uFEC4" unicode="&#x637;" horiz-adv-x="1588" arabic-form="medial" 
d="M1322 214h316v-214h-1688v214h296l111 70l-59 692c-24 9.33301 -42.333 27 -55 53c6.66699 30 23.667 64.667 51 104c20.667 33.333 42.667 66 66 98c0 -24 6 -47.333 18 -70c30 -18.667 97.333 -50.667 202 -96l-73 -168l-45 15c18 -219.333 27 -349.666 27 -390.999
c0 -56 -12 -113.667 -36 -173l266 173c146 89.333 243 134 291 134c71.333 0 145 -39.833 221 -119.5s114 -155.834 114 -228.501c0 -24 -7.66699 -55 -23 -93zM1206 214c-16.667 66.667 -48.667 127.333 -96 182c-56 64 -114.333 96 -175 96
c-42 0 -128.333 -40.333 -259 -121l-244 -157h774z" />
    <glyph glyph-name="uFEC6" unicode="&#x638;" horiz-adv-x="1715" arabic-form="final" 
d="M1446 214h319.002v-214h-1611l-139 214h355l114 70l-62 692c-24 10.667 -42 28.334 -54 53.001c6 30 22.667 65.667 50 107l66 95c1.33301 -24 8.66602 -47.333 21.999 -70c29.333 -18.667 95.333 -50.667 198 -96l-72 -168l-44 15
c16.667 -222.667 25 -352.334 25 -389.001c0 -57.333 -12 -115.666 -36 -174.999l266 173c147.333 89.333 244.666 134 291.999 134c70.667 0 144 -39.833 220 -119.5s114 -155.834 114 -228.501c0 -27.333 -7.66699 -58.333 -23 -93zM1096 890l-112 -98l-141 130l112 102z
M1330 214c-15.333 65.333 -46.999 126 -94.999 182c-56.667 64 -115.334 96 -176.001 96c-40.667 0 -127.667 -41 -261 -123l-239 -155h771z" />
    <glyph glyph-name="uFEC7" unicode="&#x638;" horiz-adv-x="1394" arabic-form="initial" 
d="M-50 0l-0.000976562 214h298l114 70l-59 692c-38 12 -57 29.667 -57 53c0 12 9 32.333 27 61l89 141c2.66699 -38 13.334 -64.667 32.001 -80c7.33301 -6 35.333 -19.667 84 -41l105 -45l-73 -168l-44 15l23 -300l3 -70c1.33301 -65.333 -11 -130 -37 -194l121 75l77 50
l118 75c112.667 71.333 194 107 244 107c32 0 69 -12 111 -36c56.667 -32 106 -75.333 148 -130c48.667 -62 73 -122 73 -180c0 -30 -9.66699 -68.667 -29 -116l-82 -193h-1286zM971.999 890l-110 -98l-143 130l114 102zM1211 214c-18.667 68 -51.333 128.667 -98 182
c-54.667 64 -113 96 -175 96l-37 -5c-56 -18 -137 -62 -243 -132l-73 -48l-148 -93h774z" />
    <glyph glyph-name="uFEC8" unicode="&#x638;" horiz-adv-x="1588" arabic-form="medial" 
d="M1322 214h316v-214h-1688v214h296l111 70l-59 692c-24 9.33301 -42.333 27 -55 53c6.66699 30 23.667 64.667 51 104c20.667 33.333 42.667 66 66 98c0 -24 6 -47.333 18 -70c30 -18.667 97.333 -50.667 202 -96l-73 -168l-45 15c18 -219.333 27 -349.666 27 -390.999
c0 -56 -12 -113.667 -36 -173l266 173c146 89.333 243 134 291 134c71.333 0 145 -39.833 221 -119.5s114 -155.834 114 -228.501c0 -24 -7.66699 -55 -23 -93zM969 890l-111 -98l-141 130l111 102zM1206 214c-16.667 66.667 -48.667 127.333 -96 182
c-56 64 -114.333 96 -175 96c-42 0 -128.333 -40.333 -259 -121l-244 -157h774z" />
    <glyph glyph-name="uFECA" unicode="&#x639;" horiz-adv-x="1019" arabic-form="final" 
d="M1069 214v-214h-572l-50 109l-154 -114c-53.333 -46.667 -80 -102.667 -80 -168c0 -103.333 63 -181.333 189 -234c94 -39.333 200 -59 318 -59c110.667 0 238.334 15 383.001 45c-52 -36.667 -101.333 -81.334 -148 -134.001c-36.667 -42.667 -71 -70 -103 -82
c-45.333 -18 -124 -27 -236 -27c-156.667 0 -281.334 29.333 -374.001 88c-108.667 71.333 -163 181.333 -163 330c0 192.667 99.333 367.334 298 524.001c-53.333 116.667 -135.333 180.334 -246 191.001l102 214c98.667 33.333 196.667 50 294 50
c164 0 246 -59.333 246 -178c0 -84.667 -57 -192.334 -171 -323.001l5 -18h462zM559 391c32 38 48 67.667 48 89c0 30.667 -23 46 -69 46l-79 -9c50 -26 83.333 -68 100 -126z" />
    <glyph glyph-name="uFECB" unicode="&#x639;" horiz-adv-x="1058" arabic-form="initial" 
d="M1010 214l-77 -213.999h-983v214h348c-27.333 42.667 -41 86 -41 130c0 56 19.667 116.667 59 182c36.667 57.333 80.834 105.666 132.501 144.999s102.5 59 152.5 59c62 0 121 -29.333 177 -88c38 -39.333 69.333 -94 94 -164c-82 54.667 -155 82 -219 82
c-110.667 0 -207 -61.667 -289 -185l11 -11c47.333 -46.667 78.666 -77 93.999 -91c30 -27.333 56.333 -47 79 -59h462z" />
    <glyph glyph-name="uFECC" unicode="&#x639;" horiz-adv-x="1133" arabic-form="medial" 
d="M1183 214l0.000976562 -214h-580l-34 73l-62 -73h-557v214h557c-37.333 170 -123 255 -257 255l103 220c115.333 32 214.666 48 297.999 48c156 0 234 -61.333 234 -184c0 -53.333 -20.333 -113.333 -61 -180c-14 -22.667 -52 -75.667 -114 -159h473zM674.001 391
c31.333 38 47 67.667 47 89c0 30.667 -22.667 46 -68 46l-77 -9c51.333 -29.333 84 -71.333 98 -126z" />
    <glyph glyph-name="uFECE" unicode="&#x63a;" horiz-adv-x="1019" arabic-form="final" 
d="M1069 214v-214h-572l-50 109l-154 -114c-53.333 -46.667 -80 -102.667 -80 -168c0 -103.333 63 -181.333 189 -234c94 -39.333 200 -59 318 -59c110.667 0 238.334 15 383.001 45c-52 -36.667 -101.333 -81.334 -148 -134.001c-36.667 -42.667 -71 -70 -103 -82
c-45.333 -18 -124 -27 -236 -27c-156.667 0 -281.334 29.333 -374.001 88c-108.667 71.333 -163 181.333 -163 330c0 192.667 99.333 367.334 298 524.001c-53.333 116.667 -135.333 180.334 -246 191.001l102 214c98.667 33.333 196.667 50 294 50
c164 0 246 -59.333 246 -178c0 -84.667 -57 -192.334 -171 -323.001l5 -18h462zM582 1019l-112 -100l-141 130l111 105zM559 391c32 38 48 67.667 48 89c0 30.667 -23 46 -69 46l-79 -9c50 -26 83.333 -68 100 -126z" />
    <glyph glyph-name="uFECF" unicode="&#x63a;" horiz-adv-x="1058" arabic-form="initial" 
d="M1010 214l-77 -213.999h-983v214h348c-27.333 42.667 -41 86 -41 130c0 56 19.667 116.667 59 182c36.667 57.333 80.834 105.666 132.501 144.999s102.5 59 152.5 59c62 0 121 -29.333 177 -88c38 -39.333 69.333 -94 94 -164c-82 54.667 -155 82 -219 82
c-110.667 0 -207 -61.667 -289 -185l11 -11c47.333 -46.667 78.666 -77 93.999 -91c30 -27.333 56.333 -47 79 -59h462zM651 1015l-109 -100l-144 129l114 103z" />
    <glyph glyph-name="uFED0" unicode="&#x63a;" horiz-adv-x="1133" arabic-form="medial" 
d="M1183 214l0.000976562 -214h-580l-34 73l-62 -73h-557v214h557c-37.333 170 -123 255 -257 255l103 220c115.333 32 214.666 48 297.999 48c156 0 234 -61.333 234 -184c0 -53.333 -20.333 -113.333 -61 -180c-14 -22.667 -52 -75.667 -114 -159h473zM696.001 1015
l-111 -100l-141 129l111 103zM674.001 391c31.333 38 47 67.667 47 89c0 30.667 -22.667 46 -68 46l-77 -9c51.333 -29.333 84 -71.333 98 -126z" />
    <glyph glyph-name="uFED2" unicode="&#x641;" horiz-adv-x="1779" arabic-form="final" 
d="M1119 0h-735c-98.667 -0 -171 14.333 -217 43c-58.667 38 -88 104 -88 198c0 116.667 37.667 230.667 113 342c-14.667 -64 -22 -117.333 -22 -160c0 -88 24 -146.333 72 -175c35.333 -22.667 100 -34 194 -34h526l-5 25c0 62 52.333 153.333 157 274
s189.667 181 255 181c50 0 90.167 -21.667 120.5 -65s45.5 -91.333 45.5 -144c0 -80.667 -31 -171 -93 -271h389v-214h-562l-84 52zM1426 974l-109 -98l-144 130l114 102zM1376 300c7.33301 23.333 11 48.333 11 75c0 79.333 -24.333 119 -73 119
c-30 0 -65.667 -21.333 -107 -64c-36 -36.667 -61.667 -71.667 -77 -105l102 -79c8 -3.33301 16.333 -8 25 -14c8 1.33301 47.667 24 119 68z" />
    <glyph glyph-name="uFED3" unicode="&#x641;" horiz-adv-x="844" arabic-form="initial" 
d="M685 0l-735.001 -0.000976562v214h708l4 91l-2 43l-59 -75h-187c-63.333 0 -107.333 18.333 -132 55c-19.333 28.667 -29 63.334 -29 104.001c0 73.333 27.333 153 82 239c60.667 97.333 125.667 146 195 146c22.667 0 42.334 -5.33301 59.001 -16
c59.333 -39.333 107.333 -102.333 144 -189c32 -77.333 48 -155.333 48 -234c0 -82 -29.667 -202 -89 -360zM620.999 1063l-111 -100l-141 129l111 103zM643.999 470.999c0 39.333 -11.333 79.167 -34 119.5s-53 60.5 -91 60.5c-22.667 0 -44.667 -9 -66 -27
c-33.333 -29.333 -50 -60 -50 -92c0 -40.667 36.333 -61 109 -61h132z" />
    <glyph glyph-name="uFED4" unicode="&#x641;" horiz-adv-x="1096" arabic-form="medial" 
d="M437 0h-487v214h330l-5 23c0 62 52.333 153.667 157 275s189.667 182 255 182c52 0 92.333 -21.667 121 -65s43 -91.333 43 -144c0 -80.667 -30.333 -171 -91 -271h389v-214h-562l-84 52zM694 300c7.33301 23.333 11.002 48.333 11.002 75c0 79.333 -24 119 -72 119
c-30.667 0 -66.334 -21.333 -107.001 -64c-36.667 -36.667 -62.667 -71.667 -78 -105l103 -79c7.33301 -3.33301 15.666 -8 24.999 -14c8.66699 3.33301 48 26 118 68zM744.002 974l-109 -98l-143 130l113 102z" />
    <glyph glyph-name="uFED6" unicode="&#x642;" horiz-adv-x="1178" arabic-form="final" 
d="M927 0c-10.667 -92.667 -48.3311 -220 -112.998 -382c-173.333 -104.667 -329 -157 -467 -157c-92.667 0 -165.834 30.667 -219.501 92s-80.5 138.333 -80.5 231c0 77.333 12 154.666 36 231.999c14 45.333 42 118 84 218c-25.333 -115.333 -38 -204.666 -38 -267.999
c0 -202 81.667 -303 245 -303c117.333 0 248.666 51.667 393.999 155c1.33301 7.33301 9.66602 68 24.999 182c-12 -0 -34 -0.666992 -66 -2h-70c-173.333 0 -260 59 -260 177c0 72.667 28 160 84 262c60.667 114 124.667 171 192 171
c72.667 0 133.334 -49.333 182.001 -148c34.667 -73.333 58 -155.333 70 -246h305v-214h-303zM871.003 876l-114 -100l-87 80l-93 -80l-137 132l112 100l84 -80l93 80zM782.003 214c-16.667 139.333 -58.333 209 -125 209c-29.333 0 -56 -15.5 -80 -46.5
s-36 -61.833 -36 -92.5c0 -46.667 36.333 -70 109 -70h132z" />
    <glyph glyph-name="uFED7" unicode="&#x642;" horiz-adv-x="844" arabic-form="initial" 
d="M685 0l-735.001 -0.000976562v214h708l4 91l-2 43l-59 -75h-187c-63.333 0 -107.333 18.333 -132 55c-19.333 28.667 -29 63.334 -29 104.001c0 73.333 27.333 153 82 239c60.667 97.333 125.667 146 195 146c22.667 0 42.334 -5.33301 59.001 -16
c59.333 -39.333 107.333 -102.333 144 -189c32 -77.333 48 -155.333 48 -234c0 -82 -29.667 -202 -89 -360zM709.999 1054l-114 -101l-89 80l-91 -80l-138 132l113 98l85 -79l93 79zM643.999 470.999c0 39.333 -11.333 79.167 -34 119.5s-53 60.5 -91 60.5
c-22.667 0 -44.667 -9 -66 -27c-33.333 -29.333 -50 -60 -50 -92c0 -40.667 36.333 -61 109 -61h132z" />
    <glyph glyph-name="uFED8" unicode="&#x642;" horiz-adv-x="1096" arabic-form="medial" 
d="M437 0h-487v214h330l-5 23c0 62 52.333 153.667 157 275s189.667 182 255 182c52 0 92.333 -21.667 121 -65s43 -91.333 43 -144c0 -82 -30.333 -172.333 -91 -271h389v-214h-562l-86 52zM817 958l-114 -100l-89 80l-91 -80l-138 132l113 98l85 -78l93 78zM694 300
c7.33301 23.333 11.002 48.333 11.002 75c0 79.333 -24 119 -72 119c-29.333 0 -64 -20.167 -104 -60.5s-67 -76.5 -81 -108.5l103 -79c7.33301 -3.33301 15.666 -8 24.999 -14c7.33301 1.33301 46.666 24 117.999 68z" />
    <glyph glyph-name="uFEDE" unicode="&#x644;" horiz-adv-x="1171" arabic-form="final" 
d="M896 0c-18.667 -62 -51.333 -153.665 -98 -274.998c-162.667 -106.667 -307.667 -160 -435 -160c-89.333 0 -164.333 31.167 -225 93.5s-91 138.166 -91 227.499c0 123.333 44.667 282.666 134 477.999c-27.333 -133.333 -41 -237.333 -41 -312c0 -80 19 -145 57 -195
c44 -56.667 104.667 -85 182 -85c135.333 0 261.333 53.333 378 160l-9 1103l177 187v-1008h296v-214h-325z" />
    <glyph glyph-name="uFEDF" unicode="&#x644;" horiz-adv-x="607" arabic-form="initial" 
d="M569 1058l-73 -168.002l-41 16l39 -562c0 -46 -15.333 -114.333 -46 -205l-2 -7l-34 -98l-14 -34h-448v214h400l-61 755c-38 10.667 -57 29 -57 55c0 10.667 5.33301 24.334 16 41.001l16 25l82 137c0 -30.667 8.33301 -55 25 -73
c7.33301 -9.33301 27 -20.666 59 -33.999z" />
    <glyph glyph-name="uFEE0" unicode="&#x644;" horiz-adv-x="675" arabic-form="medial" 
d="M419 1222v-899c0 -82 34.667 -123 104 -123c16.667 0 47.5 2.33301 92.5 7s81.833 7 110.5 7v-214h-387c-54.667 0 -86.667 22 -96 66l-47 -66h-246l4 214h289v821z" />
    <glyph glyph-name="uFEE2" unicode="&#x645;" horiz-adv-x="1310" arabic-form="final" 
d="M1362 214l-0.000976562 -214h-339l-75 -162l-553 310l14 139c-42.667 -21.333 -105.667 -63 -189 -125c0 -6.66699 6.66699 -82 20 -226c9.33301 -92.667 14 -168.334 14 -227.001c0 -70 -38.667 -166.333 -116 -289c-1.33301 13.333 -13.666 116.333 -36.999 309
c-14.667 129.333 -22 233.333 -22 312c0 172.667 101.667 311.334 305 416.001c168 88 347 132 537 132c98.667 0 148 -60.667 148 -182c0 -21.333 -2 -54.333 -6 -99s-6 -76 -6 -94h305zM931.999 91v225c0 42.667 -10.667 68.667 -32 78c-12 6 -31 9 -57 9
c-112 0 -221 -26 -327 -78z" />
    <glyph glyph-name="uFEE3" unicode="&#x645;" horiz-adv-x="1012" arabic-form="initial" 
d="M-50 0v214h289l168 221c30.667 42 80 101 148 177c39.333 36.667 80.333 55 123 55c68.667 0 132.5 -51.667 191.5 -155s88.5 -195 88.5 -275c0 -36.667 -15.333 -84.667 -46 -144l-100 -173l-11 -20l-489 212l-71 -112h-291zM794 134c6 30.667 9 55.666 9 74.999
c0 82 -22.667 153.333 -68 214c-33.333 44 -65.333 66 -96 66c-18 0 -40 -12 -66 -36c-39.333 -39.333 -80 -88.666 -122 -147.999l-12 -16z" />
    <glyph glyph-name="uFEE4" unicode="&#x645;" horiz-adv-x="1144" arabic-form="medial" 
d="M1195 214l-0.000976562 -214.001h-335l-82 -166l-484 278l-73 -112h-271v214h321c40.667 116.667 101.334 209.334 182.001 278.001c86.667 74 189 111 307 111c95.333 0 143 -62.333 143 -187c0 -25.333 -1.83301 -60.833 -5.5 -106.5s-5.5 -77.5 -5.5 -95.5h303z
M768.999 81.999v264c0 50 -31 75 -93 75c-102 0 -184.667 -47 -248 -141z" />
    <glyph glyph-name="uFEE6" unicode="&#x646;" horiz-adv-x="1115" arabic-form="final" 
d="M1166 214l0.000976562 -214h-293c-6 -40.667 -35 -134.667 -87 -282c-150 -102 -291 -153 -423 -153c-90.667 0 -166 31.5 -226 94.5s-90 140.167 -90 231.5c0 118 44.667 275.667 134 473c-27.333 -136.667 -41 -239 -41 -307c0 -83.333 19 -150 57 -200
c42.667 -56.667 105 -85 187 -85c127.333 0 251.666 53.333 372.999 160c0 146.667 -46.333 290.667 -139 432l123 146c59.333 -85.333 100.333 -184 123 -296h302zM543.001 594l-112 -100l-141 130l112 102z" />
    <glyph glyph-name="uFEE7" unicode="&#x646;" horiz-adv-x="539" arabic-form="initial" 
d="M-50 214h387c0 83.333 -28 163.666 -84 240.999l118 162c70 -83.333 105 -170.666 105 -261.999c0 -60.667 -16 -132 -48 -214l-55 -141h-423v214zM421 862l-109 -100l-144 130l114 105z" />
    <glyph glyph-name="uFEE8" unicode="&#x646;" horiz-adv-x="723" arabic-form="medial" 
d="M405 498l82 -284h289v-214h-394l-22 71l-60 -71h-350v214h369l-46 155zM473 762l-111 -100l-141 130l111 102z" />
    <glyph glyph-name="uFEEA" unicode="&#x647;" horiz-adv-x="1028" arabic-form="final" 
d="M663 787l117 -573h298v-214h-428l-27 127l-69 -97l-491 72l93 283c9.33301 19.333 31.333 38 66 56l300 164l-11 50zM547 487l-252 -139c-24.667 -13.333 -40 -32.333 -46 -57l348 -52z" />
    <glyph glyph-name="uFEEB" unicode="&#x647;" horiz-adv-x="1101" arabic-form="initial" 
d="M542 803c334.667 -226 502 -388.998 502 -488.998c0 -22.667 -12.667 -64.334 -38 -125.001l-18 -43l-57 -146h-981v214h314c-7.33301 27.333 -11 52.333 -11 75c0 101.333 40.667 187.666 122 258.999c8 6.66699 20 16 36 28l44 32c-18 12 -27 25.667 -27 41
c0 14.667 15 39.667 45 75zM910 214.002c-16.667 89.333 -78.001 172.668 -184.001 250.001l2 -32c4.66699 -66.667 -12.666 -139.334 -51.999 -218.001h234zM602.999 214.004c9.33301 33.333 13.998 61.999 13.998 85.999c0 108 -41 162 -123 162
c-33.333 0 -62.166 -13.667 -86.499 -41s-36.5 -58.333 -36.5 -93c0 -41.333 16.667 -72.666 50 -93.999c16.667 -13.333 55.334 -20 116.001 -20h66z" />
    <glyph glyph-name="uFEEC" unicode="&#x647;" horiz-adv-x="1215" arabic-form="medial" 
d="M1265 214l0.000976562 -214h-289l-50 -141l-20 -52l-34 -82c-18.667 -44 -41.667 -78.333 -69 -103c-76 -68 -172.333 -102 -289 -102c-96.667 0 -175.334 25.833 -236.001 77.5s-91 124.5 -91 218.5c0 50 11.333 111.333 34 184h-271v214h362l77 118
c53.333 82 142 199.667 266 353l126 155c122.667 -161.333 184 -284.333 184 -369c0 -51.333 -44.667 -137 -134 -257h434zM444.001 214h143c56 0 103.667 19.667 143 59c53.333 54.667 80 103.334 80 146.001c0 39.333 -25 97.666 -75 174.999l-46 -55l-157 -200
c-24 -30 -53.333 -71.667 -88 -125zM808.001 -171c-20 29.333 -33.666 48.333 -40.999 57c-41.333 52 -86 85.333 -134 100c-30.667 9.33301 -79.334 14 -146.001 14h-130c-21.333 -44 -32 -81.333 -32 -112c0 -50 26.667 -91.667 80 -125
c47.333 -27.333 97.333 -41 150 -41c74.667 0 159 35.667 253 107z" />
    <glyph glyph-name="uFEEE" unicode="&#x648;" horiz-adv-x="860" arabic-form="final" 
d="M610 214l302.001 -0.000976562v-214h-311c-12 -65.333 -36.667 -134.333 -74 -207s-79.166 -131 -125.499 -175s-89.166 -66 -128.499 -66c-59.333 0 -144.333 72 -255 216c53.333 -20 102 -30 146 -30c74 0 140.667 26.667 200 80
c51.333 46.667 91.666 107.334 120.999 182.001h-155l-112 5c-40.667 7.33301 -73.834 25.833 -99.501 55.5s-38.5 65.5 -38.5 107.5c0 141.333 59 273.333 177 396c30.667 32 65 48 103 48c68 0 127 -51.667 177 -155c39.333 -80 63.666 -161 72.999 -243zM469.001 213.999
c-16.667 139.333 -58.333 209 -125 209c-32 0 -59.833 -15.5 -83.5 -46.5s-35.5 -62.5 -35.5 -94.5c0 -22.667 8.33301 -40.667 25 -54l23 -10l36 -4h160z" />
    <glyph glyph-name="uFEF0" unicode="&#x649;" horiz-adv-x="1276" arabic-form="final" 
d="M1326 214l0.000976562 -213.999h-321l-78 -166l-81 -159c-174.667 -126 -336.334 -189 -485.001 -189c-96 0 -172.333 32.5 -229 97.5s-85 146.167 -85 243.5c0 104.667 44 252.667 132 444c-27.333 -106 -41 -196.333 -41 -271c0 -200 86.333 -300 259 -300
c68.667 0 140.667 19 216 57c44 22.667 86.667 50.667 128 84c24 21.333 49 48.666 75 81.999c-70 54.667 -171 82 -303 82h-16l94 209h735z" />
    <glyph glyph-name=".notdef" horiz-adv-x="1024" 
d="M128 0v1215h768v-1215h-768zM256 128h512v959h-512v-959z" />
    <glyph glyph-name="space" unicode=" " horiz-adv-x="400" 
 />
    <glyph glyph-name="exclam" unicode="!" horiz-adv-x="395" 
d="M393 920c0 -50 -9.66895 -128.668 -29.002 -236.001c-21.333 -118.667 -33.333 -201 -36 -247l-13 -232h-44c-1.33301 26.667 -6.66602 103.667 -15.999 231c-3.33301 48.667 -14.666 135.334 -33.999 260.001c-16.667 108.667 -25 184 -25 226c0 151.333 33 227 99 227
c65.333 0 98 -76.333 98 -229zM384.998 31.999c0 -26.667 -9.33301 -49.334 -28 -68.001s-41.334 -28 -68.001 -28s-49.334 9.33301 -68.001 28s-28 41.334 -28 68.001s9.33301 49.334 28 68.001s41.334 28 68.001 28s49.334 -9.33301 68.001 -28s28 -41.334 28 -68.001z
" />
    <glyph glyph-name="percent" unicode="%" horiz-adv-x="846" 
d="M234 985c0 -24.667 -8.33301 -45.167 -25 -61.5s-37.334 -24.5 -62.001 -24.5s-45.167 8.16699 -61.5 24.5s-24.5 36.833 -24.5 61.5c0 24 8.33301 44.333 25 61s37 25 61 25c24.667 0 45.334 -8.16699 62.001 -24.5s25 -36.833 25 -61.5zM694 1154l-444 -1266l-61 26
l447 1266zM791 83c0 -24.667 -8.16602 -45.167 -24.499 -61.5s-36.833 -24.5 -61.5 -24.5s-45.334 8.16699 -62.001 24.5s-25 36.833 -25 61.5c0 24 8.5 44.333 25.5 61s37.5 25 61.5 25s44.333 -8.33301 61 -25s25 -37 25 -61z" />
    <glyph glyph-name="parenleft" unicode="(" horiz-adv-x="584" 
d="M185 552c0 104 30.334 213.666 91.001 328.999c45.333 86 103 168 173 246c58 64.667 92.667 97 104 97c16.667 0 25 -9 25 -27c-6.66699 -7.33301 -30.334 -40 -71.001 -98c-136 -194 -204 -380.333 -204 -559c0 -182 68.333 -366 205 -552l72 -98
c0 -16 -7.33301 -24 -22 -24c-13.333 0 -48 27 -104 81c-179.333 172.667 -269 374.334 -269 605.001z" />
    <glyph glyph-name="parenright" unicode=")" horiz-adv-x="584" 
d="M581 538c0 -104 -30.334 -213.666 -91.001 -328.999c-45.333 -86 -103 -168 -173 -246c-58 -64.667 -92.667 -97 -104 -97c-16.667 0 -25 9 -25 27c6.66699 7.33301 30.334 40 71.001 98c136 194 204 380.333 204 559c0 182 -68.333 366 -205 552l-72 98
c0 16 7.33301 24 22 24c13.333 0 48 -27 104 -81c179.333 -172.667 269 -374.334 269 -605.001z" />
    <glyph glyph-name="asterisk" unicode="*" horiz-adv-x="975" 
d="M875 639c0 -18 -7 -33.6699 -21 -47.0029c-76.667 -73.333 -138.334 -115 -185.001 -125c-6.66699 -1.33301 -12.667 0.333984 -18 5.00098s-7 10.334 -5 17.001c13.333 48.667 55.333 108.334 126 179.001c16.667 16.667 33.334 25 50.001 25c35.333 0 53 -18 53 -54z
M638 727.997c0 -104 -13.668 -177.333 -41.001 -220c-4 -6 -9.66699 -9 -17 -9c-7.33301 0.666992 -12.666 3.66699 -15.999 9c-24.667 42 -37 114 -37 216c0 44.667 19 67 57 67c36 0 54 -21 54 -63zM972.999 397.997c0 -36 -21 -53.999 -63 -53.999
c-104 0 -177.333 13.667 -220 41c-6 4 -9 9.66699 -9 17c0.666992 7.33301 3.66699 12.666 9 15.999c42 24.667 114 37 216 37c44.667 0 67 -19 67 -57zM820.999 106.998c-18 0 -33.6699 7 -47.0029 21c-73.333 76.667 -115 138.334 -125 185.001
c-1.33301 6.66699 0.333984 12.667 5.00098 18s10.334 7 17.001 5c48.667 -13.333 108.334 -55.333 179.001 -126c16.667 -16.667 25 -33.334 25 -50.001c0 -13.333 -5.5 -25.5 -16.5 -36.5s-23.5 -16.5 -37.5 -16.5zM514.996 486.998
c1.33301 -6.66699 -0.331055 -12.667 -4.99805 -18s-10.334 -7 -17.001 -5c-48.667 13.333 -108.334 55.333 -179.001 126c-16.667 16.667 -25 33.334 -25 50.001c0 35.333 18 53 54 53c18 0 33.667 -7 47 -21c73.333 -76.667 115 -138.334 125 -185.001zM473.999 381.998
c-42 -24.667 -114 -37.001 -216 -37.001c-44.667 0 -67 19 -67 57c0 36 21 54 63 54c104 0 177.333 -13.667 220 -41c6 -4 9 -9.66699 9 -17c-0.666992 -7.33301 -3.66699 -12.666 -9 -15.999zM636.999 75.9971c0 -44.667 -18.999 -67 -56.999 -67c-36 0 -54 21 -54 63
c0 104 13.667 177.333 41 220c4 6 9.66699 9 17 9c7.33301 -0.666992 12.666 -3.66699 15.999 -9c24.667 -42 37 -114 37 -216zM518 310.997c-13.333 -48.667 -55.333 -108.331 -126 -178.998c-16.667 -16.667 -33.334 -25 -50.001 -25c-35.333 0 -53 18 -53 54
c0 18 7 33.667 21 47c76.667 73.333 138.334 115 185.001 125c6.66699 1.33301 12.667 -0.333984 18 -5.00098s7 -10.334 5 -17.001z" />
    <glyph glyph-name="plus" unicode="+" horiz-adv-x="860" 
d="M808 338h-326v-326h-87v326h-327v87h327v327h87v-327h326v-87z" />
    <glyph glyph-name="comma" unicode="," horiz-adv-x="512" 
d="M319 256c58.667 0 106 -29.666 142 -88.999c31.333 -50.667 47 -107 47 -169c0 -23.333 -2.33301 -48.333 -7 -75c-23.333 -134 -81.333 -230.667 -174 -290c-1.33301 -0.666992 -3 -1 -5 -1c-12.667 0 -19 10.333 -19 31c0 5.33301 1 9.33301 3 12
c35.333 45.333 56 72.333 62 81c22 33.333 38.667 73.333 50 120c12 47.333 5.33301 100.666 -20 159.999c-30.667 -22.667 -63 -34 -97 -34c-77.333 0 -116 40.667 -116 122c0 88 44.667 132 134 132z" />
    <glyph glyph-name="hyphen" unicode="-" horiz-adv-x="860" 
d="M808 338h-740v87h740v-87z" />
    <glyph glyph-name="period" unicode="." horiz-adv-x="393" 
d="M392 58c0 -27.333 -10 -50.666 -30 -69.999s-43.667 -29 -71 -29s-50.833 9.66699 -70.5 29s-29.5 42.666 -29.5 69.999s9.83301 50.833 29.5 70.5s43.167 29.5 70.5 29.5s51 -9.83301 71 -29.5s30 -43.167 30 -70.5z" />
    <glyph glyph-name="slash" unicode="/" horiz-adv-x="541" 
d="M490 973l-376 -1066l-66 27l376 1065z" />
    <glyph glyph-name="zero" unicode="0" horiz-adv-x="930" 
d="M624 571l-123 -218l-194 125l123 216z" />
    <glyph glyph-name="zero" unicode="&#x6f0;" horiz-adv-x="930" 
d="M624 571l-123 -218l-194 125l123 216z" />
    <glyph glyph-name="zero" unicode="&#x660;" horiz-adv-x="930" 
d="M624 571l-123 -218l-194 125l123 216z" />
    <glyph glyph-name="one" unicode="1" horiz-adv-x="930" 
d="M288 1040l149.999 175c102 -209.333 153 -441.333 153 -696c0 -109.333 -12.333 -200.333 -37 -273c-19.333 -58 -61.666 -140 -126.999 -246c8.66699 80.667 13 161.667 13 243c0 124.667 -5 228.667 -15 312c-26 202 -71.667 363.667 -137 485z" />
    <glyph glyph-name="one" unicode="&#x6f1;" horiz-adv-x="930" 
d="M288 1040l149.999 175c102 -209.333 153 -441.333 153 -696c0 -109.333 -12.333 -200.333 -37 -273c-19.333 -58 -61.666 -140 -126.999 -246c8.66699 80.667 13 161.667 13 243c0 124.667 -5 228.667 -15 312c-26 202 -71.667 363.667 -137 485z" />
    <glyph glyph-name="one" unicode="&#x661;" horiz-adv-x="930" 
d="M288 1040l149.999 175c102 -209.333 153 -441.333 153 -696c0 -109.333 -12.333 -200.333 -37 -273c-19.333 -58 -61.666 -140 -126.999 -246c8.66699 80.667 13 161.667 13 243c0 124.667 -5 228.667 -15 312c-26 202 -71.667 363.667 -137 485z" />
    <glyph glyph-name="two" unicode="2" horiz-adv-x="930" 
d="M780 1217l-57 -213h-239l16 -57c42 -152 63 -300 63 -444c0 -114 -23.333 -224 -70 -330c-21.333 -45.333 -47.333 -93 -78 -143l-18 -30c10.667 91.333 16 184.666 16 279.999c0 153.333 -13.667 301.333 -41 444c-21.333 108.667 -49.333 197.334 -84 266.001l109 227
h383z" />
    <glyph glyph-name="two" unicode="&#x6f2;" horiz-adv-x="930" 
d="M780 1217l-57 -213h-239l16 -57c42 -152 63 -300 63 -444c0 -114 -23.333 -224 -70 -330c-21.333 -45.333 -47.333 -93 -78 -143l-18 -30c10.667 91.333 16 184.666 16 279.999c0 153.333 -13.667 301.333 -41 444c-21.333 108.667 -49.333 197.334 -84 266.001l109 227
h383z" />
    <glyph glyph-name="two" unicode="&#x662;" horiz-adv-x="930" 
d="M780 1217l-57 -213h-239l16 -57c42 -152 63 -300 63 -444c0 -114 -23.333 -224 -70 -330c-21.333 -45.333 -47.333 -93 -78 -143l-18 -30c10.667 91.333 16 184.666 16 279.999c0 153.333 -13.667 301.333 -41 444c-21.333 108.667 -49.333 197.334 -84 266.001l109 227
h383z" />
    <glyph glyph-name="three" unicode="3" horiz-adv-x="930" 
d="M892 1238c15.333 -60.667 23 -116.671 23 -168.004c0 -190 -68.333 -285 -205 -285c-39.333 0 -75 10.667 -107 32c-26 -21.333 -63 -32 -111 -32c-23.333 0 -49.333 3 -78 9c18 -89.333 27 -180.333 27 -273c0 -142.667 -29.333 -273 -88 -391
c-4.66699 -9.33301 -30.667 -52.666 -78 -129.999l7 34c0 26 1.5 65.5 4.5 118.5s4.5 93.167 4.5 120.5c0 218.667 -18 395.334 -54 530.001c-20 72.667 -51.333 155.334 -94 248.001l137 176c39.333 -73.333 72 -144.666 98 -213.999c34.667 -8 65 -12 91 -12
c115.333 0 173 52.333 173 157v34l-3 9l35 37c14.667 -45.333 22 -95.333 22 -150c0 -36.667 -3 -67 -9 -91c48.667 0 90 13.667 124 41s50.333 64.333 49 111l-2 50z" />
    </font>
</defs>
</svg>
