<?xml version="1.0" standalone="no"?>
<!DOCTYPE svg PUBLIC "-//W3C//DTD SVG 1.1//EN" "http://www.w3.org/Graphics/SVG/1.1/DTD/svg11.dtd" >
<svg>
<metadata>
Created by FontForge 20090914 at Wed Oct 19 00:48:45 2011
 By www-data
(c) by Abolfazl Seilsepour - +98 912 591 3420  -  seilsepor@yahoo.com
</metadata>
<defs>
<font id="FarAref" horiz-adv-x="0" >
  <font-face 
    font-family="Far.Aref"
    font-weight="400"
    font-stretch="normal"
    units-per-em="2010"
    panose-1="0 0 7 0 0 0 0 0 0 0"
    ascent="1608"
    descent="-402"
    bbox="-177 -870 2722.99 2323"
    underline-thickness="75"
    underline-position="-843"
    unicode-range="U+0020-U+FEFC"
  />
<missing-glyph horiz-adv-x="1005" 
d="M126 0v1181h753v-1181h-753zM251 126h503v929h-503v-929z" />
    <glyph glyph-name=".notdef" unicode="&#x652;&#x64d;" horiz-adv-x="1005" 
d="M126 0v1181h753v-1181h-753zM251 126h503v929h-503v-929z" />
    <glyph glyph-name="copyright" unicode="&#x652;&#x64e;" horiz-adv-x="2793" 
d="M1639 2045c4 -2 7 -3 9 -3v-3h-15c0.666992 4 2.66699 6 6 6zM1630 2039h3c-2 -3.33301 -3 -6 -3 -8h-6v3c0.666992 3.33301 2.66699 5 6 5zM1648 2039l2.99805 0.00683594c2 0 4.33301 -2.66699 7 -8v-12c0 -8 -5.33301 -18.333 -16 -31v-3
c24.667 -8.66699 37 -23.334 37 -44.001v-9c0 -32 -17.333 -48 -52 -48l-3 6c32.667 0 49 16 49 48c0 23.333 -16.333 37.333 -49 42h-6c-16 0 -28.333 -6 -37 -18v-3l9 6h9c-1.33301 -6.66699 -16 -23.334 -44 -50.001c-2 -14.667 -3 -23 -3 -25c2 -24 6 -44.667 12 -62h3
v3l-3 15c2 23.333 5.66699 35 11 35c0 -2 1 -3 3 -3c-2 -2.66699 -4 -11.334 -6 -26.001c6.66699 4 11.667 6 15 6l6 -9v-6c0 -5.33301 -2 -14 -6 -26l6 -3c0 2.66699 2.66699 5.66699 8 9h3c2.66699 0 5.33398 -3 8.00098 -9c0 -2 -0.666992 -8.33301 -2 -19
c6.66699 -21.333 13.334 -33 20.001 -35c4.66699 9.33301 9.66699 14 15 14v6c-6 0 -9 2 -9 6v6c0.666992 4 2.66699 6 6 6h6v-18h3c25.333 11.333 44 21.666 56 30.999c2 0 5 1 9 3c8 -3.33301 12 -6.33301 12 -9v-4l-18 -6c-2 4 -3 7.33301 -3 10h-2
c0 -9.33301 -9.66699 -16.666 -29 -21.999c10 -8 15 -13.667 15 -17c-2 0 -3 -1 -3 -3c-14 2.66699 -21 5.66699 -21 9l6 8h-3c-16.667 -5.33301 -25 -16 -25 -32c3.33301 2 6 3 8 3l2 -6c0 -4 -3.33301 -6 -10 -6v-6c6.66699 -12.667 10 -21.667 10 -27
c11.333 14 22.333 21 33 21c7.33301 0 13 -3.66699 17 -11v-3c-6.66699 4 -14.334 6 -23.001 6c-14 -6 -21 -16.333 -21 -31c0 -1.33301 1 -9 3 -23h3c0 11.333 2 17 6 17h3v-15c8 8 15.667 12 23 12c4 -8.66699 7.66699 -13.334 11 -14.001c6 0 12 11.667 18 35v21
c0.666992 4 2.66699 6 6 6c5.33301 -2 8 -7.66699 8 -17s-1.66699 -17.666 -5 -24.999h5c10.667 19.333 17.334 36.333 20.001 51v18l-3 15l12 8c7.33301 -2.66699 11 -11.334 11 -26.001c0 -12 -8.33301 -33 -25 -63l-26 -21l-6 3c0 -8 -6.66699 -13.667 -20 -17
c0 2 -1 3 -3 3c0 -2 -3.66699 -8 -11 -18v-3h5c49.333 37.333 103.333 67 162 89c12.667 15.333 19 31.333 19 48c0 12.667 -10.333 24.667 -31 36c-10 0 -18 -5.33301 -24 -16v-15c4 -7.33301 8 -11 12 -11v-6h-3c-2.66699 0 -7.33398 5.66699 -14.001 17v18
c4.66699 12.667 12.334 19 23.001 19h9c18 0 30.333 -14 37 -42v-12c0 -11.333 -4 -22.333 -12 -33c46.667 2 70 6 70 12c-5.33301 0 -10.333 7 -15 21v3h12c2.66699 0 6.33398 -4 11.001 -12v-3l-5 -9v-3c22.667 10.667 34 29.334 34 56.001c-6 29.333 -9 50.333 -9 63v6
c0 23.333 8.66699 37.333 26 42c-9.33301 -10 -14 -21 -14 -33c0 -8.66699 3.66699 -39.667 11 -93c-0.666992 -19.333 -6.33398 -35 -17.001 -47l44 -9c0 2.66699 13.333 7.66699 40 15c0 1.33301 5.33301 6.33301 16 15h3c14 0 21 -6 21 -18
c-4 -6.66699 -6 -12.334 -6 -17.001c2 0 3 -1 3 -3c4.66699 0 18 11.667 40 35h18c2.66699 0 6.33398 -4 11 -12v-12l-3 -5h3c24 14.667 39.333 28.334 46 41.001h6v-3c-27.333 -44 -56.333 -66 -87 -66v-6c100 20 150 48 150 84c4.66699 8.66699 9.33398 30.334 14 65.001
c10 6.66699 15 10.667 15 12c-6 17.333 -9 26.333 -9 27h6c8 -17.333 12 -28.333 12 -33v-15c0 -10 -5 -24 -15 -42v-3h3c15.333 30.667 23 52.667 23 66v9c0 48.667 -26 83.334 -78 104.001l-17 3c-36 0 -61 -23 -75 -69v-15c0 -34.667 22.333 -54 67 -58l13 3
c-1.33301 -6 -6.66602 -9 -16 -9h-12c-2 0 -3 1 -3 3l-6 -3c-34 16 -51 38.333 -51 67v12c12.667 54 42 81 88 81v-3c2 0 3 1 3 3c22.667 -1.33301 46 -14.333 70 -39c0 42 14.333 67 43 75h6c22.667 -5.33301 34 -17.333 34 -36c-1.33301 -16 -9 -24 -23 -24
c10.667 9.33301 16.667 18.333 18 27c-5.33301 16 -15 24 -29 24c-25.333 -7.33301 -38 -23.333 -38 -48v-9c0 -8.66699 6.66699 -36.334 20 -83.001v-18c0 -28.667 -13.333 -59.334 -40 -92.001v-3h12c48 0 78.333 -19 91 -57v-18c-4.66699 -35.333 -20.667 -53 -48 -53h-6
c-19.333 0 -31.666 12 -37 36h6c0 -12 8.33301 -22 25 -30v9c6.66699 -4 12.667 -6 18 -6c16 0 27.333 12.667 34 38v12c0 32 -24 51 -72 57h-8l5 -9c0 -4 -1.66699 -6 -5 -6h-3c-4 0 -6 2 -6 6l6 9h-9c-4 -0.666992 -6 -2.66699 -6 -6c2 -4 3 -7.66699 3 -11l-6 -3h-6
c-4 0 -6 3.66699 -6 11h-2c-57.333 -43.333 -109.333 -65 -156 -65c54 -50.667 81 -107.334 81 -170.001c29.333 -61.333 65 -92 107 -92h3c40 8.66699 60 28.334 60 59.001v12c-4 24 -18.333 36 -43 36c-20 0 -32.667 -14 -38 -42c1.33301 -6 6.33301 -13.667 15 -23v-3h-3
c-12 8 -18 17.667 -18 29v6c6.66699 28 20.334 42 41 42h11c27.333 0 43.666 -19 49 -57c-12 -51.333 -36.667 -77 -74 -77h-12c-36.667 0 -72.334 22 -107.001 66c-15.333 -52.667 -41 -88.334 -77 -107.001c-24.667 -16.667 -55.667 -25 -93 -25
c-58.667 0 -100.667 32.667 -126 98c-3.33301 9.33301 -5 22.666 -5 39.999v14c0 44 25.667 76.667 77 98c17.333 2.66699 28 4.66699 32 6c19.333 -4 38.666 -11.667 57.999 -23v-6h-3c-17.333 13.333 -37.666 20 -60.999 20c-41.333 0 -71 -24.667 -89 -74
c-2 -8 -3 -16 -3 -24v-14c0 -65.333 40 -105 120 -119c4.66699 1.33301 17.667 3.33301 39.001 6v3c-16 0 -26 10.667 -30 32v15c6 13.333 17.333 20 34 20c8 -2.66699 12 -5.33398 12 -8.00098v-3h-3l-9 5c-16.667 -3.33301 -25 -8 -25 -14v-15
c4 -17.333 14.333 -26 31 -26c45.333 0 80 39.333 104 118v36c0 50.667 -23.667 96.334 -71 137.001v-6c44 -34.667 66 -85.334 66 -152.001v-3h-6c0 32.667 -8.66699 58.667 -26 78c0 -6 -4 -11 -12 -15h-6c-2 0 -4.66699 5 -8 15l3 14c0 36.667 -21 63.667 -63 81h-21
c6 -10 9 -18 9 -24v-3c0 -3.33301 -4 -7 -12 -11h-6c-22.667 0 -34 19.333 -34 58c-7.33301 8 -22.666 15 -45.999 21c0 6 -1.66699 9 -5 9v-6c-4 0 -6 2 -6 6c-56.667 0 -121 -25.667 -193 -77c-60 -51.333 -90 -82 -90 -92c129.333 -100.667 194 -230.667 194 -390
c0 -32 -6 -48 -18 -48c-6 4 -9 15 -9 33h-3c0 -46 -14.333 -105.333 -43 -178v-3h3v6h3c3.33301 0 7.33301 -4 12 -12v-3c0 -25.333 -22 -61.333 -66 -108h-9c-3.33301 0 -7.33301 4.33301 -12 13c3.33301 0 6.33301 4 9 12h-3l-46 -51c6.66699 4 12.667 6 18 6l6 -9
c0 -20.667 -31 -45.667 -93 -75v3c-7.33301 -4 -13 -6 -17 -6c0 4 -3 6 -9 6v9c2 0 9 3.33301 21 10v3h-6c-62 -36 -127.333 -54 -196 -54v-3c29.333 0 44 -4 44 -12v-3h-6l3 -6c-10.667 -4 -27 -6 -49 -6c-166 0 -299.667 80.333 -401 241c-42 78.667 -63 157 -63 235
c1.33301 37.333 7.33301 56 18 56c5.33301 -4.66699 8 -14.334 8 -29.001h3c0 48.667 16.333 109 49 181h-6c0 -7.33301 -3 -11 -9 -11l-8 11c0 2 1 3 3 3l-3 6c5.33301 28.667 27.333 62.334 66 101.001c0 -2 1 -3 3 -3c0.666992 4 2.66699 6 6 6
c2.66699 0 6.66699 -3.66699 12 -11l-9 -12v-3l52 53h-3l-12 -9h-3c-2.66699 0 -5.66699 3 -9 9v3c7.33301 21.333 37.333 46 90 74l6 -3l14 3c7.33301 -3.33301 11 -6 11 -8c-9.33301 -8 -16 -12 -20 -12v-3h3c70.667 35.333 135 53 193 53v3h-29
c-3.33301 0 -7.33301 4.33301 -12 13v2c2.66699 0 11.334 3 26.001 9h64c2 0 3 -1 3 -3c2 0 3 1 3 3c41.333 0 104.333 -21 189 -63v3l-14 18v3h5c4 0 8 -6 12 -18h3c4 0.666992 8 5.66699 12 15c-4 0 -6 2 -6 6v3c8 0 12 16 12 48v6c0 55.333 -15.333 91 -46 107
c-10 -6 -19.667 -9 -29 -9c-8 2.66699 -12 5.66699 -12 9v9c0 4 5.66699 6 17 6v3c0 6 -13.333 13.667 -40 23c-1.33301 0 -13 -5 -35 -15c-2 3.33301 -3 8.33301 -3 15c-15.333 0 -27.666 -3 -36.999 -9l-3 6c-28.667 -18.667 -43 -43 -43 -73c0 -10.667 7 -20 21 -28
c8.66699 0 13 7.33301 13 22c4 0 6 -3.33301 6 -10c-4.66699 -12 -11 -18 -19 -18c-3.33301 2 -7.33301 3 -12 3h-3c13.333 -33.333 36.333 -50 69 -50h3c38 10 57 29.667 57 59v9c-3.33301 12.667 -5 20.667 -5 24c4 0 7.66699 -11 11 -33c0 -40 -24.667 -62.667 -74 -68
h-6c-28 0 -50.333 20.667 -67 62c-2 4 -4 14.333 -6 31c0 22 10 45.333 30 70c-44.667 8.66699 -67 29.667 -67 63c4 29.333 17.333 44 40 44c18 -6 27 -15.667 27 -29v-12c0 -4 -2 -6 -6 -6h-3l3 15v9c-5.33301 9.33301 -13.333 14 -24 14
c-18.667 -4.66699 -28 -17.334 -28 -38.001c11.333 -27.333 26.666 -41 45.999 -41l-3 6v3h6v-9h15l-3 6v3c0.666992 4 2.66699 6 6 6c2.66699 -0.666992 4 -2.66699 4 -6c-1.33301 -4 -2 -7 -2 -9h8c4 0 6 2 6 6c-4 0 -6 2 -6 6v3c0.666992 3.33301 2.66699 5 6 5h3
c4 -0.666992 6 -2.33398 6 -5.00098v-3l-3 -6h3c9.33301 6 21.666 9 36.999 9h9c10.667 0 25 -2 43 -6c-4 7.33301 -6 13 -6 17h-2c0 -6 -2 -9 -6 -9h-3c-2.66699 0 -6.33398 5 -11.001 15l14 3c0.666992 -4 2.66699 -6 6 -6v3c-2 8 -3 15 -3 21l-15 -3l-8 12l6 3h5l9 -6v29
l3 16c-6 0 -9 2 -9 6l6 9v3l-6 -3h-3l3 14c-11.333 12 -21 18 -29 18h-14c-11.333 -5.33301 -17 -13.333 -17 -24v-8l6 -9v-3h-3c-6 2 -9 7.66699 -9 17v3c0 18.667 11.333 29.667 34 33v-3l6 3c6.66699 0 20 -12 40 -36c0 13.333 13.667 30.333 41 51c42 10 63 21 63 33v12
c-3.33301 4.66699 -5 7.33398 -5 8.00098v3zM2286 2031.01l2 -6l-5 -3l-2 6zM2286 2007.01l5 -0.000976562c4 -0.666992 6 -2.66699 6 -6s-3 -6.66602 -9 -9.99902c-2 0 -4.33301 3.33301 -7 10c0 4 1.66699 6 5 6zM1658 1998.01c4 -0.666992 6 -3 6 -7s-2 -6 -6 -6
c-3.33301 0 -5 2 -5 6c0 4.66699 1.66699 7 5 7zM1667 1998.01h9v-4c0 -4 -2 -6 -6 -6l-3 6v4zM1549 1994.01l5.99902 -9c6 4 11.667 6 17 6l3 -6c-17.333 -11.333 -26 -22 -26 -32v-3h-5c0 6.66699 -6.66699 13.667 -20 21v3c5.33301 0 8 1 8 3c-2 4 -3 6.66699 -3 8l9 6
l6 -3c0.666992 4 2.33398 6 5.00098 6zM2294 1985.01l9 0.000976562c4 -0.666992 6 -2.33398 6 -5.00098v-6c0 -2.66699 -3 -5.66699 -9 -9h-3c-2.66699 0 -5.66699 3 -9 9v6c0.666992 3.33301 2.66699 5 6 5zM2355 1962.01c9.33301 -5.33301 14 -9.33301 14 -12h-5
c-3.33301 0 -6.33301 3 -9 9v3zM1371 1959.01l2.99902 -0.000976562c4.66699 0 10.334 -10.667 17.001 -32c0 -22.667 -7.66699 -34 -23 -34c-2 4 -3 8.33301 -3 13v3h3l6 -3v3c-4 6.66699 -6 12.667 -6 18h3c4.66699 0 7.66699 -5 9 -15h3c0 12.667 -6 25.334 -18 38.001v3
c0.666992 4 2.66699 6 6 6zM2068 1959.01h7v-18c-2.66699 -25.333 -13 -38 -31 -38h-6c-4 0 -6 2 -6 6v3c1.33301 0 5.33301 1 12 3v3h-3c-6 -4 -10.667 -6 -14 -6l-3 6c0 14 13.667 23.667 41 29c2 3.33301 3 7.33301 3 12zM1630 1944.01l6 -0.000976562
c4 -0.666992 6 -2.66699 6 -6v-6l-6 -8c2 -4 3 -7 3 -9c-2 0 -3 -1 -3 -3c-10 2.66699 -15 9.33398 -15 20.001c3.33301 8 6.33301 12 9 12zM1955 1927h12c11.333 -8 17 -16 17 -24c-1.33301 -6 -6 -11.333 -14 -16c-5.33301 0 -9.33301 11.333 -12 34c-2 0 -3 1 -3 3v3z
M2242 1906l9 -13v-6c-2.66699 -17.333 -11 -26 -25 -26h-12c-2.66699 0 -6.66699 4 -12 12v8h6l9 -5c4.66699 20 13 30 25 30zM1607 1903c6 -6.66699 11.668 -10 17.001 -10c0 -4 -2 -6 -6 -6c-2.66699 0 -6.33398 4 -11.001 12v4zM1532 1896c4 0 6 -2 6 -6s-2 -6 -6 -6
l-5 9zM2234 1884v-3h3c3.33301 0 5 2 5 6v3h-2c-4 -0.666992 -6 -2.66699 -6 -6zM1402 1873c8 -2.66699 11.999 -5.66699 11.999 -9l-6 -3h-6c-3.33301 0 -5 2 -5 6c0.666992 4 2.33398 6 5.00098 6zM1710 1873c0 -2 1.00098 -3 3.00098 -3c-2 -4 -3 -7 -3 -9l3 -21l-8 -6
c-7.33301 2.66699 -11 5.66699 -11 9v15c3.33301 7.33301 8.66602 12.333 15.999 15zM2022 1864c3.33301 -0.666992 5 -2.66699 5 -6c0 -18 -7.66699 -27 -23 -27c-8 2.66699 -12 5.66699 -12 9v6c0 2.66699 10 8.66699 30 18zM1581 1849v-9h6v9h-6zM2260 1840h3
c-4 -5.33301 -6 -9.33301 -6 -12h-6v3c0 2.66699 3 5.66699 9 9zM2367 1840l5 0.000976562c6 -1.33301 9 -9 9 -23c0 -22 -6.66699 -35.333 -20 -40v-5h3c9.33301 0 17 13 23 39h6c2 0 4.66699 -3.33301 8 -10c0 -6.66699 -4.66699 -16.334 -14 -29.001h3l14 17
c3.33301 -0.666992 5 -2.66699 5 -6v-6c-4.66699 -9.33301 -12 -14 -22 -14l-6 3v-6c6 0 10.667 -4 14 -12c0 -4 -1.66699 -6 -5 -6h-3l-23 21v3l-6 -3l-3 6l-26 -12l-3 6c9.33301 0 22 11.667 38 35v3l-3 36zM1944 1834.01l5 -0.000976562c15.333 0 23 -7.66699 23 -23
c0 -3.33301 -2.66699 -6.66602 -8 -9.99902h-6l-23 27zM2303 1828v-8h6c4 0 6 1.66699 6 5l-6 3h-6zM2248 1828h3c0 -3.33301 -2 -5 -6 -5h-3c0.666992 3.33301 2.66699 5 6 5zM1679 1820h3v-22h-6c-4 0 -6 2.33301 -6 7v6c0 2.66699 3 5.66699 9 9zM1348 1811
c14 -20.667 25.667 -34.667 35 -42v-6c-22 11.333 -35.667 23 -41 35v7c0.666992 4 2.66699 6 6 6zM1311 1795l3 0.000976562l17 -23h3c-4 6 -6 11.667 -6 17l6 3h2c5.33301 -8.66699 16 -19.334 32 -32.001l-6 -3c0 4 -0.666992 6 -2 6c-4 -2 -7 -3 -9 -3c0 2 -1 3 -3 3
v-12l9 6h5v-3l-8 -18l3 -17l-6 -3h-3c-4 0 -6 1.66699 -6 5v6l3 15c-4.66699 0 -7.66699 -7 -9 -21l3 -21l-5 -3c-5.33301 0 -9.33301 10 -12 30c-3.33301 0 -5 3 -5 9l-6 -3h-6c-4 0 -6 2 -6 6h3c-4 6.66699 -6 11.667 -6 15c4 0 6 2 6 6l-6 9v3
c0.666992 3.33301 2.66699 5 6 5c9.33301 -13.333 19 -20 29 -20v6c-12 0 -20.667 9.66699 -26 29zM1368 1795.01h5.99902c2.66699 0 7.33398 -7 14.001 -21v-2h-2c-2.66699 0 -8.66699 6.66699 -18 20v3zM1391 1792.01l9 -12v-3h-3c-3.33301 0 -7 4 -11 12zM2024 1789.01
l6 0.000976562v-3c0 -14.667 -6.66699 -23.334 -20 -26.001c-8 3.33301 -12 6.33301 -12 9v5c0 3.33301 8.66699 8.33301 26 15zM1394 1769.01h6l2 -15l-5 -3h-3c0 6 -1 9 -3 9c2 4 3 7 3 9zM1380 1763.01v-6l-9 -27l3 -6v-21h-6c-5.33301 2 -8 8 -8 18
c0 17.333 6.66699 31.333 20 42zM1325 1733.01c11.333 8 17 16 17 24c-11.333 -4 -17 -12 -17 -24zM1386 1760.01h5l-3 -15v-12h-2l-6 3c4 15.333 6 23.333 6 24zM1803 1751.01c4 -0.666992 6 -2.66699 6 -6c-5.33301 -20.667 -18 -38.667 -38 -54h-3v3
c11.333 12 21 31 29 57h6zM1500 1748.01c21.333 0 37.001 -16 47.001 -48c0 -4 -2 -6 -6 -6s-6 2 -6 6v3l3 7c-4.66699 0 -14.334 8.66699 -29.001 26l-6 3h-3v-3c6 0 11 -4 15 -12c0 -3.33301 -2 -5 -6 -5c-5.33301 11.333 -12 17 -20 17v3c0 2.66699 3.66699 5.66699 11 9
zM2075 1739.01v-6c0.666992 -4 2.66699 -6 6 -6h3c4 0 6 2 6 6v6c-4 0 -6 1 -6 3c-3.33301 -2 -6.33301 -3 -9 -3zM1529 1742.01h3c3.33301 0 6.33301 -3 9 -9v-3c-2.66699 0 -6.66699 4 -12 12zM2142 1733.01v-6c0.666992 -4 2.66699 -6 6 -6c3.33301 2 6.33301 3 9 3v9
c0 4 -2 6 -6 6h-3c-4 -0.666992 -6 -2.66699 -6 -6zM1481 1736.01h5c7.33301 -3.33301 11 -6.33301 11 -9c0 -4 -1.66699 -6 -5 -6c-7.33301 8.66699 -11 13.667 -11 15zM1822 1736.01c4 -0.666992 6 -2.66699 6 -6v-3c-2 -5.33301 -10.333 -12.333 -25 -21h-6
c4.66699 9.33301 13 19.333 25 30zM2065 1727.01v-8c4 0 6 1.66699 6 5zM2338 1730.01h5v-9c-3.33301 0 -5 2 -5 6v3zM1604 1724.01h6c21.333 -18 32 -45.667 32 -83h-6c0 21.333 -12.333 47.333 -37 78v2zM1705 1713.01c3.33301 -0.666992 5 -3 5 -7v-9h-5v16z
M2068 1703.01v-3c2 0 4.33301 -1 7 -3h3v3c-2 0 -4.33301 1 -7 3h-3zM2260 1700.01c6 0 12 -6 18 -18c-2 0 -3 -1 -3 -3c-14 4.66699 -21 8.66699 -21 12v3c0.666992 4 2.66699 6 6 6zM1541 1688.01l3 -6v-3h-9v3c0.666992 4 2.66699 6 6 6zM1593 1685.01
c20 0 35.332 -21.667 45.999 -65h-6l3 -15v-9h-6c0 14.667 -11.333 30.667 -34 48v6h5c9.33301 0 19 -7 29 -21v3c-3.33301 14 -17.666 28.667 -42.999 44v3c0.666992 4 2.66699 6 6 6zM2326 1685.01v-3c-1.33301 -8 -2 -14.667 -2 -20h-6v5c1.33301 12 4 18 8 18z
M1904 1679.01c34 0 51 -8.66699 51 -26l-8 -6c-36 6 -57.333 9 -64 9h-3c-25.333 0 -59 -7 -101 -21v6c54 25.333 95.667 38 125 38zM2220 1679.01c14.667 0 22 -7.66699 22 -23c-20.667 2 -31 5.66699 -31 11v3c0 2.66699 3 5.66699 9 9zM1673 1641.01v-3.00098h3
c0 4.66699 6 14.334 18 29.001h-3c-6.66699 -2 -12.667 -10.667 -18 -26zM1664 1656.01l3 -15h3c0 8 1 16 3 24c-2.66699 0 -5.66699 -3 -9 -9zM2165 1662.01h12c11.333 -7.33301 17 -16.333 17 -27l-6 -3c0 2 -3.66699 5 -11 9l-6 -3c-8.66699 4 -13.334 8 -14 12v3
c0 2.66699 2.66699 5.66699 8 9zM2093 1653.01c0.666992 -4 2.66699 -6 6 -6h3c0 4 -2 6 -6 6h-3zM2343 1650.01h6v-15c-4 0 -6 2 -6 6v9zM2022 1635.01c1.33301 -4 2 -7 2 -9h6c3.33301 0 5 2 5 6v3c0 4 -1.66699 6 -5 6zM1679 1629.01c4 2 7 3 9 3v6
c-3.33301 0 -6.33301 -3 -9 -9zM1834 1638.01h9c26.667 0 47.667 -10 63 -30v-9c0 -2.66699 -2.66699 -5.66699 -8 -9c-28 22 -55 33 -81 33l-55 -6c0 8.66699 24 15.667 72 21zM1601 1620.01h5.99902c15.333 -11.333 23 -23.333 23 -36v-9h-6c0 10 -9.33301 23 -28 39
c0.666992 4 2.33398 6 5.00098 6zM1754 1617.01l3 -0.000976562c0 -3.33301 0.666992 -5 2 -5c17.333 0.666992 26 2.33398 26 5.00098c30.667 0 52 -9 64 -27v-3c0 -2.66699 -3 -5.66699 -9 -9h-9c-15.333 14 -35.333 21 -60 21l-43 -9v3c17.333 12 26 19 26 21v3z
M1754 1587c32.667 -4.66699 49 -11.667 49 -21v-6c0 -4 -5 -6.66699 -15 -8c-14.667 9.33301 -30 16 -46 20l-46 -9c0 8.66699 19.333 16.667 58 24zM2133 1555l6 -3v8c-4 0 -6 -1.66699 -6 -5zM1705 1558h5c23.333 0 35 -4 35 -12c0 -4 -2 -6 -6 -6h-5c-8 6 -17 9 -27 9
h-19c2 6 7.66699 9 17 9zM2001 1555h5.99902c36.667 0 62.334 -19 77.001 -57h-3c-17.333 22 -35.333 33 -54 33h-26c-2.66699 0 -5.66699 3 -9 9v6c0 2.66699 3 5.66699 9 9zM1971.99 1549h9c4 -0.666992 6 -2.66699 6 -6v-6c0 -3.33301 -3 -6.33301 -9 -9h-6
c-2 0 -4.66699 3 -8 9v3c0 2.66699 2.66699 5.66699 8 9zM1690.99 1540c12.667 -2 19 -5 19 -9v-3c0 -4 -1.66699 -6 -5 -6c-15.333 4.66699 -23 7.66699 -23 9l-6 -3c-4 0 -6 2 -6 6c10 4 17 6 21 6zM2070.99 1540c2.66699 -0.666992 4 -2.66699 4 -6v-3
c-2.66699 0 -4 2 -4 6v3zM1951.99 1534c4 -0.666992 6 -2.66699 6 -6v-6c0 -4 -2 -6 -6 -6h-3c-3.33301 0 -5 2 -5 6v3c0 2.66699 2.66699 5.66699 8 9zM2219.99 1525h12c2 0 4.66699 -4.33301 8 -13c-4 -8 -7.66699 -12.667 -11 -14h-6c-2.66699 0 -5.66699 3 -9 9v12
c0.666992 4 2.66699 6 6 6zM2031.99 1519l2.99902 -0.000976562c18.667 0 35 -10 49 -30l-6 -3c0 8.66699 -17 16.334 -51 23.001v3c0.666992 4.66699 2.33398 7 5.00098 7zM1928.99 1504h9v-9h-9v9zM2481.99 1504l16.999 0.000976562c2.66699 0 6.33398 -4 11 -12v-3
c0 -2.66699 -3 -5.66699 -9 -9c-1.33301 0 -13.666 1 -36.999 3c-14.667 0 -30 -7 -46 -21h3c8 4 20.333 7 37 9l6 -9c0 -4 -2 -6 -6 -6h-8c-2 0 -3 1 -3 3c-20 -2.66699 -33.333 -7.33398 -40 -14.001v14c19.333 30 44.333 45 75 45zM2052.99 1495
c12.667 0 23.999 -8 33.999 -24l-6 -3c0 4 -11.333 10 -34 18v3c0.666992 4 2.66699 6 6.00098 6zM2233.99 1489h3.00098c2.66699 0 5.33398 -3 8 -9v-3c0 -2.66699 -2.66699 -5.66699 -8 -9h-3c-2.66699 0 -5.33398 3 -8.00098 9v3c0 3.33301 2.66699 6.33301 8 9z
M2334.99 1483c0 -4 6.66699 -9 20 -15v-3c0 -2.66699 -3 -5.66699 -9 -9h-8c-6 2 -9 8 -9 18v3c0.666992 4 2.66699 6 6 6zM2253.99 1456c4 -0.666992 6 -2.33398 6 -5.00098v-3c0 -4 -2 -6 -6 -6h-3c-4 0 -6 2 -6 6c0 2.66699 3 5.33398 9 8.00098zM2438.99 1451l3 -6v-3
c0 -2.66699 -12.667 -6.66699 -38 -12l-3 6c10 10 22.667 15 38 15zM1151.99 1203c42 16.667 79.668 25 113.001 25s66.666 -12.333 99.999 -37h6l61 209c-35.333 28 -73 42 -113 42h-5c-73.333 -8 -110 -20.333 -110 -37c-34.667 -118 -52 -185.333 -52 -202zM2262.99 1436
h9v-6h-9v6zM2277.99 1427h3c3.33301 -0.666992 5 -2.66699 5 -6l-5 -3l-3 6v3zM2086.99 1397c4 -0.666992 6 -2.66699 6 -6v-3h-6v9zM2210.99 1388c14 -1.33301 20.999 -3.33301 20.999 -6l5 3h5c3.33301 0 6.33301 -3 9 -9l-9 -6c-7.33301 0 -16.666 4 -27.999 12h-6
c0 -12.667 -10.333 -23.667 -31 -33l-3 6v3c22.667 16 34 26 34 30h3zM1399.99 1165c39.333 -26 78.668 -38.999 118.001 -38.999c26.667 0 63 8 109 24c16 40 39 110.333 69 211c-4.66699 4 -8.33398 6 -11.001 6c-40 -17.333 -71.667 -26 -95 -26h-26
c-34 0 -68.667 13.667 -104 41h-3c-6.66699 0 -22 -54.667 -46 -164c-7.33301 -14.667 -11 -32.334 -11 -53.001zM2216.99 1370.01h3l14 -9h29c4 -0.666992 6 -2.66699 6 -6v-3l-3 -5c-21.333 0 -37.666 6.66699 -49 20v3zM2204.99 1361.01v-9
c-5.33301 -11.333 -17.666 -23.333 -37 -36h-3c-4 0 -6 2.33301 -6 7v3c22.667 14 38 25.667 46 35zM2216.99 1355.01h3c20 -13.333 33.333 -20 40 -20h9l34 3l9 -12v-3c0 -6 -8.66699 -10.333 -26 -13c-24 0 -47 14 -69 42v3zM2210.99 1347.01h6
c-18.667 -56 -45.667 -84 -81 -84c-4 6.66699 -6 12.667 -6 18c48 18.667 74 38.667 78 60c2 0 3 2 3 6zM2219.99 1332.01l6 0.000976562c0 -12.667 13.333 -24 40 -34h6c4 0 7.66699 1 11 3c8.66699 -3.33301 13.334 -7 14 -11v-6c0 -2.66699 -3 -5.66699 -9 -9h-7
c-5.33301 0 -14.333 2 -27 6h-3v-3c19.333 -10 32.666 -15 40 -15c9.33301 4 18.333 6 27 6l6 -9v-6c-3.33301 -7.33301 -11.333 -11 -24 -11c-20 0 -40 11.667 -60 35v-6c8 -25.333 24 -38 48 -38c12 0 18 -3.33301 18 -10v-3c-2 -6 -8 -9 -18 -9
c-30.667 8.66699 -46 20.667 -46 36h-2v-3c0 -14.667 10.667 -25.667 32 -33v-9c0 -4 -2 -6 -6 -6h-3l-15 3c0 -4.66699 -1 -8.33398 -3 -11.001c-10.667 0 -16 10.667 -16 32l-12 -9h-3c-4 0 -6 2 -6 6c17.333 16 26 26 26 30c2 3.33301 3 7.33301 3 12
c-2 10.667 -3 19.667 -3 27c-2 0 -7.66699 -16.667 -17 -50c-19.333 -22.667 -35.666 -34 -49 -34c-7.33301 3.33301 -11 6.33301 -11 9v6c2.66699 6.66699 16.667 14 42 22l33 53c-2 0 -3 1 -3 3h3l10 -6v3l-19 23c0 -36 -12.667 -59.667 -38 -71h-8
c-2.66699 0 -5.66699 3 -9 9v6c0 2.66699 12.333 10.667 37 24c10 18.667 15 34.667 15 48zM2233.99 1221.01v-3c3.33301 -8.66699 7 -13.667 11 -15v3c-4.66699 10 -8.33398 15 -11 15zM1200.99 1189.01l-6.00098 2c-42 -8 -63 -19.667 -63 -35
c-9.33301 -44 -26.666 -109.333 -51.999 -196c2 0 3 -1 3 -3c43.333 17.333 79 26 107 26c28.667 0 66 -12.667 112 -38l63 214c-40 27.333 -77.333 41 -112 41c-34.667 -1.33301 -52 -5 -52 -11zM1327.99 924.007c42 -28 83.999 -42 125.999 -42
c77.333 6.66699 116 19.667 116 39l54 193c-3.33301 2 -6.33301 3 -9 3c-49.333 -16 -85.666 -24 -108.999 -24c-38.667 0 -77 14.333 -115 43c-6.66699 -7.33301 -27.667 -78 -63 -212zM553.992 614.007l2.99902 -0.000976562c2.66699 0 8.33398 -5.66699 17.001 -17
c-7.33301 -12 -14 -18 -20 -18c-8 2.66699 -13.667 7.66699 -17 15v3c0 2.66699 5.66699 8.33398 17 17.001zM2115.99 611.006h3l14 -11c0 3.33301 4 7 12 11h3c9.33301 -4.66699 14 -8.33398 14 -11.001v-6c0 -2.66699 -4.66699 -7.66699 -14 -15l-15 12
c-6.66699 -6 -13 -9 -19 -9c0 1.33301 -4 6.33301 -12 15c0 2.66699 4.66699 7.33398 14 14.001zM501.991 603.006l3 -5.99902v-104l3 -15h32c1.33301 0 2 -1 2 -3c21.333 2 32 5 32 9v3l-14 -3h-12c-17.333 0 -26 7.66699 -26 23c0 27.333 8.66699 46.333 26 57h12
c26.667 -6.66699 40 -32.334 40 -77.001c0 -46 -23 -69 -69 -69h-23c-28.667 0 -43 19 -43 57c0 8 -1 16 -3 24h3l-3 5c0 2 1 3 3 3l-3 6v12c0 10.667 -1 27.667 -3 51c24.667 18 39 27 43 27zM915.991 603.007c8 0 12.001 -25 12.001 -75v-41c-4 -46 -10.667 -69 -20 -69
c-10.667 0 -20.334 48.667 -29.001 146c2 0 14.333 13 37 39zM1177.99 603.007l3.00098 -6v-113c0 -2.66699 5.66699 -5.66699 17 -9c9.33301 0 18.333 9.66699 27 29h5c4 -0.666992 8.66699 -9.33398 14 -26.001c9.33301 0 19.333 -1 30 -3c6.66699 17.333 12 26.333 16 27
h3c9.33301 -18 15.333 -27 18 -27h3c2 0 7.66699 9 17 27h3c4 -0.666992 8.66699 -9.66699 14 -27h12c3.33301 0 5 2 5 6c-2 10.667 -3 18.334 -3 23.001l15 12h6c3.33301 -17.333 5 -30 5 -38h-2c0 -2 0.666992 -3 2 -3c-4.66699 -38 -16 -57 -34 -57
c-13.333 2.66699 -20 7.66699 -20 15c-7.33301 -10 -15 -15 -23 -15c-14 2 -21 7 -21 15h-3c0 -10 -6.33301 -15 -19 -15h-12c-7.33301 0 -16 5 -26 15c0 -6 -8.66699 -11 -26 -15h-20c-30.667 0 -46 22 -46 66v9c0 2 1 3 3 3l-3 6v8c0 14 -1 36 -3 66
c25.333 18 39.666 27 42.999 27zM1440.99 603.007c4.66699 -9.33301 7 -27 7 -53v-69c-1.33301 -36 -7.66602 -57 -18.999 -63c-8.66699 0 -18.334 47.667 -29.001 143zM1727.99 600.007l3 -18.001v-98c0.666992 -4 2.66699 -6 6 -6h14v9c0 6.66699 2.66699 13.334 8 20.001
c-1.33301 4 -2 7 -2 9c10 26 16.667 39 20 39c54 -24 81 -52.667 81 -86v-6c-6 -30 -17 -45 -33 -45c-5.33301 0 -15.666 5 -30.999 15c-14.667 -10 -25.334 -15 -32.001 -15h-28c-28.667 0 -43 19 -43 57c-1.33301 11.333 -3.33301 45 -6 101c20 16 34.333 24 43 24z
M2074.99 603.006h6.00098v-110c0 -10.667 6 -16.667 18 -18l6 3h3c2 0 3 -1 3 -3l5 3h29c4 0 6 2 6 6v3l-15 -3h-11c-17.333 0 -26 7.66699 -26 23v9c0 26.667 10.333 42.667 31 48h3c29.333 -6.66699 44 -31.334 44 -74.001c0 -48 -24 -72 -72 -72h-9
c-12.667 0 -24 6 -34 18c-6 -12 -16.667 -18 -32 -18h-8c-5.33301 -19.333 -11.333 -29 -18 -29h-9c-18.667 0 -31 18.667 -37 56c-2.66699 0 -5.66699 -3 -9 -9v-33c0 -25.333 -5.66699 -41 -17 -47h-3c-2.66699 0 -5.66699 3 -9 9v27l-3 14h3l-3 6v51
c0 22 16.667 33 50 33c0 5.33301 1.66699 8 5 8c24 -17.333 40.667 -26 50 -26h19c0 4 1 6 3 6c-2 22.667 -3 39.334 -3 50.001v27l-3 15c7.33301 6.66699 19.666 15.667 36.999 27zM1088.99 600.006h2.99902c2.66699 0 8.33398 -6 17.001 -18
c0 -2.66699 -5.66699 -8.66699 -17 -18h-3c-2.66699 0 -8.66699 6 -18 18c0 2.66699 6 8.66699 18 18zM1209.99 567.006l6 -0.000976562l12 -9l10 9h6c2.66699 0 7.66699 -4.66699 15 -14c0 -3.33301 -5 -8.66602 -15 -15.999h-3l-11 9h-2l-15 -12
c-2.66699 0 -7.66699 5.33301 -15 16v5c0 2.66699 4 6.66699 12 12zM708.993 561.005c34.667 -22 52 -49.668 52 -83.001c0 -40 -19.333 -60 -58 -60c-30.667 0 -46 15 -46 45c2.66699 24 7.66699 36 15 36c8.66699 -16 17.334 -24 26.001 -24h29l5 3
c-0.666992 6.66699 -15.667 19.334 -45 38.001v3c11.333 28 18.666 42 21.999 42zM1017.99 555.004l4.99902 -0.000976562c14 -51.333 26.667 -77 38 -77c12.667 0 19 -1 19 -3c3.33301 2 8.33301 3 15 3v3c-14 14 -21 22.667 -21 26c14 21.333 21 33.333 21 36h6
c8 0 15.333 -17.667 22 -53h-2l2 -6c0 -2 -0.666992 -3 -2 -3l2 -6c0 -38 -18 -57 -54 -57h-5c-18.667 0 -31.667 9 -39 27h-2c-14 -20 -28.333 -30 -43 -30h-9c-18.667 0 -29 16 -31 48c2.66699 22 7.33398 33 14.001 33h3c9.33301 -18 18 -27 26 -27c17.333 2 26 5 26 9
c-12 30.667 -18 47.334 -18 50.001s9 11.667 27 27zM2417.99 543.003c4.66699 0 29 -11 73 -33c14.667 -2.66699 22 -7.33398 22 -14.001c-6 -24 -17.333 -36 -34 -36c-4.66699 0 -26 -13 -64 -39l-28 -3h-26c-30.667 6 -46 21 -46 45c-10 0 -19 -13 -27 -39v-9
c0 -23.333 20.333 -35 61 -35h15c3.33301 -0.666992 5 -2.66699 5 -6v-3c-2.66699 -10 -15 -15 -37 -15h-32c-44 4.66699 -66 21.334 -66 50.001v9c0 28 18 49 54 63c8 0 12 2 12 6c0 2.66699 -7.33301 8.66699 -22 18v2c0 19.333 13.333 30.333 40 33h6
c14.667 0 26 -7 34 -21v-14l-18 -24c8 0 12 -1 12 -3l6 3h46c2 0 3 -1 3 -3c2.66699 2 15.334 4 38 6v3c-22 8 -35.667 12 -41 12h-3c-6.66699 -6 -13.334 -9 -20 -9l-3 6v11c14.667 26 28 39 40 39zM544.992 519.003l15 -3c3.33301 2 6 3 8 3
c0 3.33301 -3.66699 6.33301 -11 9c-8 -2.66699 -12 -5.66699 -12 -9zM1632.99 531.003h5.99902c16 0 27.333 -12.667 34 -38c-2.66699 -8 -5.66699 -12 -9 -12c-12 4 -20.333 6 -25 6h-6c-14.667 -2.66699 -22.334 -6.66699 -23.001 -12v-3c42 0 63 -14 63 -42
c0 -41.333 -24 -65 -72 -71c0 -2 -6.66699 -3 -20 -3h-3c-46 0 -69 21.667 -69 65c4.66699 40 11.334 60 20.001 60h3c6 0 9 -4 9 -12c0 -2.66699 -1 -12.667 -3 -30c0 -15.333 16.333 -24.333 49 -27h14c14.667 0 31.334 3 50.001 9v3c-46.667 0 -70 10 -70 30
c12 51.333 29.333 77 52 77zM2127.99 528.003l-6 -9l14 -3c4 2 7 3 9 3c-2 6 -7.66699 9 -17 9zM2673.99 522.003l9.00098 0.000976562c18.667 0 31 -17.667 37 -53v-12c-3.33301 -26 -13.666 -39 -31 -39h-3c-12.667 0 -24 6 -34 18c0 -9.33301 -8 -15.333 -24 -18h-6l-5 3
c0 -30.667 -8.66699 -52.334 -26 -65.001h-63c-4 0 -6 2 -6 6v6c48 28 72 48.667 72 62c-2.66699 0.666992 -11.334 10.667 -26 30c11.333 26 19 39 23 39c13.333 -14 24.666 -21 34 -21h12c2.66699 0 6.66699 10.667 12 32c9.33301 8 17.666 12 24.999 12zM331.992 519.004
c6 -7.33301 8.99805 -15.999 8.99805 -25.999v-15c0 -40 -11.333 -60 -34 -60c-5.33301 0 -12.333 4 -21 12c-7.33301 -8 -14.666 -12 -21.999 -12c-5.33301 0 -12.333 4 -21 12c-8 -8 -15.333 -12 -22 -12h-9c-14.667 16 -32 24 -52 24l-20 -3v-3c5.33301 0 8 -1 8 -3l6 3
c28.667 -2.66699 43 -8.66699 43 -18v-15c0 -26.667 -24 -42.334 -72 -47.001h-11c-50 0 -75 21.667 -75 65c6.66699 34 13.667 51 21 51h5c2.66699 0 5.33398 -3 8.00098 -9l-3 -30c4.66699 -18 21 -27 49 -27h26l35 3v3c-15.333 0 -23 1 -23 3c-2 0 -3 -1 -3 -3
c-24.667 2 -37 7 -37 15v9c0 28 33.667 42 101 42l6 -3c2.66699 0 9 9 19 27h3c3.33301 0 8.33301 -8 15 -24c3.33301 -2 7 -3 11 -3c6 18 10.667 27 14 27h3c4 0 8 -8 12 -24l6 -3h8c4 0 6 2 6 6l-6 21zM418.99 499.005c18.667 -12 28 -37 28 -75
c0 -29.333 -9.33301 -52 -28 -68h-64c-3.33301 0 -5 2 -5 6v6c48 28 72 48.667 72 62c-3.33301 0.666992 -12.333 10.667 -27 30c12 26 20 39 24 39zM835.99 499.005h3.00098c16.667 -13.333 25 -33.333 25 -60v-18c0 -28 -8.33301 -49.667 -25 -65h-64
c-2.66699 0 -5.33398 3 -8.00098 9l69 50l3 6c0 8.66699 -8 20.667 -24 36c1.33301 12.667 8.33301 26.667 21 42zM1773.99 487.005c0 -2.66699 2.66699 -5.66699 8 -9h9c4 0 6 2 6 6v3c0 2.66699 -4 5.66699 -12 9c-7.33301 -3.33301 -11 -6.33301 -11 -9zM2676.99 484.005
c4.66699 -18 11.667 -27 21 -27l3 6v6c0 7.33301 -4 16.333 -12 27c-3.33301 0 -7.33301 -4 -12 -12zM1819.99 478.005l-9 -18l20 -6v12c0 2.66699 -3.66699 6.66699 -11 12zM1974.99 457.005c0 -20.667 7.66699 -31.667 23 -33v9c0 2.66699 -7.66699 10.667 -23 24z
M2444.99 400.005l1.99902 -0.000976562c2.66699 0 8.33398 -5.66699 17.001 -17v-3c0 -3.33301 -5.66699 -9.33301 -17 -18h-2c-2.66699 0 -8.66699 6 -18 18v3c0 2.66699 6 8.33398 18 17.001zM47.9902 270.004h399c4 -0.666992 6 -2.66699 6 -6v-193
c0 -4.66699 -2 -7 -6 -7h-399c-4 0 -6 2.33301 -6 7v193c0.666992 4 2.66699 6 6 6zM2317.99 270.004h399c4 -0.666992 6 -2.66699 6 -6v-193c0 -4.66699 -2 -7 -6 -7h-399c-4 0 -6 2.33301 -6 7v193c0.666992 4 2.66699 6 6 6zM752.99 264.004h5
c42.667 0 72.667 -23 90 -69l3 -17v-12c0 -55.333 -32.667 -87 -98 -95c-52 0 -83 32.667 -93 98c8.66699 63.333 39.667 95 93 95zM1770.99 264.004l22.999 -0.000976562c20 0 38.333 -9 55 -27v-3c0 -2.66699 -7 -9.66699 -21 -21h-3c-13.333 14 -29.333 21 -48 21
c-21.333 -4.66699 -32 -10.667 -32 -18v-12c0 -6.66699 31.667 -16.334 95 -29.001c12 -13.333 18 -26.666 18 -39.999v-3c-7.33301 -40.667 -34.333 -61 -81 -61c-28 0 -52 11.667 -72 35c0 2.66699 7.66699 10.667 23 24c18 -16 34.333 -24 49 -24h8
c16.667 0 28.334 6 35.001 18v11c0 8.66699 -29.667 19 -89 31c-16 10.667 -24 24.334 -24 41.001c0 30 21.333 49 64 57zM524.989 261.003l126 0.000976562c4 -0.666992 6 -3 6 -7v-23c0 -4 -2 -6 -6 -6h-3c-0.666992 0 -1 1 -1 3l-6 -3h-76l-5 3l-3 -6v-36h63
c4 -0.666992 6 -2.33398 6 -5.00098v-22c0 -4 -2 -6 -6 -6h-63v-71c0 -3.33301 -2 -5 -6 -5h-26c-3.33301 0 -5 1.66699 -5 5v62l2 6c-15.333 2 -23 5 -23 9v22c0.666992 3.33301 2.66699 5 6 5h15c0 8 0.666992 12 2 12l-2 6v50c0 4.66699 1.66699 7 5 7zM878.989 261.004
h3l109 -111v104c0.666992 4.66699 2.66699 7 6 7h23c3.33301 -0.666992 5 -3 5 -7v-175c0 -3.33301 -1.66699 -5 -5 -5c0 2 -35.667 38.667 -107 110v-102c0 -3.33301 -1.66699 -5 -5 -5h-23c-4 0 -6 1.66699 -6 5v179zM1054.99 261.004h126c4 -0.666992 6 -3 6 -7v-23
c0 -4 -2 -6 -6 -6h-46v-143c0 -3.33301 -2 -5 -6 -5h-22c-4 0 -6 1.66699 -6 5v143c-6 0 -9 1 -9 3l-6 -3h-31c-4 0 -6 2 -6 6v23c0.666992 4.66699 2.66699 7 6 7zM1218.99 261.004l126 0.000976562c4 -0.666992 6 -3 6 -7v-23c0 -4 -2 -6 -6 -6h-95v-21c0 -2 -1 -3 -3 -3
c2 -3.33301 3 -8.33301 3 -15h64c3.33301 -0.666992 5 -2.33398 5 -5.00098v-22c0 -4 -1.66699 -6 -5 -6h-61l-6 -3l3 -6v-62c0 -3.33301 -2 -5 -6 -5h-25c-4 0 -6 1.66699 -6 5v71h-15c-4 0 -6 2 -6 6v22c0 3.33301 8 6 24 8l-3 21v44c0.666992 4.66699 2.66699 7 6 7z
M1373.99 261.005h64.001c8 -6 33.667 -67.333 77 -184h-31c-5.33301 0 -10.333 10.667 -15 32h-72c-10.667 -21.333 -17.334 -32 -20.001 -32h-26l-6 2l60 146h-17l-20 3v26c0.666992 4.66699 2.66699 7 6 7zM1546.99 261.005h74c38.667 0 61 -18 67 -54v-21
c0 -17.333 -12.333 -32.333 -37 -45v-3l37 -56v-5h-37l-41 55h-35v-50c0 -3.33301 -1.66699 -5 -5 -5h-23c-4 0 -6 1.66699 -6 5v50h-17c-4 0 -6 2 -6 6v25c0.666992 4 2.66699 6 6 6h11l6 -3v88c0.666992 4.66699 2.66699 7 6 7zM1894.99 261.005h22c4 -0.666992 6 -3 6 -7
v-172c0 -3.33301 -2 -5 -6 -5h-22c-4 0 -6 1.66699 -6 5v172c0.666992 4.66699 2.66699 7 6 7zM2046.99 261.005h24c2.66699 -0.666992 4 -3 4 -7v-172c0 -3.33301 -1.33301 -5 -4 -5h-24c-4 0 -6 1.66699 -6 5v172c0.666992 4.66699 2.66699 7 6 7zM2127.99 261.005h74
c46.667 0 70 -22 70 -66c0 -24.667 -13.333 -42.667 -40 -54c0 -1.33301 13.333 -22 40 -62l-6 -2h-32c-12.667 10 -25 28.333 -37 55h-40v-50c0 -3.33301 -2 -5 -6 -5h-23c-4 0 -6 1.66699 -6 5v50h-14c-4 0 -6 2 -6 6v25c0.666992 4 2.66699 6 6 6h6l5 -3l3 6v82
c0.666992 4.66699 2.66699 7 6 7zM697.99 178.005v-15.001c6 -38 24.333 -57 55 -57h5c32 0 51 22 57 66c0 28.667 -20 48.334 -60 59.001c-38 -9.33301 -57 -27 -57 -53zM1577.99 228.004l-3 -6.00098v-53h35c1.33301 0 2 -1 2 -3l6 3c2 0 3 -1 3 -3
c21.333 2.66699 32 11.334 32 26.001v15c0 9.33301 -12.667 16.333 -38 21l-5 -3h-26zM2176.99 225.003l-20 -0.000976562v-53l2 -6l6 3h46c17.333 2.66699 26 11.334 26 26.001c0 22 -14.333 33 -43 33zM1428.99 201.002l-21.001 -60h46
c-13.333 39.333 -21.666 59.333 -24.999 60zM1983.99 109.002c11.333 0 17 -7 17 -21c-4.66699 -11.333 -11.334 -17 -20.001 -17c-11.333 4 -17 11.667 -17 23c2.66699 10 9.33398 15 20.001 15zM826.989 -12.998l17.999 0.00195312c4 -0.666992 6 -2.66699 6 -6v-80
c0 -22 10.333 -33 31 -33c10 2.66699 15 9.66699 15 21v27c0 3.33301 1.66699 5 5 5h17c2.66699 0 6.66699 -14.667 12 -44c8 -6 15.667 -9 23 -9c5.33301 0 10 5 14 15l-3 6v27c0.666992 3.33301 2.66699 5 6 5h20c2.66699 0 6.66699 -15.667 12 -47l15 -4
c6.66699 3.33301 10 10.666 10 21.999v21c0.666992 4 2.66699 6 6 6h15c4.66699 0 8.66699 -13 12 -39l10 -10h9c1.33301 0 4.33301 3.33301 9 10c-8 20.667 -12 32.667 -12 36c11.333 7.33301 19.333 11 24 11c11.333 -16.667 17 -31.334 17 -44.001v-6
c0 -28 -13.667 -42 -41 -42c-7.33301 0 -17.666 6 -30.999 18c-6.66699 -12 -15.334 -18 -26.001 -18h-5c-8.66699 0 -18.667 5 -30 15c0 -6 -8.33301 -11 -25 -15h-15c-8 0 -17.667 5 -29 15c-4 -10 -11.333 -15 -22 -15h-24c-6.66699 0 -13 3 -19 9
c0 -36.667 -13.667 -60.667 -41 -72l-20 -3h-20c-27.333 0 -44.666 23 -51.999 69c3.33301 26 8 39 14 39c6.66699 -4.66699 12.667 -7 18 -7l-3 -41c0 -14 12.333 -22.667 37 -26c26.667 0 40 13.667 40 41l-3 6v131c0.666992 4 2.66699 6 6 6zM1295.99 -12.9961
c2 0 2.99902 -1 2.99902 -3l6 3c3.33301 -2 7.33301 -3 12 -3v-68c0 -32 7.33301 -48 22 -48h9c5.33301 0 10 5 14 15l-2 6v21c0 4 1.66699 6 5 6h21c3.33301 0 6 -13 8 -39h6c28 39.333 54 59 78 59h3c20 0 32.333 -14.667 37 -44v-22l20 -2h23c-8 8 -12 16 -12 24v12
c0 15.333 10.667 25 32 29h9c24.667 -2 37 -14.667 37 -38c0 -1.33301 -4 -10.333 -12 -27h18c14 0 21.333 3 22 9v104c0.666992 4 2.66699 6 6 6h3c2 0 3 -1 3 -3l6 3h6c4 -0.666992 6 -2.66699 6 -6v-113c-3.33301 -22 -14 -33 -32 -33h-32c-10 0 -21.333 4 -34 12
c-13.333 -8 -25 -12 -35 -12h-25c-7.33301 0 -16.333 4 -27 12c0 -5.33301 -7.33301 -9.33301 -22 -12h-64c-12 0 -22.333 5 -31 15h-3c0 -10 -8.66699 -15 -26 -15h-18c-6 0 -12.333 3 -19 9c-3.33301 -48 -18.666 -72 -45.999 -72c0 -2 -4 -3 -12 -3h-18
c-36 6.66699 -54 25.667 -54 57v21c2 20 5.66699 30 11 30l21 -9c-4 -14 -6 -26 -6 -36c0 -16 12.333 -25.667 37 -29c26.667 0 40 10.667 40 32v146c0.666992 4 2.66699 6 6 6zM1465.99 -12.9961c4.66699 0 8.66699 -1 12 -3c3.33301 2 6 3 8 3l3 -6v-21
c0 -4 -1.66699 -6 -5 -6h-18c-4 0 -6 2 -6 6v21c0.666992 4 2.66699 6 6 6zM1706.99 -12.9961h5.99902c2 0 3 -1 3 -3l6 3h6c4 -0.666992 6 -2.66699 6 -6v-140c0 -4 -2 -6 -6 -6h-21c-3.33301 0 -5 2 -5 6v140c0.666992 4 2.33398 6 5.00098 6zM1951.99 -12.9961h6
c4 -0.666992 6 -2.66699 6 -6v-140c0 -4 -2 -6 -6 -6h-20c-4 0 -6 2 -6 6v143zM2302.99 -12.9961h18c3.33301 -0.666992 5 -2.66699 5 -6v-140c0 -4 -1.66699 -6 -5 -6h-18c-4 0 -6 2 -6 6v140c0.666992 4 2.66699 6 6 6zM2495.99 -12.9961h5c2 0 3 -1 3 -3l6 3
c4 -0.666992 6 -2.66699 6 -6v-80c22.667 23.333 42 35 58 35h5c19.333 0 32 -15.667 38 -47v-3c-4.66699 -34 -20 -51 -46 -51h-113c-6.66699 0 -14 4 -22 12h-3c-10 -24.667 -40 -49.667 -90 -75c-7.33301 14.667 -11 24 -11 28c34 19.333 58 38 72 56v14
c0 4 -4.66699 17.333 -14 40c11.333 7.33301 19.666 11 25 11h3c12 -35.333 29.333 -53 52 -53h3c8.66699 3.33301 13.667 7.33301 15 12v98c0 2.66699 2.66699 5.66699 8 9zM1577.99 -24.9961h18c3.33301 -0.666992 5 -2.66699 5 -6v-21c0 -4 -1.66699 -6 -5 -6
c-2 0 -3 1 -3 3l-6 -3h-9c-4 0 -6 2 -6 6v21c0.666992 4 2.66699 6 6 6zM2161.99 -60.9961h9c22 0 57.667 -1 107 -3c2 -4 3 -7 3 -9c0 -17.333 -10 -26 -30 -26c-59.333 -26.667 -89 -54.667 -89 -84c6.66699 -25.333 22 -38 46 -38c10 0 27.333 4 52 12
c4.66699 0 9.66699 -9.33301 15 -28c-20 -11.333 -39.333 -17 -58 -17h-20c-40 0 -62.333 23.667 -67 71c0 34 23 63 69 87v3h-14c-16 -2 -29.333 -3 -40 -3l-9 15v5c0 6 8.66699 11 26 15zM263.986 -63.9961c14.667 -25.333 22 -42 22 -50v-6
c0 -33.333 -30.667 -65 -92 -95c-7.33301 10.667 -11 19.667 -11 27v3c30 12 54 30.333 72 55v4c0 6 -5 21.667 -15 47zM634.986 -72.9961c10.667 -18.667 15.998 -34.333 15.998 -47v-3c0 -28 -12.333 -42 -37 -42c-10.667 0 -22 5 -34 15c-10 -10 -18.667 -15 -26 -15h-6
c-8 0 -17.333 5 -28 15c-10.667 -10 -19.667 -15 -27 -15h-13c-8.66699 0 -18.667 5 -30 15c-4.66699 -10 -12 -15 -22 -15h-38c0 -24 -26.667 -49.667 -80 -77h-9l-12 24c44 22 66 39.667 66 53c-3.33301 0 -5 1 -5 3l-6 -3c-26.667 7.33301 -40 23.333 -40 48v3
c6 22 16.333 33 31 33h6c32.667 -6.66699 49 -23.667 49 -51h14c18 0 27 6 27 18l-3 6v3c0 2 1 3 3 3l-3 6v12c0.666992 3.33301 2.66699 5 6 5h7c2 0 3 -0.666992 3 -2l6 2h3c4 0 6 -1.66699 6 -5v-21c0 -18 9.66699 -27 29 -27c7.33301 2.66699 11 5.66699 11 9v39
c0.666992 3.33301 2.66699 5 6 5h20c2.66699 0 6.66699 -15.667 12 -47l14 -4c4 0 8 7.33301 12 22l-3 6v6c0 2 1 3 3 3l-3 6c0.666992 4 2.33398 6 5.00098 6h18c2.66699 0 7.33398 -15 14.001 -45l14 -4h3c4 0 6 2.33301 6 7v3c0 4.66699 -3 16.667 -9 36
c11.333 7.33301 19.333 11 24 11zM2034.98 -72.9951h3c2 0 3 -1 3 -3l6 3h12c4 -0.666992 6 -2.66699 6 -6v-23c0 -4 -2 -6 -6 -6h-24c-3.33301 0 -5 2 -5 6v23c0 4 1.66699 6 5 6zM1894.98 -75.9951c13.333 -20 20.002 -34.666 20.002 -43.999v-15
c-2.66699 -20 -12.334 -30 -29.001 -30h-46c-10.667 -18.667 -20.334 -32.334 -29.001 -41.001c-18.667 -18 -38.667 -31 -60 -39c-2 2.66699 -6.66699 11.667 -14 27c36 18 58 35.667 66 53c-34.667 0 -52 15 -52 45v6c0 17.333 11.333 29 34 35
c22.667 0 40 -17.667 52 -53h31l15 2v4c0 6.66699 -5 17.667 -15 33c9.33301 7.33301 18.333 13 27 17zM1428.99 -131.994h25c23.333 0 35 7 35 21v6c-2 6 -7.66699 9 -17 9c-12 0 -26.333 -12 -43 -36zM1574.99 -101.994v-6c0 -3.33301 4 -7.33301 12 -12
c3.33301 0 7.33301 4 12 12v6c0 4 -2 6 -6 6h-12c-4 -0.666992 -6 -2.66699 -6 -6zM2527.99 -131.994h34c14.667 0 23.334 4 26 12v15c-2 6 -7.66699 9 -17 9c-11.333 0 -25.666 -12 -43 -36zM331.986 -113.994v-9c0 -4.66699 6 -7.66699 18 -9c3.33301 1.33301 6 2 8 2v4
c-5.33301 10 -11 15 -17 15c-4 -2 -7 -3 -9 -3zM1776.99 -119.994c0 -6.66699 6.66699 -10.667 20 -12c4 1.33301 7 2 9 2c-2.66699 8.66699 -7.66699 15 -15 19h-6c-1.33301 0 -4 -3 -8 -9zM2034.99 -131.994h24c4 0 6 -2 6 -6l-3 -6c2 -3.33301 3 -7.33301 3 -12
c-2 0 -3 -1 -3 -3c2 0 3 -1 3 -3l-6 -3h-24c-3.33301 0 -5 2 -5 6v21c0 4 1.66699 6 5 6zM424.986 -179.994l13 0.000976562c4 -0.666992 6 -2.33398 6 -5.00098v-15c0 -4 -2 -6 -6 -6h-13c-4 0 -6 2 -6 6v15c0.666992 3.33301 2.66699 5 6 5zM455.986 -179.993
l15 0.000976562c4 -0.666992 6 -2.33398 6 -5.00098v-15c0 -4 -2 -6 -6 -6h-15c-4 0 -6 2 -6 6v15c0.666992 3.33301 2.66699 5 6 5zM887.986 -184.992h17c4 -0.666992 6 -2.66699 6 -6v-15c0 -4 -2 -6 -6 -6h-17c-4 0 -6 2 -6 6v15c0.666992 4 2.66699 6 6 6z
M921.986 -184.992h15c3.33301 -0.666992 5 -2.66699 5 -6v-15c0 -4 -1.66699 -6 -5 -6h-15c-4 0 -6 2 -6 6v15c0.666992 4 2.66699 6 6 6zM1876.99 -184.992h18c4 -0.666992 6 -2.66699 6 -6v-18c0 -4 -2 -6 -6 -6h-18c-4 0 -6 2 -6 6v18c0.666992 4 2.66699 6 6 6z
M437.986 -208.992l18 0.000976562c4 -0.666992 6 -2.66699 6 -6v-16c0 -2.66699 -3 -5.33398 -9 -8.00098h-15c-2.66699 0 -4 1.66699 -4 5v19c0.666992 4 2 6 4 6zM104.986 -306.991l0.000976562 -2.99902l6 3c22 0 39.333 -8.33301 52 -25v-3
c0 -2.66699 -5 -7.33398 -15 -14.001h-5c-11.333 9.33301 -23 14 -35 14h-6c-15.333 0 -23 -6.66699 -23 -20v-3c0 -4.66699 26 -12.667 78 -24c9.33301 -11.333 14 -22 14 -32c0 -27.333 -19 -44.333 -57 -51h-14c-20.667 0 -38 8.66699 -52 26v3
c0 3.33301 5.66699 9.33301 17 18c17.333 -14 32.666 -21 45.999 -21c19.333 0 29 8.33301 29 25v3c-4 5.33301 -29 13 -75 23c-11.333 8 -17 20 -17 36c0 22 19 37 57 45zM582.987 -306.99c24.667 0 43 -8.33203 55 -24.999v-3c0 -2.66699 -6 -8.33398 -18 -17.001
c-11.333 11.333 -23.666 17 -36.999 17h-6c-14.667 -2 -22.334 -5.66699 -23.001 -11v-12c0 -4 25 -12 75 -24c8 -6 14 -16.667 18 -32c0 -26.667 -19.333 -43.667 -58 -51h-9c-26 0 -45.333 8.66699 -58 26v3c0 3.33301 6 9.33301 18 18c14 -14 30.333 -21 49 -21
c16.667 4.66699 25 13 25 25c0 8 -25.667 16.667 -77 26c-10 11.333 -15 23.333 -15 36c8 30 28.333 45 61 45zM1017.99 -306.989c51.333 -9.33301 76.999 -34.333 76.999 -75v-3c-7.33301 -53.333 -30.666 -80 -69.999 -80h-7c-52 7.33301 -78 32 -78 74
c7.33301 56 33.333 84 78 84zM1341.99 -306.989c48 -8 71.999 -30 71.999 -66c-6 -40 -22.333 -60 -49 -60h-8c-4 0 -6 3 -6 9c-10 -6 -17.667 -9 -23 -9c-21.333 3.33301 -32 14.666 -32 33.999v11c6.66699 28 19.334 42 38.001 42h8c6.66699 0 13.334 -3 20.001 -9
c0.666992 4 2.66699 6 6 6h15c0 -9.33301 -4 -30 -12 -62h9c5.33301 0 10 8.66699 14 26v9c0 26.667 -16.333 42.334 -49 47.001h-6c-32.667 0 -51 -20.667 -55 -62v-3c9.33301 -36 28.666 -54 57.999 -54c22 4 37.333 10 46 18h14v-6c-12 -19.333 -32 -29 -60 -29h-8
c-36 0 -60 25.667 -72 77c0 44 26.667 71 80 81zM1934.99 -306.989v-3l6 3c48 -12 72 -35 72 -69v-21c0 -35.333 -23 -58 -69 -68h-15c-35.333 0 -58 22.667 -68 68v18c0 37.333 24.667 61.333 74 72zM2107.99 -306.989c40 0 64.667 -27.001 74 -81.001v-3
c0 -42 -25.667 -66.667 -77 -74h-9c-46 10.667 -69 34.334 -69 71.001v15c0 38.667 27 62.667 81 72zM2328.99 -306.99c42.667 -7.33301 63.999 -19.667 63.999 -37l-21 -14c-14 13.333 -25.333 20 -34 20h-6c-30.667 -5.33301 -46 -19 -46 -41v-15
c0 -23.333 16.333 -38.333 49 -45c14.667 3.33301 27 10.333 37 21c11.333 -8 18.333 -12 21 -12v-6c-13.333 -19.333 -33.666 -29 -60.999 -29c-52 6 -78 32.667 -78 80c11.333 52 36.333 78 75 78zM2481.98 -306.991c53.333 -9.33301 80 -35.333 80 -78
c-6.66699 -53.333 -32.334 -80 -77 -80h-9c-46 11.333 -69 35 -69 71v6c6.66699 54 31.667 81 75 81zM202.984 -309.991h101c4 -0.666992 6 -2.66699 6 -6v-19c0 -4 -2 -6 -6 -6h-78v-29h51c4 -0.666992 6 -2.66699 6 -6v-18c0 -3.33301 -2 -5 -6 -5h-51v-37h78
c4 -0.666992 6 -2.66699 6 -6v-14c0 -4 -2 -6 -6 -6h-101c-4 0 -6 2 -6 6v57c-11.333 0 -17 1.66699 -17 5v15c0 6 5.66699 9 17 9v54c0.666992 4 2.66699 6 6 6zM337.984 -309.991l6 -3l17 3l3 -6v-140c0 -4 -2 -6 -6 -6h-20c-4 0 -6 2 -6 6v140c0.666992 4 2.66699 6 6 6z
M400.984 -309.991h3c2 0 3 -1 3 -3l6 3c3.33301 -2 7.33301 -3 12 -3v-123h55v31c0 4 1.66699 6 5 6h17c4 -0.666992 6 -2.66699 6 -6v-51c0 -4 -2 -6 -6 -6h-101c-4 0 -6 2 -6 6v140c0.666992 4 2.66699 6 6 6zM677.984 -309.991h100c4 -0.666992 6 -2.66699 6 -6v-16
c0 -2.66699 -3 -5.66699 -9 -9h-75v-29h38l20 -3v-21c0 -3.33301 -1.66699 -5 -5 -5h-53v-37h78c4 -0.666992 6 -2.66699 6 -6v-14c0 -4 -2 -6 -6 -6h-100c-4 0 -6 2 -6 6v57c-12 0 -18 1.66699 -18 5v18c0.666992 4 2.66699 6 6 6c2 0 3 -1 3 -3c4 2 7 3 9 3v54
c0.666992 4 2.66699 6 6 6zM814.984 -309.991h41.999c49.333 0 74 -17 74 -51v-6c-4 -31.333 -19.333 -47 -46 -47h-46v-42c0 -4 -2 -6 -6 -6h-18c-3.33301 0 -5 2 -5 6v42c-11.333 0 -17 2 -17 6v14c0 4 5.66699 6 17 6v72c0.666992 4 2.33398 6 5.00098 6z
M1125.98 -309.991h49.999c43.333 0 65 -17 65 -51v-3c0 -21.333 -10.333 -36 -31 -44l31 -51l-6 -3h-22l-37 48h-26v-42c0 -4 -2 -6 -6 -6h-18c-3.33301 0 -5 2 -5 6v42c-11.333 0 -17 2 -17 6v14c0 4 5.66699 6 17 6v72c0.666992 4 2.33398 6 5.00098 6zM1431.98 -309.991
h8.99902c1.33301 0 2 -1 2 -3l5 3c12.667 0 26.334 -18 41.001 -54l5 -3c18 33.333 30.667 52.333 38 57h20l6 -3c-32.667 -54 -49 -83.667 -49 -89v-54c0 -4 -2 -6 -6 -6h-17c-3.33301 0 -5 2 -5 6v59c-32.667 50 -49 79 -49 87zM1583.98 -309.991h49
c6 0 27 -49.667 63 -149v-3h-23c-5.33301 0 -10.333 8.66699 -15 26h-59c-4.66699 -17.333 -9.66699 -26 -15 -26h-20l-6 3c32.667 74 49 113.333 49 118h-23c-4 0 -6 2 -6 6v19c0.666992 4 2.66699 6 6 6zM1736.98 -309.991c2.66699 0 5.33203 -3 7.99902 -9v-51h46
c2 0 3 -1 3 -3c3.33301 2 8.33301 3 15 3v54c0.666992 4 2.33398 6 5.00098 6h3l20 -3v-143c0 -4 -2 -6 -6 -6h-17c-3.33301 0 -5 2 -5 6v57h-64v-57c0 -4 -2 -6 -6 -6h-17c-4 0 -6 2 -6 6v57c-11.333 0 -17 1.66699 -17 5v21c11.333 0 17 2 17 6v54zM2587.98 -309.991
c36.667 -42 56 -63 58 -63h3l60 63l2 -6v-140c0 -4 -1.66699 -6 -5 -6h-17c-4 0 -6 2 -6 6v83c-20.667 -23.333 -32 -35 -34 -35h-3l-35 35v-83c0 -4 -2 -6 -6 -6h-17c-4 0 -6 2 -6 6v140c0.666992 4 2.66699 6 6 6zM970.979 -378.991v-12c5.33301 -32 21 -48 47 -48
c30.667 7.33301 46 21.333 46 42v18c0 22.667 -15.333 36.334 -46 41.001c-31.333 -4.66699 -47 -18.334 -47 -41.001zM1888.98 -387.991c6.66699 -34 21.999 -51 45.999 -51c32.667 6 49 23 49 51v6c-7.33301 29.333 -21.666 44 -42.999 44h-9
c-24 0 -38.333 -16.667 -43 -50zM2055.98 -387.991c8 -34 23.333 -51 46 -51c32.667 6.66699 49 21.667 49 45v9c-4.66699 31.333 -20 47 -46 47h-6c-22.667 0 -37 -16.667 -43 -50zM2435.98 -390.991c8 -32 23.333 -48 46 -48c32.667 6.66699 49 21.667 49 45v9
c-5.33301 31.333 -20.666 47 -46 47h-6c-28.667 -5.33301 -43 -23 -43 -53zM838.979 -340.991v-47h34c19.333 0 29 8 29 24c0 15.333 -7.66699 23 -23 23h-40zM1149.98 -340.991v-47h34c19.333 0 29 8 29 24c0 15.333 -7.66699 23 -23 23h-40zM1626.98 -360.991l-17 -47h38
v3c-12 26 -18 40.667 -18 44h-3zM1318.98 -393.991l-0.000976562 -5c0 -3.33301 3 -6.33301 9 -9h6c10.667 0 18.334 7.66699 23.001 23c-1.33301 10 -7.33301 15 -18 15h-5c-10 -5.33301 -15 -13.333 -15 -24zM2213.98 -435.991l9 0.000976562
c4 -0.666992 7.66699 -5.33398 11 -14.001c-3.33301 -9.33301 -7 -14.333 -11 -15h-9c-2.66699 0 -6.66699 4 -12 12v5c0 3.33301 4 7.33301 12 12z" />
    <glyph glyph-name="uniE818" unicode="&#x651;&#x64b;" 
d="M188 1471l-0.000976562 -40c-16.667 -14.667 -39.667 -22 -69 -22h-32c-28 0 -51.667 8.33301 -71 25c-20 22 -30.667 45.667 -32 71v172h96v-171c0 -34.667 13.667 -52 41 -52s41 17 41 51v172h95v-171c0 -34.667 14 -52 42 -52c26.667 0 40 17.333 40 52v171h96v-179
c0 -24 -9.66699 -44.333 -29 -61c-21.333 -18.667 -46.666 -28 -75.999 -28h-32c-29.333 0 -54.333 9.33301 -75 28zM364.999 2082l-345 -184v58l345 186v-60zM364.999 2246l-345 -180v56l345 186v-62z" />
    <glyph glyph-name="uniFC5E" unicode="&#x651;&#x64c;" arabic-form="isolated" 
d="M234 1484l-0.000976562 -40c-16.667 -14.667 -39.667 -22 -69 -22h-32c-28 0 -51.667 8.33301 -71 25c-20 22 -30.667 45.667 -32 71v172h96v-171c0 -34.667 13.667 -52 41 -52s41 17 41 51v172h95v-171c0 -34.667 14 -52 42 -52c26.667 0 40 17.333 40 52v171h96v-179
c0 -24 -9.66699 -44.333 -29 -61c-21.333 -18.667 -46.666 -28 -75.999 -28h-32c-29.333 0 -54.333 9.33301 -75 28zM420.999 1939c1.33301 -5.33301 2.00098 -11.334 2.00098 -18.001c0 -17.333 -5 -32.333 -15 -45c-21.333 4.66699 -50.666 13 -87.999 25
c-90.667 -85.333 -178.334 -137.666 -263.001 -156.999l-11 36l67 40c19.333 48.667 15.666 80 -11.001 94c-16.667 10 -37 5.66699 -61 -13l-11 19c26 29.333 58 44 96 44c24.667 0 37 -17.667 37 -53c0 -21.333 -7.33301 -50.333 -22 -87c65.333 38 110 72.667 134 104
c-38.667 38 -58 70.333 -58 97c0 22 15 51.667 45 89s57 56 81 56c45.333 0 68 -24.667 68 -74c0 -48.667 -18 -93 -54 -133c22.667 -12.667 44 -20.667 64 -24zM371 2063c0 34.667 -17.667 52 -53 52c-14 0 -25.833 -8.66699 -35.5 -26s-14.5 -34 -14.5 -50
c0 -13.333 6.66699 -28 20 -44s25.333 -24 36 -24c10 0 21 12.667 33 38c9.33301 22 14 40 14 54z" />
    <glyph glyph-name="uniFC5F" unicode="&#x651;&#x64d;" arabic-form="isolated" 
d="M203 1617l-0.000976562 -40c-16.667 -14.667 -39.667 -22 -69 -22h-32c-28 0 -51.667 8.33301 -71 25c-20 22 -30.667 45.667 -32 71v172h96v-171c0 -34.667 13.667 -52 41 -52s41 17 41 51v172h95v-171c0 -34.667 14 -52 42 -52c26.667 0 40 17.333 40 52v171h96v-179
c0 -24 -9.66699 -44.333 -29 -61c-21.333 -18.667 -46.666 -28 -75.999 -28h-32c-29.333 0 -54.333 9.33301 -75 28zM373.999 2081l-356 -188v58l356 192v-62zM373.999 2262l-356 -188v59l356 190v-61z" />
    <glyph glyph-name="uniFC60" unicode="&#x651;&#x64e;" arabic-form="isolated" 
d="M359 1991l-345 -184v58l345 186v-60zM194 1499v-40c-16.667 -14.667 -39.667 -22 -69 -22h-32c-28 0 -51.667 8.33301 -71 25c-20.667 22 -31.334 45.667 -32.001 71v172h96v-171c0 -34.667 13.667 -52 41 -52s41 17 41 51v172h95v-171c0 -34.667 14 -52 42 -52
c26.667 0 40 17.333 40 52v171h96v-179c0 -24 -9.66699 -44.333 -29 -61c-21.333 -18.667 -46.666 -28 -75.999 -28h-32c-29.333 0 -54.333 9.33301 -75 28z" />
    <glyph glyph-name="uniFC61" unicode="&#x651;&#x64f;" arabic-form="isolated" 
d="M257 1447l-0.000976562 -40c-16.667 -14.667 -39.667 -22 -69 -22h-32c-28 0 -51.667 8.33301 -71 25c-20 22 -30.667 45.667 -32 71v172h96v-171c0 -34.667 13.667 -52 41 -52s41 17 41 51v172h95v-171c0 -34.667 14 -52 42 -52c26.667 0 40 17.333 40 52v171h96v-179
c0 -24 -9.66699 -44.333 -29 -61c-21.333 -18.667 -46.666 -28 -75.999 -28h-32c-29.333 0 -54.333 9.33301 -75 28zM445.999 1912c1.33301 -5.33301 1.99902 -11.335 1.99902 -18.002c0 -17.333 -5 -32.333 -15 -45c-21.333 4.66699 -50.333 13 -87 25
c-90.667 -85.333 -178.667 -137.666 -264 -156.999l-11 34c102.667 40 179.334 89.667 230.001 149c-39.333 38 -59 70.667 -59 98c0 22 15 51.667 45 89s57 56 81 56c45.333 0 68 -24.667 68 -74c0 -51.333 -18.333 -95.666 -55 -132.999c20 -12 41.667 -20 65 -24z
M395.998 2036c0 34.667 -17.667 52 -53 52c-13.333 0 -25 -8.66699 -35 -26s-15 -34 -15 -50c0 -13.333 6.66699 -28 20 -44s25.333 -24 36 -24c11.333 0 22.333 12.667 33 38c9.33301 22 14 40 14 54z" />
    <glyph glyph-name="uniFC62" unicode="&#x651;&#x650;" arabic-form="isolated" 
d="M125 1792l-0.000976562 -40c-16.667 -14.667 -39.667 -22 -69 -22h-32c-28 0 -51.667 8.33301 -71 25c-20 22 -30.667 45.667 -32 71v172h96v-171c0 -34.667 13.667 -52 41 -52s41 17 41 51v172h95v-171c0 -34.667 14 -52 42 -52c26.667 0 40 17.333 40 52v171h96v-179
c0 -24 -9.66699 -44.333 -29 -61c-21.333 -18.667 -46.666 -28 -75.999 -28h-32c-29.333 0 -54.333 9.33301 -75 28zM329.999 1603l-356 -188v59l356 190v-61z" />
    <glyph glyph-name="uniFD3F" unicode="&#x652;&#x64b;" horiz-adv-x="1218" 
d="M1073 437c0 -16.667 -15.999 -37.666 -47.999 -62.999l-40 -27l-37 -14v-111c0 -30.667 -9 -47.334 -27 -50.001c-11.333 0 -24.333 7 -39 21l-138 123c-7.33301 7.33301 -15.333 12.333 -24 15l-22 9c-13.333 0 -20 -7.33301 -20 -22s5.66699 -27.334 17 -38.001
l119 -166c3.33301 -5.33301 8 -16.666 14 -33.999c0 -10.667 -10.667 -16 -32 -16l-147 27c-13.333 -47.333 -34.666 -96.333 -63.999 -147l-46 -76l-56 -78c-30 -37.333 -61.833 -74 -95.5 -110s-71.834 -73.333 -114.501 -112c-66 -56.667 -109 -85 -129 -85
c-14 0 -21 7.33301 -21 22c0 8 17 30.667 51 68l74 79c32 41.333 75 110.5 129 207.5s81 170.167 81 219.5v12l-93 -12l-11 -2h-7c-14 0 -22.333 5.33301 -25 16c0 7.33301 3 16.333 9 27l135 152c8.66699 9.33301 16.667 24 24 44c0 7.33301 -7 12.333 -21 15
c-11.333 0 -23.333 -4.33301 -36 -13l-165 -125l-29 -12c-4 0 -9.33301 11.667 -16 35v117c-32 12.667 -58.333 25.667 -79 39c-30.667 20.667 -47.334 42.334 -50.001 65.001c0 18 14.333 40 43 66c24 16.667 52.667 31.667 86 45v116c0 17.333 6 27 18 29
c10.667 0 23.667 -6.66699 39 -20l163 -117l13 -6c6 0 9.66699 -0.666992 11 -2c12 0 19.667 6.33301 23 19l-4 7l-7 13l-133 151l-16 23l-8 19c0 9.33301 10 15.333 30 18l98 -10l1 17c0 21.333 -6 49.333 -18 84s-30.333 74.667 -55 120
c-46.667 92 -92.334 164.333 -137.001 217l-100 115c-12.667 13.333 -21 26.333 -25 39c0 12.667 8.33301 19 25 19c10.667 0 45.667 -24.667 105 -74c38 -30.667 74.333 -63.334 109 -98.001c28.667 -28.667 62.334 -66.667 101.001 -114
c83.333 -102 145.333 -210.333 186 -325l141 24l16 2c13.333 0 21.333 -7 24 -21c0 -8.66699 -5 -20.667 -15 -36l-121 -173l-6 -12l-3 -12c0 -11.333 7.33301 -18.333 22 -21c9.33301 0 20.666 5.33301 33.999 16l154 134c7.33301 7.33301 19 12.333 35 15
c14 0 22.333 -11.667 25 -35v-123l47 -25l34 -21c26.667 -16.667 41.334 -37.667 44.001 -63zM755.001 763.001l-137 -30.999c0 29.333 -20 83.666 -60 162.999c-16 34.667 -34.333 67.667 -55 99c-13.333 26 -28.333 45.667 -45 59v-103l22 -55l28 -83l24 -84l-129 24
l-5 -4l119 -125v57h44v66l43 -66h48v-63zM684.001 444.002c0 24 -10.501 47 -31.501 69s-45.167 33 -72.5 33c-26.667 0 -50.667 -10.333 -72 -31c-20.667 -18.667 -31 -42.334 -31 -71.001c0 -16 2.33301 -29.167 7 -39.5s12 -21.166 22 -32.499
c22.667 -20 47.334 -30 74.001 -30c29.333 0 54 10 74 30c20 21.333 30 45.333 30 72zM1023 442.002c0 8.66699 -17.334 22.333 -52.001 41c-35.333 16.667 -60.333 25 -75 25v118l-155 -118l93 -4v-41c12.667 0 24.334 -3 35.001 -9l27 -12c-12 -8 -32.667 -17 -62 -27v-43
h-89l151 -116v116c18.667 0 43.5 7 74.5 21s48.5 30.333 52.5 49zM426.999 372.001l-5 4.00195h-90v42c-10.667 0 -22.667 2.66699 -36 8l-23 14c10 7.33301 29.667 15.666 59 24.999v43h88l-147 115v-115c-14.667 0 -26 -1.66699 -34 -5l-45 -18
c-28.667 -12.667 -44.667 -27.667 -48 -45c0 -12.667 25.667 -29.334 77 -50.001l50 -18v-113zM751.999 118.003l-98.001 144.999l-5 -63h-47l-39 -65l-2 65h-45v56l-121 -124l5 -3l130 24l-30 -112l-12 -41l-13 -29l-7 -16l-12 -23v-104
c26.667 26.667 59.834 79.334 99.501 158.001s59.5 132.667 59.5 162z" />
    <glyph glyph-name="uniFDF2" unicode="&#xfedf;&#xfee0;&#xfeea;" horiz-adv-x="1685" arabic-form="isolated" 
d="M485 651h-82c-52.667 0 -79 -32.667 -79 -98v-302c0 -64 27 -96 81 -96c53.333 0 80 32.667 80 98v398zM1585 1348l0.00195312 -1112c0 -63.333 -22.667 -118.333 -68 -165c-45.333 -46 -100 -69.667 -164 -71h-131c-60.667 1.33301 -112.334 22.333 -155.001 63
c-42.667 -40.667 -94.334 -61.667 -155.001 -63h-130c-60 1.33301 -111.333 21.333 -154 60c-45.333 -40 -97.333 -60 -156 -60h-138c-66 0 -121.667 22.667 -167 68c-44.667 47.333 -67 103.333 -67 168v334c0 62.667 23.333 118 70 166c46.667 46.667 102 70 166 70h373
v-572c1.33301 -13.333 4 -25 8 -35s9.66699 -17.667 17 -23c16.667 -14 43.334 -21 80.001 -21c37.333 0 64.666 7 81.999 21c16.667 14 25 40 25 78v806h224v-806c0 -38 8.33301 -64 25 -78s44 -21 82 -21c38.667 0 66.667 7 84 21c16.667 14.667 25 40.667 25 78v1094h224
zM1033 1191l-2.00293 -2c-13.333 -13.333 -29.666 -20 -48.999 -20h-57c-19.333 0 -35.666 6.66699 -48.999 20c-14 13.333 -21 29.666 -21 48.999v110h66v-79c0 -22.667 9.66699 -34 29 -34h27c19.333 0 29 10.333 29 31v70h54v-70c0 -20.667 10 -31 30 -31h26
c20 0 30 11.333 30 34v79h66v-110c0 -19.333 -7 -35.666 -21 -48.999c-13.333 -13.333 -29.666 -20 -48.999 -20h-57c-19.333 0 -36 6.66699 -50 20z" />
    <glyph glyph-name="uniFEF5" unicode="&#xfedf;&#xfe82;" horiz-adv-x="826" arabic-form="isolated" 
d="M726 1348l0.000976562 -1112c0 -63.333 -22.667 -118.333 -68 -165c-45.333 -46 -100 -69.667 -164 -71h-367v155h268c37.333 0 64.666 7 81.999 21c16.667 14.667 25 40.667 25 78v1094h224zM127.001 1348h224v-1068h-224v1068zM100.001 1516
c34.667 16.667 61.667 25.001 81 25.001c7.33301 0 16.666 -0.833008 27.999 -2.5s23 -4.5 35 -8.5h-1c26.667 -6.66699 47.334 -10 62.001 -10c14 2 39.333 19 76 51v-98c-5.33301 -8 -23.333 -16.333 -54 -25c-13.333 -3.33301 -27 -5 -41 -5
c-14.667 0 -28.667 1.66699 -42 5c-26 7.33301 -47 11 -63 11c-14.667 1.33301 -41.667 -10.334 -81 -35.001v92z" />
    <glyph glyph-name="uniFEF6" unicode="&#xfee0;&#xfe82;" horiz-adv-x="837" arabic-form="final" 
d="M100 1516c34.667 16.667 61.667 25.001 81 25.001c7.33301 0 16.666 -0.833008 27.999 -2.5s23 -4.5 35 -8.5h-1c26.667 -6.66699 47.334 -10 62.001 -10c14 2 39.333 19 76 51v-98c-5.33301 -8 -23.333 -16.333 -54 -25c-13.333 -3.33301 -27 -5 -41 -5
c-14.667 0 -28.667 1.66699 -42 5c-26 7.33301 -47 11 -63 11c-14.667 1.33301 -41.667 -10.334 -81 -35.001v92zM630 63.001c-42.667 -40.667 -94.332 -61.667 -154.999 -63h-348v155h268c37.333 0 64.666 7 81.999 21c16.667 14 25 40 25 78v1094h224v-1094
c0 -38 8.33301 -64 25 -78s44.334 -21 83.001 -21h18v-155h-67c-60.667 1.33301 -112.334 22.333 -155.001 63zM127.002 1348h224v-1068h-224v1068z" />
    <glyph glyph-name="uniFEF7" unicode="&#xfedf;&#xfe84;" horiz-adv-x="822" arabic-form="isolated" 
d="M722 1348l0.000976562 -1112c0 -63.333 -22.667 -118.333 -68 -165c-45.333 -46 -100 -69.667 -164 -71h-367v155h268c37.333 0 64.666 7 81.999 21c16.667 14.667 25 40.667 25 78v1094h224zM123.001 1348h224v-1068h-224v1068zM262.001 1642
c-9.33301 -7.33301 -14 -22.667 -14 -46v-53h123v-81h-271v81h63v60c1.33301 38 15.333 70 42 96c25.333 26 57.333 39 96 39h70v-82h-64c-22.667 0 -37.667 -4.66699 -45 -14z" />
    <glyph glyph-name="uniFEF8" unicode="&#xfee0;&#xfe84;" horiz-adv-x="833" arabic-form="final" 
d="M262 1642c-9.33301 -7.33301 -14 -22.667 -14 -46v-53h123v-81h-271v81h63v60c1.33301 38 15.333 70 42 96c25.333 26 57.333 39 96 39h70v-82h-64c-22.667 0 -37.667 -4.66699 -45 -14zM626 62.999c-42.667 -40.667 -94.332 -61.667 -154.999 -63h-348v155h268
c37.333 0 64.666 7 81.999 21c16.667 14 25 40 25 78v1094h224v-1094c0 -38 8.33301 -64 25 -78s44.334 -21 83.001 -21h18v-155h-67c-60.667 1.33301 -112.334 22.333 -155.001 63zM123.002 1348h224v-1068h-224v1068z" />
    <glyph glyph-name="uniFEF9" unicode="&#xfedf;&#xfe88;" horiz-adv-x="822" arabic-form="isolated" 
d="M722 1348l0.000976562 -1112c0 -63.333 -22.667 -118.333 -68 -165c-45.333 -46 -100 -69.667 -164 -71h-367v155h268c37.333 0 64.666 7 81.999 21c16.667 14.667 25 40.667 25 78v1094h224zM123.001 1348h224v-1068h-224v1068zM262.001 -210
c-9.33301 -7.33301 -14 -22.667 -14 -46v-53h123v-81h-271v81h63v60c1.33301 38 15.333 70 42 96c25.333 26 57.333 39 96 39h70v-82h-64c-22.667 0 -37.667 -4.66699 -45 -14z" />
    <glyph glyph-name="uniFEFA" unicode="&#xfee0;&#xfe88;" horiz-adv-x="833" arabic-form="final" 
d="M262 -210c-9.33301 -7.33301 -14 -22.667 -14 -46v-53h123v-81h-271v81h63v60c1.33301 38 15.333 70 42 96c25.333 26 57.333 39 96 39h70v-82h-64c-22.667 0 -37.667 -4.66699 -45 -14zM626 62.999c-42.667 -40.667 -94.332 -61.667 -154.999 -63h-348v155h268
c37.333 0 64.666 7 81.999 21c16.667 14 25 40 25 78v1094h224v-1094c0 -38 8.33301 -64 25 -78s44.334 -21 83.001 -21h18v-155h-67c-60.667 1.33301 -112.334 22.333 -155.001 63zM123.002 1348h224v-1068h-224v1068z" />
    <glyph glyph-name="uniFEFB" unicode="&#xfedf;&#xfe8e;" horiz-adv-x="799" arabic-form="isolated" 
d="M699 1348l0.000976562 -1112c0 -63.333 -22.667 -118.333 -68 -165c-45.333 -46 -100 -69.667 -164 -71h-367v155h268c37.333 0 64.666 7 81.999 21c16.667 14.667 25 40.667 25 78v1094h224zM100.001 1348h224v-1068h-224v1068z" />
    <glyph glyph-name="uniFEFC" unicode="&#xfee0;&#xfe8e;" horiz-adv-x="808" arabic-form="final" 
d="M603 63c-42.667 -40.667 -94.332 -61.667 -154.999 -63h-348v155h268c37.333 0 64.666 7 81.999 21c16.667 14 25 40 25 78v1094h224v-1094c0 -38 8.33301 -64 25 -78s44.334 -21 83.001 -21h18v-155h-67c-60.667 1.33301 -112.334 22.333 -155.001 63zM100.002 1348h224
v-1068h-224v1068z" />
    <glyph glyph-name="afii57410" unicode="&#x622;" horiz-adv-x="481" arabic-form="isolated" 
d="M351 1348v-1348h-224v1348h224zM100 1516c34.667 16.667 61.667 25.001 81 25.001c7.33301 0 16.666 -0.833008 27.999 -2.5s23 -4.5 35 -8.5h-1c26.667 -6.66699 47.334 -10 62.001 -10c14 2 39.333 19 76 51v-98c-5.33301 -8 -23.333 -16.333 -54 -25
c-13.333 -3.33301 -27 -5 -41 -5c-14.667 0 -28.667 1.66699 -42 5c-26 7.33301 -47 11 -63 11c-14.667 1.33301 -41.667 -10.334 -81 -35.001v92z" />
    <glyph glyph-name="afii57411" unicode="&#x623;" horiz-adv-x="471" arabic-form="isolated" 
d="M347 1348v-1348h-224v1348h224zM262 1642c-9.33301 -7.33301 -14 -22.667 -14 -46v-53h123v-81h-271v81h63v60c1.33301 38 15.333 70 42 96c25.333 26 57.333 39 96 39h70v-82h-64c-22.667 0 -37.667 -4.66699 -45 -14z" />
    <glyph glyph-name="afii57412" unicode="&#x624;" horiz-adv-x="808" arabic-form="isolated" 
d="M708 -102c0 -65.333 -23.001 -120.998 -69.001 -166.998c-46.667 -46.667 -101.667 -70 -165 -70h-151v155h86c24 0 43 11 57 33c6.66699 9.33301 11.334 19.666 14.001 30.999s4 23.666 4 36.999v83h-152c-64 -0 -118.333 23.333 -163 70c-46 46 -69 101.667 -69 167
v332c0 66 23 121.667 69 167c44.667 46.667 99.667 70 165 70h374v-908zM483.999 651.002h-43c-78 0 -117 -33.667 -117 -101v-296c0 -66 35.667 -99 107 -99h53v496zM485.999 1115c-9.33301 -7.33301 -14 -22.667 -14 -46v-53h123v-81h-271v81h63v60
c1.33301 38 15.333 70 42 96c25.333 26 57.333 39 96 39h70v-82h-64c-22.667 0 -37.667 -4.66699 -45 -14z" />
    <glyph glyph-name="afii57413" unicode="&#x625;" horiz-adv-x="471" arabic-form="isolated" 
d="M347 1348v-1348h-224v1348h224zM249 -135c-9.33301 -7.33301 -14 -22.667 -14 -46v-53h123v-81h-271v81h63v60c1.33301 38 15.333 70 42 96c25.333 26 57.333 39 96 39h70v-82h-64c-22.667 0 -37.667 -4.66699 -45 -14z" />
    <glyph glyph-name="afii57414" unicode="&#x626;" horiz-adv-x="1661" arabic-form="isolated" 
d="M262 1115c-9.33301 -7.33301 -14 -22.667 -14 -46v-53h123v-81h-271v81h63v60c1.33301 38 15.333 70 42 96c25.333 26 57.333 39 96 39h70v-82h-64c-22.667 0 -37.667 -4.66699 -45 -14zM1416.5 788.499c27 -11.667 52.167 -29.167 75.5 -52.5c46 -48 69 -104 69 -168
v-413h-224v398c0 65.333 -27 98 -81 98c-53.333 0 -80 -32.667 -80 -98v-553h-842c-64 0 -119.333 23.333 -166 70c-22 23.333 -38.833 48.833 -50.5 76.5s-17.5 57.5 -17.5 89.5v570h224v-552c0 -66 25.667 -99 77 -99h551v413c0 63.333 23.333 119.333 70 168
c45.333 46.667 100.333 70 165 70h139c33.333 0 63.5 -5.83301 90.5 -17.5z" />
    <glyph glyph-name="afii57415" unicode="&#x627;" horiz-adv-x="424" arabic-form="isolated" 
d="M324 1348v-1348h-224v1348h224z" />
    <glyph glyph-name="afii57416" unicode="&#x628;" horiz-adv-x="1278" arabic-form="isolated" 
d="M1178 806v-570.001c0 -64 -23 -119 -69 -165c-22.667 -24 -47.5 -41.667 -74.5 -53s-56.833 -17.333 -89.5 -18h-612c-64.667 0 -120 23.333 -166 70c-44.667 46.667 -67 102.334 -67 167.001v414h224v-397c0 -66 25.667 -99 77 -99h445c72 0 108 32.667 108 98v553h224z
M639 -131.001c13.333 0 25.833 -2.66504 37.5 -7.99805s22 -12.833 31 -22.5s16 -20.834 21 -33.501s7.5 -26.334 7.5 -41.001c0 -14 -2.5 -27.333 -7.5 -40s-12 -23.667 -21 -33s-19.333 -16.666 -31 -21.999s-24.167 -8 -37.5 -8s-26 2.66699 -38 8
s-22.5 12.666 -31.5 21.999s-16 20.333 -21 33s-7.5 26 -7.5 40c0 30 9.5 55 28.5 75s42.167 30 69.5 30z" />
    <glyph glyph-name="afii57417" unicode="&#x629;" horiz-adv-x="808" arabic-form="isolated" 
d="M708 806v-568c0 -65.333 -23 -121 -69 -167c-45.333 -47.333 -100.333 -71 -165 -71h-140c-65.333 -0 -121 23.333 -167 70c-44.667 45.333 -67 101.333 -67 168v330c0 64 23.333 119.333 70 166c44.667 48 99.667 72 165 72h373zM484 651h-81
c-52.667 0 -79 -32.667 -79 -98v-300c0 -65.333 27 -98 81 -98c52.667 0 79 32.667 79 98v398zM322 1092c-9.33301 -7.33301 -14 -22.667 -14 -46v-53h123v-81h-271v81h63v60c1.33301 38 15.333 70 42 96c25.333 26 57.333 39 96 39h70v-82h-64
c-22.667 0 -37.667 -4.66699 -45 -14z" />
    <glyph glyph-name="afii57418" unicode="&#x62a;" horiz-adv-x="1278" arabic-form="isolated" 
d="M575 935c-14 0 -26.833 2.66699 -38.5 8s-22 13 -31 23s-16 21.333 -21 34s-7.5 26 -7.5 40c0 29.333 9.33301 53.666 28 72.999s42 29 70 29c13.333 0 25.833 -2.66699 37.5 -8s21.834 -12.666 30.501 -21.999s15.5 -20.333 20.5 -33s7.5 -26.334 7.5 -41.001
c0 -14 -2.5 -27.333 -7.5 -40s-11.833 -23.667 -20.5 -33s-18.834 -16.666 -30.501 -21.999s-24.167 -8 -37.5 -8zM705 1038c0 29.333 9.33301 54 28 74s41.667 30 69 30c13.333 0 25.833 -2.66699 37.5 -8s21.834 -12.666 30.501 -21.999s15.5 -20.333 20.5 -33
s7.5 -26.334 7.5 -41.001c0 -14 -2.5 -27.333 -7.5 -40s-11.833 -23.667 -20.5 -33s-18.834 -16.666 -30.501 -21.999s-24.167 -8 -37.5 -8s-26 2.66699 -38 8s-22.333 12.666 -31 21.999s-15.5 20.333 -20.5 33s-7.5 26 -7.5 40zM1178 806v-570.001
c0 -64 -23 -119 -69 -165c-22.667 -24 -47.5 -41.667 -74.5 -53s-56.833 -17.333 -89.5 -18h-612c-64.667 0 -120 23.333 -166 70c-44.667 46.667 -67 102.334 -67 167.001v414h224v-397c0 -66 25.667 -99 77 -99h445c72 0 108 32.667 108 98v553h224z" />
    <glyph glyph-name="afii57419" unicode="&#x62b;" horiz-adv-x="1278" arabic-form="isolated" 
d="M575 935c-14 0 -26.833 2.66699 -38.5 8s-22 13 -31 23s-16 21.333 -21 34s-7.5 26 -7.5 40c0 29.333 9.33301 53.666 28 72.999s42 29 70 29c13.333 0 25.833 -2.66699 37.5 -8s21.834 -12.666 30.501 -21.999s15.5 -20.333 20.5 -33s7.5 -26.334 7.5 -41.001
c0 -14 -2.5 -27.333 -7.5 -40s-11.833 -23.667 -20.5 -33s-18.834 -16.666 -30.501 -21.999s-24.167 -8 -37.5 -8zM688 1140c-13.333 0 -26 2.66699 -38 8s-22.5 12.666 -31.5 21.999s-16 20.333 -21 33s-7.5 26 -7.5 40c0 14.667 2.5 28.334 7.5 41.001s12 23.667 21 33
s19.5 16.833 31.5 22.5s24.667 8.5 38 8.5s25.833 -2.83301 37.5 -8.5s22 -13.167 31 -22.5s16 -20.333 21 -33s7.5 -26.334 7.5 -41.001c0 -14 -2.5 -27.333 -7.5 -40s-12 -23.667 -21 -33s-19.333 -16.666 -31 -21.999s-24.167 -8 -37.5 -8zM705 1038
c0 29.333 9.33301 54 28 74s41.667 30 69 30c13.333 0 25.833 -2.66699 37.5 -8s21.834 -12.666 30.501 -21.999s15.5 -20.333 20.5 -33s7.5 -26.334 7.5 -41.001c0 -14 -2.5 -27.333 -7.5 -40s-11.833 -23.667 -20.5 -33s-18.834 -16.666 -30.501 -21.999
s-24.167 -8 -37.5 -8s-26 2.66699 -38 8s-22.333 12.666 -31 21.999s-15.5 20.333 -20.5 33s-7.5 26 -7.5 40zM1178 806v-570.001c0 -64 -23 -119 -69 -165c-22.667 -24 -47.5 -41.667 -74.5 -53s-56.833 -17.333 -89.5 -18h-612c-64.667 0 -120 23.333 -166 70
c-44.667 46.667 -67 102.334 -67 167.001v414h224v-397c0 -66 25.667 -99 77 -99h445c72 0 108 32.667 108 98v553h224z" />
    <glyph glyph-name="afii57420" unicode="&#x62c;" horiz-adv-x="975" arabic-form="isolated" 
d="M740 -130c13.333 0 25.833 -2.83301 37.5 -8.5s21.834 -13.167 30.501 -22.5s15.5 -20.5 20.5 -33.5s7.5 -26.5 7.5 -40.5s-2.5 -27.333 -7.5 -40s-11.833 -23.834 -20.5 -33.501s-18.834 -17.167 -30.501 -22.5s-24.167 -8 -37.5 -8s-26 2.66699 -38 8
s-22.333 12.833 -31 22.5s-15.5 20.834 -20.5 33.501s-7.5 26 -7.5 40s2.5 27.5 7.5 40.5s11.833 24.167 20.5 33.5s19 16.833 31 22.5s24.667 8.5 38 8.5zM244 -321.5c-27.333 11.667 -52.666 29.168 -75.999 52.501c-45.333 45.333 -68 101 -68 167v257h551v419
c0 51.333 -33 77 -99 77h-352v155h439c65.333 0 120.666 -22.667 165.999 -68c46.667 -44.667 70 -99.334 70 -164.001v-574h-551v-84c0 -66.667 25.667 -100 77 -100h161v-155h-228c-32.667 0 -62.667 5.83301 -90 17.5z" />
    <glyph glyph-name="afii57421" unicode="&#x62d;" horiz-adv-x="975" arabic-form="isolated" 
d="M244 -321.5c-27.333 11.667 -52.666 29.168 -75.999 52.501c-45.333 45.333 -68 101 -68 167v257h551v419c0 51.333 -33 77 -99 77h-352v155h439c65.333 0 120.666 -22.667 165.999 -68c46.667 -44.667 70 -99.334 70 -164.001v-574h-551v-84
c0 -66.667 25.667 -100 77 -100h161v-155h-228c-32.667 0 -62.667 5.83301 -90 17.5z" />
    <glyph glyph-name="afii57422" unicode="&#x62e;" horiz-adv-x="975" arabic-form="isolated" 
d="M244 -321.5c-27.333 11.667 -52.666 29.168 -75.999 52.501c-45.333 45.333 -68 101 -68 167v257h551v419c0 51.333 -33 77 -99 77h-352v155h439c65.333 0 120.666 -22.667 165.999 -68c46.667 -44.667 70 -99.334 70 -164.001v-574h-551v-84
c0 -66.667 25.667 -100 77 -100h161v-155h-228c-32.667 0 -62.667 5.83301 -90 17.5zM496 935.001c-13.333 0 -25.833 2.66699 -37.5 8s-21.834 12.666 -30.501 21.999s-15.5 20.333 -20.5 33s-7.5 26.334 -7.5 41.001c0 14 2.5 27.333 7.5 40s11.833 23.667 20.5 33
s18.834 16.666 30.501 21.999s24.167 8 37.5 8c14 0 26.833 -2.66699 38.5 -8s22 -12.666 31 -21.999s16 -20.333 21 -33s7.5 -26 7.5 -40c0 -29.333 -9.33301 -54 -28 -74s-42 -30 -70 -30z" />
    <glyph glyph-name="afii57423" unicode="&#x62f;" horiz-adv-x="787" arabic-form="isolated" 
d="M687 0h-587v155h363v395c0 67.333 -24.667 101 -74 101h-289v155h354c64.667 0 119.667 -23.333 165 -70c45.333 -46 68 -101.667 68 -167v-569z" />
    <glyph glyph-name="afii57424" unicode="&#x630;" horiz-adv-x="787" arabic-form="isolated" 
d="M687 0h-587v155h363v395c0 67.333 -24.667 101 -74 101h-289v155h354c64.667 0 119.667 -23.333 165 -70c45.333 -46 68 -101.667 68 -167v-569zM326 935c-13.333 0 -25.833 2.66504 -37.5 7.99805s-21.834 12.666 -30.501 21.999s-15.5 20.333 -20.5 33
s-7.5 26.334 -7.5 41.001s2.5 28.334 7.5 41.001s11.833 23.834 20.5 33.501s18.834 17.167 30.501 22.5s24.167 8 37.5 8c28 0 51.333 -10 70 -30s28 -45 28 -75c0 -29.333 -9.33301 -54 -28 -74s-42 -30 -70 -30z" />
    <glyph glyph-name="afii57425" unicode="&#x631;" horiz-adv-x="573" arabic-form="isolated" 
d="M473 -103c0 -64.667 -23 -120 -69 -166c-46 -46.667 -101 -70 -165 -70h-139v155h74c50 0 75 33.667 75 101v889h224v-909z" />
    <glyph glyph-name="afii57426" unicode="&#x632;" horiz-adv-x="573" arabic-form="isolated" 
d="M473 -103c0 -64.667 -23 -120 -69 -166c-46 -46.667 -101 -70 -165 -70h-139v155h74c50 0 75 33.667 75 101v889h224v-909zM355 935c-13.333 0 -25.833 2.66406 -37.5 7.99707s-21.834 12.833 -30.501 22.5s-15.5 20.834 -20.5 33.501s-7.5 26.334 -7.5 41.001
c0 14 2.5 27.333 7.5 40s11.833 23.667 20.5 33s18.834 16.666 30.501 21.999s24.167 8 37.5 8s26 -2.66699 38 -8s22.333 -12.666 31 -21.999s15.5 -20.333 20.5 -33s7.5 -26 7.5 -40c0 -29.333 -9.33301 -54.166 -28 -74.499s-41.667 -30.5 -69 -30.5z" />
    <glyph glyph-name="afii57427" unicode="&#x633;" horiz-adv-x="1773" arabic-form="isolated" 
d="M1449 806l224 0.000976562v-569c0 -66 -23 -121.667 -69 -167c-44.667 -46.667 -99.667 -70 -165 -70h-67c-63.333 0 -118.333 23.333 -165 70c-9.33301 10 -18 20.667 -26 32c-10.667 -12 -19.667 -22.667 -27 -32c-45.333 -46.667 -100 -70 -164 -70h-71v-339h-585
c-64 0 -119.333 23.333 -166 70c-45.333 45.333 -68 100.666 -68 165.999v754h224v-734c0 -67.333 25.667 -101 77 -101h294v990h224v-550c0 -67.333 25.667 -101 77 -101c50.667 0 76 32.333 76 97v554h224v-549c0 -68 25.667 -102 77 -102c50.667 0 76 34 76 102v549z" />
    <glyph glyph-name="afii57428" unicode="&#x634;" horiz-adv-x="1773" arabic-form="isolated" 
d="M1449 806l224 0.000976562v-569c0 -66 -23 -121.667 -69 -167c-44.667 -46.667 -99.667 -70 -165 -70h-67c-63.333 0 -118.333 23.333 -165 70c-9.33301 10 -18 20.667 -26 32c-10.667 -12 -19.667 -22.667 -27 -32c-45.333 -46.667 -100 -70 -164 -70h-71v-339h-585
c-64 0 -119.333 23.333 -166 70c-45.333 45.333 -68 100.666 -68 165.999v754h224v-734c0 -67.333 25.667 -101 77 -101h294v990h224v-550c0 -67.333 25.667 -101 77 -101c50.667 0 76 32.333 76 97v554h224v-549c0 -68 25.667 -102 77 -102c50.667 0 76 34 76 102v549z
M1246 935.001c-13.333 0 -25.833 2.66699 -37.5 8s-22 12.666 -31 21.999s-16 20.333 -21 33s-7.5 26.334 -7.5 41.001c0 14 2.5 27.333 7.5 40s12 23.667 21 33s19.333 16.666 31 21.999s24.167 8 37.5 8c14 0 26.833 -2.66699 38.5 -8s22 -12.666 31 -21.999
s16 -20.333 21 -33s7.5 -26 7.5 -40c0 -29.333 -9.33301 -54 -28 -74s-42 -30 -70 -30zM923 1039c0 14 2.5 27.333 7.5 40s11.833 23.667 20.5 33s18.834 16.666 30.501 21.999s24.167 8 37.5 8s25.833 -2.66699 37.5 -8s22 -12.666 31 -21.999s16 -20.333 21 -33
s7.5 -26 7.5 -40c0 -14.667 -2.5 -28.334 -7.5 -41.001s-12 -23.667 -21 -33s-19.333 -16.666 -31 -21.999s-24.167 -8 -37.5 -8s-25.833 2.66699 -37.5 8s-21.834 12.666 -30.501 21.999s-15.5 20.333 -20.5 33s-7.5 26.334 -7.5 41.001zM1231 1246
c0 -29.333 -9.5 -54 -28.5 -74s-42.167 -30 -69.5 -30s-50.333 10 -69 30s-28 44.667 -28 74c0 14 2.5 27.333 7.5 40s11.833 23.667 20.5 33s19 16.666 31 21.999s24.667 8 38 8s26 -2.66699 38 -8s22.5 -12.666 31.5 -21.999s16 -20.333 21 -33s7.5 -26 7.5 -40z" />
    <glyph glyph-name="afii57429" unicode="&#x635;" horiz-adv-x="1702" arabic-form="isolated" 
d="M1532 738c46.667 -44.667 70 -99.666 70 -164.999v-573h-688v-339h-580c-64 0 -119 23.333 -165 70c-46 47.333 -69 102.666 -69 165.999v754h224v-735c0 -66.667 25.667 -100 77 -100h289v1060h224v-70h450c66.667 0 122.667 -22.667 168 -68zM1277 651.001h-263
c-66.667 0 -100 -36 -100 -108v-388h464v380c0 77.333 -33.667 116 -101 116z" />
    <glyph glyph-name="afii57430" unicode="&#x636;" horiz-adv-x="1702" arabic-form="isolated" 
d="M1532 738c46.667 -44.667 70 -99.666 70 -164.999v-573h-688v-339h-580c-64 0 -119 23.333 -165 70c-46 47.333 -69 102.666 -69 165.999v754h224v-735c0 -66.667 25.667 -100 77 -100h289v1060h224v-70h450c66.667 0 122.667 -22.667 168 -68zM1277 651.001h-263
c-66.667 0 -100 -36 -100 -108v-388h464v380c0 77.333 -33.667 116 -101 116zM1070 1038c0 29.333 9.5 54 28.5 74s42.167 30 69.5 30s50.333 -10 69 -30s28 -44.667 28 -74c0 -14 -2.5 -27.333 -7.5 -40s-11.833 -23.667 -20.5 -33s-19 -16.666 -31 -21.999
s-24.667 -8 -38 -8s-26 2.66699 -38 8s-22.5 12.666 -31.5 21.999s-16 20.333 -21 33s-7.5 26 -7.5 40z" />
    <glyph glyph-name="afii57431" unicode="&#x637;" horiz-adv-x="1212" arabic-form="isolated" 
d="M1042 738c46.667 -44.667 70 -99.667 70 -165v-573h-1012v155h100v1193h224v-542h450c66.667 0 122.667 -22.667 168 -68zM787 651h-263c-66.667 0 -100 -36 -100 -108v-388h464v380c0 77.333 -33.667 116 -101 116z" />
    <glyph glyph-name="afii57432" unicode="&#x638;" horiz-adv-x="1212" arabic-form="isolated" 
d="M1042 738c46.667 -44.667 70 -99.667 70 -165v-573h-1012v155h100v1193h224v-542h450c66.667 0 122.667 -22.667 168 -68zM787 651h-263c-66.667 0 -100 -36 -100 -108v-388h464v380c0 77.333 -33.667 116 -101 116zM580 1038c0 29.333 9.5 54 28.5 74s42.167 30 69.5 30
s50.333 -10 69 -30s28 -44.667 28 -74c0 -14 -2.5 -27.333 -7.5 -40s-11.833 -23.667 -20.5 -33s-19 -16.666 -31 -21.999s-24.667 -8 -38 -8s-26 2.66699 -38 8s-22.5 12.666 -31.5 21.999s-16 20.333 -21 33s-7.5 26 -7.5 40z" />
    <glyph glyph-name="afii57433" unicode="&#x639;" horiz-adv-x="1070" arabic-form="isolated" 
d="M169 -269c-46 46 -69 101.666 -69 166.999v257h261v413c0 65.333 22.333 121.333 67 168c46.667 46.667 102 70 166 70h143c64 0 119 -24 165 -72c45.333 -45.333 68 -100.666 68 -165.999v-78h-224v60c0 26 -6 48.667 -18 68c-16.667 22 -37.334 33 -62.001 33
c-12.667 0 -24 -2.83301 -34 -8.5s-18.333 -13.167 -25 -22.5c-14.667 -20.667 -22 -44 -22 -70v-395h385v-155h-646v-84c0 -13.333 1.33301 -25.5 4 -36.5s7.33398 -21.167 14.001 -30.5c14 -22 33 -33 57 -33h187v-155h-252c-63.333 0 -118.333 23.333 -165 70z" />
    <glyph glyph-name="afii57434" unicode="&#x63a;" horiz-adv-x="1070" arabic-form="isolated" 
d="M169 -269c-46 46 -69 101.666 -69 166.999v257h261v413c0 65.333 22.333 121.333 67 168c46.667 46.667 102 70 166 70h143c64 0 119 -24 165 -72c45.333 -45.333 68 -100.666 68 -165.999v-78h-224v60c0 26 -6 48.667 -18 68c-16.667 22 -37.334 33 -62.001 33
c-12.667 0 -24 -2.83301 -34 -8.5s-18.333 -13.167 -25 -22.5c-14.667 -20.667 -22 -44 -22 -70v-395h385v-155h-646v-84c0 -13.333 1.33301 -25.5 4 -36.5s7.33398 -21.167 14.001 -30.5c14 -22 33 -33 57 -33h187v-155h-252c-63.333 0 -118.333 23.333 -165 70z
M666 934.999c-13.333 0 -25.833 2.66699 -37.5 8s-22 12.666 -31 21.999s-16 20.333 -21 33s-7.5 26.334 -7.5 41.001c0 14 2.5 27.333 7.5 40s12 23.667 21 33s19.333 16.666 31 21.999s24.167 8 37.5 8s25.833 -2.66699 37.5 -8s22 -12.666 31 -21.999s16 -20.333 21 -33
s7.5 -26 7.5 -40c0 -14.667 -2.5 -28.334 -7.5 -41.001s-12 -23.667 -21 -33s-19.333 -16.666 -31 -21.999s-24.167 -8 -37.5 -8z" />
    <glyph glyph-name="afii57441" unicode="&#x641;" horiz-adv-x="1512" arabic-form="isolated" 
d="M1269 788.5c27.333 -11.667 52.667 -29.168 76 -52.501c44.667 -48 67 -104 67 -168v-568h-1078c-64.667 0 -120 23.333 -166 70c-22 23.333 -38.833 48.5 -50.5 75.5s-17.5 57.167 -17.5 90.5v570h224v-552c0 -25.333 6.66699 -48.666 20 -69.999
c13.333 -19.333 32.333 -29 57 -29h403v414c0 62 23 117.667 69 167c46.667 46.667 102 70 166 70h140c32.667 0 62.667 -5.83301 90 -17.5zM1188 548.999c2 68 -24.667 102 -80 102c-53.333 0 -80 -34.333 -80 -103v-393h160v394zM1100 934.999
c-27.333 0 -50.5 10 -69.5 30s-28.5 44.667 -28.5 74c0 14 2.5 27.333 7.5 40s12 23.667 21 33s19.5 16.666 31.5 21.999s24.667 8 38 8s26 -2.66699 38 -8s22.333 -12.666 31 -21.999s15.5 -20.333 20.5 -33s7.5 -26 7.5 -40c0 -29.333 -9.33301 -54 -28 -74
s-41.667 -30 -69 -30z" />
    <glyph glyph-name="afii57442" unicode="&#x642;" horiz-adv-x="1281" arabic-form="isolated" 
d="M1038 788.5c27.333 -11.667 52.667 -29.168 76 -52.501c44.667 -48 67 -104 67 -168v-907h-847c-64.667 0 -120 23.333 -166 70c-22 23.333 -38.833 48.5 -50.5 75.5s-17.5 57.167 -17.5 90.5v754h224v-736c0 -25.333 6.66699 -48.666 20 -69.999
c13.333 -19.333 32.333 -29 57 -29h556v184h-384v569c0 62 23 117.667 69 167c46.667 46.667 102 70 166 70h140c32.667 0 62.667 -5.83301 90 -17.5zM957.001 548.999c0 68 -26.667 102 -80 102s-80 -34.333 -80 -103v-393h160v394zM980.001 934.999
c-27.333 0 -50.5 10 -69.5 30s-28.5 44.667 -28.5 74c0 14 2.5 27.333 7.5 40s12 23.667 21 33s19.5 16.666 31.5 21.999s24.667 8 38 8s26 -2.66699 38 -8s22.333 -12.666 31 -21.999s15.5 -20.333 20.5 -33s7.5 -26 7.5 -40c0 -29.333 -9.33301 -54 -28 -74
s-41.667 -30 -69 -30zM754.001 934.999c-28 0 -51.333 10 -70 30s-28 44.667 -28 74c0 14 2.5 27.333 7.5 40s12 23.667 21 33s19.333 16.666 31 21.999s24.5 8 38.5 8c13.333 0 25.833 -2.66699 37.5 -8s21.834 -12.666 30.501 -21.999s15.5 -20.333 20.5 -33
s7.5 -26 7.5 -40c0 -14.667 -2.5 -28.334 -7.5 -41.001s-11.833 -23.667 -20.5 -33s-18.834 -16.666 -30.501 -21.999s-24.167 -8 -37.5 -8z" />
    <glyph glyph-name="afii57443" unicode="&#x643;" horiz-adv-x="1677" arabic-form="isolated" 
d="M332 0c-63.333 0 -118.333 23.332 -165 69.999c-44.667 46.667 -67 102.334 -67 167.001v569h224v-551c0 -66.667 25.667 -100 77 -100h908c53.333 0 80 34.333 80 103v293c0 66.667 -26.667 100 -80 100h-506v158l539 539h276l-542 -542h303
c64.667 0 119.667 -23 165 -69c46 -46 69 -102 69 -168v-331c0 -65.333 -23 -121.333 -69 -168c-45.333 -46.667 -100.333 -70 -165 -70h-1047z" />
    <glyph glyph-name="afii57444" unicode="&#x644;" horiz-adv-x="1014" arabic-form="isolated" 
d="M690 1348l224 -0.000976562v-1687h-582c-63.333 0 -118.333 23.333 -165 70c-44.667 46.667 -67 102.334 -67 167.001v753h224v-735c0 -66.667 25.667 -100 77 -100h289v1532z" />
    <glyph glyph-name="afii57445" unicode="&#x645;" horiz-adv-x="957" arabic-form="isolated" 
d="M448.5 -207.5c-11 -22.333 -25.835 -43.168 -44.502 -62.501c-47.333 -46 -102.666 -69 -165.999 -69h-138v155h74c24 0 43 11 57 33c12.667 17.333 19 39.666 19 66.999v654c0 64.667 23 120.667 69 168c44.667 45.333 99.334 68 164.001 68h140
c64.667 0 120 -22.667 166 -68c23.333 -23.333 40.5 -49.166 51.5 -77.499s16.5 -58.5 16.5 -90.5v-466c0 -66 -22.667 -121.667 -68 -167c-46.667 -46.667 -102 -70 -166 -70h-154c-2.66699 -27.333 -9.5 -52.166 -20.5 -74.499zM473.998 123.998
c0 -68.667 26.333 -103 79 -103c53.333 0 80 34.333 80 103v426c0 67.333 -26.667 101 -80 101c-52.667 0 -79 -33.667 -79 -101v-426z" />
    <glyph glyph-name="afii57446" unicode="&#x646;" horiz-adv-x="1013" arabic-form="isolated" 
d="M689 806l224 0.000976562v-1145h-581c-65.333 0 -120 23.333 -164 70c-45.333 45.333 -68 100.666 -68 165.999v754h224v-736c0 -26 7 -49.333 21 -70c6 -10 13.833 -17.333 23.5 -22s20.5 -7 32.5 -7h288v990zM501 935.001c-28 0 -51.333 10 -70 30s-28 44.667 -28 74
c0 14 2.5 27.333 7.5 40s12 23.667 21 33s19.333 16.666 31 21.999s24.5 8 38.5 8c13.333 0 25.833 -2.66699 37.5 -8s21.834 -12.666 30.501 -21.999s15.5 -20.333 20.5 -33s7.5 -26 7.5 -40c0 -14.667 -2.5 -28.334 -7.5 -41.001s-11.833 -23.667 -20.5 -33
s-18.834 -16.666 -30.501 -21.999s-24.167 -8 -37.5 -8z" />
    <glyph glyph-name="afii57470" unicode="&#x647;" horiz-adv-x="808" arabic-form="isolated" 
d="M708 806v-568c0 -65.333 -23 -121 -69 -167c-45.333 -47.333 -100.333 -71 -165 -71h-140c-65.333 -0 -121 23.333 -167 70c-44.667 45.333 -67 101.333 -67 168v330c0 64 23.333 119.333 70 166c44.667 48 99.667 72 165 72h373zM484 651h-81
c-52.667 0 -79 -32.667 -79 -98v-300c0 -65.333 27 -98 81 -98c52.667 0 79 32.667 79 98v398z" />
    <glyph glyph-name="afii57448" unicode="&#x648;" horiz-adv-x="808" arabic-form="isolated" 
d="M708 -102c0 -65.333 -23.001 -120.998 -69.001 -166.998c-46.667 -46.667 -101.667 -70 -165 -70h-151v155h86c24 0 43 11 57 33c6.66699 9.33301 11.334 19.666 14.001 30.999s4 23.666 4 36.999v83h-152c-64 -0 -118.333 23.333 -163 70c-46 46 -69 101.667 -69 167
v332c0 66 23 121.667 69 167c44.667 46.667 99.667 70 165 70h374v-908zM483.999 651.002h-43c-78 0 -117 -33.667 -117 -101v-296c0 -66 35.667 -99 107 -99h53v496z" />
    <glyph glyph-name="afii57449" unicode="&#x649;" horiz-adv-x="1661" arabic-form="isolated" 
d="M1416.5 788.5c27 -11.667 52.167 -29.167 75.5 -52.5c46 -48 69 -104 69 -168v-413h-224v398c0 65.333 -27 98 -81 98c-53.333 0 -80 -32.667 -80 -98v-553h-842c-64 -0 -119.333 23.333 -166 70c-22 23.333 -38.833 48.833 -50.5 76.5s-17.5 57.5 -17.5 89.5v570h224
v-552c0 -66 25.667 -99 77 -99h551v413c0 63.333 23.333 119.333 70 168c45.333 46.667 100.333 70 165 70h139c33.333 0 63.5 -5.83301 90.5 -17.5z" />
    <glyph glyph-name="afii57450" unicode="&#x64a;" horiz-adv-x="1661" arabic-form="isolated" 
d="M1416.5 788.5c27 -11.667 52.167 -29.167 75.5 -52.5c46 -48 69 -104 69 -168v-413h-224v398c0 65.333 -27 98 -81 98c-53.333 0 -80 -32.667 -80 -98v-553h-842c-64 -0 -119.333 23.333 -166 70c-22 23.333 -38.833 48.833 -50.5 76.5s-17.5 57.5 -17.5 89.5v570h224
v-552c0 -66 25.667 -99 77 -99h551v413c0 63.333 23.333 119.333 70 168c45.333 46.667 100.333 70 165 70h139c33.333 0 63.5 -5.83301 90.5 -17.5z" />
    <glyph glyph-name="afii57506" unicode="&#x67e;" horiz-adv-x="1278" arabic-form="isolated" 
d="M1178 806v-570.001c0 -64 -23 -119 -69 -165c-22.667 -24 -47.5 -41.667 -74.5 -53s-56.833 -17.333 -89.5 -18h-612c-64.667 0 -120 23.333 -166 70c-44.667 46.667 -67 102.334 -67 167.001v414h224v-397c0 -66 25.667 -99 77 -99h445c72 0 108 32.667 108 98v553h224z
M891 -164.001c18.667 -20 28 -44.667 28 -74c0 -14 -2.5 -27.333 -7.5 -40s-12 -23.667 -21 -33s-19.333 -16.666 -31 -21.999s-24.5 -8 -38.5 -8c-13.333 0 -25.833 2.66699 -37.5 8s-22 12.666 -31 21.999s-16 20.333 -21 33s-7.5 26 -7.5 40
c0 14.667 2.5 28.334 7.5 41.001s12 23.667 21 33s19.333 16.666 31 21.999s24.167 8 37.5 8c28 0 51.333 -10 70 -30zM505.5 -197.001c5 12.667 11.833 23.667 20.5 33s18.834 16.666 30.501 21.999s24.167 8 37.5 8s25.833 -2.66699 37.5 -8s22 -12.666 31 -21.999
s16 -20.333 21 -33s7.5 -26.334 7.5 -41.001c0 -14 -2.5 -27.333 -7.5 -40s-12 -23.667 -21 -33s-19.333 -16.666 -31 -21.999s-24.167 -8 -37.5 -8s-25.833 2.66699 -37.5 8s-21.834 12.666 -30.501 21.999s-15.5 20.333 -20.5 33s-7.5 26 -7.5 40
c0 14.667 2.5 28.334 7.5 41.001zM798.5 -485.001c-5 -12.667 -12 -23.667 -21 -33s-19.5 -16.666 -31.5 -21.999s-24.667 -8 -38 -8s-26 2.66699 -38 8s-22.333 12.666 -31 21.999s-15.5 20.333 -20.5 33s-7.5 26 -7.5 40c0 29.333 9.33301 54 28 74s41.667 30 69 30
s50.5 -10 69.5 -30s28.5 -44.667 28.5 -74c0 -14 -2.5 -27.333 -7.5 -40z" />
    <glyph glyph-name="afii57507" unicode="&#x686;" horiz-adv-x="975" arabic-form="isolated" 
d="M244 -321.5c-27.333 11.667 -52.666 29.168 -75.999 52.501c-45.333 45.333 -68 101 -68 167v257h551v419c0 51.333 -33 77 -99 77h-352v155h439c65.333 0 120.666 -22.667 165.999 -68c46.667 -44.667 70 -99.334 70 -164.001v-574h-551v-84
c0 -66.667 25.667 -100 77 -100h92v-155h-159c-32.667 0 -62.667 5.83301 -90 17.5zM898 -163.999c18.667 -20 28 -44.667 28 -74c0 -14 -2.5 -27.333 -7.5 -40s-12 -23.667 -21 -33s-19.333 -16.666 -31 -21.999s-24.5 -8 -38.5 -8c-13.333 0 -25.833 2.66699 -37.5 8
s-22 12.666 -31 21.999s-16 20.333 -21 33s-7.5 26 -7.5 40c0 14.667 2.5 28.334 7.5 41.001s12 23.667 21 33s19.333 16.666 31 21.999s24.167 8 37.5 8c28 0 51.333 -10 70 -30zM512.5 -196.999c5 12.667 11.833 23.667 20.5 33s18.834 16.666 30.501 21.999
s24.167 8 37.5 8s25.833 -2.66699 37.5 -8s22 -12.666 31 -21.999s16 -20.333 21 -33s7.5 -26.334 7.5 -41.001c0 -14 -2.5 -27.333 -7.5 -40s-12 -23.667 -21 -33s-19.333 -16.666 -31 -21.999s-24.167 -8 -37.5 -8s-25.833 2.66699 -37.5 8s-21.834 12.666 -30.501 21.999
s-15.5 20.333 -20.5 33s-7.5 26 -7.5 40c0 14.667 2.5 28.334 7.5 41.001zM805.5 -484.999c-5 -12.667 -12 -23.667 -21 -33s-19.5 -16.666 -31.5 -21.999s-24.667 -8 -38 -8s-26 2.66699 -38 8s-22.333 12.666 -31 21.999s-15.5 20.333 -20.5 33s-7.5 26 -7.5 40
c0 29.333 9.33301 54 28 74s41.667 30 69 30s50.5 -10 69.5 -30s28.5 -44.667 28.5 -74c0 -14 -2.5 -27.333 -7.5 -40z" />
    <glyph glyph-name="afii57508" unicode="&#x698;" horiz-adv-x="573" arabic-form="isolated" 
d="M473 -103c0 -64.667 -23 -120 -69 -166c-46 -46.667 -101 -70 -165 -70h-139v155h74c50 0 75 33.667 75 101v889h224v-909zM453 935c-13.333 0 -25.833 2.66699 -37.5 8s-22 12.666 -31 21.999s-16 20.333 -21 33s-7.5 26.334 -7.5 41.001c0 14 2.5 27.333 7.5 40
s12 23.667 21 33s19.333 16.666 31 21.999s24.167 8 37.5 8c14 0 26.833 -2.66699 38.5 -8s22 -12.666 31 -21.999s16 -20.333 21 -33s7.5 -26 7.5 -40c0 -29.333 -9.33301 -54 -28 -74s-42 -30 -70 -30zM130 1039c0 14 2.5 27.333 7.5 40s11.833 23.667 20.5 33
s18.834 16.666 30.501 21.999s24.167 8 37.5 8s25.833 -2.66699 37.5 -8s22 -12.666 31 -21.999s16 -20.333 21 -33s7.5 -26 7.5 -40c0 -14.667 -2.5 -28.334 -7.5 -41.001s-12 -23.667 -21 -33s-19.333 -16.666 -31 -21.999s-24.167 -8 -37.5 -8s-25.833 2.66699 -37.5 8
s-21.834 12.666 -30.501 21.999s-15.5 20.333 -20.5 33s-7.5 26.334 -7.5 41.001zM438 1246c0 -29.333 -9.5 -54 -28.5 -74s-42.167 -30 -69.5 -30s-50.333 10 -69 30s-28 44.667 -28 74c0 14 2.5 27.333 7.5 40s11.833 23.667 20.5 33s19 16.666 31 21.999s24.667 8 38 8
s26 -2.66699 38 -8s22.5 -12.666 31.5 -21.999s16 -20.333 21 -33s7.5 -26 7.5 -40z" />
    <glyph glyph-name="afii57509" unicode="&#x6af;" horiz-adv-x="1677" arabic-form="isolated" 
d="M332 0c-63.333 0 -118.333 23.332 -165 69.999c-44.667 46.667 -67 102.334 -67 167.001v569h224v-551c0 -66.667 25.667 -100 77 -100h908c53.333 0 80 34.333 80 103v293c0 66.667 -26.667 100 -80 100h-506v158l539 539h276l-542 -542h303
c64.667 0 119.667 -23 165 -69c46 -46 69 -102 69 -168v-331c0 -65.333 -23 -121.333 -69 -168c-45.333 -46.667 -100.333 -70 -165 -70h-1047zM1245 1341l-448 -448v145l303 303h145z" />
    <glyph glyph-name="uniFB57" unicode="&#x67e;" horiz-adv-x="1285" arabic-form="final" 
d="M1205 176c16 -14 44 -21.001 84 -21.001h11v-155h-46c-61.333 1.33301 -113 22.333 -155 63c-40.667 -40.667 -91.667 -61.667 -153 -63h-612c-65.333 0 -121 23.333 -167 70c-44.667 46.667 -67 102.334 -67 167.001v414h224v-397c0 -66 25.667 -99 77 -99h445
c72.667 0 109 32.667 109 98v553h224v-553c0 -37.333 8.66699 -63 26 -77zM829 -164.001c18.667 -20 28 -44.667 28 -74c0 -14 -2.5 -27.333 -7.5 -40s-12 -23.667 -21 -33s-19.333 -16.666 -31 -21.999s-24.5 -8 -38.5 -8c-13.333 0 -25.833 2.66699 -37.5 8
s-22 12.666 -31 21.999s-16 20.333 -21 33s-7.5 26 -7.5 40c0 14.667 2.5 28.334 7.5 41.001s12 23.667 21 33s19.333 16.666 31 21.999s24.167 8 37.5 8c28 0 51.333 -10 70 -30zM443.5 -197.001c5 12.667 11.833 23.667 20.5 33s18.834 16.666 30.501 21.999
s24.167 8 37.5 8s25.833 -2.66699 37.5 -8s22 -12.666 31 -21.999s16 -20.333 21 -33s7.5 -26.334 7.5 -41.001c0 -14 -2.5 -27.333 -7.5 -40s-12 -23.667 -21 -33s-19.333 -16.666 -31 -21.999s-24.167 -8 -37.5 -8s-25.833 2.66699 -37.5 8s-21.834 12.666 -30.501 21.999
s-15.5 20.333 -20.5 33s-7.5 26 -7.5 40c0 14.667 2.5 28.334 7.5 41.001zM736.5 -485.001c-5 -12.667 -12 -23.667 -21 -33s-19.5 -16.666 -31.5 -21.999s-24.667 -8 -38 -8s-26 2.66699 -38 8s-22.333 12.666 -31 21.999s-15.5 20.333 -20.5 33s-7.5 26 -7.5 40
c0 29.333 9.33301 54 28 74s41.667 30 69 30s50.5 -10 69.5 -30s28.5 -44.667 28.5 -74c0 -14 -2.5 -27.333 -7.5 -40z" />
    <glyph glyph-name="uniFB58" unicode="&#x67e;" horiz-adv-x="478" arabic-form="initial" 
d="M378 806v-570c0 -63.333 -22.667 -118.333 -68 -165c-45.333 -46 -100 -69.667 -164 -71h-159v155h58c38.667 0 66.667 7 84 21c16.667 14.667 25 40.667 25 78v552h224zM406 -164c18.667 -20 28 -44.667 28 -74c0 -14 -2.5 -27.333 -7.5 -40s-12 -23.667 -21 -33
s-19.333 -16.666 -31 -21.999s-24.5 -8 -38.5 -8c-13.333 0 -25.833 2.66699 -37.5 8s-22 12.666 -31 21.999s-16 20.333 -21 33s-7.5 26 -7.5 40c0 14.667 2.5 28.334 7.5 41.001s12 23.667 21 33s19.333 16.666 31 21.999s24.167 8 37.5 8c28 0 51.333 -10 70 -30z
M20.5 -197c5 12.667 11.833 23.667 20.5 33s18.834 16.666 30.501 21.999s24.167 8 37.5 8s25.833 -2.66699 37.5 -8s22 -12.666 31 -21.999s16 -20.333 21 -33s7.5 -26.334 7.5 -41.001c0 -14 -2.5 -27.333 -7.5 -40s-12 -23.667 -21 -33s-19.333 -16.666 -31 -21.999
s-24.167 -8 -37.5 -8s-25.833 2.66699 -37.5 8s-21.834 12.666 -30.501 21.999s-15.5 20.333 -20.5 33s-7.5 26 -7.5 40c0 14.667 2.5 28.334 7.5 41.001zM313.5 -485c-5 -12.667 -12 -23.667 -21 -33s-19.5 -16.666 -31.5 -21.999s-24.667 -8 -38 -8s-26 2.66699 -38 8
s-22.333 12.666 -31 21.999s-15.5 20.333 -20.5 33s-7.5 26 -7.5 40c0 29.333 9.33301 54 28 74s41.667 30 69 30s50.5 -10 69.5 -30s28.5 -44.667 28.5 -74c0 -14 -2.5 -27.333 -7.5 -40z" />
    <glyph glyph-name="uniFB59" unicode="&#x67e;" horiz-adv-x="486" arabic-form="medial" 
d="M296 63c-21.333 -21.333 -45 -37 -71 -47s-54 -15.333 -84 -16h-152v155h51c38.667 0 66.667 7 84 21c16.667 14 25 39.667 25 77v553h224v-553c0 -37.333 8.33301 -63 25 -77s44.667 -21 84 -21h19v-155h-48c-60.667 1.33301 -113 22.333 -157 63zM420 -164
c18.667 -20 28 -44.667 28 -74c0 -14 -2.5 -27.333 -7.5 -40s-12 -23.667 -21 -33s-19.333 -16.666 -31 -21.999s-24.5 -8 -38.5 -8c-13.333 0 -25.833 2.66699 -37.5 8s-22 12.666 -31 21.999s-16 20.333 -21 33s-7.5 26 -7.5 40c0 14.667 2.5 28.334 7.5 41.001
s12 23.667 21 33s19.333 16.666 31 21.999s24.167 8 37.5 8c28 0 51.333 -10 70 -30zM34.5 -197c5 12.667 11.833 23.667 20.5 33s18.834 16.666 30.501 21.999s24.167 8 37.5 8s25.833 -2.66699 37.5 -8s22 -12.666 31 -21.999s16 -20.333 21 -33s7.5 -26.334 7.5 -41.001
c0 -14 -2.5 -27.333 -7.5 -40s-12 -23.667 -21 -33s-19.333 -16.666 -31 -21.999s-24.167 -8 -37.5 -8s-25.833 2.66699 -37.5 8s-21.834 12.666 -30.501 21.999s-15.5 20.333 -20.5 33s-7.5 26 -7.5 40c0 14.667 2.5 28.334 7.5 41.001zM327.5 -485
c-5 -12.667 -12 -23.667 -21 -33s-19.5 -16.666 -31.5 -21.999s-24.667 -8 -38 -8s-26 2.66699 -38 8s-22.333 12.666 -31 21.999s-15.5 20.333 -20.5 33s-7.5 26 -7.5 40c0 29.333 9.33301 54 28 74s41.667 30 69 30s50.5 -10 69.5 -30s28.5 -44.667 28.5 -74
c0 -14 -2.5 -27.333 -7.5 -40z" />
    <glyph glyph-name="uniFB7B" unicode="&#x686;" horiz-adv-x="998" arabic-form="final" 
d="M244 -321.5c-27.333 11.667 -52.666 29.168 -75.999 52.501c-45.333 45.333 -68 101 -68 167v257h551v419c0 51.333 -33 77 -99 77h-352v155h439c65.333 0 120.666 -22.667 165.999 -68c46.667 -44.667 70 -99.334 70 -164.001v-419h146v-155h-697v-84
c0 -66.667 25.667 -100 77 -100h92v-155h-159c-32.667 0 -62.667 5.83301 -90 17.5zM898 -163.999c18.667 -20 28 -44.667 28 -74c0 -14 -2.5 -27.333 -7.5 -40s-12 -23.667 -21 -33s-19.333 -16.666 -31 -21.999s-24.5 -8 -38.5 -8c-13.333 0 -25.833 2.66699 -37.5 8
s-22 12.666 -31 21.999s-16 20.333 -21 33s-7.5 26 -7.5 40c0 14.667 2.5 28.334 7.5 41.001s12 23.667 21 33s19.333 16.666 31 21.999s24.167 8 37.5 8c28 0 51.333 -10 70 -30zM512.5 -196.999c5 12.667 11.833 23.667 20.5 33s18.834 16.666 30.501 21.999
s24.167 8 37.5 8s25.833 -2.66699 37.5 -8s22 -12.666 31 -21.999s16 -20.333 21 -33s7.5 -26.334 7.5 -41.001c0 -14 -2.5 -27.333 -7.5 -40s-12 -23.667 -21 -33s-19.333 -16.666 -31 -21.999s-24.167 -8 -37.5 -8s-25.833 2.66699 -37.5 8s-21.834 12.666 -30.501 21.999
s-15.5 20.333 -20.5 33s-7.5 26 -7.5 40c0 14.667 2.5 28.334 7.5 41.001zM805.5 -484.999c-5 -12.667 -12 -23.667 -21 -33s-19.5 -16.666 -31.5 -21.999s-24.667 -8 -38 -8s-26 2.66699 -38 8s-22.333 12.666 -31 21.999s-15.5 20.333 -20.5 33s-7.5 26 -7.5 40
c0 29.333 9.33301 54 28 74s41.667 30 69 30s50.5 -10 69.5 -30s28.5 -44.667 28.5 -74c0 -14 -2.5 -27.333 -7.5 -40z" />
    <glyph glyph-name="uniFB7C" unicode="&#x686;" horiz-adv-x="882" arabic-form="initial" 
d="M-13 155l571.001 0.000976562v419c0 51.333 -33 77 -99 77h-352v155h439c65.333 0 120.666 -22.667 165.999 -68c46.667 -44.667 70 -99.334 70 -164.001v-574h-795v155zM600.001 -163.999c18.667 -20 28 -44.667 28 -74c0 -14 -2.5 -27.333 -7.5 -40
s-12 -23.667 -21 -33s-19.333 -16.666 -31 -21.999s-24.5 -8 -38.5 -8c-13.333 0 -25.833 2.66699 -37.5 8s-22 12.666 -31 21.999s-16 20.333 -21 33s-7.5 26 -7.5 40c0 14.667 2.5 28.334 7.5 41.001s12 23.667 21 33s19.333 16.666 31 21.999s24.167 8 37.5 8
c28 0 51.333 -10 70 -30zM214.501 -196.999c5 12.667 11.833 23.667 20.5 33s18.834 16.666 30.501 21.999s24.167 8 37.5 8s25.833 -2.66699 37.5 -8s22 -12.666 31 -21.999s16 -20.333 21 -33s7.5 -26.334 7.5 -41.001c0 -14 -2.5 -27.333 -7.5 -40s-12 -23.667 -21 -33
s-19.333 -16.666 -31 -21.999s-24.167 -8 -37.5 -8s-25.833 2.66699 -37.5 8s-21.834 12.666 -30.501 21.999s-15.5 20.333 -20.5 33s-7.5 26 -7.5 40c0 14.667 2.5 28.334 7.5 41.001zM507.501 -484.999c-5 -12.667 -12 -23.667 -21 -33s-19.5 -16.666 -31.5 -21.999
s-24.667 -8 -38 -8s-26 2.66699 -38 8s-22.333 12.666 -31 21.999s-15.5 20.333 -20.5 33s-7.5 26 -7.5 40c0 29.333 9.33301 54 28 74s41.667 30 69 30s50.5 -10 69.5 -30s28.5 -44.667 28.5 -74c0 -14 -2.5 -27.333 -7.5 -40z" />
    <glyph glyph-name="uniFB7D" unicode="&#x686;" horiz-adv-x="841" arabic-form="medial" 
d="M-13 155l569.001 0.000976562v419c0 51.333 -33 77 -99 77h-352v155h439c65.333 0 120.666 -22.667 165.999 -68c46.667 -44.667 70 -99.334 70 -164.001v-419h74v-155h-867v155zM663.001 -163.999c18.667 -20 28 -44.667 28 -74c0 -14 -2.5 -27.333 -7.5 -40
s-12 -23.667 -21 -33s-19.333 -16.666 -31 -21.999s-24.5 -8 -38.5 -8c-13.333 0 -25.833 2.66699 -37.5 8s-22 12.666 -31 21.999s-16 20.333 -21 33s-7.5 26 -7.5 40c0 14.667 2.5 28.334 7.5 41.001s12 23.667 21 33s19.333 16.666 31 21.999s24.167 8 37.5 8
c28 0 51.333 -10 70 -30zM277.501 -196.999c5 12.667 11.833 23.667 20.5 33s18.834 16.666 30.501 21.999s24.167 8 37.5 8s25.833 -2.66699 37.5 -8s22 -12.666 31 -21.999s16 -20.333 21 -33s7.5 -26.334 7.5 -41.001c0 -14 -2.5 -27.333 -7.5 -40s-12 -23.667 -21 -33
s-19.333 -16.666 -31 -21.999s-24.167 -8 -37.5 -8s-25.833 2.66699 -37.5 8s-21.834 12.666 -30.501 21.999s-15.5 20.333 -20.5 33s-7.5 26 -7.5 40c0 14.667 2.5 28.334 7.5 41.001zM570.501 -484.999c-5 -12.667 -12 -23.667 -21 -33s-19.5 -16.666 -31.5 -21.999
s-24.667 -8 -38 -8s-26 2.66699 -38 8s-22.333 12.666 -31 21.999s-15.5 20.333 -20.5 33s-7.5 26 -7.5 40c0 29.333 9.33301 54 28 74s41.667 30 69 30s50.5 -10 69.5 -30s28.5 -44.667 28.5 -74c0 -14 -2.5 -27.333 -7.5 -40z" />
    <glyph glyph-name="uniFB8B" unicode="&#x698;" horiz-adv-x="544" arabic-form="final" 
d="M473 0v-103c0 -64.667 -23 -120 -69 -166c-46 -46.667 -101 -70 -165 -70h-139v155h74c50 0 75 33.667 75 101v889h224v-651h83v-155h-83zM446 935c-13.333 0 -25.833 2.66699 -37.5 8s-22 12.666 -31 21.999s-16 20.333 -21 33s-7.5 26.334 -7.5 41.001
c0 14 2.5 27.333 7.5 40s12 23.667 21 33s19.333 16.666 31 21.999s24.167 8 37.5 8c14 0 26.833 -2.66699 38.5 -8s22 -12.666 31 -21.999s16 -20.333 21 -33s7.5 -26 7.5 -40c0 -29.333 -9.33301 -54 -28 -74s-42 -30 -70 -30zM123 1039c0 14 2.5 27.333 7.5 40
s11.833 23.667 20.5 33s18.834 16.666 30.501 21.999s24.167 8 37.5 8s25.833 -2.66699 37.5 -8s22 -12.666 31 -21.999s16 -20.333 21 -33s7.5 -26 7.5 -40c0 -14.667 -2.5 -28.334 -7.5 -41.001s-12 -23.667 -21 -33s-19.333 -16.666 -31 -21.999s-24.167 -8 -37.5 -8
s-25.833 2.66699 -37.5 8s-21.834 12.666 -30.501 21.999s-15.5 20.333 -20.5 33s-7.5 26.334 -7.5 41.001zM431 1246c0 -29.333 -9.5 -54 -28.5 -74s-42.167 -30 -69.5 -30s-50.333 10 -69 30s-28 44.667 -28 74c0 14 2.5 27.333 7.5 40s11.833 23.667 20.5 33
s19 16.666 31 21.999s24.667 8 38 8s26 -2.66699 38 -8s22.5 -12.666 31.5 -21.999s16 -20.333 21 -33s7.5 -26 7.5 -40z" />
    <glyph glyph-name="uniFB8F" unicode="&#x6a9;" horiz-adv-x="1698" arabic-form="final" 
d="M1613 314l1 -0.000976562v-158h129v-155h-341c-7.33301 -0.666992 -15 -1 -23 -1h-1047c-63.333 0 -118.333 23.333 -165 70c-44.667 46.667 -67 102.334 -67 167.001v569h224v-551c0 -66.667 25.667 -100 77 -100h923c43.333 6.66699 65 41 65 103v293
c0 66.667 -26.667 100 -80 100h-506v158l539 539h276l-542 -542h303c64.667 0 119.667 -23 165 -69c46 -46 69 -102 69 -168v-255z" />
    <glyph glyph-name="uniFB90" unicode="&#x6a9;" horiz-adv-x="1019" arabic-form="initial" 
d="M919 1348l-542 -542h303c64.667 0 119.667 -23 165 -69c46 -46 69 -102 69 -168v-331c0 -65.333 -23 -121.333 -69 -168c-45.333 -46.667 -100.333 -70 -165 -70h-696v155h626c53.333 0 80 34.333 80 103v293c0 66.667 -26.667 100 -80 100h-506v158l539 539h276z" />
    <glyph glyph-name="uniFB91" unicode="&#x6a9;" horiz-adv-x="1027" arabic-form="medial" 
d="M939 176c16.667 -14 44 -21 82 -21h19v-155h-51c-59.333 0.666992 -110.666 21.334 -153.999 62.001c-46 -40.667 -97.667 -61.334 -155 -62.001h-697v155h627c53.333 0 80 34.333 80 103v293c0 66.667 -26.667 100 -80 100h-507v158l539 539h277l-542 -542h303
c64 0 119 -23 165 -69s69 -102 69 -168v-327c1.33301 -31.333 9.66602 -53.333 24.999 -66z" />
    <glyph glyph-name="uniFB93" unicode="&#x6af;" horiz-adv-x="1698" arabic-form="final" 
d="M1613 314l1 -0.000976562v-158h129v-155h-341c-7.33301 -0.666992 -15 -1 -23 -1h-1047c-63.333 0 -118.333 23.333 -165 70c-44.667 46.667 -67 102.334 -67 167.001v569h224v-551c0 -66.667 25.667 -100 77 -100h923c43.333 6.66699 65 41 65 103v293
c0 66.667 -26.667 100 -80 100h-506v158l539 539h276l-542 -542h303c64.667 0 119.667 -23 165 -69c46 -46 69 -102 69 -168v-255zM1245 1341l-448 -448v145l303 303h145z" />
    <glyph glyph-name="uniFB94" unicode="&#x6af;" horiz-adv-x="1019" arabic-form="initial" 
d="M919 1348l-542 -542h303c64.667 0 119.667 -23 165 -69c46 -46 69 -102 69 -168v-331c0 -65.333 -23 -121.333 -69 -168c-45.333 -46.667 -100.333 -70 -165 -70h-696v155h626c53.333 0 80 34.333 80 103v293c0 66.667 -26.667 100 -80 100h-506v158l539 539h276z
M535 1341l-448 -448v145l303 303h145z" />
    <glyph glyph-name="uniFB95" unicode="&#x6af;" horiz-adv-x="1027" arabic-form="medial" 
d="M939 176c16.667 -14 44 -21 82 -21h19v-155h-51c-59.333 0.666992 -110.666 21.334 -153.999 62.001c-46 -40.667 -97.667 -61.334 -155 -62.001h-697v155h627c53.333 0 80 34.333 80 103v293c0 66.667 -26.667 100 -80 100h-507v158l539 539h277l-542 -542h303
c64 0 119 -23 165 -69s69 -102 69 -168v-327c1.33301 -31.333 9.66602 -53.333 24.999 -66zM535 1341l-448 -448v145l303 303h145z" />
    <glyph glyph-name="uniFBA5" unicode="&#x6c0;" horiz-adv-x="824" arabic-form="final" 
d="M817 155h22v-155h-57c-60 1.33301 -111.333 21.333 -154 60c-45.333 -40 -97.333 -60 -156 -60h-138c-66 0 -121.667 22.667 -167 68c-44.667 47.333 -67 103.333 -67 168v334c0 62.667 23.333 118 70 166c46.667 46.667 102 70 166 70h373v-572
c0 -52.667 36 -79 108 -79zM485 651h-82c-52.667 0 -79 -32.667 -79 -98v-302c0 -64 27 -96 81 -96c53.333 0 80 32.667 80 98v398zM322 1092c-9.33301 -7.33301 -14 -22.667 -14 -46v-53h123v-81h-271v81h63v60c1.33301 38 15.333 70 42 96c25.333 26 57.333 39 96 39h70
v-82h-64c-22.667 0 -37.667 -4.66699 -45 -14z" />
    <glyph glyph-name="uniFBFD" unicode="&#x6cc;" horiz-adv-x="1643" arabic-form="final" 
d="M1416.5 788.5c27 -11.667 52.167 -29.167 75.5 -52.5c46 -48 69 -104 69 -168v-413h99v-155h-323v553c0 65.333 -27 98 -81 98c-53.333 0 -80 -32.667 -80 -98v-553h-842c-64 -0 -119.333 23.333 -166 70c-22 23.333 -38.833 48.833 -50.5 76.5s-17.5 57.5 -17.5 89.5
v570h224v-552c0 -66 25.667 -99 77 -99h551v413c0 63.333 23.333 119.333 70 168c45.333 46.667 100.333 70 165 70h139c33.333 0 63.5 -5.83301 90.5 -17.5z" />
    <glyph glyph-name="uniFBFE" unicode="&#x6cc;" horiz-adv-x="559" arabic-form="initial" 
d="M116 -133c13.333 0 25.833 -2.66504 37.5 -7.99805s21.834 -12.833 30.501 -22.5s15.5 -20.834 20.5 -33.501s7.5 -26.334 7.5 -41.001c0 -14 -2.5 -27.333 -7.5 -40s-11.833 -23.667 -20.5 -33s-18.834 -16.666 -30.501 -21.999s-24.167 -8 -37.5 -8
c-14 0 -26.833 2.66699 -38.5 8s-22 12.666 -31 21.999s-16 20.333 -21 33s-7.5 26 -7.5 40c0 30 9.33301 55 28 75s42 30 70 30zM244 -237.998c0 30 9.5 55 28.5 75s42.167 30 69.5 30s50.333 -10 69 -30s28 -45 28 -75c0 -14 -2.5 -27.333 -7.5 -40
s-11.833 -23.667 -20.5 -33s-19 -16.666 -31 -21.999s-24.667 -8 -38 -8s-26 2.66699 -38 8s-22.5 12.666 -31.5 21.999s-16 20.333 -21 33s-7.5 26 -7.5 40zM459 806.002v-570c0 -63.333 -22.667 -118.333 -68 -165c-45.333 -46 -100 -69.667 -164 -71h-239v155h140
c38.667 0 66.667 7 84 21c16.667 14.667 25 40.667 25 78v552h222z" />
    <glyph glyph-name="uniFBFF" unicode="&#x6cc;" horiz-adv-x="518" arabic-form="medial" 
d="M279 -236c0 14.667 2.5 28.334 7.5 41.001s12 23.667 21 33s19.333 16.666 31 21.999s24.167 8 37.5 8s25.833 -2.66699 37.5 -8s22 -12.666 31 -21.999s16 -20.333 21 -33s7.5 -26.334 7.5 -41.001c0 -14 -2.5 -27.333 -7.5 -40s-12 -23.667 -21 -33
s-19.333 -16.666 -31 -21.999s-24.167 -8 -37.5 -8s-25.833 2.66699 -37.5 8s-22 12.666 -31 21.999s-16 20.333 -21 33s-7.5 26 -7.5 40zM149 -339c-13.333 0 -25.833 2.66699 -37.5 8s-21.834 12.666 -30.501 21.999s-15.5 20.333 -20.5 33s-7.5 26 -7.5 40
c0 14.667 2.5 28.334 7.5 41.001s11.833 23.667 20.5 33s18.834 16.666 30.501 21.999s24.167 8 37.5 8s25.833 -2.66699 37.5 -8s22 -12.666 31 -21.999s16 -20.333 21 -33s7.5 -26.334 7.5 -41.001c0 -14 -2.5 -27.333 -7.5 -40s-12 -23.667 -21 -33
s-19.333 -16.666 -31 -21.999s-24.167 -8 -37.5 -8zM295 63c-21.333 -21.333 -45 -37 -71 -47s-54 -15.333 -84 -16h-153v155h52c38.667 0 66.667 7 84 21c16.667 14 25 39.667 25 77v553h224v-553c0 -37.333 8.33301 -63 25 -77s44.667 -21 84 -21h51v-155h-80
c-60.667 1.33301 -113 22.333 -157 63z" />
    <glyph glyph-name="uniFE82" unicode="&#x622;" horiz-adv-x="455" arabic-form="final" 
d="M100 1516c34.667 16.667 61.667 25.001 81 25.001c7.33301 0 16.666 -0.833008 27.999 -2.5s23 -4.5 35 -8.5h-1c26.667 -6.66699 47.334 -10 62.001 -10c14 2 39.333 19 76 51v-98c-5.33301 -8 -23.333 -16.333 -54 -25c-13.333 -3.33301 -27 -5 -41 -5
c-14.667 0 -28.667 1.66699 -42 5c-26 7.33301 -47 11 -63 11c-14.667 1.33301 -41.667 -10.334 -81 -35.001v92zM351 1348v-1094c0 -37.333 8.33301 -63.333 25 -78c17.333 -14 42.333 -21 75 -21h20v-155h-112c-64 1.33301 -118.667 25 -164 71
c-45.333 46.667 -68 101.667 -68 165v1112h224z" />
    <glyph glyph-name="uniFE84" unicode="&#x623;" horiz-adv-x="450" arabic-form="final" 
d="M347 1348v-1094c0 -37.333 8.33301 -63.333 25 -78c17.333 -14 42.333 -21 75 -21h20v-155h-112c-64 1.33301 -118.667 25 -164 71c-45.333 46.667 -68 101.667 -68 165v1112h224zM262 1642c-9.33301 -7.33301 -14 -22.667 -14 -46v-53h123v-81h-271v81h63v60
c1.33301 38 15.333 70 42 96c25.333 26 57.333 39 96 39h70v-82h-64c-22.667 0 -37.667 -4.66699 -45 -14z" />
    <glyph glyph-name="uniFE86" unicode="&#x624;" horiz-adv-x="787" arabic-form="final" 
d="M708 155l93.999 0.00195312v-155h-94v-102c0 -65.333 -23 -121 -69 -167c-46.667 -46.667 -101.667 -70 -165 -70h-151v155h86c24 0 43 11 57 33c6.66699 9.33301 11.334 19.666 14.001 30.999s4 23.666 4 36.999v83h-152c-64 -0 -118.333 23.333 -163 70
c-46 46 -69 101.667 -69 167v332c0 66 23 121.667 69 167c44.667 46.667 99.667 70 165 70h374v-651zM483.999 651.002h-43c-78 0 -117 -33.667 -117 -101v-296c0 -66 35.667 -99 107 -99h53v496zM485.999 1115c-9.33301 -7.33301 -14 -22.667 -14 -46v-53h123v-81h-271v81
h63v60c1.33301 38 15.333 70 42 96c25.333 26 57.333 39 96 39h70v-82h-64c-22.667 0 -37.667 -4.66699 -45 -14z" />
    <glyph glyph-name="uniFE88" unicode="&#x625;" horiz-adv-x="452" arabic-form="final" 
d="M347 1348v-1094c0 -37.333 8.33301 -63.333 25 -78c17.333 -14 42.333 -21 75 -21h20v-155h-112c-64 1.33301 -118.667 25 -164 71c-45.333 46.667 -68 101.667 -68 165v1112h224zM268 -135c-9.33301 -7.33301 -14 -22.667 -14 -46v-53h123v-81h-271v81h63v60
c1.33301 38 15.333 70 42 96c25.333 26 57.333 39 96 39h70v-82h-64c-22.667 0 -37.667 -4.66699 -45 -14z" />
    <glyph glyph-name="uniFE8A" unicode="&#x626;" horiz-adv-x="1644" arabic-form="final" 
d="M1416.5 788.5c27 -11.667 52.167 -29.167 75.5 -52.5c46 -48 69 -104 69 -168v-413h99v-155h-323v553c0 65.333 -27 98 -81 98c-53.333 0 -80 -32.667 -80 -98v-553h-842c-64 -0 -119.333 23.333 -166 70c-22 23.333 -38.833 48.833 -50.5 76.5s-17.5 57.5 -17.5 89.5
v570h224v-552c0 -66 25.667 -99 77 -99h551v413c0 63.333 23.333 119.333 70 168c45.333 46.667 100.333 70 165 70h139c33.333 0 63.5 -5.83301 90.5 -17.5zM262 1115c-9.33301 -7.33301 -14 -22.667 -14 -46v-53h123v-81h-271v81h63v60c1.33301 38 15.333 70 42 96
c25.333 26 57.333 39 96 39h70v-82h-64c-22.667 0 -37.667 -4.66699 -45 -14z" />
    </font>
</defs>
</svg>
