<?xml version="1.0" standalone="no"?>
<!DOCTYPE svg PUBLIC "-//W3C//DTD SVG 1.1//EN" "http://www.w3.org/Graphics/SVG/1.1/DTD/svg11.dtd" >
<svg>
<metadata>
Created by FontForge 20090914 at Wed Oct 19 00:55:14 2011
 By www-data
(c) by Abolfazl Seilsepour - +98 912 591 3420  -  seilsepor@yahoo.com
</metadata>
<defs>
<font id="FarBeirut" horiz-adv-x="0" >
  <font-face 
    font-family="Far.Beirut"
    font-weight="400"
    font-stretch="normal"
    units-per-em="2048"
    panose-1="0 0 4 0 0 0 0 0 0 0"
    ascent="1638"
    descent="-410"
    bbox="-211 -1254 2774 2253"
    underline-thickness="60"
    underline-position="-650"
    unicode-range="U+0020-U+FEFC"
  />
<missing-glyph horiz-adv-x="1024" 
d="M128 -147v1343h768v-1343h-768zM256 -19h512v1087h-512v-1087z" />
    <glyph glyph-name="uniE818" unicode="&#x651;&#x64b;" 
d="M514 1990l-377 -155v114l377 150v-109zM550 1656c0 -40.667 -11.667 -75.334 -35 -104.001c-28 -33.333 -64 -50 -108 -50c-46 0 -78 16 -96 48c-27.333 -33.333 -68 -50 -122 -50c-38 0 -69 18 -93 54c-18 26 -27 51.667 -27 77c0 22 6.33301 46.667 19 74
c16.667 36 38 54 64 54c19.333 0 29 -10 29 -30c0 -6.66699 -0.833008 -16.5 -2.5 -29.5s-2.5 -22.5 -2.5 -28.5c0 -28 11 -42 33 -42c25.333 0 43 10.333 53 31c2.66699 5.33301 9 29.666 19 72.999c4 20 16.667 30 38 30s33 -11 35 -33c8 -70.667 25.667 -106 53 -106
c25.333 0 38 15 38 45c0 14.667 -3.33301 33.334 -10 56.001l79 64c24 -37.333 36 -81.666 36 -132.999zM514 2142l-377 -155v114l377 149v-108z" />
    <glyph glyph-name="uniFC5E" unicode="&#x651;&#x64c;" arabic-form="isolated" 
d="M526 1756c0 -40.667 -11.6641 -75.335 -34.9971 -104.002c-28 -32.667 -64 -49 -108 -49c-46.667 0 -78.667 15.667 -96 47c-28.667 -34 -69.334 -51 -122.001 -51c-34.667 0 -63.334 14.333 -86.001 43s-34 58.334 -34 89.001c0 22 6.33301 46.667 19 74
c16.667 36 38 54 64 54c19.333 0 29 -10 29 -30c0 -7.33301 -0.833008 -17.333 -2.5 -30s-2.5 -22.334 -2.5 -29.001c0 -28 11 -42 33 -42c25.333 0 43 10.333 53 31c3.33301 8 9.66602 32.333 18.999 73c4 20.667 16.667 31 38 31s33 -11.333 35 -34
c8 -70.667 25.667 -106 53 -106c25.333 0 38 15 38 45c0 14.667 -3.33301 33.334 -10 56.001l79 65c24 -39.333 36 -83.666 36 -132.999zM545.003 2132c0 -33.333 -23.667 -76.333 -71 -129c0.666992 0 16.667 -4.66699 48 -14l-51 -86c-45.333 8 -78 19.333 -98 34
c-78.667 -46.667 -151.334 -70 -218.001 -70c-28.667 0 -57.334 32 -86.001 96c42 0 66 1 72 3c14 16 21 32.667 21 50c0 13.333 -5.33301 20 -16 20c-11.333 0 -32 -16 -62 -48l-18 84c32.667 36.667 66.334 55 101.001 55c12.667 0 25.334 -2.66699 38.001 -8
c31.333 -14.667 47 -41 47 -79c0 -28 -5 -49.333 -15 -64c31.333 2.66699 55 10 71 22c-24 40.667 -36 69.667 -36 87c0 37.333 24.667 74 74 110c42.667 31.333 76.667 47 102 47c64.667 0 97 -36.667 97 -110zM434.003 2121c0 15.333 -7 23 -21 23
c-22 0 -33 -12.333 -33 -37c0 -23.333 8.33301 -42 25 -56c19.333 12 29 35.333 29 70z" />
    <glyph glyph-name="uniFC5F" unicode="&#x651;&#x64d;" arabic-form="isolated" 
d="M566 2112c0 -40.667 -11.6641 -75.334 -34.9971 -104.001c-28 -33.333 -64 -50 -108 -50c-46.667 0 -78.667 16 -96 48c-28.667 -34 -69.334 -51 -122.001 -51c-34.667 0 -63.334 14.333 -86.001 43s-34 58.334 -34 89.001c0 22 6.33301 46.667 19 74
c16.667 36 38 54 64 54c19.333 0 29 -10 29 -30c0 -7.33301 -0.833008 -17.333 -2.5 -30s-2.5 -22.334 -2.5 -29c0 -28 11 -42 33 -42c25.333 0 43 10.333 53 31c3.33301 7.33301 9.66602 31.666 18.999 73c4 20.667 16.667 31 38 31s33 -11.333 35 -34
c8 -71.333 25.667 -107 53 -107c25.333 0 38 15.333 38 46c0 14.667 -3.33301 33.334 -10 56l79 65c24 -39.333 36 -83.666 36 -133zM518.003 1846l-378 -154v113l378 150v-109zM518.003 1681l-378 -153v113l378 150v-110z" />
    <glyph glyph-name="uniFC60" unicode="&#x651;&#x64e;" arabic-form="isolated" 
d="M542 1852c0 -40.667 -11.6641 -75.667 -34.9971 -105c-28 -32.667 -64 -49 -108 -49c-46.667 0 -78.667 15.667 -96 47c-28.667 -33.333 -69.334 -50 -122.001 -50c-34.667 0 -63.334 14.333 -86.001 43s-34 58.334 -34 89.001c0 22 6.33301 46.333 19 73
c16.667 36.667 38 55 64 55c19.333 0 29 -10.333 29 -31c0 -6.66699 -0.833008 -16.334 -2.5 -29.001s-2.5 -22.334 -2.5 -29.001c0 -28 11 -42 33 -42c25.333 0 43 10 53 30c3.33301 8 9.66602 32.667 18.999 74c4 20 16.667 30 38 30s33 -11 35 -33
c8 -71.333 25.667 -107 53 -107c25.333 0 38 15 38 45c0 15.333 -3.33301 34.333 -10 57l79 65c24 -39.333 36 -83.666 36 -132.999zM506.003 2145l-377 -155v114l377 149v-108z" />
    <glyph glyph-name="uniFC61" unicode="&#x651;&#x64f;" arabic-form="isolated" 
d="M544 1723c0 -40.667 -12 -75.667 -36 -105c-27.333 -32.667 -63 -49 -107 -49c-46 0 -78 16 -96 48c-28 -33.333 -69 -50 -123 -50c-37.333 0 -68.333 17.667 -93 53c-17.333 26.667 -26 52.667 -26 78c0 22 6.33301 46.333 19 73c16.667 36.667 38 55 64 55
c18.667 0 28 -10.333 28 -31c0 -6 -0.666992 -15.5 -2 -28.5s-2 -22.5 -2 -28.5c0 -28 11 -42 33 -42c25.333 0 43 10.333 53 31c2.66699 5.33301 9 29.666 19 72.999c4 19.333 16.333 29 37 29c22 0 34 -10.667 36 -32c8 -71.333 25.667 -107 53 -107
c25.333 0 38 15.333 38 46c0 14.667 -3.33301 33.334 -10 56.001l78 63c24.667 -37.333 37 -81.333 37 -132zM515 2137c0 -34 -23.666 -76.998 -70.999 -128.998c0.666992 -0.666992 16.334 -5 47.001 -13l-49 -88c-47.333 9.33301 -80.333 20.666 -99 33.999
c-82 -46.667 -154.333 -70 -217 -70c-30.667 0 -59.334 32.333 -86.001 97c78 2 128.333 4.33301 151 7c42 6 70.667 15.667 86 29c-23.333 41.333 -35 70.333 -35 86.999c0 36 25 72.333 75 109c42.667 32 76 48 100 48c31.333 0 56.666 -12.667 75.999 -38
c14.667 -21.333 22 -45.666 22 -73zM403.001 2125c0 16.667 -6.33203 25 -18.999 25c-6.66699 0 -14.334 -3.83301 -23.001 -11.5s-13 -16.5 -13 -26.5c0 -23.333 9 -42 27 -56c18.667 12 28 35 28 69z" />
    <glyph glyph-name="uniFC62" unicode="&#x651;&#x650;" horiz-adv-x="1" arabic-form="isolated" 
d="M547 2118c0 -40.667 -11.6641 -75.334 -34.9971 -104.001c-28 -33.333 -64 -50 -108 -50c-46.667 0 -78.667 16 -96 48c-28.667 -34 -69.334 -51 -122.001 -51c-34.667 0 -63.334 14.333 -86.001 43s-34 58.334 -34 89.001c0 22 6.33301 46.667 19 74
c16.667 36 38 54 64 54c19.333 0 29 -10 29 -30c0 -7.33301 -0.833008 -17.333 -2.5 -30s-2.5 -22.334 -2.5 -29c0 -28 11 -42 33 -42c25.333 0 43 10.333 53 31c3.33301 8 9.66602 32.333 18.999 73c4 20.667 16.667 31 38 31s33 -11.333 35 -34
c8 -71.333 25.667 -107 53 -107c25.333 0 38 15.333 38 46c0 14.667 -3.33301 33.334 -10 56l79 65c24 -39.333 36 -83.666 36 -133zM492.003 1872l-378 -153v113l378 150v-110z" />
    <glyph glyph-name="uniFDF2" unicode="&#xfedf;&#xfee0;&#xfeea;" horiz-adv-x="1852" arabic-form="isolated" 
d="M1478 314l0.00292969 785.998c0 12.667 2.5 24.834 7.5 36.501s11.833 21.667 20.5 30s18.667 15 30 20s23.666 7.5 36.999 7.5h125c12.667 0 24.834 -2.5 36.501 -7.5s21.667 -11.667 30 -20s15 -18.333 20 -30s7.5 -23.834 7.5 -36.501v-811
c0 -51.333 -5.83301 -95.166 -17.5 -131.499s-28.834 -66.166 -51.501 -89.499s-50.334 -40.5 -83.001 -51.5s-70.334 -16.5 -113.001 -16.5h-1202c-85.333 0 -150.833 22.667 -196.5 68s-68.5 119 -68.5 221v323c0 102 22.833 175.667 68.5 221s111.167 68 196.5 68h223
c85.333 0 150.833 -22.667 196.5 -68s68.5 -119 68.5 -221v-298h176v566c0 12.667 2.5 24.834 7.5 36.501s11.833 21.667 20.5 30s18.667 15 30 20s23.666 7.5 36.999 7.5h125c12.667 0 24.834 -2.5 36.501 -7.5s21.667 -11.667 30 -20s15 -18.333 20 -30
s7.5 -23.834 7.5 -36.501v-566h175zM1362 1104c0 -15.333 -2.33398 -28 -7.00098 -38s-10.667 -17.833 -18 -23.5s-15.666 -9.66699 -24.999 -12s-18.666 -3.5 -27.999 -3.5h-260c-26 0 -45.333 5.83301 -58 17.5s-19 31.5 -19 59.5v150c0 8 2.83301 14.833 8.5 20.5
s12.167 8.5 19.5 8.5h38c7.33301 0 13.833 -2.83301 19.5 -8.5s8.5 -12.5 8.5 -20.5v-133h67v133c0 8 2.83301 14.833 8.5 20.5s12.167 8.5 19.5 8.5h38c7.33301 0 13.666 -2.83301 18.999 -8.5s8 -12.5 8 -20.5v-133h67v133c0 8 2.66699 14.833 8 20.5s12 8.5 20 8.5h38
c7.33301 0 13.833 -2.83301 19.5 -8.5s8.5 -12.5 8.5 -20.5v-150zM372.002 313.998h129v275h-129v-275z" />
    <glyph glyph-name="uniFEF5" unicode="&#xfedf;&#xfe82;" horiz-adv-x="1026" arabic-form="isolated" 
d="M644 314l0.00390625 785.998c0 12.667 2.5 24.834 7.5 36.501s11.667 21.667 20 30s18.333 15 30 20s24.167 7.5 37.5 7.5h125c12.667 0 24.667 -2.5 36 -7.5s21.333 -11.667 30 -20s15.5 -18.333 20.5 -30s7.5 -23.834 7.5 -36.501v-811
c0 -51.333 -5.83301 -95.166 -17.5 -131.499s-28.834 -66.166 -51.501 -89.499s-50.334 -40.5 -83.001 -51.5s-70.334 -16.5 -113.001 -16.5h-542c-26.667 0 -49 9.16699 -67 27.5s-27 40.5 -27 66.5v126c0 26 9 48.167 27 66.5s40.333 27.5 67 27.5h53v786
c0 12.667 2.5 24.834 7.5 36.501s11.667 21.667 20 30s18.166 15 29.499 20s23.666 7.5 36.999 7.5h125c12.667 0 24.834 -2.5 36.501 -7.5s21.667 -11.667 30 -20s15 -18.333 20 -30s7.5 -23.834 7.5 -36.501v-786h127zM200.004 1269c-8 0 -14.833 2.66699 -20.5 8
s-8.5 12.333 -8.5 21v37c0 8 2.83301 14.667 8.5 20s12.5 8 20.5 8h304c7.33301 0 13.666 -2.66699 18.999 -8s8 -12 8 -20v-37c0 -8.66699 -2.66699 -15.667 -8 -21s-11.666 -8 -18.999 -8h-304z" />
    <glyph glyph-name="uniFEF6" unicode="&#xfee0;&#xfe82;" horiz-adv-x="927" arabic-form="final" 
d="M390 314h127.002v786c0 12.667 2.5 24.834 7.5 36.501s11.667 21.667 20 30s18.166 15 29.499 20s23.666 7.5 36.999 7.5h125c12.667 0 24.667 -2.5 36 -7.5s21.333 -11.667 30 -20s15.5 -18.333 20.5 -30s7.5 -23.834 7.5 -36.501v-786h102v-314h-591
c-85.333 0 -150.833 22.667 -196.5 68s-68.5 119 -68.5 221v811c0 12.667 2.5 24.834 7.5 36.501s11.667 21.667 20 30s18.166 15 29.499 20s23.666 7.5 36.999 7.5h125c12.667 0 24.834 -2.5 36.501 -7.5s21.834 -11.667 30.501 -20s15.5 -18.333 20.5 -30
s7.5 -23.834 7.5 -36.501v-786zM80.002 1269c-8 0 -14.833 2.66699 -20.5 8s-8.5 12.333 -8.5 21v37c0 8 2.83301 14.667 8.5 20s12.5 8 20.5 8h303c7.33301 0 13.833 -2.66699 19.5 -8s8.5 -12 8.5 -20v-37c0 -8.66699 -2.83301 -15.667 -8.5 -21s-12.167 -8 -19.5 -8h-303
z" />
    <glyph glyph-name="uniFEF7" unicode="&#xfedf;&#xfe84;" horiz-adv-x="1026" arabic-form="isolated" 
d="M644 314l0.00390625 785.998c0 12.667 2.5 24.834 7.5 36.501s11.667 21.667 20 30s18.333 15 30 20s24.167 7.5 37.5 7.5h125c12.667 0 24.667 -2.5 36 -7.5s21.333 -11.667 30 -20s15.5 -18.333 20.5 -30s7.5 -23.834 7.5 -36.501v-811
c0 -51.333 -5.83301 -95.166 -17.5 -131.499s-28.834 -66.166 -51.501 -89.499s-50.334 -40.5 -83.001 -51.5s-70.334 -16.5 -113.001 -16.5h-542c-26.667 0 -49 9.16699 -67 27.5s-27 40.5 -27 66.5v126c0 26 9 48.167 27 66.5s40.333 27.5 67 27.5h53v786
c0 12.667 2.5 24.834 7.5 36.501s11.667 21.667 20 30s18.166 15 29.499 20s23.666 7.5 36.999 7.5h125c12.667 0 24.834 -2.5 36.501 -7.5s21.667 -11.667 30 -20s15 -18.333 20 -30s7.5 -23.834 7.5 -36.501v-786h127zM272.004 1428v76.999
c0 40.667 8.83301 69.834 26.5 87.501s43.5 26.5 77.5 26.5h91c10 0 18.667 -3.5 26 -10.5s11 -15.833 11 -26.5v-50c0 -10 -3.66699 -18.5 -11 -25.5s-16 -10.5 -26 -10.5h-73v-68h73c10 0 18.667 -3.5 26 -10.5s11 -15.5 11 -25.5v-50c0 -10.667 -3.66699 -19.5 -11 -26.5
s-16 -10.5 -26 -10.5h-216c-10.667 0 -19.667 3.5 -27 10.5s-11 15.833 -11 26.5v50c0 10 3.66699 18.5 11 25.5s16.333 10.5 27 10.5h21z" />
    <glyph glyph-name="uniFEF8" unicode="&#xfee0;&#xfe84;" horiz-adv-x="927" arabic-form="final" 
d="M390 314h127.002v786c0 12.667 2.5 24.834 7.5 36.501s11.667 21.667 20 30s18.166 15 29.499 20s23.666 7.5 36.999 7.5h125c12.667 0 24.667 -2.5 36 -7.5s21.333 -11.667 30 -20s15.5 -18.333 20.5 -30s7.5 -23.834 7.5 -36.501v-786h102v-314h-591
c-85.333 0 -150.833 22.667 -196.5 68s-68.5 119 -68.5 221v811c0 12.667 2.5 24.834 7.5 36.501s11.667 21.667 20 30s18.166 15 29.499 20s23.666 7.5 36.999 7.5h125c12.667 0 24.834 -2.5 36.501 -7.5s21.834 -11.667 30.501 -20s15.5 -18.333 20.5 -30
s7.5 -23.834 7.5 -36.501v-786zM148.002 1428v76.999c0 40.667 8.83301 69.834 26.5 87.501s43.167 26.5 76.5 26.5h93c9.33301 0 17.5 -3.5 24.5 -10.5s10.5 -15.833 10.5 -26.5v-50c0 -10 -3.5 -18.5 -10.5 -25.5s-15.167 -10.5 -24.5 -10.5h-73v-68h73
c9.33301 0 17.5 -3.5 24.5 -10.5s10.5 -15.5 10.5 -25.5v-50c0 -10.667 -3.5 -19.5 -10.5 -26.5s-15.167 -10.5 -24.5 -10.5h-218c-10.667 0 -19.5 3.5 -26.5 10.5s-10.5 15.833 -10.5 26.5v50c0 10 3.5 18.5 10.5 25.5s15.833 10.5 26.5 10.5h22z" />
    <glyph glyph-name="uniFEF9" unicode="&#xfedf;&#xfe88;" horiz-adv-x="1026" arabic-form="isolated" 
d="M644 314l0.00390625 785.998c0 12.667 2.5 24.834 7.5 36.501s11.667 21.667 20 30s18.333 15 30 20s24.167 7.5 37.5 7.5h125c12.667 0 24.667 -2.5 36 -7.5s21.333 -11.667 30 -20s15.5 -18.333 20.5 -30s7.5 -23.834 7.5 -36.501v-811
c0 -51.333 -5.83301 -95.166 -17.5 -131.499s-28.834 -66.166 -51.501 -89.499s-50.334 -40.5 -83.001 -51.5s-70.334 -16.5 -113.001 -16.5h-542c-26.667 0 -49 9.16699 -67 27.5s-27 40.5 -27 66.5v126c0 26 9 48.167 27 66.5s40.333 27.5 67 27.5h53v786
c0 12.667 2.5 24.834 7.5 36.501s11.667 21.667 20 30s18.166 15 29.499 20s23.666 7.5 36.999 7.5h125c12.667 0 24.834 -2.5 36.501 -7.5s21.667 -11.667 30 -20s15 -18.333 20 -30s7.5 -23.834 7.5 -36.501v-786h127zM237.004 -303.002v76
c0 40.667 8.83301 69.834 26.5 87.501s43.167 26.5 76.5 26.5h92c10 0 18.5 -3.33301 25.5 -10s10.5 -15.334 10.5 -26.001v-50c0 -10 -3.5 -18.667 -10.5 -26s-15.5 -11 -25.5 -11h-73v-67h73c10 0 18.5 -3.83301 25.5 -11.5s10.5 -16.167 10.5 -25.5v-49
c0 -10.667 -3.5 -19.667 -10.5 -27s-15.5 -11 -25.5 -11h-217c-10.667 0 -19.5 3.66699 -26.5 11s-10.5 16.333 -10.5 27v49c0 9.33301 3.5 17.833 10.5 25.5s15.833 11.5 26.5 11.5h22z" />
    <glyph glyph-name="uniFEFA" unicode="&#xfee0;&#xfe88;" horiz-adv-x="927" arabic-form="final" 
d="M390 314h127.002v786c0 12.667 2.5 24.834 7.5 36.501s11.667 21.667 20 30s18.166 15 29.499 20s23.666 7.5 36.999 7.5h125c12.667 0 24.667 -2.5 36 -7.5s21.333 -11.667 30 -20s15.5 -18.333 20.5 -30s7.5 -23.834 7.5 -36.501v-786h102v-314h-591
c-85.333 0 -150.833 22.667 -196.5 68s-68.5 119 -68.5 221v811c0 12.667 2.5 24.834 7.5 36.501s11.667 21.667 20 30s18.166 15 29.499 20s23.666 7.5 36.999 7.5h125c12.667 0 24.834 -2.5 36.501 -7.5s21.834 -11.667 30.501 -20s15.5 -18.333 20.5 -30
s7.5 -23.834 7.5 -36.501v-786zM134.002 -303v76c0 40.667 8.83301 69.834 26.5 87.501s43.167 26.5 76.5 26.5h92c10 0 18.5 -3.33301 25.5 -10s10.5 -15.334 10.5 -26.001v-50c0 -10 -3.5 -18.667 -10.5 -26s-15.5 -11 -25.5 -11h-73v-67h73
c10 0 18.5 -3.83301 25.5 -11.5s10.5 -16.167 10.5 -25.5v-49c0 -10.667 -3.5 -19.667 -10.5 -27s-15.5 -11 -25.5 -11h-217c-10.667 0 -19.5 3.66699 -26.5 11s-10.5 16.333 -10.5 27v49c0 9.33301 3.5 17.833 10.5 25.5s15.833 11.5 26.5 11.5h22z" />
    <glyph glyph-name="uniFEFB" unicode="&#xfedf;&#xfe8e;" horiz-adv-x="1026" arabic-form="isolated" 
d="M644 314l0.00390625 785.998c0 12.667 2.5 24.834 7.5 36.501s11.667 21.667 20 30s18.333 15 30 20s24.167 7.5 37.5 7.5h125c12.667 0 24.667 -2.5 36 -7.5s21.333 -11.667 30 -20s15.5 -18.333 20.5 -30s7.5 -23.834 7.5 -36.501v-811
c0 -51.333 -5.83301 -95.166 -17.5 -131.499s-28.834 -66.166 -51.501 -89.499s-50.334 -40.5 -83.001 -51.5s-70.334 -16.5 -113.001 -16.5h-542c-26.667 0 -49 9.16699 -67 27.5s-27 40.5 -27 66.5v126c0 26 9 48.167 27 66.5s40.333 27.5 67 27.5h53v786
c0 12.667 2.5 24.834 7.5 36.501s11.667 21.667 20 30s18.166 15 29.499 20s23.666 7.5 36.999 7.5h125c12.667 0 24.834 -2.5 36.501 -7.5s21.667 -11.667 30 -20s15 -18.333 20 -30s7.5 -23.834 7.5 -36.501v-786h127z" />
    <glyph glyph-name="uniFEFC" unicode="&#xfee0;&#xfe8e;" horiz-adv-x="927" arabic-form="final" 
d="M390 314h127.002v786c0 12.667 2.5 24.834 7.5 36.501s11.667 21.667 20 30s18.166 15 29.499 20s23.666 7.5 36.999 7.5h125c12.667 0 24.667 -2.5 36 -7.5s21.333 -11.667 30 -20s15.5 -18.333 20.5 -30s7.5 -23.834 7.5 -36.501v-786h102v-314h-591
c-85.333 0 -150.833 22.667 -196.5 68s-68.5 119 -68.5 221v811c0 12.667 2.5 24.834 7.5 36.501s11.667 21.667 20 30s18.166 15 29.499 20s23.666 7.5 36.999 7.5h125c12.667 0 24.834 -2.5 36.501 -7.5s21.834 -11.667 30.501 -20s15.5 -18.333 20.5 -30
s7.5 -23.834 7.5 -36.501v-786z" />
    <glyph glyph-name="afii57458_afii57454.liga" unicode="&#x652;&#x64e;" horiz-adv-x="1" 
d="M259 782c0 -16 -5 -30.333 -15 -43c-6 -7.33301 -10.333 -11.333 -13 -12c-2 1.33301 -3 6.33301 -3 15c0 44.667 -12.333 153 -37 325l50 30c4 2.66699 7 4 9 4c1.33301 -0.666992 2.33301 -3 3 -7c4 -50 6 -154 6 -312z" />
    <glyph glyph-name="afii57458_afii57451.liga" unicode="&#x652;&#x64b;" horiz-adv-x="1" 
d="M563 748l-99 -99l-100 100l99 98zM343 748l-98 -99l-100 100l99 98z" />
    <glyph glyph-name="afii57458_afii57453.liga" unicode="&#x652;&#x64d;" horiz-adv-x="1" 
d="M827 -887l-99 -99l-100 100l99 98zM607 -887l-98 -99l-100 100l99 98z" />
    <glyph glyph-name="afii57410" unicode="&#x622;" horiz-adv-x="438" arabic-form="isolated" 
d="M67 1100c0 12.667 2.5 24.834 7.5 36.501s11.667 21.667 20 30s18.166 15 29.499 20s23.666 7.5 36.999 7.5h125c12.667 0 24.834 -2.5 36.501 -7.5s21.667 -11.667 30 -20s15 -18.333 20 -30s7.5 -23.834 7.5 -36.501v-1012c0 -13.333 -2.5 -25.666 -7.5 -36.999
s-11.667 -21.166 -20 -29.499s-18.333 -15 -30 -20s-23.834 -7.5 -36.501 -7.5h-125c-13.333 0 -25.666 2.5 -36.999 7.5s-21.166 11.667 -29.499 20s-15 18.166 -20 29.499s-7.5 23.666 -7.5 36.999v1012zM80 1249c-8 0 -14.833 2.66699 -20.5 8s-8.5 12.333 -8.5 21v37
c0 8 2.83301 14.667 8.5 20s12.5 8 20.5 8h303c7.33301 0 13.833 -2.66699 19.5 -8s8.5 -12 8.5 -20v-37c0 -8.66699 -2.83301 -15.667 -8.5 -21s-12.167 -8 -19.5 -8h-303z" />
    <glyph glyph-name="afii57411" unicode="&#x623;" horiz-adv-x="438" arabic-form="isolated" 
d="M67 1100c0 12.667 2.5 24.834 7.5 36.501s11.667 21.667 20 30s18.166 15 29.499 20s23.666 7.5 36.999 7.5h125c12.667 0 24.834 -2.5 36.501 -7.5s21.667 -11.667 30 -20s15 -18.333 20 -30s7.5 -23.834 7.5 -36.501v-1012c0 -13.333 -2.5 -25.666 -7.5 -36.999
s-11.667 -21.166 -20 -29.499s-18.333 -15 -30 -20s-23.834 -7.5 -36.501 -7.5h-125c-13.333 0 -25.666 2.5 -36.999 7.5s-21.166 11.667 -29.499 20s-15 18.166 -20 29.499s-7.5 23.666 -7.5 36.999v1012zM132 1368v76.999c0 40.667 8.83301 69.834 26.5 87.501
s43.167 26.5 76.5 26.5h92c10 0 18.5 -3.5 25.5 -10.5s10.5 -15.833 10.5 -26.5v-50c0 -10 -3.5 -18.5 -10.5 -25.5s-15.5 -10.5 -25.5 -10.5h-73v-68h73c10 0 18.5 -3.5 25.5 -10.5s10.5 -15.5 10.5 -25.5v-50c0 -10.667 -3.5 -19.5 -10.5 -26.5s-15.5 -10.5 -25.5 -10.5
h-217c-10.667 0 -19.5 3.5 -26.5 10.5s-10.5 15.833 -10.5 26.5v50c0 10 3.5 18.5 10.5 25.5s15.833 10.5 26.5 10.5h22z" />
    <glyph glyph-name="afii57412" unicode="&#x624;" horiz-adv-x="882" arabic-form="isolated" 
d="M183 -442c-25.333 2.66699 -47.333 12.501 -66 29.501s-28 38.5 -28 64.5v126c0 12.667 2.5 24.834 7.5 36.501s11.833 21.667 20.5 30s18.667 15 30 20s23.333 7.5 36 7.5c30 0 62.5 -0.666992 97.5 -2s68.167 1 99.5 7s58.666 18.167 81.999 36.5
s38.333 47.166 45 86.499h-177c-86 0 -151.833 22.667 -197.5 68s-68.5 119 -68.5 221v323c0 102 22.833 175.667 68.5 221s111.5 68 197.5 68h222c86 0 152 -22.667 198 -68s68.667 -119 68 -221l-2 -531c0 -93.333 -15.167 -174.833 -45.5 -244.5
s-73.166 -126.834 -128.499 -171.501s-122 -76.167 -200 -94.5s-164.333 -22.5 -259 -12.5zM309 1205v111c0 58 12.5 99.5 37.5 124.5s61.5 37.5 109.5 37.5h132c14 0 26 -5 36 -15s15 -22.667 15 -38v-71c0 -14 -5 -26.333 -15 -37s-22 -16 -36 -16h-104v-96h104
c14 0 26 -5.16699 36 -15.5s15 -22.833 15 -37.5v-69c0 -15.333 -5 -28 -15 -38s-22 -15 -36 -15h-310c-15.333 0 -28.166 5 -38.499 15s-15.5 22.667 -15.5 38v69c0 14.667 5.16699 27.167 15.5 37.5s23.166 15.5 38.499 15.5h31zM378 314.001h127v275h-127v-275z" />
    <glyph glyph-name="afii57413" unicode="&#x625;" horiz-adv-x="438" arabic-form="isolated" 
d="M67 1100c0 12.667 2.5 24.834 7.5 36.501s11.667 21.667 20 30s18.166 15 29.499 20s23.666 7.5 36.999 7.5h125c12.667 0 24.834 -2.5 36.501 -7.5s21.667 -11.667 30 -20s15 -18.333 20 -30s7.5 -23.834 7.5 -36.501v-1012c0 -13.333 -2.5 -25.666 -7.5 -36.999
s-11.667 -21.166 -20 -29.499s-18.333 -15 -30 -20s-23.834 -7.5 -36.501 -7.5h-125c-13.333 0 -25.666 2.5 -36.999 7.5s-21.166 11.667 -29.499 20s-15 18.166 -20 29.499s-7.5 23.666 -7.5 36.999v1012zM134 -303v76c0 40.667 8.83301 69.834 26.5 87.501
s43.167 26.5 76.5 26.5h92c10 0 18.5 -3.33301 25.5 -10s10.5 -15.334 10.5 -26.001v-50c0 -10 -3.5 -18.667 -10.5 -26s-15.5 -11 -25.5 -11h-73v-67h73c10 0 18.5 -3.83301 25.5 -11.5s10.5 -16.167 10.5 -25.5v-49c0 -10.667 -3.5 -19.667 -10.5 -27s-15.5 -11 -25.5 -11
h-217c-10.667 0 -19.5 3.66699 -26.5 11s-10.5 16.333 -10.5 27v49c0 9.33301 3.5 17.833 10.5 25.5s15.833 11.5 26.5 11.5h22z" />
    <glyph glyph-name="afii57414" unicode="&#x626;" horiz-adv-x="1170" arabic-form="isolated" 
d="M1009 900c12.667 0 24.8389 -2.50293 36.5059 -7.50293s21.667 -11.667 30 -20s15 -18.333 20 -30s7.5 -23.834 7.5 -36.501v-125c0 -12.667 -2.5 -24.667 -7.5 -36s-11.667 -21.166 -20 -29.499s-18.333 -15 -30 -20s-23.834 -7.5 -36.501 -7.5l-160 1v-275h127
c110 -4.66699 153.333 -109.334 130 -314.001c-8.66699 -68.667 -28.334 -131 -59.001 -187s-69.5 -103.5 -116.5 -142.5s-100.833 -69 -161.5 -90s-125.334 -30.833 -194.001 -29.5c-64.667 1.33301 -122.334 10 -173.001 26s-95.167 38 -133.5 66s-71 61.333 -98 100
s-48.833 81 -65.5 127s-28.834 95.333 -36.501 148s-11.5 106.667 -11.5 162c0.666992 6.66699 1.16699 13.834 1.5 21.501s0.5 17.834 0.5 30.501v51v80c0 12.667 2.5 24.834 7.5 36.501s11.667 21.667 20 30s18.166 15 29.499 20s23.333 7.5 36 7.5h126
c12.667 0 24.834 -2.5 36.501 -7.5s21.667 -11.667 30 -20s15 -18.333 20 -30s7.5 -23.834 7.5 -36.501v-182c0 -34 2.16699 -69 6.5 -105s14.166 -69 29.499 -99s38.166 -55.167 68.499 -75.5s71.5 -32.166 123.5 -35.499c22.667 -1.33301 45.334 0.666992 68.001 6
s43.167 13.833 61.5 25.5s34 26.167 47 43.5s21.5 37 25.5 59c-46.667 0 -86.834 6.66699 -120.501 20s-61.167 32.5 -82.5 57.5s-37.166 55.333 -47.499 91s-15.5 75.834 -15.5 120.501v323c0 102 22.833 175.833 68.5 221.5s111.167 68.167 196.5 67.5zM144.005 748.997
l0.000976562 110c0 58 12.667 99.667 38 125s61.666 38 108.999 38h132c14.667 0 26.834 -5 36.501 -15s14.5 -22.667 14.5 -38v-71c0 -14 -4.83301 -26.333 -14.5 -37s-21.834 -16 -36.501 -16h-105v-96h105c14.667 0 26.834 -5.16699 36.501 -15.5
s14.5 -22.833 14.5 -37.5v-70c0 -15.333 -4.83301 -28 -14.5 -38s-21.834 -15 -36.501 -15h-310c-15.333 0 -28 5 -38 15s-15 22.667 -15 38v70c0 14.667 5 27.167 15 37.5s22.667 15.5 38 15.5h31z" />
    <glyph glyph-name="afii57415" unicode="&#x627;" horiz-adv-x="438" arabic-form="isolated" 
d="M67 1100c0 12.667 2.5 24.834 7.5 36.501s11.667 21.667 20 30s18.166 15 29.499 20s23.666 7.5 36.999 7.5h125c12.667 0 24.834 -2.5 36.501 -7.5s21.667 -11.667 30 -20s15 -18.333 20 -30s7.5 -23.834 7.5 -36.501v-1012c0 -13.333 -2.5 -25.666 -7.5 -36.999
s-11.667 -21.166 -20 -29.499s-18.333 -15 -30 -20s-23.834 -7.5 -36.501 -7.5h-125c-13.333 0 -25.666 2.5 -36.999 7.5s-21.166 11.667 -29.499 20s-15 18.166 -20 29.499s-7.5 23.666 -7.5 36.999v1012z" />
    <glyph glyph-name="afii57416" unicode="&#x628;" horiz-adv-x="1299" arabic-form="isolated" 
d="M365 314h562.998v491c0 12.667 2.5 24.667 7.5 36s11.833 21.166 20.5 29.499s18.667 15 30 20s23.333 7.5 36 7.5h126c12.667 0 24.834 -2.5 36.501 -7.5s21.667 -11.667 30 -20s15 -18.166 20 -29.499s7.5 -23.333 7.5 -36l-1 -516c0 -102 -22.667 -175.667 -68 -221
s-110.666 -68 -195.999 -68h-659c-85.333 0 -151 22.667 -197 68s-69 119 -69 221v74c0 26 9.16699 48 27.5 66s40.5 27 66.5 27h125c26.667 0 49 -9 67 -27s27 -40 27 -66v-49zM792.998 -276c0 -22 -4.16699 -42.5 -12.5 -61.5s-19.5 -35.667 -33.5 -50
s-30.5 -25.666 -49.5 -33.999s-39.5 -12.5 -61.5 -12.5c-21.333 0 -41.5 4.16699 -60.5 12.5s-35.5 19.666 -49.5 33.999s-25.167 31 -33.5 50s-12.5 39.5 -12.5 61.5c0 21.333 4.16699 41.5 12.5 60.5s19.5 35.5 33.5 49.5s30.5 25 49.5 33s39.167 12 60.5 12
c22 0 42.5 -4 61.5 -12s35.5 -19 49.5 -33s25.167 -30.5 33.5 -49.5s12.5 -39.167 12.5 -60.5z" />
    <glyph glyph-name="afii57417" unicode="&#x629;" horiz-adv-x="886" arabic-form="isolated" 
d="M382 314h127v275h-127v-275zM334 0c-85.333 0 -150.668 22.666 -196.001 67.999s-68 119 -68 221v323c0 102 22.667 175.667 68 221s110.666 68 195.999 68h223c42.667 0 80.334 -5.5 113.001 -16.5s60.334 -28.167 83.001 -51.5s39.834 -53.333 51.501 -90
s17.5 -80.334 17.5 -131.001v-323c0 -51.333 -5.83301 -95.166 -17.5 -131.499s-28.667 -66.166 -51 -89.499s-49.833 -40.5 -82.5 -51.5s-70.334 -16.5 -113.001 -16.5h-224zM182.998 1201v76.999c0 40.667 8.83301 69.834 26.5 87.501s43.5 26.5 77.5 26.5h91
c10 0 18.667 -3.5 26 -10.5s11 -15.833 11 -26.5v-50c0 -10 -3.66699 -18.5 -11 -25.5s-16 -10.5 -26 -10.5h-73v-68h73c10 0 18.667 -3.5 26 -10.5s11 -15.5 11 -25.5v-50c0 -10.667 -3.66699 -19.5 -11 -26.5s-16 -10.5 -26 -10.5h-216c-10.667 0 -19.667 3.5 -27 10.5
s-11 15.833 -11 26.5v50c0 10 3.66699 18.5 11 25.5s16.333 10.5 27 10.5h21z" />
    <glyph glyph-name="afii57418" unicode="&#x62a;" horiz-adv-x="1299" arabic-form="isolated" 
d="M365 314h562.998v491c0 12.667 2.5 24.667 7.5 36s11.833 21.166 20.5 29.499s18.667 15 30 20s23.333 7.5 36 7.5h126c12.667 0 24.834 -2.5 36.501 -7.5s21.667 -11.667 30 -20s15 -18.166 20 -29.499s7.5 -23.333 7.5 -36l-1 -516c0 -102 -22.667 -175.667 -68 -221
s-110.666 -68 -195.999 -68h-659c-85.333 0 -151 22.667 -197 68s-69 119 -69 221v74c0 26 9.16699 48 27.5 66s40.5 27 66.5 27h125c26.667 0 49 -9 67 -27s27 -40 27 -66v-49zM625.998 1173c0 -21.333 -4 -41.5 -12 -60.5s-19 -35.667 -33 -50
s-30.5 -25.666 -49.5 -33.999s-39.167 -12.5 -60.5 -12.5c-22 0 -42.5 4.16699 -61.5 12.5s-35.5 19.666 -49.5 33.999s-25.167 31 -33.5 50s-12.5 39.167 -12.5 60.5s4.16699 41.5 12.5 60.5s19.5 35.667 33.5 50s30.5 25.666 49.5 33.999s39.5 12.5 61.5 12.5
c21.333 0 41.5 -4.16699 60.5 -12.5s35.5 -19.666 49.5 -33.999s25 -31 33 -50s12 -39.167 12 -60.5zM986.998 1173c0 -21.333 -4.16699 -41.5 -12.5 -60.5s-19.666 -35.667 -33.999 -50s-31 -25.666 -50 -33.999s-39.167 -12.5 -60.5 -12.5s-41.5 4.16699 -60.5 12.5
s-35.667 19.666 -50 33.999s-25.666 31 -33.999 50s-12.5 39.167 -12.5 60.5s4.16699 41.5 12.5 60.5s19.666 35.667 33.999 50s31 25.666 50 33.999s39.167 12.5 60.5 12.5s41.5 -4.16699 60.5 -12.5s35.667 -19.666 50 -33.999s25.666 -31 33.999 -50
s12.5 -39.167 12.5 -60.5z" />
    <glyph glyph-name="afii57419" unicode="&#x62b;" horiz-adv-x="1299" arabic-form="isolated" 
d="M365 314h562.998v491c0 12.667 2.5 24.667 7.5 36s11.833 21.166 20.5 29.499s18.667 15 30 20s23.333 7.5 36 7.5h126c12.667 0 24.834 -2.5 36.501 -7.5s21.667 -11.667 30 -20s15 -18.166 20 -29.499s7.5 -23.333 7.5 -36l-1 -516c0 -102 -22.667 -175.667 -68 -221
s-110.666 -68 -195.999 -68h-659c-85.333 0 -151 22.667 -197 68s-69 119 -69 221v74c0 26 9.16699 48 27.5 66s40.5 27 66.5 27h125c26.667 0 49 -9 67 -27s27 -40 27 -66v-49zM665.998 1173c0 -21.333 -4 -41.5 -12 -60.5s-19 -35.667 -33 -50
s-30.5 -25.666 -49.5 -33.999s-39.5 -12.5 -61.5 -12.5c-21.333 0 -41.5 4.16699 -60.5 12.5s-35.5 19.666 -49.5 33.999s-25.167 31 -33.5 50s-12.5 39.167 -12.5 60.5s4.16699 41.5 12.5 60.5s19.5 35.667 33.5 50s30.5 25.666 49.5 33.999s39.167 12.5 60.5 12.5
c22 0 42.5 -4.16699 61.5 -12.5s35.5 -19.666 49.5 -33.999s25 -31 33 -50s12 -39.167 12 -60.5zM1026 1173c0 -21.333 -4.16699 -41.5 -12.5 -60.5s-19.5 -35.667 -33.5 -50s-30.5 -25.666 -49.5 -33.999s-39.167 -12.5 -60.5 -12.5c-22 0 -42.5 4.16699 -61.5 12.5
s-35.5 19.666 -49.5 33.999s-25.167 31 -33.5 50s-12.5 39.167 -12.5 60.5s4.16699 41.5 12.5 60.5s19.5 35.667 33.5 50s30.5 25.666 49.5 33.999s39.5 12.5 61.5 12.5c21.333 0 41.5 -4.16699 60.5 -12.5s35.5 -19.666 49.5 -33.999s25.167 -31 33.5 -50
s12.5 -39.167 12.5 -60.5zM840.998 1492c0 -22 -4.16699 -42.5 -12.5 -61.5s-19.5 -35.5 -33.5 -49.5s-30.5 -25.167 -49.5 -33.5s-39.167 -12.5 -60.5 -12.5s-41.5 4.16699 -60.5 12.5s-35.667 19.5 -50 33.5s-25.666 30.5 -33.999 49.5s-12.5 39.5 -12.5 61.5
s4.16699 42.5 12.5 61.5s19.666 35.5 33.999 49.5s31 25 50 33s39.167 12 60.5 12s41.5 -4 60.5 -12s35.5 -19 49.5 -33s25.167 -30.5 33.5 -49.5s12.5 -39.5 12.5 -61.5z" />
    <glyph glyph-name="afii57420" unicode="&#x62c;" horiz-adv-x="951" arabic-form="isolated" 
d="M459 406c23.333 3.33301 47.167 4.83594 71.5 4.50293s48.166 -0.5 71.499 -0.5v45c-6.66699 39.333 -21.667 68.166 -45 86.499s-50.666 30.5 -81.999 36.5s-64.5 8.33301 -99.5 7s-67.5 -2 -97.5 -2c-12.667 0 -24.667 2.5 -36 7.5s-21.333 11.667 -30 20
s-15.5 18.166 -20.5 29.499s-7.5 23.666 -7.5 36.999v126c0 25.333 9.33301 46.333 28 63s40.667 26.667 66 30c88 8.66699 168.5 5.5 241.5 -9.5s136.667 -41.167 191 -78.5s98.166 -85.666 131.499 -144.999s54.666 -128.666 63.999 -207.999l2 -264
c0 -13.333 -2.5 -25.666 -7.5 -36.999s-11.667 -21.166 -20 -29.499s-18.333 -15 -30 -20s-23.834 -7.5 -36.501 -7.5l-244 -1c-17.333 0 -34.166 0.166992 -50.499 0.5s-32.166 -1.16699 -47.499 -4.5c-32 -6.66699 -59.5 -19 -82.5 -37s-38.167 -47 -45.5 -87v-50
c5.33301 -34 20 -62.333 44 -85s53.667 -34 89 -34c12.667 0 24.667 -2.5 36 -7.5s21.333 -11.667 30 -20s15.5 -18.333 20.5 -30s7.5 -23.834 7.5 -36.501v-126c0 -26 -9.33301 -47.833 -28 -65.5s-40.667 -27.167 -66 -28.5
c-8.66699 -0.666992 -17.167 -0.833984 -25.5 -0.500977s-17.166 1.16602 -26.499 2.49902v-2c-72 14 -135.667 40.333 -191 79c-38 26 -70.333 56.5 -97 91.5s-47.667 72.167 -63 111.5s-25 80.333 -29 123s-2.33301 85 5 127s20.333 82.833 39 122.5s43 76.5 73 110.5
c37.333 42 81 76.167 131 102.5s105.333 44.166 166 53.499zM907.001 -148.997c0 -22 -4.16699 -42.5 -12.5 -61.5s-19.5 -35.667 -33.5 -50s-30.5 -25.666 -49.5 -33.999s-39.167 -12.5 -60.5 -12.5s-41.5 4.16699 -60.5 12.5s-35.667 19.666 -50 33.999
s-25.666 31 -33.999 50s-12.5 39.5 -12.5 61.5c0 21.333 4.16699 41.5 12.5 60.5s19.666 35.5 33.999 49.5s31 25 50 33s39.167 12 60.5 12s41.5 -4 60.5 -12s35.5 -19 49.5 -33s25.167 -30.5 33.5 -49.5s12.5 -39.167 12.5 -60.5z" />
    <glyph glyph-name="afii57421" unicode="&#x62d;" horiz-adv-x="971" arabic-form="isolated" 
d="M468 406c24 3.33301 48.1738 4.83496 72.5068 4.50195s48.166 -0.5 71.499 -0.5v45c-7.33301 39.333 -22.666 68.166 -45.999 86.499s-50.666 30.5 -81.999 36.5s-64.5 8.33301 -99.5 7s-67.5 -2 -97.5 -2c-12.667 0 -24.667 2.5 -36 7.5s-21.333 11.667 -30 20
s-15.5 18.166 -20.5 29.499s-7.5 23.666 -7.5 36.999v126c0 25.333 9.33301 46.333 28 63s40.667 26.667 66 30c88 8.66699 168.5 5.5 241.5 -9.5s136.667 -41.167 191 -78.5s98.166 -85.666 131.499 -144.999s54.333 -128.666 63 -207.999l3 -264
c0 -13.333 -2.33301 -25.666 -7 -36.999s-11.334 -21.166 -20.001 -29.499s-18.834 -15 -30.501 -20s-23.834 -7.5 -36.501 -7.5l-244 -1c-17.333 0 -34.166 0.166992 -50.499 0.5s-32.5 -1.16699 -48.5 -4.5c-15.333 -3.33301 -30 -8 -44 -14s-26.667 -13.833 -38 -23.5
s-21 -21.5 -29 -35.5s-13.667 -31 -17 -51v-50c4.66699 -26.667 13.167 -48.334 25.5 -65.001s27.166 -29.667 44.499 -39s36.666 -16 57.999 -20s43.166 -6.33301 65.499 -7s44.833 -0.5 67.5 0.5s44 1.5 64 1.5c12.667 0 24.667 -2.5 36 -7.5s21.166 -11.667 29.499 -20
s15 -18.333 20 -30s7.5 -23.834 7.5 -36.501v-125c0 -26 -9.16699 -47.333 -27.5 -64s-40.166 -26.667 -65.499 -30c-88.667 -9.33301 -169.5 -6.5 -242.5 8.5s-136.5 41.5 -190.5 79.5c-38.667 26 -71.334 56.5 -98.001 91.5s-47.667 72.167 -63 111.5s-25 80.333 -29 123
s-2.33301 85 5 127s20.333 82.833 39 122.5s43 76.5 73 110.5c37.333 42 81.166 76.167 131.499 102.5s105.5 44.166 165.5 53.499z" />
    <glyph glyph-name="afii57422" unicode="&#x62e;" horiz-adv-x="971" arabic-form="isolated" 
d="M468 406c24 3.33301 48.1738 4.83496 72.5068 4.50195s48.166 -0.5 71.499 -0.5v45c-7.33301 39.333 -22.666 68.166 -45.999 86.499s-50.666 30.5 -81.999 36.5s-64.5 8.33301 -99.5 7s-67.5 -2 -97.5 -2c-12.667 0 -24.667 2.5 -36 7.5s-21.333 11.667 -30 20
s-15.5 18.166 -20.5 29.499s-7.5 23.666 -7.5 36.999v126c0 25.333 9.33301 46.333 28 63s40.667 26.667 66 30c88 8.66699 168.5 5.5 241.5 -9.5s136.667 -41.167 191 -78.5s98.166 -85.666 131.499 -144.999s54.333 -128.666 63 -207.999l3 -264
c0 -13.333 -2.33301 -25.666 -7 -36.999s-11.334 -21.166 -20.001 -29.499s-18.834 -15 -30.501 -20s-23.834 -7.5 -36.501 -7.5l-244 -1c-17.333 0 -34.166 0.166992 -50.499 0.5s-32.5 -1.16699 -48.5 -4.5c-15.333 -3.33301 -30 -8 -44 -14s-26.667 -13.833 -38 -23.5
s-21 -21.5 -29 -35.5s-13.667 -31 -17 -51v-50c4.66699 -26.667 13.167 -48.334 25.5 -65.001s27.166 -29.667 44.499 -39s36.666 -16 57.999 -20s43.166 -6.33301 65.499 -7s44.833 -0.5 67.5 0.5s44 1.5 64 1.5c12.667 0 24.667 -2.5 36 -7.5s21.166 -11.667 29.499 -20
s15 -18.333 20 -30s7.5 -23.834 7.5 -36.501v-125c0 -26 -9.16699 -47.333 -27.5 -64s-40.166 -26.667 -65.499 -30c-88.667 -9.33301 -169.5 -6.5 -242.5 8.5s-136.5 41.5 -190.5 79.5c-38.667 26 -71.334 56.5 -98.001 91.5s-47.667 72.167 -63 111.5s-25 80.333 -29 123
s-2.33301 85 5 127s20.333 82.833 39 122.5s43 76.5 73 110.5c37.333 42 81.166 76.167 131.499 102.5s105.5 44.166 165.5 53.499zM642.007 1188c0 -22 -4.16699 -42.5 -12.5 -61.5s-19.5 -35.667 -33.5 -50s-30.5 -25.666 -49.5 -33.999s-39.5 -12.5 -61.5 -12.5
c-21.333 0 -41.5 4.16699 -60.5 12.5s-35.5 19.666 -49.5 33.999s-25.167 31 -33.5 50s-12.5 39.5 -12.5 61.5c0 21.333 4.16699 41.5 12.5 60.5s19.5 35.5 33.5 49.5s30.5 25.167 49.5 33.5s39.167 12.5 60.5 12.5c22 0 42.5 -4.16699 61.5 -12.5s35.5 -19.5 49.5 -33.5
s25.167 -30.5 33.5 -49.5s12.5 -39.167 12.5 -60.5z" />
    <glyph glyph-name="afii57423" unicode="&#x62f;" horiz-adv-x="766" arabic-form="isolated" 
d="M391 314v274.999h-242c-13.333 0 -25.666 2.33301 -36.999 7s-21.333 11.334 -30 20.001s-15.5 18.5 -20.5 29.5s-7.5 23.167 -7.5 36.5v125c0 12.667 2.5 24.834 7.5 36.501s11.833 21.667 20.5 30s18.667 15 30 20s23.666 7.5 36.999 7.5h290
c86 0 151.833 -22.667 197.5 -68s68.5 -119 68.5 -221v-323c0 -102 -22.833 -175.667 -68.5 -221s-111.5 -68 -197.5 -68h-290c-13.333 0 -25.666 2.5 -36.999 7.5s-21.333 11.667 -30 20s-15.5 18.166 -20.5 29.499s-7.5 23.666 -7.5 36.999v126
c0 12.667 2.5 24.834 7.5 36.501s11.833 21.667 20.5 30s18.667 15 30 20s23.666 7.5 36.999 7.5h242z" />
    <glyph glyph-name="afii57424" unicode="&#x630;" horiz-adv-x="766" arabic-form="isolated" 
d="M391 314v274.999h-242c-13.333 0 -25.666 2.33301 -36.999 7s-21.333 11.334 -30 20.001s-15.5 18.5 -20.5 29.5s-7.5 23.167 -7.5 36.5v125c0 12.667 2.5 24.834 7.5 36.501s11.833 21.667 20.5 30s18.667 15 30 20s23.666 7.5 36.999 7.5h290
c86 0 151.833 -22.667 197.5 -68s68.5 -119 68.5 -221v-323c0 -102 -22.833 -175.667 -68.5 -221s-111.5 -68 -197.5 -68h-290c-13.333 0 -25.666 2.5 -36.999 7.5s-21.333 11.667 -30 20s-15.5 18.166 -20.5 29.499s-7.5 23.666 -7.5 36.999v126
c0 12.667 2.5 24.834 7.5 36.501s11.833 21.667 20.5 30s18.667 15 30 20s23.666 7.5 36.999 7.5h242zM498 1188c0 -22 -4.16699 -42.5 -12.5 -61.5s-19.5 -35.667 -33.5 -50s-30.5 -25.666 -49.5 -33.999s-39.5 -12.5 -61.5 -12.5c-21.333 0 -41.5 4.16699 -60.5 12.5
s-35.5 19.666 -49.5 33.999s-25.167 31 -33.5 50s-12.5 39.5 -12.5 61.5c0 21.333 4.16699 41.5 12.5 60.5s19.5 35.5 33.5 49.5s30.5 25.167 49.5 33.5s39.167 12.5 60.5 12.5c22 0 42.5 -4.16699 61.5 -12.5s35.5 -19.5 49.5 -33.5s25.167 -30.5 33.5 -49.5
s12.5 -39.167 12.5 -60.5z" />
    <glyph glyph-name="afii57425" unicode="&#x631;" horiz-adv-x="670" arabic-form="isolated" 
d="M124 -128c20 1.33301 39.333 4.33203 58 8.99902s35.5 11.834 50.5 21.501s27.833 22.334 38.5 38.001s18 35.5 22 59.5v813c0 25.333 8.83301 46.333 26.5 63s39.167 25 64.5 25h141c26.667 0 47 -8.33301 61 -25s21 -37.667 21 -63l-2 -732
c0 -74 -10 -140.833 -30 -200.5s-48.333 -111.334 -85 -155.001s-81 -79.334 -133 -107.001s-110.333 -46.5 -175 -56.5c-15.333 -2 -30 -3.5 -44 -4.5s-28.667 -0.833008 -44 0.5c-25.333 2.66699 -47.333 12.5 -66 29.5s-28 38.5 -28 64.5v126
c0 12.667 2.5 24.834 7.5 36.501s11.833 21.667 20.5 30s18.667 15 30 20s23.333 7.5 36 7.5h30z" />
    <glyph glyph-name="afii57426" unicode="&#x632;" horiz-adv-x="670" arabic-form="isolated" 
d="M124 -128c20 1.33301 39.333 4.33203 58 8.99902s35.5 11.834 50.5 21.501s27.833 22.334 38.5 38.001s18 35.5 22 59.5v813c0 25.333 8.83301 46.333 26.5 63s39.167 25 64.5 25h141c26.667 0 47 -8.33301 61 -25s21 -37.667 21 -63l-2 -732
c0 -74 -10 -140.833 -30 -200.5s-48.333 -111.334 -85 -155.001s-81 -79.334 -133 -107.001s-110.333 -46.5 -175 -56.5c-15.333 -2 -30 -3.5 -44 -4.5s-28.667 -0.833008 -44 0.5c-25.333 2.66699 -47.333 12.5 -66 29.5s-28 38.5 -28 64.5v126
c0 12.667 2.5 24.834 7.5 36.501s11.833 21.667 20.5 30s18.667 15 30 20s23.333 7.5 36 7.5h30zM602 1176c0 -21.333 -4.16699 -41.5 -12.5 -60.5s-19.5 -35.667 -33.5 -50s-30.5 -25.666 -49.5 -33.999s-39.5 -12.5 -61.5 -12.5c-21.333 0 -41.5 4.16699 -60.5 12.5
s-35.5 19.666 -49.5 33.999s-25.167 31 -33.5 50s-12.5 39.167 -12.5 60.5c0 22 4.16699 42.5 12.5 61.5s19.5 35.5 33.5 49.5s30.5 25 49.5 33s39.167 12 60.5 12c22 0 42.5 -4 61.5 -12s35.5 -19 49.5 -33s25.167 -30.5 33.5 -49.5s12.5 -39.5 12.5 -61.5z" />
    <glyph glyph-name="afii57427" unicode="&#x633;" horiz-adv-x="2054" arabic-form="isolated" 
d="M1567 314l128.998 0.000976562v491c0 12.667 2.33301 24.667 7 36s11.334 21.166 20.001 29.499s18.667 15 30 20s23.666 7.5 36.999 7.5h125c12.667 0 24.834 -2.5 36.501 -7.5s21.667 -11.667 30 -20s15 -18.166 20 -29.499s7.5 -23.333 7.5 -36v-516
c0 -102 -23 -175.667 -69 -221s-111.667 -68 -197 -68h-629c-11.333 -64.667 -33.166 -124.667 -65.499 -180s-72.5 -103.166 -120.5 -143.499s-102.333 -71.666 -163 -93.999s-125 -32.833 -193 -31.5c-96.667 2 -178.167 20.167 -244.5 54.5
s-119.833 80.166 -160.5 137.499s-69.667 123.666 -87 198.999s-25.666 154.666 -24.999 237.999v21c0 8 0.166992 18.5 0.5 31.5s0.5 29.833 0.5 50.5v80c0 26 9 48.167 27 66.5s40.333 27.5 67 27.5h125c12.667 0 24.667 -2.5 36 -7.5s21.333 -11.667 30 -20
s15.5 -18.333 20.5 -30s7.5 -23.834 7.5 -36.501v-182c0 -22.667 0.833008 -46.167 2.5 -70.5s5.16699 -48.166 10.5 -71.499s13 -45.5 23 -66.5s23.5 -39.5 40.5 -55.5s38 -28.5 63 -37.5s54.833 -13.5 89.5 -13.5c50.667 0 90.667 9.33301 120 28s51 42.167 65 70.5
s22.5 59 25.5 92s3.83301 64.167 2.5 93.5v655c0 12.667 2.5 24.667 7.5 36s11.667 21.166 20 29.499s18.166 15 29.499 20s23.666 7.5 36.999 7.5h126c12.667 0 24.667 -2.5 36 -7.5s21.333 -11.667 30 -20s15.334 -18.166 20.001 -29.499s7 -23.333 7 -36v-491h130v491
c0 12.667 2.33301 24.667 7 36s11.334 21.166 20.001 29.499s18.667 15 30 20s23.666 7.5 36.999 7.5h125c12.667 0 24.667 -2.5 36 -7.5s21.333 -11.667 30 -20s15.5 -18.166 20.5 -29.499s7.5 -23.333 7.5 -36v-491z" />
    <glyph glyph-name="afii57428" unicode="&#x634;" horiz-adv-x="2054" arabic-form="isolated" 
d="M1567 314l128.998 0.000976562v491c0 12.667 2.33301 24.667 7 36s11.334 21.166 20.001 29.499s18.667 15 30 20s23.666 7.5 36.999 7.5h125c12.667 0 24.834 -2.5 36.501 -7.5s21.667 -11.667 30 -20s15 -18.166 20 -29.499s7.5 -23.333 7.5 -36v-516
c0 -102 -23 -175.667 -69 -221s-111.667 -68 -197 -68h-629c-11.333 -64.667 -33.166 -124.667 -65.499 -180s-72.5 -103.166 -120.5 -143.499s-102.333 -71.666 -163 -93.999s-125 -32.833 -193 -31.5c-96.667 2 -178.167 20.167 -244.5 54.5
s-119.833 80.166 -160.5 137.499s-69.667 123.666 -87 198.999s-25.666 154.666 -24.999 237.999v21c0 8 0.166992 18.5 0.5 31.5s0.5 29.833 0.5 50.5v80c0 26 9 48.167 27 66.5s40.333 27.5 67 27.5h125c12.667 0 24.667 -2.5 36 -7.5s21.333 -11.667 30 -20
s15.5 -18.333 20.5 -30s7.5 -23.834 7.5 -36.501v-182c0 -22.667 0.833008 -46.167 2.5 -70.5s5.16699 -48.166 10.5 -71.499s13 -45.5 23 -66.5s23.5 -39.5 40.5 -55.5s38 -28.5 63 -37.5s54.833 -13.5 89.5 -13.5c50.667 0 90.667 9.33301 120 28s51 42.167 65 70.5
s22.5 59 25.5 92s3.83301 64.167 2.5 93.5v655c0 12.667 2.5 24.667 7.5 36s11.667 21.166 20 29.499s18.166 15 29.499 20s23.666 7.5 36.999 7.5h126c12.667 0 24.667 -2.5 36 -7.5s21.333 -11.667 30 -20s15.334 -18.166 20.001 -29.499s7 -23.333 7 -36v-491h130v491
c0 12.667 2.33301 24.667 7 36s11.334 21.166 20.001 29.499s18.667 15 30 20s23.666 7.5 36.999 7.5h125c12.667 0 24.667 -2.5 36 -7.5s21.333 -11.667 30 -20s15.5 -18.166 20.5 -29.499s7.5 -23.333 7.5 -36v-491zM1380 1173c0 -21.333 -4.16699 -41.5 -12.5 -60.5
s-19.666 -35.667 -33.999 -50s-31 -25.666 -50 -33.999s-39.167 -12.5 -60.5 -12.5s-41.5 4.16699 -60.5 12.5s-35.5 19.666 -49.5 33.999s-25.167 31 -33.5 50s-12.5 39.167 -12.5 60.5s4.16699 41.5 12.5 60.5s19.5 35.667 33.5 50s30.5 25.666 49.5 33.999
s39.167 12.5 60.5 12.5s41.5 -4.16699 60.5 -12.5s35.667 -19.666 50 -33.999s25.666 -31 33.999 -50s12.5 -39.167 12.5 -60.5zM1739 1173c0 -21.333 -4.16699 -41.5 -12.5 -60.5s-19.5 -35.667 -33.5 -50s-30.5 -25.666 -49.5 -33.999s-39.167 -12.5 -60.5 -12.5
c-22 0 -42.5 4.16699 -61.5 12.5s-35.5 19.666 -49.5 33.999s-25.167 31 -33.5 50s-12.5 39.167 -12.5 60.5s4.16699 41.5 12.5 60.5s19.5 35.667 33.5 50s30.5 25.666 49.5 33.999s39.5 12.5 61.5 12.5c21.333 0 41.5 -4.16699 60.5 -12.5s35.5 -19.666 49.5 -33.999
s25.167 -31 33.5 -50s12.5 -39.167 12.5 -60.5zM1555 1492c0 -22 -4.16699 -42.5 -12.5 -61.5s-19.666 -35.5 -33.999 -49.5s-31 -25.167 -50 -33.5s-39.167 -12.5 -60.5 -12.5c-22 0 -42.5 4.16699 -61.5 12.5s-35.5 19.5 -49.5 33.5s-25.167 30.5 -33.5 49.5
s-12.5 39.5 -12.5 61.5s4.16699 42.5 12.5 61.5s19.5 35.5 33.5 49.5s30.5 25 49.5 33s39.5 12 61.5 12c21.333 0 41.5 -4 60.5 -12s35.667 -19 50 -33s25.666 -30.5 33.999 -49.5s12.5 -39.5 12.5 -61.5z" />
    <glyph glyph-name="afii57429" unicode="&#x635;" horiz-adv-x="2077" arabic-form="isolated" 
d="M1749 754c42.667 0 80.333 -5.5 113 -16.5s60.334 -28.167 83.001 -51.5s39.834 -53.333 51.501 -90s17.5 -80.334 17.5 -131.001v-176c0 -51.333 -5.83301 -95.166 -17.5 -131.499s-28.834 -66.166 -51.501 -89.499s-50.334 -40.5 -83.001 -51.5
s-70.334 -16.5 -113.001 -16.5h-625c-11.333 -64.667 -33.333 -124.667 -66 -180s-73 -103.166 -121 -143.499s-102.333 -71.666 -163 -93.999s-125 -32.833 -193 -31.5c-97.333 2 -179 20.167 -245 54.5s-119.333 80.166 -160 137.499s-69.667 123.666 -87 198.999
s-25.666 154.666 -24.999 237.999v183c0 12.667 2.5 24.834 7.5 36.501s11.833 21.667 20.5 30s18.667 15 30 20s23.333 7.5 36 7.5h126c12.667 0 24.834 -2.5 36.501 -7.5s21.667 -11.667 30 -20s15 -18.333 20 -30s7.5 -23.834 7.5 -36.501v-182c0 -34 2 -69.5 6 -106.5
s13.833 -71 29.5 -102s38.667 -56.5 69 -76.5s71.5 -30 123.5 -30c51.333 0 91.666 9.33301 120.999 28s51.166 42.167 65.499 70.5s22.833 59 25.5 92s3.33398 64.167 2.00098 93.5v315c0 102 22.833 175.667 68.5 221s111.167 68 196.5 68h664zM1132 314h569l-1 127h-568
v-127z" />
    <glyph glyph-name="afii57430" unicode="&#x636;" horiz-adv-x="2077" arabic-form="isolated" 
d="M1749 754c42.667 0 80.333 -5.5 113 -16.5s60.334 -28.167 83.001 -51.5s39.834 -53.333 51.501 -90s17.5 -80.334 17.5 -131.001v-176c0 -51.333 -5.83301 -95.166 -17.5 -131.499s-28.834 -66.166 -51.501 -89.499s-50.334 -40.5 -83.001 -51.5
s-70.334 -16.5 -113.001 -16.5h-625c-11.333 -64.667 -33.333 -124.667 -66 -180s-73 -103.166 -121 -143.499s-102.333 -71.666 -163 -93.999s-125 -32.833 -193 -31.5c-97.333 2 -179 20.167 -245 54.5s-119.333 80.166 -160 137.499s-69.667 123.666 -87 198.999
s-25.666 154.666 -24.999 237.999v183c0 12.667 2.5 24.834 7.5 36.501s11.833 21.667 20.5 30s18.667 15 30 20s23.333 7.5 36 7.5h126c12.667 0 24.834 -2.5 36.501 -7.5s21.667 -11.667 30 -20s15 -18.333 20 -30s7.5 -23.834 7.5 -36.501v-182c0 -34 2 -69.5 6 -106.5
s13.833 -71 29.5 -102s38.667 -56.5 69 -76.5s71.5 -30 123.5 -30c51.333 0 91.666 9.33301 120.999 28s51.166 42.167 65.499 70.5s22.833 59 25.5 92s3.33398 64.167 2.00098 93.5v315c0 102 22.833 175.667 68.5 221s111.167 68 196.5 68h664zM1573 1030
c0 -22 -4.16699 -42.5 -12.5 -61.5s-19.5 -35.667 -33.5 -50s-30.5 -25.666 -49.5 -33.999s-39.5 -12.5 -61.5 -12.5c-21.333 0 -41.5 4.16699 -60.5 12.5s-35.5 19.666 -49.5 33.999s-25 31 -33 50s-12 39.5 -12 61.5c0 21.333 4 41.5 12 60.5s19 35.5 33 49.5
s30.5 25 49.5 33s39.167 12 60.5 12c22 0 42.5 -4 61.5 -12s35.5 -19 49.5 -33s25.167 -30.5 33.5 -49.5s12.5 -39.167 12.5 -60.5zM1132 314h569l-1 127h-568v-127z" />
    <glyph glyph-name="afii57431" unicode="&#x637;" horiz-adv-x="1474" arabic-form="isolated" 
d="M225 1100c0 12.667 2.49902 24.835 7.49902 36.502s11.833 21.667 20.5 30s18.667 15 30 20s23.333 7.5 36 7.5h126c12.667 0 24.834 -2.5 36.501 -7.5s21.667 -11.667 30 -20s15 -18.333 20 -30s7.5 -23.834 7.5 -36.501v-346h615c86 0 151.833 -22.667 197.5 -68
s68.5 -119 68.5 -221v-176c0.666992 -102 -22 -175.667 -68 -221s-112 -68 -198 -68h-1013c-12.667 0 -24.667 2.5 -36 7.5s-21.166 11.667 -29.499 20s-15 18.166 -20 29.499s-7.5 23.666 -7.5 36.999v126c0 12.667 2.5 24.834 7.5 36.501s11.667 21.667 20 30
s18.166 15 29.499 20s23.333 7.5 36 7.5h84v786zM538.999 314.001h568v127h-568v-127z" />
    <glyph glyph-name="afii57432" unicode="&#x638;" horiz-adv-x="1474" arabic-form="isolated" 
d="M225 1100c0 12.667 2.49902 24.835 7.49902 36.502s11.833 21.667 20.5 30s18.667 15 30 20s23.333 7.5 36 7.5h126c12.667 0 24.834 -2.5 36.501 -7.5s21.667 -11.667 30 -20s15 -18.333 20 -30s7.5 -23.834 7.5 -36.501v-346h615c86 0 151.833 -22.667 197.5 -68
s68.5 -119 68.5 -221v-176c0.666992 -102 -22 -175.667 -68 -221s-112 -68 -198 -68h-1013c-12.667 0 -24.667 2.5 -36 7.5s-21.166 11.667 -29.499 20s-15 18.166 -20 29.499s-7.5 23.666 -7.5 36.999v126c0 12.667 2.5 24.834 7.5 36.501s11.667 21.667 20 30
s18.166 15 29.499 20s23.333 7.5 36 7.5h84v786zM966.999 1030c0 -22 -4.16699 -42.5 -12.5 -61.5s-19.666 -35.667 -33.999 -50s-31 -25.666 -50 -33.999s-39.167 -12.5 -60.5 -12.5s-41.5 4.16699 -60.5 12.5s-35.667 19.666 -50 33.999s-25.666 31 -33.999 50
s-12.5 39.5 -12.5 61.5c0 21.333 4.16699 41.5 12.5 60.5s19.666 35.5 33.999 49.5s31 25 50 33s39.167 12 60.5 12s41.5 -4 60.5 -12s35.667 -19 50 -33s25.666 -30.5 33.999 -49.5s12.5 -39.167 12.5 -60.5zM538.999 314.001h568v127h-568v-127z" />
    <glyph glyph-name="afii57433" unicode="&#x639;" horiz-adv-x="976" arabic-form="isolated" 
d="M157 612c0 102 22.6719 175.672 68.0049 221.005s110.666 68 195.999 68h404c12.667 0 24.667 -2.5 36 -7.5s21.333 -11.667 30 -20s15.5 -18.333 20.5 -30s7.5 -23.834 7.5 -36.501v-125c0 -13.333 -2.5 -25.5 -7.5 -36.5s-11.833 -20.833 -20.5 -29.5
s-18.667 -15.334 -30 -20.001s-23.333 -7 -36 -7h-355v-183c12.667 1.33301 25.834 2.33301 39.501 3s27.167 1 40.5 1h274c12.667 0 24.667 -2.5 36 -7.5s21.333 -11.667 30 -20s15.5 -18.333 20.5 -30s7.5 -23.834 7.5 -36.501v-125c0 -13.333 -2.5 -25.666 -7.5 -36.999
s-11.833 -21.166 -20.5 -29.499s-18.667 -15 -30 -20s-23.333 -7.5 -36 -7.5l-245 -1c-16.667 0 -33.334 0.166992 -50.001 0.5s-33 -1.16699 -49 -4.5c-15.333 -3.33301 -30 -8 -44 -14s-26.667 -13.833 -38 -23.5s-21 -21.5 -29 -35.5s-13.667 -31 -17 -51v-50
c4.66699 -26.667 13.167 -48.334 25.5 -65.001s27.166 -29.667 44.499 -39s36.666 -16 57.999 -20s43.166 -6.33301 65.499 -7s44.833 -0.5 67.5 0.5s44 1.5 64 1.5c12.667 0 24.667 -2.5 36 -7.5s21.333 -11.667 30 -20s15.5 -18.333 20.5 -30s7.5 -23.834 7.5 -36.501
v-125c0 -26 -9.33301 -47.333 -28 -64s-40.667 -26.667 -66 -30c-88 -9.33301 -168.5 -6.33301 -241.5 9s-136.667 41.666 -191 78.999s-98.333 85.666 -132 144.999s-54.834 129 -63.501 209v50c11.333 105.333 47.333 195 108 269v375z" />
    <glyph glyph-name="afii57434" unicode="&#x63a;" horiz-adv-x="976" arabic-form="isolated" 
d="M157 612c0 102 22.6719 175.672 68.0049 221.005s110.666 68 195.999 68h404c12.667 0 24.667 -2.5 36 -7.5s21.333 -11.667 30 -20s15.5 -18.333 20.5 -30s7.5 -23.834 7.5 -36.501v-125c0 -13.333 -2.5 -25.5 -7.5 -36.5s-11.833 -20.833 -20.5 -29.5
s-18.667 -15.334 -30 -20.001s-23.333 -7 -36 -7h-355v-183c12.667 1.33301 25.834 2.33301 39.501 3s27.167 1 40.5 1h274c12.667 0 24.667 -2.5 36 -7.5s21.333 -11.667 30 -20s15.5 -18.333 20.5 -30s7.5 -23.834 7.5 -36.501v-125c0 -13.333 -2.5 -25.666 -7.5 -36.999
s-11.833 -21.166 -20.5 -29.499s-18.667 -15 -30 -20s-23.333 -7.5 -36 -7.5l-245 -1c-16.667 0 -33.334 0.166992 -50.001 0.5s-33 -1.16699 -49 -4.5c-15.333 -3.33301 -30 -8 -44 -14s-26.667 -13.833 -38 -23.5s-21 -21.5 -29 -35.5s-13.667 -31 -17 -51v-50
c4.66699 -26.667 13.167 -48.334 25.5 -65.001s27.166 -29.667 44.499 -39s36.666 -16 57.999 -20s43.166 -6.33301 65.499 -7s44.833 -0.5 67.5 0.5s44 1.5 64 1.5c12.667 0 24.667 -2.5 36 -7.5s21.333 -11.667 30 -20s15.5 -18.333 20.5 -30s7.5 -23.834 7.5 -36.501
v-125c0 -26 -9.33301 -47.333 -28 -64s-40.667 -26.667 -66 -30c-88 -9.33301 -168.5 -6.33301 -241.5 9s-136.667 41.666 -191 78.999s-98.333 85.666 -132 144.999s-54.834 129 -63.501 209v50c11.333 105.333 47.333 195 108 269v375zM693.005 1188
c0 -22 -4.16699 -42.5 -12.5 -61.5s-19.666 -35.667 -33.999 -50s-31 -25.666 -50 -33.999s-39.167 -12.5 -60.5 -12.5s-41.5 4.16699 -60.5 12.5s-35.667 19.666 -50 33.999s-25.666 31 -33.999 50s-12.5 39.5 -12.5 61.5c0 21.333 4.16699 41.5 12.5 60.5
s19.666 35.5 33.999 49.5s31 25.167 50 33.5s39.167 12.5 60.5 12.5s41.5 -4.16699 60.5 -12.5s35.667 -19.5 50 -33.5s25.666 -30.5 33.999 -49.5s12.5 -39.167 12.5 -60.5z" />
    <glyph glyph-name="afii57441" unicode="&#x641;" horiz-adv-x="1304" arabic-form="isolated" 
d="M371 314l120.998 0.000976562v298c0 102 22.833 175.667 68.5 221s111.5 68 197.5 68h222c85.333 0 150.833 -22.667 196.5 -68s68.5 -119 68.5 -221v-323c0.666992 -102 -22 -175.667 -68 -221s-111.667 -68 -197 -68h-657c-86 0 -151.833 22.667 -197.5 68
s-68.5 119 -68.5 221v74c0 26 9.16699 48 27.5 66s40.5 27 66.5 27h125c12.667 0 24.834 -2.33301 36.501 -7s21.834 -11.334 30.501 -20.001s15.5 -18.667 20.5 -30s7.5 -23.333 7.5 -36v-49zM1015 1188c0 -22 -4 -42.5 -12 -61.5s-19 -35.667 -33 -50
s-30.5 -25.666 -49.5 -33.999s-39.167 -12.5 -60.5 -12.5c-22 0 -42.5 4.16699 -61.5 12.5s-35.5 19.666 -49.5 33.999s-25.167 31 -33.5 50s-12.5 39.5 -12.5 61.5c0 21.333 4.16699 41.5 12.5 60.5s19.5 35.5 33.5 49.5s30.5 25.167 49.5 33.5s39.5 12.5 61.5 12.5
c21.333 0 41.5 -4.16699 60.5 -12.5s35.5 -19.5 49.5 -33.5s25 -30.5 33 -49.5s12 -39.167 12 -60.5zM804.998 314.001h127v275h-127v-275z" />
    <glyph glyph-name="afii57442" unicode="&#x642;" horiz-adv-x="1348" arabic-form="isolated" 
d="M884 1188c0 -22 -4.16699 -42.5 -12.5 -61.5s-19.666 -35.667 -33.999 -50s-31 -25.666 -50 -33.999s-39.167 -12.5 -60.5 -12.5s-41.5 4.16699 -60.5 12.5s-35.5 19.666 -49.5 33.999s-25.167 31 -33.5 50s-12.5 39.5 -12.5 61.5c0 21.333 4.16699 41.5 12.5 60.5
s19.5 35.5 33.5 49.5s30.5 25.167 49.5 33.5s39.167 12.5 60.5 12.5s41.5 -4.16699 60.5 -12.5s35.667 -19.5 50 -33.5s25.666 -30.5 33.999 -49.5s12.5 -39.167 12.5 -60.5zM1242 1188c0 -22 -4.16699 -42.5 -12.5 -61.5s-19.5 -35.667 -33.5 -50
s-30.5 -25.666 -49.5 -33.999s-39.167 -12.5 -60.5 -12.5s-41.5 4.16699 -60.5 12.5s-35.667 19.666 -50 33.999s-25.666 31 -33.999 50s-12.5 39.5 -12.5 61.5c0 21.333 4.16699 41.5 12.5 60.5s19.666 35.5 33.999 49.5s31 25.167 50 33.5s39.167 12.5 60.5 12.5
s41.5 -4.16699 60.5 -12.5s35.5 -19.5 49.5 -33.5s25.167 -30.5 33.5 -49.5s12.5 -39.167 12.5 -60.5zM375 181c-0.666992 -22.667 0.00390625 -46.498 2.00391 -71.498s6.5 -49.667 13.5 -74s17.333 -47.5 31 -69.5s32.334 -41.167 56.001 -57.5
s53.167 -29.166 88.5 -38.499s77.666 -13.666 126.999 -12.999c29.333 -0.666992 59.666 -0.333984 90.999 0.999023s60.5 6.5 87.5 15.5s50.333 23.333 70 43s32.5 47.5 38.5 83.5h-177c-85.333 0 -150.833 22.667 -196.5 68s-68.5 119 -68.5 221v323
c0 102 22.833 175.667 68.5 221s111.167 68 196.5 68h223c42.667 0 80.5 -5.5 113.5 -16.5s60.833 -28.167 83.5 -51.5s39.667 -53.333 51 -90s16.666 -80.334 15.999 -131.001l-1 -531c0 -86 -13.167 -162.167 -39.5 -228.5s-63.666 -122 -111.999 -167
s-106.5 -78.667 -174.5 -101s-144 -32.833 -228 -31.5l1 -2h-159c-96.667 2 -178 20.167 -244 54.5s-119.333 80.166 -160 137.499s-69.834 123.666 -87.501 198.999s-25.834 154.666 -24.501 237.999v183c0 12.667 2.5 24.834 7.5 36.501s11.833 21.667 20.5 30
s18.667 15 30 20s23.666 7.5 36.999 7.5h125c25.333 0 47 -9.16699 65 -27.5s27.667 -40.5 29 -66.5v-182zM851.004 314.002h127v275h-127v-275z" />
    <glyph glyph-name="afii57443" unicode="&#x643;" horiz-adv-x="1384" arabic-form="isolated" 
d="M1011 314l-0.00195312 127.001h-783c-12.667 0 -24.667 2.5 -36 7.5s-21.166 11.833 -29.499 20.5s-15 18.667 -20 30s-7.5 23.333 -7.5 36l-1 214c8.66699 79.333 29.834 148.666 63.501 207.999s77.667 107.666 132 144.999s118 63.5 191 78.5s153.5 18.167 241.5 9.5
c25.333 -3.33301 47.333 -13.333 66 -30s28 -38 28 -64v-126c0 -12.667 -2.5 -24.667 -7.5 -36s-11.833 -21.333 -20.5 -30s-18.667 -15.5 -30 -20.5s-23.333 -7.5 -36 -7.5c-19.333 0 -40 0.5 -62 1.5s-44.167 1.16699 -66.5 0.5s-44 -2.66699 -65 -6
s-40.167 -9.5 -57.5 -18.5s-32.333 -21.5 -45 -37.5s-21.667 -36.667 -27 -62h619c85.333 0 151 -22.667 197 -68s69 -119 69 -221l-1 -371c0 -13.333 -2.5 -25.666 -7.5 -36.999s-11.833 -21.166 -20.5 -29.499s-18.667 -15 -30 -20s-23.333 -7.5 -36 -7.5h-1083
c-12.667 0 -24.667 2.5 -36 7.5s-21.166 11.667 -29.499 20s-15 18.166 -20 29.499s-7.5 23.666 -7.5 36.999v126c0 12.667 2.5 24.834 7.5 36.501s11.667 21.667 20 30s18.166 15 29.499 20s23.333 7.5 36 7.5h865z" />
    <glyph glyph-name="afii57444" unicode="&#x644;" horiz-adv-x="1190" arabic-form="isolated" 
d="M1121 87c-1.33301 -74.667 -16.6641 -144.83 -45.9971 -210.497s-68.833 -122.834 -118.5 -171.501s-107.834 -86.834 -174.501 -114.501s-138 -40.834 -214 -39.501c-96.667 2 -178 20.167 -244 54.5s-119.333 80.166 -160 137.499s-69.667 123.666 -87 198.999
s-25.666 154.666 -24.999 237.999v183c0 12.667 2.5 24.834 7.5 36.501s11.833 21.667 20.5 30s18.667 15 30 20s23.666 7.5 36.999 7.5h124c26.667 0 49 -9.16699 67 -27.5s27.333 -40.5 28 -66.5v-182c0 -22.667 0.833008 -46.167 2.5 -70.5s5.16699 -48.166 10.5 -71.499
s13 -45.5 23 -66.5s23.5 -39.5 40.5 -55.5s37.833 -28.5 62.5 -37.5s54 -13.5 88 -13.5c34.667 0 64.167 4.33301 88.5 13s44.5 20.334 60.5 35.001s28.667 31.5 38 50.5s16.166 39 20.499 60s6.83301 42.333 7.5 64s0.666992 42.167 0 61.5v950
c0 12.667 2.5 24.834 7.5 36.501s11.667 21.667 20 30s18.166 15 29.499 20s23.666 7.5 36.999 7.5h125c12.667 0 24.834 -2.5 36.501 -7.5s21.667 -11.667 30 -20s15 -18.333 20 -30s7.5 -23.834 7.5 -36.501v-1013z" />
    <glyph glyph-name="afii57445" unicode="&#x645;" horiz-adv-x="1181" arabic-form="isolated" 
d="M679 314h128v275h-128v-275zM57 -191c-4.66699 42.667 -3 89.3311 5 139.998s24 99.667 48 147s56.833 90.5 98.5 129.5s94.167 68.5 157.5 88.5v298c0 102 23 175.667 69 221s111.667 68 197 68h222c85.333 0 150.833 -22.667 196.5 -68s68.834 -119 69.501 -221v-323
c0 -102 -23 -175.667 -69 -221s-111.667 -68 -197 -68h-242c-173.333 12 -254 -68.333 -242 -241v-128c0 -13.333 -2.5 -25.666 -7.5 -36.999s-11.667 -21.166 -20 -29.499s-18.333 -15 -30 -20s-23.834 -7.5 -36.501 -7.5h-125c-26.667 0 -49 9.16699 -67 27.5
s-27 40.5 -27 66.5v178z" />
    <glyph glyph-name="afii57446" unicode="&#x646;" horiz-adv-x="1190" arabic-form="isolated" 
d="M1131 87c-1.33301 -74.667 -16.4971 -144.828 -45.4971 -210.495s-68.333 -122.834 -118 -171.501s-107.834 -86.834 -174.501 -114.501s-138 -40.834 -214 -39.501c-96.667 2 -178 20.167 -244 54.5s-119.167 80.166 -159.5 137.499s-69.166 123.666 -86.499 198.999
s-25.666 154.666 -24.999 237.999v183c0 12.667 2.5 24.834 7.5 36.501s11.667 21.667 20 30s18.166 15 29.499 20s23.666 7.5 36.999 7.5h126c12.667 0 24.667 -2.5 36 -7.5s21.166 -11.667 29.499 -20s15.166 -18.333 20.499 -30s8 -23.834 8 -36.501v-182
c-0.666992 -22.667 -0.166992 -46.167 1.5 -70.5s5.16699 -48.166 10.5 -71.499s13 -45.5 23 -66.5s23.5 -39.5 40.5 -55.5s38 -28.5 63 -37.5s54.833 -13.5 89.5 -13.5c51.333 0 91.5 9.33301 120.5 28s50.667 42.167 65 70.5s23 59 26 92s3.83301 64.167 2.5 93.5v655
c0 12.667 2.5 24.667 7.5 36s11.667 21.166 20 29.499s18.166 15 29.499 20s23.333 7.5 36 7.5h126c12.667 0 24.834 -2.5 36.501 -7.5s21.667 -11.667 30 -20s15 -18.166 20 -29.499s7.16699 -23.333 6.5 -36zM717.003 1049.01c0 -21.333 -4.16699 -41.666 -12.5 -60.999
s-19.666 -36.166 -33.999 -50.499s-31 -25.666 -50 -33.999s-39.167 -12.5 -60.5 -12.5s-41.5 4.16699 -60.5 12.5s-35.5 19.666 -49.5 33.999s-25.167 31.166 -33.5 50.499s-12.5 39.666 -12.5 60.999c0 22 4.16699 42.5 12.5 61.5s19.5 35.5 33.5 49.5s30.5 25 49.5 33
s39.167 12 60.5 12s41.5 -4 60.5 -12s35.667 -19 50 -33s25.666 -30.5 33.999 -49.5s12.5 -39.5 12.5 -61.5z" />
    <glyph glyph-name="afii57470" unicode="&#x647;" horiz-adv-x="886" arabic-form="isolated" 
d="M382 314h127v275h-127v-275zM334 0c-85.333 0 -150.668 22.666 -196.001 67.999s-68 119 -68 221v323c0 102 22.667 175.667 68 221s110.666 68 195.999 68h223c42.667 0 80.334 -5.5 113.001 -16.5s60.334 -28.167 83.001 -51.5s39.834 -53.333 51.501 -90
s17.5 -80.334 17.5 -131.001v-323c0 -51.333 -5.83301 -95.166 -17.5 -131.499s-28.667 -66.166 -51 -89.499s-49.833 -40.5 -82.5 -51.5s-70.334 -16.5 -113.001 -16.5h-224z" />
    <glyph glyph-name="afii57448" unicode="&#x648;" horiz-adv-x="882" arabic-form="isolated" 
d="M183 -442c-25.333 2.66699 -47.333 12.501 -66 29.501s-28 38.5 -28 64.5v126c0 12.667 2.5 24.834 7.5 36.501s11.833 21.667 20.5 30s18.667 15 30 20s23.333 7.5 36 7.5c30 0 62.5 -0.666992 97.5 -2s68.167 1 99.5 7s58.666 18.167 81.999 36.5
s38.333 47.166 45 86.499h-177c-86 0 -151.833 22.667 -197.5 68s-68.5 119 -68.5 221v323c0 102 22.833 175.667 68.5 221s111.5 68 197.5 68h222c86 0 152 -22.667 198 -68s68.667 -119 68 -221l-2 -531c0 -93.333 -15.167 -174.833 -45.5 -244.5
s-73.166 -126.834 -128.499 -171.501s-122 -76.167 -200 -94.5s-164.333 -22.5 -259 -12.5zM378 314.001h127v275h-127v-275z" />
    <glyph glyph-name="afii57449" unicode="&#x649;" horiz-adv-x="1170" arabic-form="isolated" 
d="M1009 900c12.667 0 24.8389 -2.50293 36.5059 -7.50293s21.667 -11.667 30 -20s15 -18.333 20 -30s7.5 -23.834 7.5 -36.501v-125c0 -12.667 -2.5 -24.667 -7.5 -36s-11.667 -21.166 -20 -29.499s-18.333 -15 -30 -20s-23.834 -7.5 -36.501 -7.5l-160 1v-275h127
c110 -4.66699 153.333 -109.334 130 -314.001c-8.66699 -68.667 -28.334 -131 -59.001 -187s-69.5 -103.5 -116.5 -142.5s-100.833 -69 -161.5 -90s-125.334 -30.833 -194.001 -29.5c-64.667 1.33301 -122.334 10 -173.001 26s-95.167 38 -133.5 66s-71 61.333 -98 100
s-48.833 81 -65.5 127s-28.834 95.333 -36.501 148s-11.5 106.667 -11.5 162c0.666992 6.66699 1.16699 13.834 1.5 21.501s0.5 17.834 0.5 30.501v51v80c0 12.667 2.5 24.834 7.5 36.501s11.667 21.667 20 30s18.166 15 29.499 20s23.333 7.5 36 7.5h126
c12.667 0 24.834 -2.5 36.501 -7.5s21.667 -11.667 30 -20s15 -18.333 20 -30s7.5 -23.834 7.5 -36.501v-182c0 -34 2.16699 -69 6.5 -105s14.166 -69 29.499 -99s38.166 -55.167 68.499 -75.5s71.5 -32.166 123.5 -35.499c22.667 -1.33301 45.334 0.666992 68.001 6
s43.167 13.833 61.5 25.5s34 26.167 47 43.5s21.5 37 25.5 59c-46.667 0 -86.834 6.66699 -120.501 20s-61.167 32.5 -82.5 57.5s-37.166 55.333 -47.499 91s-15.5 75.834 -15.5 120.501v323c0 102 22.833 175.833 68.5 221.5s111.167 68.167 196.5 67.5z" />
    <glyph glyph-name="afii57450" unicode="&#x64a;" horiz-adv-x="1170" arabic-form="isolated" 
d="M1009 900c12.667 0 24.8389 -2.50293 36.5059 -7.50293s21.667 -11.667 30 -20s15 -18.333 20 -30s7.5 -23.834 7.5 -36.501v-125c0 -12.667 -2.5 -24.667 -7.5 -36s-11.667 -21.166 -20 -29.499s-18.333 -15 -30 -20s-23.834 -7.5 -36.501 -7.5l-160 1v-275h127
c110 -4.66699 153.333 -109.334 130 -314.001c-8.66699 -68.667 -28.334 -131 -59.001 -187s-69.5 -103.5 -116.5 -142.5s-100.833 -69 -161.5 -90s-125.334 -30.833 -194.001 -29.5c-64.667 1.33301 -122.334 10 -173.001 26s-95.167 38 -133.5 66s-71 61.333 -98 100
s-48.833 81 -65.5 127s-28.834 95.333 -36.501 148s-11.5 106.667 -11.5 162c0.666992 6.66699 1.16699 13.834 1.5 21.501s0.5 17.834 0.5 30.501v51v80c0 12.667 2.5 24.834 7.5 36.501s11.667 21.667 20 30s18.166 15 29.499 20s23.333 7.5 36 7.5h126
c12.667 0 24.834 -2.5 36.501 -7.5s21.667 -11.667 30 -20s15 -18.333 20 -30s7.5 -23.834 7.5 -36.501v-182c0 -34 2.16699 -69 6.5 -105s14.166 -69 29.499 -99s38.166 -55.167 68.499 -75.5s71.5 -32.166 123.5 -35.499c22.667 -1.33301 45.334 0.666992 68.001 6
s43.167 13.833 61.5 25.5s34 26.167 47 43.5s21.5 37 25.5 59c-46.667 0 -86.834 6.66699 -120.501 20s-61.167 32.5 -82.5 57.5s-37.166 55.333 -47.499 91s-15.5 75.834 -15.5 120.501v323c0 102 22.833 175.833 68.5 221.5s111.167 68.167 196.5 67.5z" />
    <glyph glyph-name="afii57506" unicode="&#x67e;" horiz-adv-x="1299" arabic-form="isolated" 
d="M365 314h562.998v491c0 12.667 2.5 24.667 7.5 36s11.833 21.166 20.5 29.499s18.667 15 30 20s23.333 7.5 36 7.5h126c12.667 0 24.834 -2.5 36.501 -7.5s21.667 -11.667 30 -20s15 -18.166 20 -29.499s7.5 -23.333 7.5 -36l-1 -516c0 -102 -22.667 -175.667 -68 -221
s-110.666 -68 -195.999 -68h-659c-85.333 0 -151 22.667 -197 68s-69 119 -69 221v74c0 26 9.16699 48 27.5 66s40.5 27 66.5 27h125c26.667 0 49 -9 67 -27s27 -40 27 -66v-49zM652.998 -338.5c-8 -19 -19 -35.667 -33 -50s-30.5 -25.666 -49.5 -33.999
s-39.5 -12.5 -61.5 -12.5c-21.333 0 -41.5 4.16699 -60.5 12.5s-35.5 19.666 -49.5 33.999s-25.167 31 -33.5 50s-12.5 39.167 -12.5 60.5s4.16699 41.5 12.5 60.5s19.5 35.667 33.5 50s30.5 25.666 49.5 33.999s39.167 12.5 60.5 12.5c22 0 42.5 -4.16699 61.5 -12.5
s35.5 -19.666 49.5 -33.999s25 -31 33 -50s12 -39.167 12 -60.5s-4 -41.5 -12 -60.5zM1012.5 -338.5c-8.33301 -19 -19.5 -35.667 -33.5 -50s-30.5 -25.666 -49.5 -33.999s-39.167 -12.5 -60.5 -12.5c-22 0 -42.5 4.16699 -61.5 12.5s-35.5 19.666 -49.5 33.999
s-25.167 31 -33.5 50s-12.5 39.167 -12.5 60.5s4.16699 41.5 12.5 60.5s19.5 35.667 33.5 50s30.5 25.666 49.5 33.999s39.5 12.5 61.5 12.5c21.333 0 41.5 -4.16699 60.5 -12.5s35.5 -19.666 49.5 -33.999s25.167 -31 33.5 -50s12.5 -39.167 12.5 -60.5
s-4.16699 -41.5 -12.5 -60.5zM827.498 -658.5c-8.33301 -19 -19.5 -35.5 -33.5 -49.5s-30.5 -25 -49.5 -33s-39.167 -12 -60.5 -12s-41.5 4 -60.5 12s-35.667 19 -50 33s-25.666 30.5 -33.999 49.5s-12.5 39.5 -12.5 61.5s4.16699 42.5 12.5 61.5s19.666 35.5 33.999 49.5
s31 25.167 50 33.5s39.167 12.5 60.5 12.5s41.5 -4.16699 60.5 -12.5s35.5 -19.5 49.5 -33.5s25.167 -30.5 33.5 -49.5s12.5 -39.5 12.5 -61.5s-4.16699 -42.5 -12.5 -61.5z" />
    <glyph glyph-name="afii57507" unicode="&#x686;" horiz-adv-x="971" arabic-form="isolated" 
d="M468 406c24 3.33301 48.1729 4.83398 72.5059 4.50098s48.166 -0.5 71.499 -0.5v45c-7.33301 39.333 -22.666 68.166 -45.999 86.499s-50.666 30.5 -81.999 36.5s-64.5 8.33301 -99.5 7s-67.5 -2 -97.5 -2c-12.667 0 -24.667 2.5 -36 7.5s-21.333 11.667 -30 20
s-15.5 18.166 -20.5 29.499s-7.5 23.666 -7.5 36.999v126c0 25.333 9.33301 46.333 28 63s40.667 26.667 66 30c88 8.66699 168.5 5.5 241.5 -9.5s136.667 -41.167 191 -78.5s98.166 -85.666 131.499 -144.999s54.333 -128.666 63 -207.999l3 -264
c0 -13.333 -2.33301 -25.666 -7 -36.999s-11.334 -21.166 -20.001 -29.499s-18.834 -15 -30.501 -20s-23.834 -7.5 -36.501 -7.5l-244 -1c-17.333 0 -34.166 0.166992 -50.499 0.5s-32.5 -1.16699 -48.5 -4.5c-15.333 -3.33301 -30 -8 -44 -14s-26.667 -13.833 -38 -23.5
s-21 -21.5 -29 -35.5s-13.667 -31 -17 -51v-50c4.66699 -26.667 13.167 -48.334 25.5 -65.001s27.166 -29.667 44.499 -39s30.666 -40 39.999 -92s-11.167 -100.833 -61.5 -146.5s-102.5 -49.5 -156.5 -11.5c-38.667 26 -71.334 56.5 -98.001 91.5s-47.667 72.167 -63 111.5
s-25 80.333 -29 123s-2.33301 85 5 127s20.333 82.833 39 122.5s43 76.5 73 110.5c37.333 42 81.166 76.167 131.499 102.5s105.5 44.166 165.5 53.499zM638.006 -105.999c-5.33301 -13.333 -13 -24.833 -23 -34.5s-21.667 -17.5 -35 -23.5s-27.666 -9 -42.999 -9
c-14.667 0 -28.667 3 -42 9s-24.833 13.833 -34.5 23.5s-17.5 21.167 -23.5 34.5s-9 27.666 -9 42.999c0 14.667 3 28.667 9 42s13.833 25 23.5 35s21.167 17.833 34.5 23.5s27.333 8.5 42 8.5c15.333 0 29.666 -2.83301 42.999 -8.5s25 -13.5 35 -23.5
s17.667 -21.667 23 -35s8 -27.333 8 -42c0 -15.333 -2.66699 -29.666 -8 -42.999zM889.506 -105.999c-5.66699 -13.333 -13.334 -24.833 -23.001 -34.5s-21.167 -17.5 -34.5 -23.5s-27.666 -9 -42.999 -9s-29.666 3 -42.999 9s-24.833 13.833 -34.5 23.5
s-17.5 21.167 -23.5 34.5s-9 27.666 -9 42.999c0 14.667 3 28.667 9 42s13.833 25 23.5 35s21.167 17.833 34.5 23.5s27.666 8.5 42.999 8.5s29.666 -2.83301 42.999 -8.5s24.833 -13.5 34.5 -23.5s17.334 -21.667 23.001 -35s8.5 -27.333 8.5 -42
c0 -15.333 -2.83301 -29.666 -8.5 -42.999zM760.006 -328.999c-6 -13.333 -13.833 -25 -23.5 -35s-21.167 -17.833 -34.5 -23.5s-27.333 -8.5 -42 -8.5c-15.333 0 -29.666 2.83301 -42.999 8.5s-25 13.5 -35 23.5s-17.833 21.667 -23.5 35s-8.5 27.666 -8.5 42.999
s2.83301 29.666 8.5 42.999s13.5 24.833 23.5 34.5s21.667 17.5 35 23.5s27.666 9 42.999 9c14.667 0 28.667 -3 42 -9s24.833 -13.833 34.5 -23.5s17.5 -21.167 23.5 -34.5s9 -27.666 9 -42.999s-3 -29.666 -9 -42.999z" />
    <glyph glyph-name="afii57508" unicode="&#x698;" horiz-adv-x="670" arabic-form="isolated" 
d="M124 -128c20 1.33301 39.333 4.33203 58 8.99902s35.5 11.834 50.5 21.501s27.833 22.334 38.5 38.001s18 35.5 22 59.5v813c0 25.333 8.83301 46.333 26.5 63s39.167 25 64.5 25h141c26.667 0 47 -8.33301 61 -25s21 -37.667 21 -63l-2 -732
c0 -74 -10 -140.833 -30 -200.5s-48.333 -111.334 -85 -155.001s-81 -79.334 -133 -107.001s-110.333 -46.5 -175 -56.5c-15.333 -2 -30 -3.5 -44 -4.5s-28.667 -0.833008 -44 0.5c-25.333 2.66699 -47.333 12.5 -66 29.5s-28 38.5 -28 64.5v126
c0 12.667 2.5 24.834 7.5 36.501s11.833 21.667 20.5 30s18.667 15 30 20s23.333 7.5 36 7.5h30zM397 1179c0 -21.333 -4 -41.5 -12 -60.5s-19 -35.667 -33 -50s-30.5 -25.666 -49.5 -33.999s-39.5 -12.5 -61.5 -12.5c-21.333 0 -41.5 4.16699 -60.5 12.5
s-35.5 19.666 -49.5 33.999s-25.167 31 -33.5 50s-12.5 39.167 -12.5 60.5s4.16699 41.5 12.5 60.5s19.5 35.667 33.5 50s30.5 25.666 49.5 33.999s39.167 12.5 60.5 12.5c22 0 42.5 -4.16699 61.5 -12.5s35.5 -19.666 49.5 -33.999s25 -31 33 -50s12 -39.167 12 -60.5z
M757 1179c0 -21.333 -4.16699 -41.5 -12.5 -60.5s-19.5 -35.667 -33.5 -50s-30.5 -25.666 -49.5 -33.999s-39.167 -12.5 -60.5 -12.5c-22 0 -42.5 4.16699 -61.5 12.5s-35.5 19.666 -49.5 33.999s-25.167 31 -33.5 50s-12.5 39.167 -12.5 60.5s4.16699 41.5 12.5 60.5
s19.5 35.667 33.5 50s30.5 25.666 49.5 33.999s39.5 12.5 61.5 12.5c21.333 0 41.5 -4.16699 60.5 -12.5s35.5 -19.666 49.5 -33.999s25.167 -31 33.5 -50s12.5 -39.167 12.5 -60.5zM572 1498c0 -22 -4.16699 -42.5 -12.5 -61.5s-19.5 -35.5 -33.5 -49.5
s-30.5 -25.167 -49.5 -33.5s-39.167 -12.5 -60.5 -12.5s-41.5 4.16699 -60.5 12.5s-35.667 19.5 -50 33.5s-25.666 30.5 -33.999 49.5s-12.5 39.5 -12.5 61.5s4.16699 42.5 12.5 61.5s19.666 35.5 33.999 49.5s31 25 50 33s39.167 12 60.5 12s41.5 -4 60.5 -12
s35.5 -19 49.5 -33s25.167 -30.5 33.5 -49.5s12.5 -39.5 12.5 -61.5z" />
    <glyph glyph-name="afii57509" unicode="&#x6af;" horiz-adv-x="1384" arabic-form="isolated" 
d="M1011 314l-0.00195312 127.001h-783c-12.667 0 -24.667 2.5 -36 7.5s-21.166 11.833 -29.499 20.5s-15 18.667 -20 30s-7.5 23.333 -7.5 36l-1 214c8.66699 79.333 29.834 148.666 63.501 207.999s77.667 107.666 132 144.999s118 63.5 191 78.5s153.5 18.167 241.5 9.5
c25.333 -3.33301 47.333 -13.333 66 -30s28 -38 28 -64v-126c0 -12.667 -2.5 -24.667 -7.5 -36s-11.833 -21.333 -20.5 -30s-18.667 -15.5 -30 -20.5s-23.333 -7.5 -36 -7.5c-19.333 0 -40 0.5 -62 1.5s-44.167 1.16699 -66.5 0.5s-44 -2.66699 -65 -6
s-40.167 -9.5 -57.5 -18.5s-32.333 -21.5 -45 -37.5s-21.667 -36.667 -27 -62h619c85.333 0 151 -22.667 197 -68s69 -119 69 -221l-1 -371c0 -13.333 -2.5 -25.666 -7.5 -36.999s-11.833 -21.166 -20.5 -29.499s-18.667 -15 -30 -20s-23.333 -7.5 -36 -7.5h-1083
c-12.667 0 -24.667 2.5 -36 7.5s-21.166 11.667 -29.499 20s-15 18.166 -20 29.499s-7.5 23.666 -7.5 36.999v126c0 12.667 2.5 24.834 7.5 36.501s11.667 21.667 20 30s18.166 15 29.499 20s23.333 7.5 36 7.5h865zM296.998 1121
c11.333 64 28.6699 105.998 52.0029 125.998s56.666 45.667 99.999 77s94.166 52.833 152.499 64.5s122.5 13.834 192.5 6.50098c16 -10.667 25 -26.667 27 -48v-20c-1.33301 -10.667 -3.33301 -20.5 -6 -29.5s-7.5 -16.833 -14.5 -23.5s-13.833 -12.167 -20.5 -16.5
s-17.334 -6.16602 -32.001 -5.49902h-78.5c-29 0 -55.5 -0.833008 -79.5 -2.5s-55 -6.5 -93 -14.5s-104.667 -46 -200 -114z" />
    <glyph glyph-name="uniFB57" unicode="&#x67e;" horiz-adv-x="1345" arabic-form="final" 
d="M364 314l569.997 0.000976562v491c0 12.667 2.33301 24.667 7 36s11.334 21.166 20.001 29.499s18.5 15 29.5 20s23.167 7.5 36.5 7.5h125c12.667 0 24.667 -2.5 36 -7.5s21.333 -11.667 30 -20s15.5 -18.166 20.5 -29.499s7.5 -23.333 7.5 -36v-491h103v-314h-1033
c-86 0 -151.833 22.667 -197.5 68s-68.5 119 -68.5 221v254c0 26 9.16699 48 27.5 66s40.5 27 66.5 27h125c12.667 0 24.834 -2.33301 36.501 -7s21.834 -11.334 30.501 -20.001s15.5 -18.667 20.5 -30s7.5 -23.333 7.5 -36v-229zM716.997 -338.499
c-8 -19 -19 -35.667 -33 -50s-30.5 -25.666 -49.5 -33.999s-39.5 -12.5 -61.5 -12.5c-21.333 0 -41.5 4.16699 -60.5 12.5s-35.5 19.666 -49.5 33.999s-25.167 31 -33.5 50s-12.5 39.167 -12.5 60.5s4.16699 41.5 12.5 60.5s19.5 35.667 33.5 50s30.5 25.666 49.5 33.999
s39.167 12.5 60.5 12.5c22 0 42.5 -4.16699 61.5 -12.5s35.5 -19.666 49.5 -33.999s25 -31 33 -50s12 -39.167 12 -60.5s-4 -41.5 -12 -60.5zM1076.5 -338.499c-8.33301 -19 -19.5 -35.667 -33.5 -50s-30.5 -25.666 -49.5 -33.999s-39.167 -12.5 -60.5 -12.5
c-22 0 -42.5 4.16699 -61.5 12.5s-35.5 19.666 -49.5 33.999s-25.167 31 -33.5 50s-12.5 39.167 -12.5 60.5s4.16699 41.5 12.5 60.5s19.5 35.667 33.5 50s30.5 25.666 49.5 33.999s39.5 12.5 61.5 12.5c21.333 0 41.5 -4.16699 60.5 -12.5s35.5 -19.666 49.5 -33.999
s25.167 -31 33.5 -50s12.5 -39.167 12.5 -60.5s-4.16699 -41.5 -12.5 -60.5zM891.497 -658.499c-8.33301 -19 -19.5 -35.5 -33.5 -49.5s-30.5 -25 -49.5 -33s-39.167 -12 -60.5 -12s-41.5 4 -60.5 12s-35.667 19 -50 33s-25.666 30.5 -33.999 49.5s-12.5 39.5 -12.5 61.5
s4.16699 42.5 12.5 61.5s19.666 35.5 33.999 49.5s31 25.167 50 33.5s39.167 12.5 60.5 12.5s41.5 -4.16699 60.5 -12.5s35.5 -19.5 49.5 -33.5s25.167 -30.5 33.5 -49.5s12.5 -39.5 12.5 -61.5s-4.16699 -42.5 -12.5 -61.5z" />
    <glyph glyph-name="uniFB58" unicode="&#x67e;" horiz-adv-x="752" arabic-form="initial" 
d="M-3 314h378.002v491c0 12.667 2.5 24.667 7.5 36s11.667 21.166 20 29.499s18.166 15 29.499 20s23.666 7.5 36.999 7.5h124c12.667 0 24.667 -2.5 36 -7.5s21.333 -11.667 30 -20s15.5 -18.166 20.5 -29.499s7.5 -23.333 7.5 -36v-516
c0 -102 -22.833 -175.667 -68.5 -221s-111.167 -68 -196.5 -68h-425v314zM338.002 -338.5c-8 -19 -19 -35.667 -33 -50s-30.5 -25.666 -49.5 -33.999s-39.5 -12.5 -61.5 -12.5c-21.333 0 -41.5 4.16699 -60.5 12.5s-35.5 19.666 -49.5 33.999s-25.167 31 -33.5 50
s-12.5 39.167 -12.5 60.5s4.16699 41.5 12.5 60.5s19.5 35.667 33.5 50s30.5 25.666 49.5 33.999s39.167 12.5 60.5 12.5c22 0 42.5 -4.16699 61.5 -12.5s35.5 -19.666 49.5 -33.999s25 -31 33 -50s12 -39.167 12 -60.5s-4 -41.5 -12 -60.5zM697.502 -338.5
c-8.33301 -19 -19.5 -35.667 -33.5 -50s-30.5 -25.666 -49.5 -33.999s-39.167 -12.5 -60.5 -12.5c-22 0 -42.5 4.16699 -61.5 12.5s-35.5 19.666 -49.5 33.999s-25.167 31 -33.5 50s-12.5 39.167 -12.5 60.5s4.16699 41.5 12.5 60.5s19.5 35.667 33.5 50
s30.5 25.666 49.5 33.999s39.5 12.5 61.5 12.5c21.333 0 41.5 -4.16699 60.5 -12.5s35.5 -19.666 49.5 -33.999s25.167 -31 33.5 -50s12.5 -39.167 12.5 -60.5s-4.16699 -41.5 -12.5 -60.5zM512.502 -658.5c-8.33301 -19 -19.5 -35.5 -33.5 -49.5s-30.5 -25 -49.5 -33
s-39.167 -12 -60.5 -12s-41.5 4 -60.5 12s-35.667 19 -50 33s-25.666 30.5 -33.999 49.5s-12.5 39.5 -12.5 61.5s4.16699 42.5 12.5 61.5s19.666 35.5 33.999 49.5s31 25.167 50 33.5s39.167 12.5 60.5 12.5s41.5 -4.16699 60.5 -12.5s35.5 -19.5 49.5 -33.5
s25.167 -30.5 33.5 -49.5s12.5 -39.5 12.5 -61.5s-4.16699 -42.5 -12.5 -61.5z" />
    <glyph glyph-name="uniFB59" unicode="&#x67e;" horiz-adv-x="746" arabic-form="medial" 
d="M657 314h102v-314h-762v314h346v491c0 12.667 2.5 24.667 7.5 36s11.833 21.166 20.5 29.499s18.667 15 30 20s23.666 7.5 36.999 7.5h125c12.667 0 24.834 -2.5 36.501 -7.5s21.667 -11.667 30 -20s15 -18.166 20 -29.499s7.5 -23.333 7.5 -36v-491zM332 -338.5
c-8 -19 -19 -35.667 -33 -50s-30.5 -25.666 -49.5 -33.999s-39.5 -12.5 -61.5 -12.5c-21.333 0 -41.5 4.16699 -60.5 12.5s-35.5 19.666 -49.5 33.999s-25.167 31 -33.5 50s-12.5 39.167 -12.5 60.5s4.16699 41.5 12.5 60.5s19.5 35.667 33.5 50s30.5 25.666 49.5 33.999
s39.167 12.5 60.5 12.5c22 0 42.5 -4.16699 61.5 -12.5s35.5 -19.666 49.5 -33.999s25 -31 33 -50s12 -39.167 12 -60.5s-4 -41.5 -12 -60.5zM691.5 -338.5c-8.33301 -19 -19.5 -35.667 -33.5 -50s-30.5 -25.666 -49.5 -33.999s-39.167 -12.5 -60.5 -12.5
c-22 0 -42.5 4.16699 -61.5 12.5s-35.5 19.666 -49.5 33.999s-25.167 31 -33.5 50s-12.5 39.167 -12.5 60.5s4.16699 41.5 12.5 60.5s19.5 35.667 33.5 50s30.5 25.666 49.5 33.999s39.5 12.5 61.5 12.5c21.333 0 41.5 -4.16699 60.5 -12.5s35.5 -19.666 49.5 -33.999
s25.167 -31 33.5 -50s12.5 -39.167 12.5 -60.5s-4.16699 -41.5 -12.5 -60.5zM506.5 -658.5c-8.33301 -19 -19.5 -35.5 -33.5 -49.5s-30.5 -25 -49.5 -33s-39.167 -12 -60.5 -12s-41.5 4 -60.5 12s-35.667 19 -50 33s-25.666 30.5 -33.999 49.5s-12.5 39.5 -12.5 61.5
s4.16699 42.5 12.5 61.5s19.666 35.5 33.999 49.5s31 25.167 50 33.5s39.167 12.5 60.5 12.5s41.5 -4.16699 60.5 -12.5s35.5 -19.5 49.5 -33.5s25.167 -30.5 33.5 -49.5s12.5 -39.5 12.5 -61.5s-4.16699 -42.5 -12.5 -61.5z" />
    <glyph glyph-name="uniFB7B" unicode="&#x686;" horiz-adv-x="1005" arabic-form="final" 
d="M464 406c24 3.33301 47.834 4.83594 71.501 4.50293s47.5 -0.5 71.5 -0.5v45c-7.33301 39.333 -22.666 68.166 -45.999 86.499s-50.666 30.5 -81.999 36.5s-64.333 8.33301 -99 7s-67 -2 -97 -2c-13.333 0 -25.666 2.5 -36.999 7.5s-21.166 11.667 -29.499 20
s-15 18.166 -20 29.499s-7.5 23.666 -7.5 36.999v126c0 25.333 9.16699 46.333 27.5 63s40.5 26.667 66.5 30c88 8.66699 168.333 5.5 241 -9.5s136.167 -41.167 190.5 -78.5s98.166 -85.666 131.499 -144.999s54.333 -128.666 63 -207.999l2 -141h99v-314h-305
c-13.333 0 -25.666 2.5 -36.999 7.5s-21.333 12 -30 21s-15.334 19.167 -20.001 30.5s-7 23.666 -7 36.999h-36c-17.333 0 -34.5 0.166992 -51.5 0.5s-33.167 -1.16699 -48.5 -4.5c-31.333 -6.66699 -58.833 -19.167 -82.5 -37.5s-38.834 -47.166 -45.501 -86.499v-50
c4.66699 -26.667 13.167 -48.334 25.5 -65.001s32.333 -47.667 60 -93s16 -98.833 -35 -160.5s-103.833 -73.5 -158.5 -35.5c-38 26 -70.333 56.5 -97 91.5s-47.834 72.167 -63.501 111.5s-25.334 80.333 -29.001 123s-2 85 5 127s19.833 82.833 38.5 122.5
s43 76.5 73 110.5c37.333 42 81.166 76.167 131.499 102.5s105.833 44.166 166.5 53.499zM710.001 -247.997c-5.33301 -13.333 -13 -25 -23 -35s-21.667 -18 -35 -24s-27.666 -9 -42.999 -9c-14.667 0 -28.667 3 -42 9s-24.833 14 -34.5 24s-17.5 21.667 -23.5 35
s-9 27.333 -9 42s3 28.667 9 42s13.833 25 23.5 35s21.167 17.833 34.5 23.5s27.333 8.5 42 8.5c15.333 0 29.666 -2.83301 42.999 -8.5s25 -13.5 35 -23.5s17.667 -21.667 23 -35s8 -27.333 8 -42s-2.66699 -28.667 -8 -42zM961.501 -247.997
c-5.66699 -13.333 -13.334 -25 -23.001 -35s-21.167 -18 -34.5 -24s-27.666 -9 -42.999 -9s-29.666 3 -42.999 9s-24.833 14 -34.5 24s-17.5 21.667 -23.5 35s-9 27.333 -9 42s3 28.667 9 42s13.833 25 23.5 35s21.167 17.833 34.5 23.5s27.666 8.5 42.999 8.5
s29.666 -2.83301 42.999 -8.5s24.833 -13.5 34.5 -23.5s17.334 -21.667 23.001 -35s8.5 -27.333 8.5 -42s-2.83301 -28.667 -8.5 -42zM832.001 -471.997c-6 -13.333 -13.833 -25 -23.5 -35s-21.167 -17.833 -34.5 -23.5s-27.333 -8.5 -42 -8.5
c-15.333 0 -29.666 2.83301 -42.999 8.5s-25 13.5 -35 23.5s-17.833 21.667 -23.5 35s-8.5 27.666 -8.5 42.999s2.83301 29.666 8.5 42.999s13.5 24.833 23.5 34.5s21.667 17.5 35 23.5s27.666 9 42.999 9c14.667 0 28.667 -3 42 -9s24.833 -13.833 34.5 -23.5
s17.5 -21.167 23.5 -34.5s9 -27.666 9 -42.999s-3 -29.666 -9 -42.999z" />
    <glyph glyph-name="uniFB7C" unicode="&#x686;" horiz-adv-x="1046" arabic-form="initial" 
d="M171 896c88 8.66699 168.664 5.49609 241.997 -9.50391s137.166 -41.167 191.499 -78.5s98.333 -85.666 132 -144.999s54.834 -128.666 63.501 -207.999l1 -141h103c12.667 0 24.667 -2.5 36 -7.5s21.333 -11.667 30 -20s15.5 -18.333 20.5 -30s7.5 -23.834 7.5 -36.501
v-126c0 -13.333 -2.5 -25.666 -7.5 -36.999s-11.833 -21.166 -20.5 -29.499s-18.667 -15 -30 -20s-23.333 -7.5 -36 -7.5h-910v314h501v141c-4.66699 26 -13.167 47.333 -25.5 64s-27.166 29.834 -44.499 39.501s-36.5 16.334 -57.5 20.001s-42.833 5.83398 -65.5 6.50098
s-45.167 0.5 -67.5 -0.5s-43.5 -1.5 -63.5 -1.5c-13.333 0 -25.666 2.5 -36.999 7.5s-21.166 11.667 -29.499 20s-15 18.166 -20 29.499s-7.5 23.666 -7.5 36.999v126c0 25.333 9.16699 46.333 27.5 63s40.5 26.667 66.5 30zM443.997 -331.504c-8 -19 -19 -35.667 -33 -50
s-30.5 -25.666 -49.5 -33.999s-39.5 -12.5 -61.5 -12.5c-21.333 0 -41.5 4.16699 -60.5 12.5s-35.5 19.666 -49.5 33.999s-25.167 31 -33.5 50s-12.5 39.167 -12.5 60.5s4.16699 41.5 12.5 60.5s19.5 35.667 33.5 50s30.5 25.666 49.5 33.999s39.167 12.5 60.5 12.5
c22 0 42.5 -4.16699 61.5 -12.5s35.5 -19.666 49.5 -33.999s25 -31 33 -50s12 -39.167 12 -60.5s-4 -41.5 -12 -60.5zM803.497 -331.504c-8.33301 -19 -19.5 -35.667 -33.5 -50s-30.5 -25.666 -49.5 -33.999s-39.167 -12.5 -60.5 -12.5c-22 0 -42.5 4.16699 -61.5 12.5
s-35.5 19.666 -49.5 33.999s-25.167 31 -33.5 50s-12.5 39.167 -12.5 60.5s4.16699 41.5 12.5 60.5s19.5 35.667 33.5 50s30.5 25.666 49.5 33.999s39.5 12.5 61.5 12.5c21.333 0 41.5 -4.16699 60.5 -12.5s35.5 -19.666 49.5 -33.999s25.167 -31 33.5 -50
s12.5 -39.167 12.5 -60.5s-4.16699 -41.5 -12.5 -60.5zM618.497 -651.504c-8.33301 -19 -19.5 -35.5 -33.5 -49.5s-30.5 -25 -49.5 -33s-39.167 -12 -60.5 -12s-41.5 4 -60.5 12s-35.667 19 -50 33s-25.666 30.5 -33.999 49.5s-12.5 39.5 -12.5 61.5s4.16699 42.5 12.5 61.5
s19.666 35.5 33.999 49.5s31 25.167 50 33.5s39.167 12.5 60.5 12.5s41.5 -4.16699 60.5 -12.5s35.5 -19.5 49.5 -33.5s25.167 -30.5 33.5 -49.5s12.5 -39.5 12.5 -61.5s-4.16699 -42.5 -12.5 -61.5z" />
    <glyph glyph-name="uniFB7D" unicode="&#x686;" horiz-adv-x="908" arabic-form="medial" 
d="M177 896c88 8.66699 168.665 5.50098 241.998 -9.49902s137.166 -41.167 191.499 -78.5s98.333 -85.666 132 -144.999s54.834 -128.666 63.501 -207.999l1 -141h106v-314h-913v314h501l1 141c-7.33301 39.333 -22.666 68.166 -45.999 86.499s-50.666 30.5 -81.999 36.5
s-64.5 8.33301 -99.5 7s-67.5 -2 -97.5 -2c-12.667 0 -24.667 2.5 -36 7.5s-21.166 11.667 -29.499 20s-15 18.166 -20 29.499s-7.5 23.666 -7.5 36.999v126c0 25.333 9.16699 46.333 27.5 63s40.166 26.667 65.499 30zM413.998 -338.499c-8 -19 -19 -35.667 -33 -50
s-30.5 -25.666 -49.5 -33.999s-39.5 -12.5 -61.5 -12.5c-21.333 0 -41.5 4.16699 -60.5 12.5s-35.5 19.666 -49.5 33.999s-25.167 31 -33.5 50s-12.5 39.167 -12.5 60.5s4.16699 41.5 12.5 60.5s19.5 35.667 33.5 50s30.5 25.666 49.5 33.999s39.167 12.5 60.5 12.5
c22 0 42.5 -4.16699 61.5 -12.5s35.5 -19.666 49.5 -33.999s25 -31 33 -50s12 -39.167 12 -60.5s-4 -41.5 -12 -60.5zM773.498 -338.499c-8.33301 -19 -19.5 -35.667 -33.5 -50s-30.5 -25.666 -49.5 -33.999s-39.167 -12.5 -60.5 -12.5c-22 0 -42.5 4.16699 -61.5 12.5
s-35.5 19.666 -49.5 33.999s-25.167 31 -33.5 50s-12.5 39.167 -12.5 60.5s4.16699 41.5 12.5 60.5s19.5 35.667 33.5 50s30.5 25.666 49.5 33.999s39.5 12.5 61.5 12.5c21.333 0 41.5 -4.16699 60.5 -12.5s35.5 -19.666 49.5 -33.999s25.167 -31 33.5 -50
s12.5 -39.167 12.5 -60.5s-4.16699 -41.5 -12.5 -60.5zM588.498 -658.499c-8.33301 -19 -19.5 -35.5 -33.5 -49.5s-30.5 -25 -49.5 -33s-39.167 -12 -60.5 -12s-41.5 4 -60.5 12s-35.667 19 -50 33s-25.666 30.5 -33.999 49.5s-12.5 39.5 -12.5 61.5s4.16699 42.5 12.5 61.5
s19.666 35.5 33.999 49.5s31 25.167 50 33.5s39.167 12.5 60.5 12.5s41.5 -4.16699 60.5 -12.5s35.5 -19.5 49.5 -33.5s25.167 -30.5 33.5 -49.5s12.5 -39.5 12.5 -61.5s-4.16699 -42.5 -12.5 -61.5z" />
    <glyph glyph-name="uniFB8B" unicode="&#x698;" horiz-adv-x="684" arabic-form="final" 
d="M128 -128c20 1.33301 39.1689 4.33008 57.502 8.99707s35 11.834 50 21.501s27.833 22.334 38.5 38.001s18 35.5 22 59.5v807c0 12.667 2.5 24.667 7.5 36s11.667 21.333 20 30s18.333 15.5 30 20.5s24.167 7.5 37.5 7.5h125c12.667 0 24.667 -2.5 36 -7.5
s21.333 -11.833 30 -20.5s15.5 -18.667 20.5 -30s7.5 -23.333 7.5 -36l-4 -493h89v-314h-95c-7.33301 -62 -22 -118 -44 -168s-50.833 -93.5 -86.5 -130.5s-77.334 -67.167 -125.001 -90.5s-100.834 -39.666 -159.501 -48.999c-15.333 -2 -30 -3.5 -44 -4.5
s-28.667 -0.833008 -44 0.5c-25.333 2.66699 -47.333 12.5 -66 29.5s-28 38.5 -28 64.5v126c0 26 9.16699 48.167 27.5 66.5s40.5 27.5 66.5 27.5h31zM397.002 1179c0 -21.333 -4 -41.5 -12 -60.5s-19 -35.667 -33 -50s-30.5 -25.666 -49.5 -33.999s-39.5 -12.5 -61.5 -12.5
c-21.333 0 -41.5 4.16699 -60.5 12.5s-35.5 19.666 -49.5 33.999s-25.167 31 -33.5 50s-12.5 39.167 -12.5 60.5s4.16699 41.5 12.5 60.5s19.5 35.667 33.5 50s30.5 25.666 49.5 33.999s39.167 12.5 60.5 12.5c22 0 42.5 -4.16699 61.5 -12.5s35.5 -19.666 49.5 -33.999
s25 -31 33 -50s12 -39.167 12 -60.5zM757.002 1179c0 -21.333 -4.16699 -41.5 -12.5 -60.5s-19.5 -35.667 -33.5 -50s-30.5 -25.666 -49.5 -33.999s-39.167 -12.5 -60.5 -12.5c-22 0 -42.5 4.16699 -61.5 12.5s-35.5 19.666 -49.5 33.999s-25.167 31 -33.5 50
s-12.5 39.167 -12.5 60.5s4.16699 41.5 12.5 60.5s19.5 35.667 33.5 50s30.5 25.666 49.5 33.999s39.5 12.5 61.5 12.5c21.333 0 41.5 -4.16699 60.5 -12.5s35.5 -19.666 49.5 -33.999s25.167 -31 33.5 -50s12.5 -39.167 12.5 -60.5zM572.002 1498
c0 -22 -4.16699 -42.5 -12.5 -61.5s-19.5 -35.5 -33.5 -49.5s-30.5 -25.167 -49.5 -33.5s-39.167 -12.5 -60.5 -12.5s-41.5 4.16699 -60.5 12.5s-35.667 19.5 -50 33.5s-25.666 30.5 -33.999 49.5s-12.5 39.5 -12.5 61.5s4.16699 42.5 12.5 61.5s19.666 35.5 33.999 49.5
s31 25 50 33s39.167 12 60.5 12s41.5 -4 60.5 -12s35.5 -19 49.5 -33s25.167 -30.5 33.5 -49.5s12.5 -39.5 12.5 -61.5z" />
    <glyph glyph-name="uniFB8F" unicode="&#x6a9;" horiz-adv-x="1419" arabic-form="final" 
d="M1425 0l-1277.01 0.00390625c-12.667 0 -24.667 2.5 -36 7.5s-21.333 11.667 -30 20s-15.5 18.166 -20.5 29.499s-7.5 23.666 -7.5 36.999v126c0 12.667 2.5 24.834 7.5 36.501s11.833 21.667 20.5 30s18.667 15 30 20s23.333 7.5 36 7.5h865v127h-783
c-13.333 0 -25.666 2.5 -36.999 7.5s-21.166 11.833 -29.499 20.5s-15 18.667 -20 30s-7.5 23.333 -7.5 36v214c8.66699 79.333 29.834 148.666 63.501 207.999s77.667 107.666 132 144.999s118.166 63.5 191.499 78.5s154 18.167 242 9.5
c25.333 -3.33301 47.166 -13.333 65.499 -30s27.5 -38 27.5 -64v-126c0 -12.667 -2.5 -24.667 -7.5 -36s-11.833 -21.333 -20.5 -30s-18.5 -15.5 -29.5 -20.5s-22.833 -7.5 -35.5 -7.5c-30 0 -62.167 0.833008 -96.5 2.5s-67.166 -0.5 -98.499 -6.5
s-58.666 -17.667 -81.999 -35s-39 -45 -47 -83h620c42.667 0 80.334 -5.5 113.001 -16.5s60.334 -28.167 83.001 -51.5s39.834 -53.333 51.501 -90s17.5 -80.334 17.5 -131.001v-151h99v-314z" />
    <glyph glyph-name="uniFB90" unicode="&#x6a9;" horiz-adv-x="1325" arabic-form="initial" 
d="M955 314l-1 127h-783c-12.667 0 -24.667 2.5 -36 7.5s-21.333 11.833 -30 20.5s-15.5 18.667 -20.5 30s-7.5 23.333 -7.5 36v214c8.66699 79.333 30 148.666 64 207.999s78.167 107.666 132.5 144.999s118 63.5 191 78.5s153.5 18.167 241.5 9.5
c26 -3.33301 48.167 -13.333 66.5 -30s27.5 -38 27.5 -64v-126c0 -12.667 -2.5 -24.667 -7.5 -36s-11.667 -21.333 -20 -30s-18.333 -15.5 -30 -20.5s-23.834 -7.5 -36.501 -7.5c-20 0 -41 0.5 -63 1.5s-44.167 1.16699 -66.5 0.5s-44 -2.66699 -65 -6
s-40.167 -9.5 -57.5 -18.5s-32.166 -21.5 -44.499 -37.5s-21.166 -36.667 -26.499 -62h619c85.333 0 150.833 -22.667 196.5 -68s68.5 -119 68.5 -221l-1 -371c0 -13.333 -2.5 -25.666 -7.5 -36.999s-11.667 -21.166 -20 -29.499s-18.333 -15 -30 -20
s-23.834 -7.5 -36.501 -7.5h-1179v314h962z" />
    <glyph glyph-name="uniFB91" unicode="&#x6a9;" horiz-adv-x="1365" arabic-form="medial" 
d="M1370 0l-1377 0.00195312v314h965v127h-782c-13.333 0 -25.666 2.5 -36.999 7.5s-21.166 11.833 -29.499 20.5s-15 18.667 -20 30s-7.5 23.333 -7.5 36l-1 214c8.66699 79.333 29.834 148.666 63.501 207.999s77.667 107.666 132 144.999s118 63.5 191 78.5
s153.5 18.167 241.5 9.5c25.333 -3.33301 47.333 -13.333 66 -30s28 -38 28 -64v-126c0 -12.667 -2.5 -24.667 -7.5 -36s-11.667 -21.333 -20 -30s-18.333 -15.5 -30 -20.5s-23.834 -7.5 -36.501 -7.5c-19.333 0 -40 0.5 -62 1.5s-44.167 1.16699 -66.5 0.5
s-44 -2.66699 -65 -6s-40.167 -9.5 -57.5 -18.5s-32.166 -21.5 -44.499 -37.5s-21.166 -36.667 -26.499 -62h618c86 0 151.833 -22.667 197.5 -68s68.5 -119 68.5 -221v-151h99v-314z" />
    <glyph glyph-name="uniFB93" unicode="&#x6af;" horiz-adv-x="1419" arabic-form="final" 
d="M1425 0l-1277.01 0.00390625c-12.667 0 -24.667 2.5 -36 7.5s-21.333 11.667 -30 20s-15.5 18.166 -20.5 29.499s-7.5 23.666 -7.5 36.999v126c0 12.667 2.5 24.834 7.5 36.501s11.833 21.667 20.5 30s18.667 15 30 20s23.333 7.5 36 7.5h865v127h-783
c-13.333 0 -25.666 2.5 -36.999 7.5s-21.166 11.833 -29.499 20.5s-15 18.667 -20 30s-7.5 23.333 -7.5 36v214c8.66699 79.333 29.834 148.666 63.501 207.999s77.667 107.666 132 144.999s118.166 63.5 191.499 78.5s154 18.167 242 9.5
c25.333 -3.33301 47.166 -13.333 65.499 -30s27.5 -38 27.5 -64v-126c0 -12.667 -2.5 -24.667 -7.5 -36s-11.833 -21.333 -20.5 -30s-18.5 -15.5 -29.5 -20.5s-22.833 -7.5 -35.5 -7.5c-30 0 -62.167 0.833008 -96.5 2.5s-67.166 -0.5 -98.499 -6.5
s-58.666 -17.667 -81.999 -35s-39 -45 -47 -83h620c42.667 0 80.334 -5.5 113.001 -16.5s60.334 -28.167 83.001 -51.5s39.834 -53.333 51.501 -90s17.5 -80.334 17.5 -131.001v-151h99v-314zM296.994 1121c11.333 64 28.6699 105.998 52.0029 125.998
s56.666 45.667 99.999 77s94.166 52.833 152.499 64.5s122.5 13.834 192.5 6.50098c16 -10.667 25 -26.667 27 -48v-20c-1.33301 -10.667 -3.33301 -20.5 -6 -29.5s-7.5 -16.833 -14.5 -23.5s-13.833 -12.167 -20.5 -16.5s-17.334 -6.16602 -32.001 -5.49902h-78.5
c-29 0 -55.5 -0.833008 -79.5 -2.5s-55 -6.5 -93 -14.5s-104.667 -46 -200 -114z" />
    <glyph glyph-name="uniFB94" unicode="&#x6af;" horiz-adv-x="1325" arabic-form="initial" 
d="M955 314l-1 127h-783c-12.667 0 -24.667 2.5 -36 7.5s-21.333 11.833 -30 20.5s-15.5 18.667 -20.5 30s-7.5 23.333 -7.5 36v214c8.66699 79.333 30 148.666 64 207.999s78.167 107.666 132.5 144.999s118 63.5 191 78.5s153.5 18.167 241.5 9.5
c26 -3.33301 48.167 -13.333 66.5 -30s27.5 -38 27.5 -64v-126c0 -12.667 -2.5 -24.667 -7.5 -36s-11.667 -21.333 -20 -30s-18.333 -15.5 -30 -20.5s-23.834 -7.5 -36.501 -7.5c-20 0 -41 0.5 -63 1.5s-44.167 1.16699 -66.5 0.5s-44 -2.66699 -65 -6
s-40.167 -9.5 -57.5 -18.5s-32.166 -21.5 -44.499 -37.5s-21.166 -36.667 -26.499 -62h619c85.333 0 150.833 -22.667 196.5 -68s68.5 -119 68.5 -221l-1 -371c0 -13.333 -2.5 -25.666 -7.5 -36.999s-11.667 -21.166 -20 -29.499s-18.333 -15 -30 -20
s-23.834 -7.5 -36.501 -7.5h-1179v314h962zM237 1115c11.333 64 28.6699 105.998 52.0029 125.998s56.666 45.667 99.999 77s94.166 52.833 152.499 64.5s122.5 13.834 192.5 6.50098c16 -10.667 25 -26.667 27 -48v-20c-1.33301 -10.667 -3.33301 -20.5 -6 -29.5
s-7.5 -16.833 -14.5 -23.5s-13.833 -12.167 -20.5 -16.5s-17.334 -6.16602 -32.001 -5.49902h-78.5c-29 0 -55.5 -0.833008 -79.5 -2.5s-55 -6.5 -93 -14.5s-104.667 -46 -200 -114z" />
    <glyph glyph-name="uniFB95" unicode="&#x6af;" horiz-adv-x="1365" arabic-form="medial" 
d="M1370 0l-1377 0.00195312v314h965v127h-782c-13.333 0 -25.666 2.5 -36.999 7.5s-21.166 11.833 -29.499 20.5s-15 18.667 -20 30s-7.5 23.333 -7.5 36l-1 214c8.66699 79.333 29.834 148.666 63.501 207.999s77.667 107.666 132 144.999s118 63.5 191 78.5
s153.5 18.167 241.5 9.5c25.333 -3.33301 47.333 -13.333 66 -30s28 -38 28 -64v-126c0 -12.667 -2.5 -24.667 -7.5 -36s-11.667 -21.333 -20 -30s-18.333 -15.5 -30 -20.5s-23.834 -7.5 -36.501 -7.5c-19.333 0 -40 0.5 -62 1.5s-44.167 1.16699 -66.5 0.5
s-44 -2.66699 -65 -6s-40.167 -9.5 -57.5 -18.5s-32.166 -21.5 -44.499 -37.5s-21.166 -36.667 -26.499 -62h618c86 0 151.833 -22.667 197.5 -68s68.5 -119 68.5 -221v-151h99v-314zM236.996 1115c11.333 64 28.6699 105.998 52.0029 125.998s56.666 45.667 99.999 77
s94.166 52.833 152.499 64.5s122.5 13.834 192.5 6.50098c16 -10.667 25 -26.667 27 -48v-20c-1.33301 -10.667 -3.33301 -20.5 -6 -29.5s-7.5 -16.833 -14.5 -23.5s-13.833 -12.167 -20.5 -16.5s-17.334 -6.16602 -32.001 -5.49902h-78.5c-29 0 -55.5 -0.833008 -79.5 -2.5
s-55 -6.5 -93 -14.5s-104.667 -46 -200 -114z" />
    <glyph glyph-name="uniFBA5" unicode="&#x6c0;" horiz-adv-x="921" arabic-form="final" 
d="M382 314h127v275h-127v-275zM823 314l121.997 0.000976562v-314h-610c-85.333 0 -150.833 22.667 -196.5 68s-68.5 119 -68.5 221v323c0 102 22.833 175.667 68.5 221s111.167 68 196.5 68h223c42.667 0 80.334 -5.5 113.001 -16.5s60.334 -28.167 83.001 -51.5
s39.834 -53.333 51.501 -90s17.5 -80.334 17.5 -131.001v-298zM182.997 1201v76.999c0 40.667 8.83301 69.834 26.5 87.501s43.5 26.5 77.5 26.5h91c10 0 18.667 -3.5 26 -10.5s11 -15.833 11 -26.5v-50c0 -10 -3.66699 -18.5 -11 -25.5s-16 -10.5 -26 -10.5h-73v-68h73
c10 0 18.667 -3.5 26 -10.5s11 -15.5 11 -25.5v-50c0 -10.667 -3.66699 -19.5 -11 -26.5s-16 -10.5 -26 -10.5h-216c-10.667 0 -19.667 3.5 -27 10.5s-11 15.833 -11 26.5v50c0 10 3.66699 18.5 11 25.5s16.333 10.5 27 10.5h21z" />
    <glyph glyph-name="uniFBFD" unicode="&#x6cc;" horiz-adv-x="1200" arabic-form="final" 
d="M57 180l-0.000976562 183.003c0 12.667 2.5 24.834 7.5 36.501s11.833 21.667 20.5 30s18.667 15 30 20s23.333 7.5 36 7.5h126c12.667 0 24.834 -2.5 36.501 -7.5s21.667 -11.667 30 -20s15 -18.333 20 -30s7.5 -23.834 7.5 -36.501v-182c0 -34 2 -69 6 -105
s13.833 -69 29.5 -99s38.667 -55.167 69 -75.5s71.5 -32.166 123.5 -35.499c22.667 -1.33301 45.334 0.666992 68.001 6s43.167 13.833 61.5 25.5s34 26.167 47 43.5s21.167 37 24.5 59h-161c-12.667 0 -24.667 2.5 -36 7.5s-21.333 11.667 -30 20
s-15.5 18.166 -20.5 29.499s-7.5 23.666 -7.5 36.999v126c0 12.667 2.5 24.834 7.5 36.501s11.833 21.667 20.5 30s18.667 15 30 20s23.333 7.5 36 7.5h566v-314h-100c-8.66699 -68.667 -28.5 -131 -59.5 -187s-70 -103.5 -117 -142.5s-100.833 -69 -161.5 -90
s-125.334 -30.833 -194.001 -29.5c-96.667 2 -178 20.167 -244 54.5s-119.167 80.166 -159.5 137.499s-69.333 123.666 -87 198.999s-26.167 154.666 -25.5 237.999z" />
    <glyph glyph-name="uniFBFE" unicode="&#x6cc;" horiz-adv-x="757" arabic-form="initial" 
d="M-4 314h383.999v491c0 12.667 2.5 24.667 7.5 36s11.833 21.166 20.5 29.499s18.667 15 30 20s23.333 7.5 36 7.5h125c12.667 0 24.834 -2.5 36.501 -7.5s21.667 -11.667 30 -20s15 -18.166 20 -29.499s7.5 -23.333 7.5 -36v-516c0 -102 -22.833 -175.667 -68.5 -221
s-111.167 -68 -196.5 -68h-432v314zM333.999 -276c0 -22 -4.16699 -42.5 -12.5 -61.5s-19.5 -35.667 -33.5 -50s-30.5 -25.666 -49.5 -33.999s-39.5 -12.5 -61.5 -12.5c-21.333 0 -41.5 4.16699 -60.5 12.5s-35.5 19.666 -49.5 33.999s-25.167 31 -33.5 50
s-12.5 39.5 -12.5 61.5c0 21.333 4.16699 41.5 12.5 60.5s19.5 35.5 33.5 49.5s30.5 25 49.5 33s39.167 12 60.5 12c22 0 42.5 -4 61.5 -12s35.5 -19 49.5 -33s25.167 -30.5 33.5 -49.5s12.5 -39.167 12.5 -60.5zM692.999 -276c0 -22 -4.16699 -42.5 -12.5 -61.5
s-19.666 -35.667 -33.999 -50s-31 -25.666 -50 -33.999s-39.167 -12.5 -60.5 -12.5s-41.5 4.16699 -60.5 12.5s-35.667 19.666 -50 33.999s-25.666 31 -33.999 50s-12.5 39.5 -12.5 61.5c0 21.333 4.16699 41.5 12.5 60.5s19.666 35.5 33.999 49.5s31 25 50 33
s39.167 12 60.5 12s41.5 -4 60.5 -12s35.667 -19 50 -33s25.666 -30.5 33.999 -49.5s12.5 -39.167 12.5 -60.5z" />
    <glyph glyph-name="uniFBFF" unicode="&#x6cc;" horiz-adv-x="706" arabic-form="medial" 
d="M503 314h209.998v-314h-723v314h199v491c0 12.667 2.5 24.667 7.5 36s11.667 21.166 20 29.499s18.333 15 30 20s24.167 7.5 37.5 7.5h124c12.667 0 24.834 -2.5 36.501 -7.5s21.834 -11.667 30.501 -20s15.5 -18.166 20.5 -29.499s7.5 -23.333 7.5 -36v-491z
M327.998 -276c0 -22 -4.16699 -42.5 -12.5 -61.5s-19.5 -35.667 -33.5 -50s-30.5 -25.666 -49.5 -33.999s-39.5 -12.5 -61.5 -12.5c-21.333 0 -41.5 4.16699 -60.5 12.5s-35.5 19.666 -49.5 33.999s-25.167 31 -33.5 50s-12.5 39.5 -12.5 61.5
c0 21.333 4.16699 41.5 12.5 60.5s19.5 35.5 33.5 49.5s30.5 25 49.5 33s39.167 12 60.5 12c22 0 42.5 -4 61.5 -12s35.5 -19 49.5 -33s25.167 -30.5 33.5 -49.5s12.5 -39.167 12.5 -60.5zM685.998 -276c0 -22 -4.16699 -42.5 -12.5 -61.5s-19.5 -35.667 -33.5 -50
s-30.5 -25.666 -49.5 -33.999s-39.167 -12.5 -60.5 -12.5s-41.5 4.16699 -60.5 12.5s-35.667 19.666 -50 33.999s-25.666 31 -33.999 50s-12.5 39.5 -12.5 61.5c0 21.333 4.16699 41.5 12.5 60.5s19.666 35.5 33.999 49.5s31 25 50 33s39.167 12 60.5 12s41.5 -4 60.5 -12
s35.5 -19 49.5 -33s25.167 -30.5 33.5 -49.5s12.5 -39.167 12.5 -60.5z" />
    <glyph glyph-name="uniFE82" unicode="&#x622;" horiz-adv-x="467" arabic-form="final" 
d="M379 314l95 -0.000976562v-314h-143c-85.333 0 -150.833 22.667 -196.5 68s-68.5 119 -68.5 221v811c0 12.667 2.5 24.834 7.5 36.501s11.833 21.667 20.5 30s18.667 15 30 20s23.333 7.5 36 7.5h125c26.667 0 49 -9.16699 67 -27.5s27 -40.5 27 -66.5v-786zM80 1249
c-8 0 -14.833 2.66699 -20.5 8s-8.5 12.333 -8.5 21v37c0 8 2.83301 14.667 8.5 20s12.5 8 20.5 8h303c7.33301 0 13.833 -2.66699 19.5 -8s8.5 -12 8.5 -20v-37c0 -8.66699 -2.83301 -15.667 -8.5 -21s-12.167 -8 -19.5 -8h-303z" />
    <glyph glyph-name="uniFE84" unicode="&#x623;" horiz-adv-x="467" arabic-form="final" 
d="M379 314l95 -0.000976562v-314h-143c-85.333 0 -150.833 22.667 -196.5 68s-68.5 119 -68.5 221v811c0 12.667 2.5 24.834 7.5 36.501s11.833 21.667 20.5 30s18.667 15 30 20s23.333 7.5 36 7.5h125c26.667 0 49 -9.16699 67 -27.5s27 -40.5 27 -66.5v-786zM132 1368
v76.999c0 40.667 8.83301 69.834 26.5 87.501s43.167 26.5 76.5 26.5h92c10 0 18.5 -3.5 25.5 -10.5s10.5 -15.833 10.5 -26.5v-50c0 -10 -3.5 -18.5 -10.5 -25.5s-15.5 -10.5 -25.5 -10.5h-73v-68h73c10 0 18.5 -3.5 25.5 -10.5s10.5 -15.5 10.5 -25.5v-50
c0 -10.667 -3.5 -19.5 -10.5 -26.5s-15.5 -10.5 -25.5 -10.5h-217c-10.667 0 -19.5 3.5 -26.5 10.5s-10.5 15.833 -10.5 26.5v50c0 10 3.5 18.5 10.5 25.5s15.833 10.5 26.5 10.5h22z" />
    <glyph glyph-name="uniFE86" unicode="&#x624;" horiz-adv-x="911" arabic-form="final" 
d="M180 -442c-25.333 2.66699 -47.3359 12.4961 -66.0029 29.4961s-28 38.5 -28 64.5v126c0 12.667 2.5 24.834 7.5 36.501s11.833 21.667 20.5 30s18.667 15 30 20s23.333 7.5 36 7.5c20 0 41.333 -0.5 64 -1.5s45.334 -1.16699 68.001 -0.5s44.5 2.83398 65.5 6.50098
s40.167 10.334 57.5 20.001s32.166 22.834 44.499 39.501s20.833 38 25.5 64h-178c-85.333 0 -150.833 22.667 -196.5 68s-68.5 119 -68.5 221v323c0 102 22.833 175.667 68.5 221s111.167 68 196.5 68h223c42.667 0 80.334 -5.5 113.001 -16.5s60.334 -28.167 83.001 -51.5
s39.667 -53.333 51 -90s17 -80.334 17 -131.001l-1 -298h104v-314h-108c-9.33301 -79.333 -30.666 -148.666 -63.999 -207.999s-77.333 -107.833 -132 -145.5s-118.5 -64 -191.5 -79s-153.5 -18.167 -241.5 -9.5zM308.997 1205v111c0 58 12.5 99.5 37.5 124.5
s61.5 37.5 109.5 37.5h132c14 0 26 -5 36 -15s15 -22.667 15 -38v-71c0 -14 -5 -26.333 -15 -37s-22 -16 -36 -16h-104v-96h104c14 0 26 -5.16699 36 -15.5s15 -22.833 15 -37.5v-69c0 -15.333 -5 -28 -15 -38s-22 -15 -36 -15h-310c-15.333 0 -28.166 5 -38.499 15
s-15.5 22.667 -15.5 38v69c0 14.667 5.16699 27.167 15.5 37.5s23.166 15.5 38.499 15.5h31zM374.997 313.996h127v275h-127v-275z" />
    <glyph glyph-name="uniFE88" unicode="&#x625;" horiz-adv-x="467" arabic-form="final" 
d="M379 314l95 -0.000976562v-314h-143c-85.333 0 -150.833 22.667 -196.5 68s-68.5 119 -68.5 221v811c0 12.667 2.5 24.834 7.5 36.501s11.833 21.667 20.5 30s18.667 15 30 20s23.333 7.5 36 7.5h125c26.667 0 49 -9.16699 67 -27.5s27 -40.5 27 -66.5v-786z
M134 -303.001v76c0 40.667 8.83301 69.834 26.5 87.501s43.167 26.5 76.5 26.5h92c10 0 18.5 -3.33301 25.5 -10s10.5 -15.334 10.5 -26.001v-50c0 -10 -3.5 -18.667 -10.5 -26s-15.5 -11 -25.5 -11h-73v-67h73c10 0 18.5 -3.83301 25.5 -11.5s10.5 -16.167 10.5 -25.5v-49
c0 -10.667 -3.5 -19.667 -10.5 -27s-15.5 -11 -25.5 -11h-217c-10.667 0 -19.5 3.66699 -26.5 11s-10.5 16.333 -10.5 27v49c0 9.33301 3.5 17.833 10.5 25.5s15.833 11.5 26.5 11.5h22z" />
    <glyph glyph-name="uniFE8A" unicode="&#x626;" horiz-adv-x="1200" arabic-form="final" 
d="M57 180l-0.000976562 183.003c0 12.667 2.5 24.834 7.5 36.501s11.833 21.667 20.5 30s18.667 15 30 20s23.333 7.5 36 7.5h126c12.667 0 24.834 -2.5 36.501 -7.5s21.667 -11.667 30 -20s15 -18.333 20 -30s7.5 -23.834 7.5 -36.501v-182c0 -34 2 -69 6 -105
s13.833 -69 29.5 -99s38.667 -55.167 69 -75.5s71.5 -32.166 123.5 -35.499c22.667 -1.33301 45.334 0.666992 68.001 6s43.167 13.833 61.5 25.5s34 26.167 47 43.5s21.167 37 24.5 59h-161c-12.667 0 -24.667 2.5 -36 7.5s-21.333 11.667 -30 20
s-15.5 18.166 -20.5 29.499s-7.5 23.666 -7.5 36.999v126c0 12.667 2.5 24.834 7.5 36.501s11.833 21.667 20.5 30s18.667 15 30 20s23.333 7.5 36 7.5h566v-314h-100c-8.66699 -68.667 -28.5 -131 -59.5 -187s-70 -103.5 -117 -142.5s-100.833 -69 -161.5 -90
s-125.334 -30.833 -194.001 -29.5c-96.667 2 -178 20.167 -244 54.5s-119.167 80.166 -159.5 137.499s-69.333 123.666 -87 198.999s-26.167 154.666 -25.5 237.999zM143.999 749.003l0.000976562 110c0 58 12.667 99.667 38 125s61.666 38 108.999 38h132
c14.667 0 26.834 -5 36.501 -15s14.5 -22.667 14.5 -38v-71c0 -14 -4.83301 -26.333 -14.5 -37s-21.834 -16 -36.501 -16h-105v-96h105c14.667 0 26.834 -5.16699 36.501 -15.5s14.5 -22.833 14.5 -37.5v-70c0 -15.333 -4.83301 -28 -14.5 -38s-21.834 -15 -36.501 -15h-310
c-15.333 0 -28 5 -38 15s-15 22.667 -15 38v70c0 14.667 5 27.167 15 37.5s22.667 15.5 38 15.5h31z" />
    <glyph glyph-name="uniFE8B" unicode="&#x626;" horiz-adv-x="528" arabic-form="initial" 
d="M-4 314h161.002v179c0 12.667 2.5 24.5 7.5 35.5s11.667 20.667 20 29s18.166 15 29.499 20s23.666 7.5 36.999 7.5h125c12.667 0 24.667 -2.5 36 -7.5s21.333 -11.667 30 -20s15.5 -18 20.5 -29s7.5 -22.833 7.5 -35.5v-204c0 -102 -22.833 -175.667 -68.5 -221
s-111.5 -68 -197.5 -68h-208v314zM138.002 877l0.000976562 111.001c0 57.333 12.667 98.666 38 123.999s61.666 38 108.999 38h133c13.333 0 25 -5 35 -15s15 -22.667 15 -38v-71c0 -14 -5 -26.333 -15 -37s-21.667 -16 -35 -16h-105v-96h105
c13.333 0 25 -5.16699 35 -15.5s15 -22.833 15 -37.5v-70c0 -15.333 -5 -28 -15 -38s-21.667 -15 -35 -15h-311c-15.333 0 -28 5 -38 15s-15 22.667 -15 38v70c0 14.667 5 27.167 15 37.5s22.667 15.5 38 15.5h31z" />
    <glyph glyph-name="uniFE8C" unicode="&#x626;" horiz-adv-x="518" arabic-form="medial" 
d="M418 314h102v-314h-523v314h107v179c0 12.667 2.5 24.5 7.5 35.5s11.833 20.667 20.5 29s18.667 15 30 20s23.666 7.5 36.999 7.5h125c12.667 0 24.834 -2.5 36.501 -7.5s21.667 -11.667 30 -20s15 -18 20 -29s7.5 -22.833 7.5 -35.5v-179zM136 877v111.001
c0 57.333 12.5 98.666 37.5 123.999s61.5 38 109.5 38h131c14.667 0 26.834 -5 36.501 -15s14.5 -22.667 14.5 -38v-71c0 -14 -4.83301 -26.333 -14.5 -37s-21.834 -16 -36.501 -16h-104v-96h104c14.667 0 26.834 -5.16699 36.501 -15.5s14.5 -22.833 14.5 -37.5v-70
c0 -15.333 -4.83301 -28 -14.5 -38s-21.834 -15 -36.501 -15h-310c-15.333 0 -28 5 -38 15s-15 22.667 -15 38v70c0 14.667 5 27.167 15 37.5s22.667 15.5 38 15.5h32z" />
    <glyph glyph-name="uniFE8E" unicode="&#x627;" horiz-adv-x="467" arabic-form="final" 
d="M379 314l95 -0.000976562v-314h-143c-85.333 0 -150.833 22.667 -196.5 68s-68.5 119 -68.5 221v811c0 12.667 2.5 24.834 7.5 36.501s11.833 21.667 20.5 30s18.667 15 30 20s23.333 7.5 36 7.5h125c26.667 0 49 -9.16699 67 -27.5s27 -40.5 27 -66.5v-786z" />
    <glyph glyph-name="uniFE90" unicode="&#x628;" horiz-adv-x="1345" arabic-form="final" 
d="M793 -276c0 -22 -4.16699 -42.5 -12.5 -61.5s-19.5 -35.667 -33.5 -50s-30.5 -25.666 -49.5 -33.999s-39.5 -12.5 -61.5 -12.5c-21.333 0 -41.5 4.16699 -60.5 12.5s-35.5 19.666 -49.5 33.999s-25.167 31 -33.5 50s-12.5 39.5 -12.5 61.5
c0 21.333 4.16699 41.5 12.5 60.5s19.5 35.5 33.5 49.5s30.5 25 49.5 33s39.167 12 60.5 12c22 0 42.5 -4 61.5 -12s35.5 -19 49.5 -33s25.167 -30.5 33.5 -49.5s12.5 -39.167 12.5 -60.5zM364 314l569.997 0.000976562v491c0 12.667 2.33301 24.667 7 36
s11.334 21.166 20.001 29.499s18.5 15 29.5 20s23.167 7.5 36.5 7.5h125c12.667 0 24.667 -2.5 36 -7.5s21.333 -11.667 30 -20s15.5 -18.166 20.5 -29.499s7.5 -23.333 7.5 -36v-491h103v-314h-1033c-86 0 -151.833 22.667 -197.5 68s-68.5 119 -68.5 221v254
c0 26 9.16699 48 27.5 66s40.5 27 66.5 27h125c12.667 0 24.834 -2.33301 36.501 -7s21.834 -11.334 30.501 -20.001s15.5 -18.667 20.5 -30s7.5 -23.333 7.5 -36v-229z" />
    <glyph glyph-name="uniFE91" unicode="&#x628;" horiz-adv-x="473" arabic-form="initial" 
d="M-3 314h105.002v491c0 12.667 2.5 24.667 7.5 36s11.667 21.166 20 29.499s18.166 15 29.499 20s23.666 7.5 36.999 7.5h124c12.667 0 24.667 -2.5 36 -7.5s21.333 -11.667 30 -20s15.5 -18.166 20.5 -29.499s7.5 -23.333 7.5 -36v-516
c0 -102 -22.833 -175.667 -68.5 -221s-111.167 -68 -196.5 -68h-152v314zM393.002 -276c0 -22 -4 -42.5 -12 -61.5s-19 -35.667 -33 -50s-30.5 -25.666 -49.5 -33.999s-39.5 -12.5 -61.5 -12.5c-21.333 0 -41.5 4.16699 -60.5 12.5s-35.5 19.666 -49.5 33.999
s-25.167 31 -33.5 50s-12.5 39.5 -12.5 61.5c0 21.333 4.16699 41.5 12.5 60.5s19.5 35.5 33.5 49.5s30.5 25 49.5 33s39.167 12 60.5 12c22 0 42.5 -4 61.5 -12s35.5 -19 49.5 -33s25 -30.5 33 -49.5s12 -39.167 12 -60.5z" />
    <glyph glyph-name="uniFE92" unicode="&#x628;" horiz-adv-x="518" arabic-form="medial" 
d="M418 314h102v-314h-523v314h107v491c0 12.667 2.5 24.667 7.5 36s11.833 21.166 20.5 29.499s18.667 15 30 20s23.666 7.5 36.999 7.5h125c12.667 0 24.834 -2.5 36.501 -7.5s21.667 -11.667 30 -20s15 -18.166 20 -29.499s7.5 -23.333 7.5 -36v-491zM418 -276
c0 -22 -4.16699 -42.5 -12.5 -61.5s-19.666 -35.667 -33.999 -50s-31 -25.666 -50 -33.999s-39.167 -12.5 -60.5 -12.5s-41.5 4.16699 -60.5 12.5s-35.667 19.666 -50 33.999s-25.666 31 -33.999 50s-12.5 39.5 -12.5 61.5c0 21.333 4.16699 41.5 12.5 60.5
s19.666 35.5 33.999 49.5s31 25 50 33s39.167 12 60.5 12s41.5 -4 60.5 -12s35.667 -19 50 -33s25.666 -30.5 33.999 -49.5s12.5 -39.167 12.5 -60.5z" />
    <glyph glyph-name="uniFE96" unicode="&#x62a;" horiz-adv-x="1345" arabic-form="final" 
d="M364 314l569.997 0.000976562v491c0 12.667 2.33301 24.667 7 36s11.334 21.166 20.001 29.499s18.5 15 29.5 20s23.167 7.5 36.5 7.5h125c12.667 0 24.667 -2.5 36 -7.5s21.333 -11.667 30 -20s15.5 -18.166 20.5 -29.499s7.5 -23.333 7.5 -36v-491h103v-314h-1033
c-86 0 -151.833 22.667 -197.5 68s-68.5 119 -68.5 221v254c0 26 9.16699 48 27.5 66s40.5 27 66.5 27h125c12.667 0 24.834 -2.33301 36.501 -7s21.834 -11.334 30.501 -20.001s15.5 -18.667 20.5 -30s7.5 -23.333 7.5 -36v-229zM986.997 1173
c0 -21.333 -4.16699 -41.5 -12.5 -60.5s-19.666 -35.667 -33.999 -50s-31 -25.666 -50 -33.999s-39.167 -12.5 -60.5 -12.5s-41.5 4.16699 -60.5 12.5s-35.667 19.666 -50 33.999s-25.666 31 -33.999 50s-12.5 39.167 -12.5 60.5s4.16699 41.5 12.5 60.5
s19.666 35.667 33.999 50s31 25.666 50 33.999s39.167 12.5 60.5 12.5s41.5 -4.16699 60.5 -12.5s35.667 -19.666 50 -33.999s25.666 -31 33.999 -50s12.5 -39.167 12.5 -60.5zM625.997 1173c0 -21.333 -4 -41.5 -12 -60.5s-19 -35.667 -33 -50s-30.5 -25.666 -49.5 -33.999
s-39.167 -12.5 -60.5 -12.5c-22 0 -42.5 4.16699 -61.5 12.5s-35.5 19.666 -49.5 33.999s-25.167 31 -33.5 50s-12.5 39.167 -12.5 60.5s4.16699 41.5 12.5 60.5s19.5 35.667 33.5 50s30.5 25.666 49.5 33.999s39.5 12.5 61.5 12.5c21.333 0 41.5 -4.16699 60.5 -12.5
s35.5 -19.666 49.5 -33.999s25 -31 33 -50s12 -39.167 12 -60.5z" />
    </font>
</defs>
</svg>
