<?xml version="1.0" standalone="no"?>
<!DOCTYPE svg PUBLIC "-//W3C//DTD SVG 1.1//EN" "http://www.w3.org/Graphics/SVG/1.1/DTD/svg11.dtd" >
<svg>
<metadata>
Created by FontForge 20090914 at Wed Oct 19 00:55:30 2011
 By www-data
(c) by Abolfazl Seilsepour - +98 912 591 3420  -  seilsepor@yahoo.com
</metadata>
<defs>
<font id="FarBist" horiz-adv-x="0" >
  <font-face 
    font-family="Far.Bist"
    font-weight="700"
    font-stretch="normal"
    units-per-em="2048"
    panose-1="2 3 7 3 0 0 0 0 8 0"
    ascent="1638"
    descent="-410"
    bbox="-188 -1074 2774 2148"
    underline-thickness="100"
    underline-position="-900"
    unicode-range="U+0020-U+FEFC"
  />
<missing-glyph horiz-adv-x="1024" 
d="M128 0v1298h768v-1298h-768zM256 128h512v1042h-512v-1042z" />
    <glyph glyph-name="uniE818" unicode="&#x651;&#x64b;" 
d="M521 1791l-377 -155v114l377 150v-109zM557 1457c0 -40.667 -11.667 -75.666 -35 -104.999c-28 -32.667 -64 -49 -108 -49c-46 0 -78 16 -96 48c-27.333 -33.333 -68 -50 -122 -50c-38 0 -69 17.667 -93 53c-18 26.667 -27 52.667 -27 78c0 22 6.33301 46.333 19 73
c16.667 36.667 38 55 64 55c19.333 0 29 -10.333 29 -31c0 -6 -0.833008 -15.5 -2.5 -28.5s-2.5 -22.5 -2.5 -28.5c0 -28 11 -42 33 -42c25.333 0 43 10.333 53 31c2.66699 5.33301 9 29.666 19 72.999c4 19.333 16.667 29 38 29s33 -10.667 35 -32
c8 -71.333 25.667 -107 53 -107c25.333 0 38 15 38 45c0 15.333 -3.33301 34.333 -10 57l79 63c24 -37.333 36 -81.333 36 -132zM521 2003l-377 -155v115l377 148v-108z" />
    <glyph glyph-name="uniFC5E" unicode="&#x651;&#x64c;" arabic-form="isolated" 
d="M526 1541c0 -40.667 -11.6641 -75.667 -34.9971 -105c-28 -32.667 -64 -49 -108 -49c-46.667 0 -78.667 15.667 -96 47c-28.667 -33.333 -69.334 -50 -122.001 -50c-34.667 0 -63.334 14.333 -86.001 43s-34 58 -34 88c0 22.667 6.33301 47.334 19 74.001
c16.667 36.667 38 55 64 55c19.333 0 29 -10.333 29 -31c0 -6.66699 -0.833008 -16.334 -2.5 -29.001s-2.5 -22.334 -2.5 -29.001c0 -28 11 -42 33 -42c25.333 0 43 10 53 30c3.33301 8 9.66602 32.667 18.999 74c4 20 16.667 30 38 30s33 -11 35 -33
c8 -71.333 25.667 -107 53 -107c25.333 0 38 15 38 45c0 14.667 -3.33301 33.667 -10 57l79 65c24 -39.333 36 -83.666 36 -132.999zM538.003 2038c0 -34 -23.335 -77.334 -70.002 -130.001l47 -13l-50 -87c-46 8 -79 19.333 -99 34c-78.667 -46.667 -151 -70 -217 -70
c-29.333 0 -58.333 32 -87 96c42.667 0 67 1 73 3c13.333 16 20 32.667 20 50c0 13.333 -5.33301 20 -16 20c-11.333 0 -32 -16 -62 -48l-18 84c32.667 37.333 66.334 56 101.001 56c12.667 0 25.334 -3 38.001 -9c31.333 -14.667 47 -40.667 47 -78
c0 -28 -5 -49.667 -15 -65c31.333 2.66699 55 10.334 71 23.001c-24 40.667 -36 69.334 -36 86.001c0 37.333 24.667 74.333 74 110.999c42.667 31.333 76.667 47 102 47c64.667 0 97 -36.667 97 -110zM427.001 2026c0 15.333 -7 23.001 -21 23.001
c-22 0 -33 -12.333 -33 -37c0 -22.667 8.33301 -41.334 25 -56.001c19.333 12 29 35.333 29 70z" />
    <glyph glyph-name="uniFC5F" unicode="&#x651;&#x64d;" horiz-adv-x="1" arabic-form="isolated" 
d="M547 1957c0 -40.667 -11.6641 -75.334 -34.9971 -104.001c-28 -33.333 -64 -50 -108 -50c-46.667 0 -78.667 16 -96 48c-28.667 -34 -69.334 -51 -122.001 -51c-34.667 0 -63.334 14.333 -86.001 43s-34 58.334 -34 89.001c0 22 6.33301 46.667 19 74
c16.667 36 38 54 64 54c19.333 0 29 -10 29 -30c0 -7.33301 -0.833008 -17.333 -2.5 -30s-2.5 -22.334 -2.5 -29.001c0 -28 11 -42 33 -42c25.333 0 43 10.333 53 31c3.33301 7.33301 9.66602 31.666 18.999 72.999c4 20.667 16.667 31 38 31s33 -11.333 35 -34
c8 -71.333 25.667 -107 53 -107c25.333 0 38 15.333 38 46c0 14.667 -3.33301 33.334 -10 56.001l79 65c24 -39.333 36 -83.666 36 -132.999zM492.003 1651l-378 -153v113l378 150v-110zM492.003 1467l-378 -153v113l378 150v-110z" />
    <glyph glyph-name="uniFC60" unicode="&#x651;&#x64e;" arabic-form="isolated" 
d="M548 1505c0 -40.667 -11.6641 -75.335 -34.9971 -104.002c-28 -33.333 -64 -50 -108 -50c-46.667 0 -78.667 16 -96 48c-28.667 -34 -69.334 -51 -122.001 -51c-34.667 0 -63.334 14.333 -86.001 43s-34 58.334 -34 89.001c0 22 6.33301 46.667 19 74
c16.667 36 38 54 64 54c19.333 0 29 -10 29 -30c0 -7.33301 -0.833008 -17.333 -2.5 -30s-2.5 -22.334 -2.5 -29.001c0 -28 11 -42 33 -42c25.333 0 43 10.333 53 31c3.33301 8 9.66602 32.333 18.999 73c4 20.667 16.667 31 38 31s33 -11.333 35 -34
c8 -71.333 25.667 -107 53 -107c25.333 0 38 15.333 38 46c0 14.667 -3.33301 33.334 -10 56.001l79 65c24 -39.333 36 -83.666 36 -132.999zM518.003 1878l-377 -155v114l377 149v-108z" />
    <glyph glyph-name="uniFC61" unicode="&#x651;&#x64f;" horiz-adv-x="1" arabic-form="isolated" 
d="M523 1479c0 -40.667 -11.667 -75.6689 -35 -105.002c-28 -32.667 -64 -49 -108 -49c-46 0 -77.667 16 -95 48c-28 -33.333 -69 -50 -123 -50c-38 0 -69 17.667 -93 53c-18 26.667 -27 52.334 -27 77.001c0 22.667 6.33301 47.334 19 74.001c16.667 36.667 38 55 64 55
c19.333 0 29 -10.333 29 -31c0 -6 -0.833008 -15.5 -2.5 -28.5s-2.5 -22.5 -2.5 -28.5c0 -28 11 -42 33 -42c25.333 0 43 10 53 30c2.66699 6 9 30.667 19 74c4 19.333 16.667 29 38 29s33 -10.667 35 -32c8 -71.333 25.667 -107 53 -107c25.333 0 38 15 38 45
c0 15.333 -3.33301 34.333 -10 57l79 63c24 -37.333 36 -81.333 36 -132zM515 1932c0 -34 -23.666 -77 -70.999 -129c0.666992 -0.666992 16.334 -5 47.001 -13l-49 -88c-47.333 9.33301 -80.333 20.666 -99 33.999c-82 -46.667 -154.333 -70 -217 -70
c-30.667 0 -59.334 32.333 -86.001 97c78 2 128.333 4.33301 151 7c42 6 70.667 15.667 86 29c-23.333 41.333 -35 70.333 -35 87c0 36 25 72.333 75 109c42.667 32 76 48 100 48c31.333 0 56.666 -12.667 75.999 -38c14.667 -21.333 22 -45.666 22 -72.999zM403.001 1920
c0 16.667 -6.33203 25 -18.999 25c-6.66699 0 -14.334 -3.83301 -23.001 -11.5s-13 -16.167 -13 -25.5c0 -24 9 -42.667 27 -56c18.667 11.333 28 34 28 68z" />
    <glyph glyph-name="uniFC62" unicode="&#x651;&#x650;" horiz-adv-x="1" arabic-form="isolated" 
d="M547 1741c0 -40.667 -11.6641 -75.667 -34.9971 -105c-28 -32.667 -64 -49 -108 -49c-46.667 0 -78.667 15.667 -96 47c-28.667 -33.333 -69.334 -50 -122.001 -50c-34.667 0 -63.334 14.333 -86.001 43s-34 58.334 -34 89.001c0 22 6.33301 46.333 19 73
c16.667 36.667 38 55 64 55c19.333 0 29 -10.333 29 -31c0 -6.66699 -0.833008 -16.334 -2.5 -29.001s-2.5 -22.334 -2.5 -29.001c0 -28 11 -42 33 -42c25.333 0 43 10 53 30c3.33301 8 9.66602 32.667 18.999 74c4 20 16.667 30 38 30s33 -11 35 -33
c8 -71.333 25.667 -107 53 -107c25.333 0 38 15 38 45c0 15.333 -3.33301 34.333 -10 57l79 65c24 -39.333 36 -83.666 36 -132.999zM492.003 1435l-378 -153v112l378 150v-109z" />
    <glyph glyph-name="uniFDF2" unicode="&#xfedf;&#xfee0;&#xfeea;" horiz-adv-x="2570" arabic-form="isolated" 
d="M526 483c-21.333 0 -39 -7 -53 -21s-21 -31.333 -21 -52v-251h432v149c0 38 -19 76.667 -57 116s-81 59 -129 59h-172zM1469 159v974.999h-84v68h260l121 6l66 12l42 13v-1074h242v977h-84v67h259l122 6l66 12l42 14v-1076c0 -46 -16.5 -84 -49.5 -114
s-69.167 -45 -108.5 -45h-2316v362c0 56.667 20.333 105.334 61 146.001s90 61 148 61h424c53.333 0 101.333 -14.667 144 -44c34 -22 54 -43 60 -63v107h176l120 6l66 12l43 13v-441h180z" />
    <glyph glyph-name="uniFEF5" unicode="&#xfedf;&#xfe82;" horiz-adv-x="1223" arabic-form="isolated" 
d="M43 159h725v977h-84v66h259l68 1l64 6l47 11l51 15v-1076c0 -44 -15.5 -81.5 -46.5 -112.5s-68.5 -46.5 -112.5 -46.5h-971v159zM172 216v833h-85v66l261 1c60.667 0 101.667 1.66699 123 5l61 13l45 14v-932h-405zM271 1331c11.333 0 35 -7.83301 71 -23.5
s58.333 -23.5 67 -23.5c15.333 0 33.333 7.66699 54 23l29 27l-9 -30l-12 -29l-14 -18c-12 -12 -24.333 -21 -37 -27l-38 -6c-16 0 -30.333 2 -43 6l-39 17l-54 25c-21.333 3.33301 -44.333 -3 -69 -19l-33 -26c0 7.33301 1 12 3 14l10 21l36 39c25.333 20 51.333 30 78 30z
" />
    <glyph glyph-name="uniFEF6" unicode="&#xfee0;&#xfe82;" horiz-adv-x="1301" arabic-form="final" 
d="M328 1349c10.667 0 34 -7.83301 70 -23.5s59 -23.5 69 -23.5c5.33301 0 23 7.66699 53 23l30 27l-9 -30l-27 -48l-15 -12l-21 -14l-39 -6l-24 3l-23 6l-58 27l-32 12c-20.667 3.33301 -43.667 -3 -69 -19l-33 -26l5 14l7 19c9.33301 16 22 29.667 38 41
c24.667 20 50.667 30 78 30zM1358 0h-1308v158h725v978h-84v66h259l125 6l61 12l44 15v-1076h178v-159zM179 215v834h-85v66h261c54.667 0 99.667 3 135 9l49 10l45 14v-933h-405z" />
    <glyph glyph-name="uniFEF7" unicode="&#xfedf;&#xfe84;" horiz-adv-x="1223" arabic-form="isolated" 
d="M43 159h725v977h-84v66h259l68 1l64 6l47 11l51 15v-1076c0 -44 -15.5 -81.5 -46.5 -112.5s-68.5 -46.5 -112.5 -46.5h-971v159zM172 216v833h-85v66l261 1c60.667 0 101.667 1.66699 123 5l61 13l45 14v-932h-405zM211 924v-34.001h308v34h-185v53l5 7l12 9h72l6 -7
l3 -3v-21h87v21c0 18.667 -9.66699 28 -29 28h-198c-12 0 -21.167 -3.16699 -27.5 -9.5s-11.5 -18.166 -15.5 -35.499v-42h-38z" />
    <glyph glyph-name="uniFEF8" unicode="&#xfee0;&#xfe84;" horiz-adv-x="1301" arabic-form="final" 
d="M1358 0h-1308v158h725v978h-84v66h259l125 6l61 12l44 15v-1076h178v-159zM179 215v834h-85v66h261c54.667 0 99.667 3 135 9l49 10l45 14v-933h-405zM256 923l-38 -0.000976562v-33h308v33h-185v54l9 10l8 5h72l10 -9v-23h86v23c0 18.667 -9 28 -27 28h-200
c-12.667 0 -23 -4.16699 -31 -12.5s-12 -19.166 -12 -32.499v-43z" />
    <glyph glyph-name="uniFEF9" unicode="&#xfedf;&#xfe88;" horiz-adv-x="1223" arabic-form="isolated" 
d="M43 159h725v977h-84v66h259l68 1l64 6l47 11l51 15v-1076c0 -44 -15.5 -81.5 -46.5 -112.5s-68.5 -46.5 -112.5 -46.5h-971v159zM172 216v833h-85v66l261 1c60.667 0 101.667 1.66699 123 5l61 13l45 14v-932h-405zM273 -180v42c8 22 14.167 35 18.5 39s12.5 6 24.5 6
h198c19.333 0 29 -9.33301 29 -28v-21h-87v21l-3 4l-6 6h-72l-12 -9l-5 -7v-53h185v-34h-308v34h38z" />
    <glyph glyph-name="uniFEFA" unicode="&#xfee0;&#xfe88;" horiz-adv-x="1301" arabic-form="final" 
d="M1358 0h-1308v158h725v978h-84v66h259l125 6l61 12l44 15v-1076h178v-159zM179 215v834h-85v66h261c54.667 0 99.667 3 135 9l49 10l45 14v-933h-405zM256 -150c0 6 3 16 9 30c6 6 17.333 11 34 15h200c18 0 27 -9.33301 27 -28v-23h-86v23l-10 9h-72l-8 -5l-9 -10v-54
h185v-33h-308v33h38v43z" />
    <glyph glyph-name="uniFEFB" unicode="&#xfedf;&#xfe8e;" horiz-adv-x="1223" arabic-form="isolated" 
d="M43 159h725v977h-84v66h259l68 1l64 6l47 11l51 15v-1076c0 -44 -15.5 -81.5 -46.5 -112.5s-68.5 -46.5 -112.5 -46.5h-971v159zM172 216v833h-85v66l261 1c60.667 0 101.667 1.66699 123 5l61 13l45 14v-932h-405z" />
    <glyph glyph-name="uniFEFC" unicode="&#xfee0;&#xfe8e;" horiz-adv-x="1301" arabic-form="final" 
d="M1358 0h-1308v158h725v978h-84v66h259l125 6l61 12l44 15v-1076h178v-159zM179 215v834h-85v66h261c54.667 0 99.667 3 135 9l49 10l45 14v-933h-405z" />
    <glyph glyph-name="afii57410" unicode="&#x622;" horiz-adv-x="766" arabic-form="isolated" 
d="M178 1056h-84v67h119h141l60 2l81 7l51 11l37 12v-1069h86v-86h-575v86h84v970zM495 1358c-0.666992 2 9.33398 8 30.001 18l138 125l-48 -159l-40 -67l-57 -38l-63 -12l-38 4l-33 7l-71 36l-33 12c-12.667 1.33301 -32.334 -7 -59.001 -25l-117 -99l30 123l17 33l47 52
c39.333 31.333 81 47 125 47c18.667 0 51.667 -10.667 99 -32z" />
    <glyph glyph-name="afii57411" unicode="&#x623;" horiz-adv-x="639" arabic-form="isolated" 
d="M115 1136h-84v67h119h141l60 2l81 7l51 11l37 12v-1149h86v-86h-575v86h84v1050zM156 1037v-35h307v35h-184v52l4 8l12 9h72l11 -11v-21h85v23c0 18 -9 27 -27 27h-199c-12 0 -20.667 -2.66699 -26 -8l-18 -36v-43h-37z" />
    <glyph glyph-name="afii57412" unicode="&#x624;" horiz-adv-x="1153" arabic-form="isolated" 
d="M1042 508c39.333 -40.667 59.001 -89.334 59.001 -146.001v-612c0 -52 -18 -94.667 -54 -128c-34.667 -34.667 -77 -52 -127 -52h-875v108h579c21.333 0 39 7 53 21s21 31 21 51v250h-651v362c0 56.667 20.167 105.334 60.5 146.001s89.166 61 146.499 61h639
c60 0 109.667 -20.333 149 -61zM450.001 159h246.001v251c0 20 -9.5 37.167 -28.5 51.5s-34.5 21.5 -46.5 21.5h-96c-20.667 0 -38.334 -7.16699 -53.001 -21.5s-22 -31.5 -22 -51.5v-251zM336.002 827v87c0 24 8.83301 44.667 26.5 62s38.5 26 62.5 26h396
c18 0 31.667 -5.5 41 -16.5s14 -23.833 14 -38.5v-45h-172v43c-5.33301 6 -9.5 10.333 -12.5 13s-5.83301 5 -8.5 7h-143c-20.667 0 -31 -10.667 -31 -32v-106h367v-66h-615v66h75z" />
    <glyph glyph-name="afii57413" unicode="&#x625;" horiz-adv-x="639" arabic-form="isolated" 
d="M115 1136h-84v67h119h141l60 2l81 7l51 11l37 12v-1149h86v-86h-575v86h84v1050zM193 -148v43c6 18 12 30 18 36c8 5.33301 16.667 8 26 8h199c18 0 27 -9 27 -27v-23h-85v21l-11 11h-72l-12 -9l-4 -8v-52h184v-35h-307v35h37z" />
    <glyph glyph-name="afii57414" unicode="&#x626;" horiz-adv-x="1733" arabic-form="isolated" 
d="M1278 0h-585.999v362c0 58 20.167 107.167 60.5 147.5s89.166 60.5 146.499 60.5h765l-2 -160h-555v-251h575v-268c0 -44 -15.5 -81.5 -46.5 -112.5s-68.5 -46.5 -112.5 -46.5h-1311c-45.333 0 -83 18 -113 54s-45 71 -45 105v520c0 44 15.833 81.5 47.5 112.5
s68.5 46.5 110.5 46.5h247l-1 -729h820v159zM114.001 827v87c0 24 8.83301 44.667 26.5 62s38.5 26 62.5 26h396c18 0 31.667 -5.5 41 -16.5s14 -23.833 14 -38.5v-45h-172v43c-5.33301 6 -9.5 10.333 -12.5 13s-5.83301 5 -8.5 7h-143c-20.667 0 -31 -10.667 -31 -32v-106
h367v-66h-615v66h75z" />
    <glyph glyph-name="afii57415" unicode="&#x627;" horiz-adv-x="639" arabic-form="isolated" 
d="M115 1136h-84v67h119h141l60 2l81 7l51 11l37 12v-1149h86v-86h-575v86h84v1050z" />
    <glyph glyph-name="afii57416" unicode="&#x628;" horiz-adv-x="1796" arabic-form="isolated" 
d="M1704 587l44 15v-443c0 -44 -15.5 -81.5 -46.5 -112.5s-68.5 -46.5 -112.5 -46.5h-1380c-44 0 -81.667 15.667 -113 47c-30 32.667 -45 70 -45 112v252c0 44 15.333 81.333 46 112s68 46 112 46h334v-86h-88v-324h889l-1 344h-84v66h259c56 0 101.667 3 137 9zM1002 -390
c-28 -28 -62.332 -42 -102.999 -42c-40 0 -74 14 -102 42s-42 62.667 -42 104c0 40.667 14.167 75 42.5 103s62.166 42 101.499 42c40 0 74.167 -14.167 102.5 -42.5s42.5 -62.5 42.5 -102.5c0 -41.333 -14 -76 -42 -104z" />
    <glyph glyph-name="afii57417" unicode="&#x629;" horiz-adv-x="1207" arabic-form="isolated" 
d="M532 483c-21.333 0 -39 -7 -53 -21s-21 -31.333 -21 -52v-251h291v324h-217zM1151 0l-1098 -0.000976562v362c0 56.667 20.333 105.334 61 146.001s90 61 148 61h663c54.667 0 99.667 3 135 9l49 10l44 14zM123 797.999l-0.00195312 -49h444v49h-267v76l7 10l18 13h103
l9 -10l4 -4v-30h126v30c0 26.667 -14 40 -42 40h-285c-17.333 0 -30.666 -4.5 -39.999 -13.5s-16.666 -26.167 -21.999 -51.5v-60h-55z" />
    <glyph glyph-name="afii57418" unicode="&#x62a;" horiz-adv-x="1796" arabic-form="isolated" 
d="M1704 587l44 15v-443c0 -44 -15.5 -81.5 -46.5 -112.5s-68.5 -46.5 -112.5 -46.5h-1380c-44 0 -81.667 15.667 -113 47c-30 32.667 -45 70 -45 112v252c0 44 15.333 81.333 46 112s68 46 112 46h334v-86h-88v-324h889l-1 344h-84v66h259c56 0 101.667 3 137 9zM1158 803
c-28 -28 -62.333 -42 -103 -42c-41.333 0 -76 14 -104 42s-42 62.333 -42 103c0 40 14.333 74.333 43 103s63 43 103 43c40.667 0 74.667 -14.667 102 -44c28.667 -28.667 43 -62.667 43 -102c0 -40.667 -14 -75 -42 -103zM846.5 803.5
c-29 -28.333 -63.167 -42.5 -102.5 -42.5c-40.667 0 -75 14 -103 42s-42 62.333 -42 103c0 41.333 14 76 42 104s62.333 42 103 42c41.333 0 75.333 -14.667 102 -44c29.333 -28.667 44 -62.667 44 -102c0 -40 -14.5 -74.167 -43.5 -102.5z" />
    <glyph glyph-name="afii57419" unicode="&#x62b;" horiz-adv-x="1796" arabic-form="isolated" 
d="M1704 587l44 15v-443c0 -44 -15.5 -81.5 -46.5 -112.5s-68.5 -46.5 -112.5 -46.5h-1380c-44 0 -81.667 15.667 -113 47c-30 32.667 -45 70 -45 112v252c0 44 15.333 81.333 46 112s68 46 112 46h334v-86h-88v-324h889l-1 344h-84v66h259c56 0 101.667 3 137 9zM1002 977
c-28 -28 -62.332 -42 -102.999 -42c-40 0 -74 14 -102 42s-42 62.333 -42 103c0 41.333 14.167 76 42.5 104s62.166 42 101.499 42c40.667 0 74.667 -14.667 102 -44c28.667 -28.667 43 -62.667 43 -102c0 -40.667 -14 -75 -42 -103zM1158 713c-28 -28 -62.333 -42 -103 -42
c-41.333 0 -76 14 -104 42s-42 62.333 -42 103c0 40 14.333 74.333 43 103s63 43 103 43c40.667 0 74.667 -14.667 102 -44c28.667 -28.667 43 -62.667 43 -102c0 -40.667 -14 -75 -42 -103zM846.501 713.5c-29 -28.333 -63.167 -42.5 -102.5 -42.5
c-40.667 0 -75 14 -103 42s-42 62.333 -42 103c0 41.333 14 76 42 104s62.333 42 103 42c41.333 0 75.333 -14.667 102 -44c29.333 -28.667 44 -62.667 44 -102c0 -40 -14.5 -74.167 -43.5 -102.5z" />
    <glyph glyph-name="afii57420" unicode="&#x62c;" horiz-adv-x="1655" arabic-form="isolated" 
d="M1615 0l-1023 0.00292969c-43.333 0 -82 -15.333 -116 -46c-30.667 -32 -46 -70.667 -46 -116c0 -44.667 15.667 -82.834 47 -114.501s69.666 -47.5 114.999 -47.5h319v-108h-589c-82 0 -151.833 28.833 -209.5 86.5s-86.5 126.834 -86.5 207.501c0 81.333 29 151 87 209
s127.667 87 209 87h889v250c0 21.333 -9.5 39.166 -28.5 53.499s-34.5 21.5 -46.5 21.5h-336c-16 -2.66699 -28.167 -8.33398 -36.5 -17.001s-12.5 -19.334 -12.5 -32.001v-99h-404v103c0 37.333 12.5 68.5 37.5 93.5s55.5 37.5 91.5 37.5h932
c58.667 0 107.834 -20.5 147.501 -61.5s59.5 -90.167 59.5 -147.5v-360zM1357.5 -390.497c-28.333 -27.667 -62.167 -41.499 -101.5 -41.499c-42.667 0 -77.5 15 -104.5 45s-40.5 63 -40.5 99c0 41.333 14 76 42 104s62.333 42 103 42c40 0 74 -14 102 -42
s42 -62.667 42 -104c0 -40.667 -14.167 -74.834 -42.5 -102.501z" />
    <glyph glyph-name="afii57421" unicode="&#x62d;" horiz-adv-x="1655" arabic-form="isolated" 
d="M1615 0l-1023 0.00292969c-43.333 0 -82 -15.333 -116 -46c-30.667 -32 -46 -70.667 -46 -116c0 -44.667 15.667 -82.834 47 -114.501s69.666 -47.5 114.999 -47.5h319v-108h-589c-82 0 -151.833 28.833 -209.5 86.5s-86.5 126.834 -86.5 207.501c0 81.333 29 151 87 209
s127.667 87 209 87h889v250c0 21.333 -9.5 39.166 -28.5 53.499s-34.5 21.5 -46.5 21.5h-336c-16 -2.66699 -28.167 -8.33398 -36.5 -17.001s-12.5 -19.334 -12.5 -32.001v-99h-404v103c0 37.333 12.5 68.5 37.5 93.5s55.5 37.5 91.5 37.5h932
c58.667 0 107.834 -20.5 147.501 -61.5s59.5 -90.167 59.5 -147.5v-360z" />
    <glyph glyph-name="afii57422" unicode="&#x62e;" horiz-adv-x="1655" arabic-form="isolated" 
d="M1615 0l-1023 0.00292969c-43.333 0 -82 -15.333 -116 -46c-30.667 -32 -46 -70.667 -46 -116c0 -44.667 15.667 -82.834 47 -114.501s69.666 -47.5 114.999 -47.5h319v-108h-589c-82 0 -151.833 28.833 -209.5 86.5s-86.5 126.834 -86.5 207.501c0 81.333 29 151 87 209
s127.667 87 209 87h889v250c0 21.333 -9.5 39.166 -28.5 53.499s-34.5 21.5 -46.5 21.5h-336c-16 -2.66699 -28.167 -8.33398 -36.5 -17.001s-12.5 -19.334 -12.5 -32.001v-99h-404v103c0 37.333 12.5 68.5 37.5 93.5s55.5 37.5 91.5 37.5h932
c58.667 0 107.834 -20.5 147.501 -61.5s59.5 -90.167 59.5 -147.5v-360zM1055 771.503c-30 -27 -63 -40.5 -99 -40.5c-42.667 0 -77.667 14.333 -105 43c-26.667 35.333 -40 69 -40 101c0 40.667 14 75 42 103s62.333 42 103 42c40 0 74 -14 102 -42s42 -62.333 42 -103
c0 -42 -15 -76.5 -45 -103.5z" />
    <glyph glyph-name="afii57423" unicode="&#x62f;" horiz-adv-x="1164" arabic-form="isolated" 
d="M712 158v250c0 22 -7 40 -21 54s-31.333 21 -52 21h-593v86h863c60 0 109.667 -20.5 149 -61.5s59 -90.167 59 -147.5v-360h-1071v158h666z" />
    <glyph glyph-name="afii57424" unicode="&#x630;" horiz-adv-x="1164" arabic-form="isolated" 
d="M712 158v250c0 22 -7 40 -21 54s-31.333 21 -52 21h-593v86h863c60 0 109.667 -20.5 149 -61.5s59 -90.167 59 -147.5v-360h-1071v158h666zM504 746c-28 -28 -62.667 -42 -104 -42c-40.667 0 -75 14 -103 42s-42 62.333 -42 103c0 40 14.167 74.333 42.5 103
s62.5 43 102.5 43c41.333 0 76 -14 104 -42s42 -62.667 42 -104c0 -40.667 -14 -75 -42 -103z" />
    <glyph glyph-name="afii57425" unicode="&#x631;" horiz-adv-x="730" arabic-form="isolated" 
d="M-27 -324h237c22 0 39 7.66699 51 23c14 14 21 31 21 51v751h-85v68h261l120 6l66 12l43 13v-850c0 -51.333 -17.5 -94.5 -52.5 -129.5s-77.833 -52.5 -128.5 -52.5h-533v108z" />
    <glyph glyph-name="afii57426" unicode="&#x632;" horiz-adv-x="730" arabic-form="isolated" 
d="M-27 -324h237c22 0 39 7.66699 51 23c14 14 21 31 21 51v751h-85v68h261l120 6l66 12l43 13v-850c0 -51.333 -17.5 -94.5 -52.5 -129.5s-77.833 -52.5 -128.5 -52.5h-533v108zM576.5 746.5c-29 -28.333 -63.167 -42.5 -102.5 -42.5c-38 0 -72.333 14 -103 42
c-28 28.667 -42 63 -42 103c0 41.333 14 76 42 104s62.333 42 103 42c41.333 0 76 -14 104 -42s42 -62.667 42 -104c0 -40 -14.5 -74.167 -43.5 -102.5z" />
    <glyph glyph-name="afii57427" unicode="&#x633;" horiz-adv-x="2280" arabic-form="isolated" 
d="M1825 159v410h176h52l84 7l56 12l37 12v-441c0 -44 -15.5 -81.5 -46.5 -112.5s-68.5 -46.5 -112.5 -46.5h-943v-274c0 -44 -15.5 -81.5 -46.5 -112.5s-68.5 -46.5 -112.5 -46.5l-755 1c-46 0 -84 16.5 -114 49.5s-45 69.167 -45 108.5v684c0 44 15.5 81.5 46.5 112.5
s68.5 46.5 112.5 46.5h248v-887h262v887h404v-410h145v410h404v-410h148z" />
    <glyph glyph-name="afii57428" unicode="&#x634;" horiz-adv-x="2280" arabic-form="isolated" 
d="M1825 159v410h176h52l84 7l56 12l37 12v-441c0 -44 -15.5 -81.5 -46.5 -112.5s-68.5 -46.5 -112.5 -46.5h-943v-274c0 -44 -15.5 -81.5 -46.5 -112.5s-68.5 -46.5 -112.5 -46.5l-755 1c-46 0 -84 16.5 -114 49.5s-45 69.167 -45 108.5v684c0 44 15.5 81.5 46.5 112.5
s68.5 46.5 112.5 46.5h248v-887h262v887h404v-410h145v410h404v-410h148zM1568 984c-28 -28 -62.667 -42 -104 -42c-40.667 0 -75 14 -103 42s-42 62.667 -42 104c0 40 14.167 74.167 42.5 102.5s62.5 42.5 102.5 42.5c41.333 0 75.333 -14.333 102 -43
c29.333 -29.333 44 -63.333 44 -102c0 -41.333 -14 -76 -42 -104zM1724 720c-28 -28 -62.667 -42 -104 -42c-40.667 0 -75 14 -103 42s-42 62.667 -42 104c0 40 14.167 74.167 42.5 102.5s62.5 42.5 102.5 42.5c41.333 0 76 -14 104 -42s42 -62.333 42 -103
c0 -41.333 -14 -76 -42 -104zM1412 720c-28 -28 -62.667 -42 -104 -42c-40.667 0 -75 14 -103 42s-42 62.667 -42 104c0 40 14.167 74.167 42.5 102.5s62.5 42.5 102.5 42.5c41.333 0 76 -14 104 -42s42 -62.333 42 -103c0 -41.333 -14 -76 -42 -104z" />
    <glyph glyph-name="afii57429" unicode="&#x635;" horiz-adv-x="2123" arabic-form="isolated" 
d="M1305 483c-45.333 0 -87.666 -21.667 -126.999 -65s-59 -80.666 -59 -111.999v-148h552v250c0 19.333 -8.33301 36.666 -25 51.999s-33.334 23 -50.001 23h-291zM1075 587l44 13v-139c18 30 38.333 51.333 61 64c44 29.333 91.667 44 143 44h544
c60 0 109.833 -20.5 149.5 -61.5s59.5 -90.167 59.5 -147.5v-360h-959v-274c0 -44 -15.5 -81.5 -46.5 -112.5s-68.5 -46.5 -112.5 -46.5l-753 1c-46 0 -84 16.5 -114 49.5s-45 69.167 -45 108.5v684c0 44 15.5 81.5 46.5 112.5s68.5 46.5 112.5 46.5h246v-888h263v357v529
l175 2l60 1l77 6z" />
    <glyph glyph-name="afii57430" unicode="&#x636;" horiz-adv-x="2123" arabic-form="isolated" 
d="M1305 483c-45.333 0 -87.666 -21.667 -126.999 -65s-59 -80.666 -59 -111.999v-148h552v250c0 19.333 -8.33301 36.666 -25 51.999s-33.334 23 -50.001 23h-291zM1075 587l44 13v-139c18 30 38.333 51.333 61 64c44 29.333 91.667 44 143 44h544
c60 0 109.833 -20.5 149.5 -61.5s59.5 -90.167 59.5 -147.5v-360h-959v-274c0 -44 -15.5 -81.5 -46.5 -112.5s-68.5 -46.5 -112.5 -46.5l-753 1c-46 0 -84 16.5 -114 49.5s-45 69.167 -45 108.5v684c0 44 15.5 81.5 46.5 112.5s68.5 46.5 112.5 46.5h246v-888h263v357v529
l175 2l60 1l77 6zM1637.5 746.5c-29 -28.333 -62.833 -42.5 -101.5 -42.5c-41.333 0 -76 14 -104 42s-42 62.333 -42 103c0 41.333 14 76 42 104s62.667 42 104 42c40.667 0 74.667 -14.667 102 -44c28.667 -28.667 43 -62.667 43 -102c0 -40 -14.5 -74.167 -43.5 -102.5z
" />
    <glyph glyph-name="afii57431" unicode="&#x637;" horiz-adv-x="1566" arabic-form="isolated" 
d="M744 483c-44.667 0 -86.833 -21.667 -126.5 -65s-59.5 -80.666 -59.5 -111.999v-148h552v250c0 21.333 -9.5 39.166 -28.5 53.499s-34.5 21.5 -46.5 21.5h-291zM513.001 1221l44.999 14v-774c18 30 38.667 51.333 62 64c42 29.333 89 44 141 44h546
c58.667 0 107.834 -20.5 147.501 -61.5s59.5 -90.167 59.5 -147.5v-360h-1466v158h105v978h-85v66h261c54.667 0 99.667 3 135 9z" />
    <glyph glyph-name="afii57432" unicode="&#x638;" horiz-adv-x="1566" arabic-form="isolated" 
d="M744 483c-44.667 0 -86.833 -21.667 -126.5 -65s-59.5 -80.666 -59.5 -111.999v-148h552v250c0 21.333 -9.5 39.166 -28.5 53.499s-34.5 21.5 -46.5 21.5h-291zM513.001 1221l44.999 14v-774c18 30 38.667 51.333 62 64c42 29.333 89 44 141 44h546
c58.667 0 107.834 -20.5 147.501 -61.5s59.5 -90.167 59.5 -147.5v-360h-1466v158h105v978h-85v66h261c54.667 0 99.667 3 135 9zM1079 746c-28 -28 -62.667 -42 -104 -42c-40.667 0 -75 14 -103 42s-42 62.333 -42 103c0 40 14.167 74.333 42.5 103s62.5 43 102.5 43
c41.333 0 76 -14 104 -42s42 -62.667 42 -104c0 -40.667 -14 -75 -42 -103z" />
    <glyph glyph-name="afii57433" unicode="&#x639;" horiz-adv-x="1765" arabic-form="isolated" 
d="M599 0c-42 0 -78.6641 -15.334 -109.997 -46.001c-28.667 -32 -43 -70.667 -43 -116c0 -44.667 15.667 -82.834 47 -114.501s69.666 -47.5 114.999 -47.5h429v-108h-699c-83.333 0 -153.5 31 -210.5 93s-85.5 129.667 -85.5 203c0 80.667 29 150 87 208
s127.667 87 209 87h99v203c0 56.667 20.167 105.334 60.5 146.001s89.166 61 146.499 61h931c37.333 0 68.166 -13 92.499 -39s36.5 -56.667 36.5 -92v-103h-403v100c-1.33301 14 -6.33301 25.667 -15 35l-35 13h-336c-20 0 -37.167 -7.16699 -51.5 -21.5
s-21.5 -32.166 -21.5 -53.499v-249h865v-159h-1108z" />
    <glyph glyph-name="afii57434" unicode="&#x63a;" horiz-adv-x="1765" arabic-form="isolated" 
d="M599 0c-42 0 -78.6641 -15.334 -109.997 -46.001c-28.667 -32 -43 -70.667 -43 -116c0 -44.667 15.667 -82.834 47 -114.501s69.666 -47.5 114.999 -47.5h429v-108h-699c-83.333 0 -153.5 31 -210.5 93s-85.5 129.667 -85.5 203c0 80.667 29 150 87 208
s127.667 87 209 87h99v203c0 56.667 20.167 105.334 60.5 146.001s89.166 61 146.499 61h931c37.333 0 68.166 -13 92.499 -39s36.5 -56.667 36.5 -92v-103h-403v100c-1.33301 14 -6.33301 25.667 -15 35l-35 13h-336c-20 0 -37.167 -7.16699 -51.5 -21.5
s-21.5 -32.166 -21.5 -53.499v-249h865v-159h-1108zM1215 745.999c-28 -28 -62.333 -42 -103 -42c-38 0 -72.667 14 -104 42c-28 28.667 -42 63 -42 103s14.333 74.333 43 103s63 43 103 43c40.667 0 75 -14 103 -42s42 -62.667 42 -104c0 -40.667 -14 -75 -42 -103z" />
    <glyph glyph-name="afii57441" unicode="&#x641;" horiz-adv-x="2161" arabic-form="isolated" 
d="M1450 468l-13 -33.999v-195c0 -23.333 7 -43 21 -59c26 -14.667 43 -22 51 -22h204v250c0 21.333 -9.5 39.166 -28.5 53.499s-34.5 21.5 -46.5 21.5h-153c-14 -0.666992 -25.667 -5.66699 -35 -15zM457 158.001h698.001c-41.333 12 -72.333 30 -93 54
c-20 26 -30 57 -30 93v133c0 36 12.667 66.833 38 92.5s56 38.5 92 38.5h747c59.333 0 108.666 -20.5 147.999 -61.5s59 -90.167 59 -147.5v-360h-1822h-83c-44 0 -81.5 15.5 -112.5 46.5s-46.5 68.5 -46.5 112.5v251c0 44 15.5 81.5 46.5 112.5s68.5 46.5 112.5 46.5h335
v-86h-89v-325zM1700.5 746.501c-29 -28.333 -62.833 -42.5 -101.5 -42.5c-41.333 0 -76 14 -104 42s-42 62.333 -42 103c0 41.333 14 76 42 104s62.667 42 104 42c40.667 0 74.667 -14.667 102 -44c28.667 -28.667 43 -62.667 43 -102c0 -40 -14.5 -74.167 -43.5 -102.5z
" />
    <glyph glyph-name="afii57442" unicode="&#x642;" horiz-adv-x="1637" arabic-form="isolated" 
d="M1176 0h-587.001v362c0 58 20.333 107.167 61 147.5s89.334 60.5 146.001 60.5h575c60 0 109.667 -20.5 149 -61.5s59 -89.833 59 -146.5v-635c0 -44 -15.5 -81.5 -46.5 -112.5s-68.5 -46.5 -112.5 -46.5l-1209 2c-46 0 -84 16.5 -114 49.5s-45 68.833 -45 107.5v684
c0 44 15.5 81.5 46.5 112.5s68.5 46.5 112.5 46.5h246l-1 -892h720v322zM993.999 159l180 -0.000976562v251c0 20.667 -9.66699 38.334 -29 53.001s-34 22 -44 22h-33c-21.333 0 -39 -7.5 -53 -22.5s-21 -32.5 -21 -52.5v-251zM1335 746.999c-28 -28 -62.667 -42 -104 -42
c-40.667 0 -75 14 -103 42s-42 62.667 -42 104c0 40 14.167 74.167 42.5 102.5s62.5 42.5 102.5 42.5c41.333 0 75.333 -14.333 102 -43c29.333 -29.333 44 -63.333 44 -102c0 -41.333 -14 -76 -42 -104zM1018.5 747.999c-29 -28.667 -63.167 -43 -102.5 -43
c-40.667 0 -75 14 -103 42s-42 62.667 -42 104c0 40.667 14 75 42 103s62.333 42 103 42c41.333 0 75.333 -14.333 102 -43c29.333 -29.333 44 -63.333 44 -102c0 -40 -14.5 -74.333 -43.5 -103z" />
    <glyph glyph-name="afii57443" unicode="&#x643;" horiz-adv-x="1851" arabic-form="isolated" 
d="M609 483l835 750.001h453l-741 -664h425c60 0 109.667 -20.5 149 -61.5s59 -90.167 59 -147.5v-201c1.33301 -44 -13.5 -81.5 -44.5 -112.5s-68.5 -46.5 -112.5 -46.5h-1424c-44 0 -81.5 15.833 -112.5 47.5s-46.5 68.5 -46.5 110.5v252c0 44 15.5 81.5 46.5 112.5
s68.5 46.5 112.5 46.5h333v-86h-87v-325h930v250c0 21.333 -9.66699 39.166 -29 53.499s-34 21.5 -44 21.5h-702z" />
    <glyph glyph-name="afii57444" unicode="&#x644;" horiz-adv-x="1357" arabic-form="isolated" 
d="M1261 1220l42 13v-1074c0 -46 -16.5 -84 -49.5 -114s-69.167 -45 -108.5 -45h-936c-44 -0 -81.5 15.833 -112.5 47.5s-46.5 68.5 -46.5 110.5v252c0 44 15.5 81.5 46.5 112.5s68.5 46.5 112.5 46.5h333v-86h-88v-325h445v976h-85v68h261h46l89 7z" />
    <glyph glyph-name="afii57445" unicode="&#x645;" horiz-adv-x="1604" arabic-form="isolated" 
d="M1154 159v252c0 20 -7 37 -21 51s-31 21 -51 21h-33c-20 0 -37 -7 -51 -21s-21 -31 -21 -51v-252h177zM573 459h-120v-891h-246c-44 0 -81.5 15.5 -112.5 46.5s-46.5 68.5 -46.5 112.5v683c0 44 15.5 81.5 46.5 112.5s68.5 46.5 112.5 46.5h1193
c44 0 81.5 -15.5 112.5 -46.5s46.5 -68.5 46.5 -112.5v-410h-827c-44 0 -81.5 15.5 -112.5 46.5s-46.5 68.5 -46.5 112.5v300z" />
    <glyph glyph-name="afii57446" unicode="&#x646;" horiz-adv-x="1405" arabic-form="isolated" 
d="M802 720c-28 -28 -62.667 -42 -104 -42c-40.667 0 -75 14 -103 42s-42 62.667 -42 104c0 40 14.167 74.167 42.5 102.5s62.5 42.5 102.5 42.5c41.333 0 75.333 -14.333 102 -43c29.333 -29.333 44 -63.333 44 -102c0 -41.333 -14 -76 -42 -104zM1348 -273
c0 -44 -15.5 -81.5 -46.5 -112.5s-68.5 -46.5 -112.5 -46.5h-980c-44 0 -81.5 15.5 -112.5 46.5s-46.5 68.5 -46.5 112.5v684c0 39.333 15 75.5 45 108.5s68 49.5 114 49.5h248v-885h484v885h248c42 0 79 -15.333 111 -46s48 -68 48 -112v-684z" />
    <glyph glyph-name="afii57470" unicode="&#x647;" horiz-adv-x="1207" arabic-form="isolated" 
d="M532 483c-21.333 0 -39 -7 -53 -21s-21 -31.333 -21 -52v-251h291v324h-217zM1151 0l-1098 -0.000976562v362c0 56.667 20.333 105.334 61 146.001s90 61 148 61h663c54.667 0 99.667 3 135 9l49 10l44 14z" />
    <glyph glyph-name="afii57448" unicode="&#x648;" horiz-adv-x="1153" arabic-form="isolated" 
d="M1042 508c39.333 -40.667 59.001 -89.334 59.001 -146.001v-612c0 -52 -18 -94.667 -54 -128c-34.667 -34.667 -77 -52 -127 -52h-875v108h579c21.333 0 39 7 53 21s21 31 21 51v250h-651v362c0 56.667 20.167 105.334 60.5 146.001s89.166 61 146.499 61h639
c60 0 109.667 -20.333 149 -61zM450.001 159h246.001v251c0 20 -9.5 37.167 -28.5 51.5s-34.5 21.5 -46.5 21.5h-96c-20.667 0 -38.334 -7.16699 -53.001 -21.5s-22 -31.5 -22 -51.5v-251z" />
    <glyph glyph-name="afii57449" unicode="&#x649;" horiz-adv-x="1728" arabic-form="isolated" 
d="M1273 0h-585.999v362c0 58 20.167 107.167 60.5 147.5s89.166 60.5 146.499 60.5h765l-2 -160h-555v-251h575v-268c0 -44 -15.5 -81.5 -46.5 -112.5s-68.5 -46.5 -112.5 -46.5h-1311c-45.333 0 -83 18 -113 54s-45 71 -45 105v520c0 44 15.833 81.5 47.5 112.5
s68.5 46.5 110.5 46.5h247l-1 -729h820v159z" />
    <glyph glyph-name="afii57450" unicode="&#x64a;" horiz-adv-x="1728" arabic-form="isolated" 
d="M1273 0h-585.999v362c0 58 20.167 107.167 60.5 147.5s89.166 60.5 146.499 60.5h765l-2 -160h-555v-251h575v-268c0 -44 -15.5 -81.5 -46.5 -112.5s-68.5 -46.5 -112.5 -46.5h-1311c-45.333 0 -83 18 -113 54s-45 71 -45 105v520c0 44 15.833 81.5 47.5 112.5
s68.5 46.5 110.5 46.5h247l-1 -729h820v159z" />
    <glyph glyph-name="afii57506" unicode="&#x67e;" horiz-adv-x="1796" arabic-form="isolated" 
d="M1704 587l44 15v-443c0 -44 -15.5 -81.5 -46.5 -112.5s-68.5 -46.5 -112.5 -46.5h-1380c-44 0 -81.667 15.667 -113 47c-30 32.667 -45 70 -45 112v252c0 44 15.333 81.333 46 112s68 46 112 46h334v-86h-88v-324h889l-1 344h-84v66h259c56 0 101.667 3 137 9zM1063 -543
c0 -39.333 -14.334 -73.333 -43.001 -102c-27.333 -29.333 -61.333 -44 -102 -44c-39.333 0 -73.166 14 -101.499 42s-42.5 62.667 -42.5 104c0 40.667 14 75 42 103s62 42 102 42c40.667 0 75 -14 103 -42s42 -62.333 42 -103zM1219 -279
c0 -39.333 -14.333 -73.333 -43 -102c-27.333 -29.333 -61.333 -44 -102 -44c-40 0 -74.333 14.333 -103 43s-43 63 -43 103c0 40.667 14 75 42 103s62.667 42 104 42c40.667 0 75 -14 103 -42s42 -62.333 42 -103zM908.999 -279c0 -39.333 -14.667 -73.333 -44 -102
c-26.667 -29.333 -60.667 -44 -102 -44c-40.667 0 -75 14 -103 42s-42 62.667 -42 104c0 40.667 14 75 42 103s62.333 42 103 42c39.333 0 73.5 -14.167 102.5 -42.5s43.5 -62.5 43.5 -102.5z" />
    <glyph glyph-name="afii57507" unicode="&#x686;" horiz-adv-x="1655" arabic-form="isolated" 
d="M1615 0l-1023 0.00292969c-43.333 0 -82 -15.333 -116 -46c-30.667 -32 -46 -70.667 -46 -116c0 -44.667 15.667 -82.834 47 -114.501s69.666 -47.5 114.999 -47.5h319v-108h-589c-82 0 -151.833 28.833 -209.5 86.5s-86.5 126.834 -86.5 207.501c0 81.333 29 151 87 209
s127.667 87 209 87h889v250c0 21.333 -9.5 39.166 -28.5 53.499s-34.5 21.5 -46.5 21.5h-336c-16 -2.66699 -28.167 -8.33398 -36.5 -17.001s-12.5 -19.334 -12.5 -32.001v-99h-404v103c0 37.333 12.5 68.5 37.5 93.5s55.5 37.5 91.5 37.5h932
c58.667 0 107.834 -20.5 147.501 -61.5s59.5 -90.167 59.5 -147.5v-360zM1439 -480.997c0 -39.333 -14.334 -73.333 -43.001 -102c-27.333 -29.333 -61.333 -44 -102 -44c-39.333 0 -73.166 14 -101.499 42s-42.5 62.667 -42.5 104c0 40.667 14 75 42 103s62 42 102 42
c40.667 0 75 -14 103 -42s42 -62.333 42 -103zM1595 -216.997c0 -39.333 -14.333 -73.333 -43 -102c-27.333 -29.333 -61.333 -44 -102 -44c-40 0 -74.333 14.333 -103 43s-43 63 -43 103c0 40.667 14 75 42 103s62.667 42 104 42c40.667 0 75 -14 103 -42
s42 -62.333 42 -103zM1285 -216.997c0 -39.333 -14.667 -73.333 -44 -102c-26.667 -29.333 -60.667 -44 -102 -44c-40.667 0 -75 14 -103 42s-42 62.667 -42 104c0 40.667 14 75 42 103s62.333 42 103 42c39.333 0 73.5 -14.167 102.5 -42.5s43.5 -62.5 43.5 -102.5z" />
    <glyph glyph-name="afii57508" unicode="&#x698;" horiz-adv-x="730" arabic-form="isolated" 
d="M-27 -324h237c22 0 39 7.66699 51 23c14 14 21 31 21 51v751h-85v68h261l120 6l66 12l43 13v-850c0 -51.333 -17.5 -94.5 -52.5 -129.5s-77.833 -52.5 -128.5 -52.5h-533v108zM524 1013c-28 -28 -62.332 -42 -102.999 -42c-40 0 -74 14 -102 42s-42 62.333 -42 103
c0 41.333 14.167 76 42.5 104s62.166 42 101.499 42c40.667 0 74.667 -14.667 102 -44c28.667 -28.667 43 -62.667 43 -102c0 -40.667 -14 -75 -42 -103zM680.001 749c-28 -28 -62.333 -42 -103 -42c-41.333 0 -76 14 -104 42s-42 62.333 -42 103c0 40 14.333 74.333 43 103
s63 43 103 43c40.667 0 74.667 -14.667 102 -44c28.667 -28.667 43 -62.667 43 -102c0 -40.667 -14 -75 -42 -103zM368.501 749.5c-29 -28.333 -63.167 -42.5 -102.5 -42.5c-40.667 0 -75 14 -103 42s-42 62.333 -42 103c0 41.333 14 76 42 104s62.333 42 103 42
c41.333 0 75.333 -14.667 102 -44c29.333 -28.667 44 -62.667 44 -102c0 -40 -14.5 -74.167 -43.5 -102.5z" />
    <glyph glyph-name="afii57509" unicode="&#x6af;" horiz-adv-x="1851" arabic-form="isolated" 
d="M609 483l835 750.001h453l-741 -664h425c60 0 109.667 -20.5 149 -61.5s59 -90.167 59 -147.5v-201c1.33301 -44 -13.5 -81.5 -44.5 -112.5s-68.5 -46.5 -112.5 -46.5h-1424c-44 0 -81.5 15.833 -112.5 47.5s-46.5 68.5 -46.5 110.5v252c0 44 15.5 81.5 46.5 112.5
s68.5 46.5 112.5 46.5h333v-86h-87v-325h930v250c0 21.333 -9.66699 39.166 -29 53.499s-34 21.5 -44 21.5h-702zM1118 1233h211l-621 -558l1 176z" />
    <glyph glyph-name="uniFB57" unicode="&#x67e;" horiz-adv-x="1850" arabic-form="final" 
d="M1335 158l2 343h-87v68h261l120 6l66 12l43 13v-115v-326h147v-159h-1686c-44 0 -81.5 15.5 -112.5 46.5s-46.5 68.5 -46.5 112.5v251c0 44 15.5 81.5 46.5 112.5s68.5 46.5 112.5 46.5h335v-86h-89v-325h888zM1063 -543c0 -39.333 -14.334 -73.333 -43.001 -102
c-27.333 -29.333 -61.333 -44 -102 -44c-39.333 0 -73.166 14 -101.499 42s-42.5 62.667 -42.5 104c0 40.667 14 75 42 103s62 42 102 42c40.667 0 75 -14 103 -42s42 -62.333 42 -103zM1219 -279c0 -39.333 -14.333 -73.333 -43 -102c-27.333 -29.333 -61.333 -44 -102 -44
c-40 0 -74.333 14.333 -103 43s-43 63 -43 103c0 40.667 14 75 42 103s62.667 42 104 42c40.667 0 75 -14 103 -42s42 -62.333 42 -103zM908.999 -279c0 -39.333 -14.667 -73.333 -44 -102c-26.667 -29.333 -60.667 -44 -102 -44c-40.667 0 -75 14 -103 42
s-42 62.667 -42 104c0 40.667 14 75 42 103s62.333 42 103 42c39.333 0 73.5 -14.167 102.5 -42.5s43.5 -62.5 43.5 -102.5z" />
    <glyph glyph-name="uniFB58" unicode="&#x67e;" horiz-adv-x="639" arabic-form="initial" 
d="M186 378v123h-84v68h260l121 6l66 12l42 13v-222v-219c0 -44 -15.5 -81.5 -46.5 -112.5s-68.5 -46.5 -112.5 -46.5h-453v158h207v220zM374 -543c0 -39.333 -14.334 -73.333 -43.001 -102c-27.333 -29.333 -61.333 -44 -102 -44c-39.333 0 -73.166 14 -101.499 42
s-42.5 62.667 -42.5 104c0 40.667 14 75 42 103s62 42 102 42c40.667 0 75 -14 103 -42s42 -62.333 42 -103zM529.999 -279c0 -39.333 -14.333 -73.333 -43 -102c-27.333 -29.333 -61.333 -44 -102 -44c-40 0 -74.333 14.333 -103 43s-43 63 -43 103c0 40.667 14 75 42 103
s62.667 42 104 42c40.667 0 75 -14 103 -42s42 -62.333 42 -103zM219.999 -279c0 -39.333 -14.667 -73.333 -44 -102c-26.667 -29.333 -60.667 -44 -102 -44c-40.667 0 -75 14 -103 42s-42 62.667 -42 104c0 40.667 14 75 42 103s62.333 42 103 42
c39.333 0 73.5 -14.167 102.5 -42.5s43.5 -62.5 43.5 -102.5z" />
    <glyph glyph-name="uniFB59" unicode="&#x67e;" horiz-adv-x="793" arabic-form="medial" 
d="M553 588l45 14v-443h230v-159h-866v159h231v344h-85v66h261c54.667 0 99.667 3 135 9zM489 -542c0 -39.333 -14.334 -73.333 -43.001 -102c-27.333 -29.333 -61.333 -44 -102 -44c-39.333 0 -73.166 14 -101.499 42s-42.5 62.667 -42.5 104c0 40.667 14 75 42 103
s62 42 102 42c40.667 0 75 -14 103 -42s42 -62.333 42 -103zM644.999 -278c0 -39.333 -14.333 -73.333 -43 -102c-27.333 -29.333 -61.333 -44 -102 -44c-40 0 -74.333 14.333 -103 43s-43 63 -43 103c0 40.667 14 75 42 103s62.667 42 104 42c40.667 0 75 -14 103 -42
s42 -62.333 42 -103zM334.999 -278c0 -39.333 -14.667 -73.333 -44 -102c-26.667 -29.333 -60.667 -44 -102 -44c-40.667 0 -75 14 -103 42s-42 62.667 -42 104c0 40.667 14 75 42 103s62.333 42 103 42c39.333 0 73.5 -14.167 102.5 -42.5s43.5 -62.5 43.5 -102.5z" />
    <glyph glyph-name="uniFB7B" unicode="&#x686;" horiz-adv-x="1746" arabic-form="final" 
d="M1621 159l182.001 0.000976562v-159h-1206c-44 0 -82 -16 -114 -48s-48 -70 -48 -114c0 -44.667 15.667 -82.834 47 -114.501s69.666 -47.5 114.999 -47.5h321v-108h-591c-83.333 0 -153.5 31 -210.5 93s-85.5 129.667 -85.5 203c0 80.667 29 150 87 208
s127.667 87 209 87h889v249c0 22 -7 40 -21 54s-31.333 21 -52 21h-338c-32 0 -48 -16 -48 -48v-100l-405 1v104c0 34.667 12.833 64.834 38.5 90.501s56.5 38.5 92.5 38.5h930c60 0 109.667 -20.333 149 -61s59 -89.334 59 -146.001v-203zM1439 -480.999
c0 -39.333 -14.334 -73.333 -43.001 -102c-27.333 -29.333 -61.333 -44 -102 -44c-39.333 0 -73.166 14 -101.499 42s-42.5 62.667 -42.5 104c0 40.667 14 75 42 103s62 42 102 42c40.667 0 75 -14 103 -42s42 -62.333 42 -103zM1595 -216.999
c0 -39.333 -14.333 -73.333 -43 -102c-27.333 -29.333 -61.333 -44 -102 -44c-40 0 -74.333 14.333 -103 43s-43 63 -43 103c0 40.667 14 75 42 103s62.667 42 104 42c40.667 0 75 -14 103 -42s42 -62.333 42 -103zM1285 -216.999c0 -39.333 -14.667 -73.333 -44 -102
c-26.667 -29.333 -60.667 -44 -102 -44c-40.667 0 -75 14 -103 42s-42 62.667 -42 104c0 40.667 14 75 42 103s62.333 42 103 42c39.333 0 73.5 -14.167 102.5 -42.5s43.5 -62.5 43.5 -102.5z" />
    <glyph glyph-name="uniFB7C" unicode="&#x686;" horiz-adv-x="1464" arabic-form="initial" 
d="M-51 159h1061v249c0 22 -7 40 -21 54s-31.667 21 -53 21h-337c-14 -0.666992 -25.667 -5.66699 -35 -15l-13 -34v-99h-405v103c0 36 12.667 66.833 38 92.5s56 38.5 92 38.5h930c60 0 109.833 -20.5 149.5 -61.5s59.5 -90.167 59.5 -147.5v-360h-1466v159zM910 -482
c0 -39.333 -14.334 -73.333 -43.001 -102c-27.333 -29.333 -61.333 -44 -102 -44c-39.333 0 -73.166 14 -101.499 42s-42.5 62.667 -42.5 104c0 40.667 14 75 42 103s62 42 102 42c40.667 0 75 -14 103 -42s42 -62.333 42 -103zM1066 -218
c0 -39.333 -14.333 -73.333 -43 -102c-27.333 -29.333 -61.333 -44 -102 -44c-40 0 -74.333 14.333 -103 43s-43 63 -43 103c0 40.667 14 75 42 103s62.667 42 104 42c40.667 0 75 -14 103 -42s42 -62.333 42 -103zM755.999 -218c0 -39.333 -14.667 -73.333 -44 -102
c-26.667 -29.333 -60.667 -44 -102 -44c-40.667 0 -75 14 -103 42s-42 62.667 -42 104c0 40.667 14 75 42 103s62.333 42 103 42c39.333 0 73.5 -14.167 102.5 -42.5s43.5 -62.5 43.5 -102.5z" />
    <glyph glyph-name="uniFB7D" unicode="&#x686;" horiz-adv-x="1517" arabic-form="medial" 
d="M1556 0l-1599 0.000976562v159h1016v249c0 21.333 -9.5 39.166 -28.5 53.499s-34.5 21.5 -46.5 21.5h-336c-32 0 -48 -16 -48 -48v-100l-405 1v104c0 34.667 12.667 64.834 38 90.501s56 38.5 92 38.5h930c59.333 0 108.666 -20.333 147.999 -61s59 -89.334 59 -146.001
v-203h180v-159zM910.001 -481.999c0 -39.333 -14.334 -73.333 -43.001 -102c-27.333 -29.333 -61.333 -44 -102 -44c-39.333 0 -73.166 14 -101.499 42s-42.5 62.667 -42.5 104c0 40.667 14 75 42 103s62 42 102 42c40.667 0 75 -14 103 -42s42 -62.333 42 -103z
M1066 -217.999c0 -39.333 -14.333 -73.333 -43 -102c-27.333 -29.333 -61.333 -44 -102 -44c-40 0 -74.333 14.333 -103 43s-43 63 -43 103c0 40.667 14 75 42 103s62.667 42 104 42c40.667 0 75 -14 103 -42s42 -62.333 42 -103zM756 -217.999
c0 -39.333 -14.667 -73.333 -44 -102c-26.667 -29.333 -60.667 -44 -102 -44c-40.667 0 -75 14 -103 42s-42 62.667 -42 104c0 40.667 14 75 42 103s62.333 42 103 42c39.333 0 73.5 -14.167 102.5 -42.5s43.5 -62.5 43.5 -102.5z" />
    <glyph glyph-name="uniFB8B" unicode="&#x698;" horiz-adv-x="849" arabic-form="final" 
d="M686 159h212v-159h-212v-250c0 -51.333 -17.5 -94.5 -52.5 -129.5s-77.833 -52.5 -128.5 -52.5h-533v110h237c21.333 0 39 7 53 21s21 31 21 51v753h-86v66h260c54.667 0 99.667 3 135 9l49 10l45 14v-443zM524 1013c-28 -28 -62.332 -42 -102.999 -42
c-40 0 -74 14 -102 42s-42 62.333 -42 103c0 41.333 14.167 76 42.5 104s62.166 42 101.499 42c40.667 0 74.667 -14.667 102 -44c28.667 -28.667 43 -62.667 43 -102c0 -40.667 -14 -75 -42 -103zM680.001 749c-28 -28 -62.333 -42 -103 -42c-41.333 0 -76 14 -104 42
s-42 62.333 -42 103c0 40 14.333 74.333 43 103s63 43 103 43c40.667 0 74.667 -14.667 102 -44c28.667 -28.667 43 -62.667 43 -102c0 -40.667 -14 -75 -42 -103zM368.501 749.5c-29 -28.333 -63.167 -42.5 -102.5 -42.5c-40.667 0 -75 14 -103 42s-42 62.333 -42 103
c0 41.333 14 76 42 104s62.333 42 103 42c41.333 0 75.333 -14.667 102 -44c29.333 -28.667 44 -62.667 44 -102c0 -40 -14.5 -74.167 -43.5 -102.5z" />
    <glyph glyph-name="uniFB8F" unicode="&#x6a9;" horiz-adv-x="1931" arabic-form="final" 
d="M1789 177l10 -18.999h171v-158h-1762c-44 0 -81.5 15.833 -112.5 47.5s-46.5 68.5 -46.5 110.5v252c0 44 15.5 81.5 46.5 112.5s68.5 46.5 112.5 46.5h333v-86h-87v-325h930v250c0 21.333 -9.66699 39.166 -29 53.499s-34 21.5 -44 21.5h-702l835 750h453l-741 -664h425
c60 0 109.667 -20.5 149 -61.5s59 -90.167 59 -147.5v-183z" />
    <glyph glyph-name="uniFB90" unicode="&#x6a9;" horiz-adv-x="1639" arabic-form="initial" 
d="M1437 1233l-741 -663.999h680c60 0 109.667 -20.5 149 -61.5s59 -90.167 59 -147.5v-360h-1632v158h1227v250c0 21.333 -9.66699 39.166 -29 53.499s-34 21.5 -44 21.5h-957l835 750h453z" />
    <glyph glyph-name="uniFB91" unicode="&#x6a9;" horiz-adv-x="1733" arabic-form="medial" 
d="M1780 0l-1824 0.000976562v159h1229v251c0 20.667 -7.5 38 -22.5 52s-32.5 21 -52.5 21h-956l836 750h451l-739 -664h679c59.333 0 108.666 -20.333 147.999 -61s59 -89.334 59 -146.001v-203h192v-159z" />
    <glyph glyph-name="uniFB93" unicode="&#x6af;" horiz-adv-x="1931" arabic-form="final" 
d="M1118 1233h211l-621 -558l1 176zM1789 177l10 -18.999h171v-158h-1762c-44 0 -81.5 15.833 -112.5 47.5s-46.5 68.5 -46.5 110.5v252c0 44 15.5 81.5 46.5 112.5s68.5 46.5 112.5 46.5h333v-86h-87v-325h930v250c0 21.333 -9.66699 39.166 -29 53.499s-34 21.5 -44 21.5
h-702l835 750h453l-741 -664h425c60 0 109.667 -20.5 149 -61.5s59 -90.167 59 -147.5v-183z" />
    <glyph glyph-name="uniFB94" unicode="&#x6af;" horiz-adv-x="1639" arabic-form="initial" 
d="M1437 1233l-741 -663.999h680c60 0 109.667 -20.5 149 -61.5s59 -90.167 59 -147.5v-360h-1632v158h1227v250c0 21.333 -9.66699 39.166 -29 53.499s-34 21.5 -44 21.5h-957l835 750h453zM638 1233h211l-621 -558l1 176z" />
    <glyph glyph-name="uniFB95" unicode="&#x6af;" horiz-adv-x="1733" arabic-form="medial" 
d="M1780 0l-1824 0.000976562v159h1229v251c0 20.667 -7.5 38 -22.5 52s-32.5 21 -52.5 21h-956l836 750h451l-739 -664h679c59.333 0 108.666 -20.333 147.999 -61s59 -89.334 59 -146.001v-203h192v-159zM638.001 1233h211l-621 -558l1 176z" />
    <glyph glyph-name="uniFBA5" unicode="&#x6c0;" horiz-adv-x="1414" arabic-form="final" 
d="M526 483c-21.333 0 -39 -7 -53 -21s-21 -31.333 -21 -52v-251h432v149c0 38 -19 76.667 -57 116s-81 59 -129 59h-172zM1289 159l165 -0.000976562v-159h-1407v362c0 56.667 20.333 105.334 61 146.001s90 61 148 61h424c53.333 0 101.333 -14.667 144 -44
c34 -22 54 -43 60 -63v107h176l120 6l66 12l43 13v-441zM123 797.999l-0.00195312 -49h444v49h-267v76l7 10l18 13h103l9 -10l4 -4v-30h126v30c0 26.667 -14 40 -42 40h-285c-17.333 0 -30.666 -4.5 -39.999 -13.5s-16.666 -26.167 -21.999 -51.5v-60h-55z" />
    <glyph glyph-name="uniFBFD" unicode="&#x6cc;" horiz-adv-x="1745" arabic-form="final" 
d="M1608 0l0.999023 -161c0 -44 -15.833 -81.333 -47.5 -112s-69.5 -46 -113.5 -46h-1209c-44 0 -81.5 15.5 -112.5 46.5s-46.5 68.5 -46.5 112.5v311c0 43.333 15.833 80.5 47.5 111.5s68.834 46.5 111.501 46.5h246v-520h719v210h-429v160h1066v-159h-233z" />
    <glyph glyph-name="uniFBFE" unicode="&#x6cc;" horiz-adv-x="701" arabic-form="initial" 
d="M261 378v123h-84v68h260l121 6l66 12l42 13v-222v-219c0 -44 -15.5 -81.5 -46.5 -112.5s-68.5 -46.5 -112.5 -46.5h-528v158h282v220zM566 -343c-29.333 -29.333 -63.333 -44 -102 -44c-40 0 -74.333 14.5 -103 43.5s-43 63.167 -43 102.5c0 40.667 14 75 42 103
s62.667 42 104 42c40.667 0 75 -14 103 -42s42 -62.333 42 -103c0 -41.333 -14.333 -75.333 -43 -102zM254 -343c-29.333 -29.333 -63.333 -44 -102 -44c-40 0 -74.333 14.5 -103 43.5s-43 63.167 -43 102.5c0 40.667 14 75 42 103s62.667 42 104 42
c40.667 0 75 -14 103 -42s42 -62.333 42 -103c0 -41.333 -14.333 -75.333 -43 -102z" />
    <glyph glyph-name="uniFBFF" unicode="&#x6cc;" horiz-adv-x="811" arabic-form="medial" 
d="M563 588l45 14v-443h230v-159h-866v159h231v344h-85v66h261c54.667 0 99.667 3 135 9zM667 -357c-29.333 -28.667 -63.333 -43 -102 -43c-41.333 0 -76 14 -104 42s-42 62.333 -42 103c0 41.333 14 76 42 104s62.667 42 104 42c40 0 74.167 -14.333 102.5 -43
s42.5 -63 42.5 -103c0 -40.667 -14.333 -74.667 -43 -102zM355 -357c-29.333 -28.667 -63.333 -43 -102 -43c-41.333 0 -76 14 -104 42s-42 62.333 -42 103c0 41.333 14 76 42 104s62.667 42 104 42c40 0 74.167 -14.333 102.5 -43s42.5 -63 42.5 -103
c0 -40.667 -14.333 -74.667 -43 -102z" />
    <glyph glyph-name="uniFE82" unicode="&#x622;" horiz-adv-x="633" arabic-form="final" 
d="M161.5 46.5c-31 31 -46.5 68.5 -46.5 112.5v975h-84v68h260h52l84 7l56 12l37 12v-1075h167v-158h-413c-44 0 -81.5 15.5 -112.5 46.5zM189 1107c-16 -12.667 -28.667 -26.666 -38 -41.999l-12 -24v-9l33 23c38 14.667 62.667 22 74 22c6.66699 0 20 -6 40 -18l24 -13
l18 -8l26 -6l24 -3l37 8c16 8 29.333 17.167 40 27.5s19 25.166 25 44.499l9 30l-30 -27c-30 -15.333 -47.667 -23 -53 -23c-10 0 -33 7.83301 -69 23.5s-59.333 23.5 -70 23.5c-27.333 0 -53.333 -9.66699 -78 -29z" />
    <glyph glyph-name="uniFE84" unicode="&#x623;" horiz-adv-x="633" arabic-form="final" 
d="M161.5 46.5c-31 31 -46.5 68.5 -46.5 112.5v975h-84v68h260h52l84 7l56 12l37 12v-1075h167v-158h-413c-44 0 -81.5 15.5 -112.5 46.5zM156 1035v-32.999h307v33h-184v54c0 9.33301 5.33301 14.333 16 15h71l9 -4l1 -5v-22h87v22l-3 8l-9 13l-16 8h-198
c-6 0 -13.833 -3.33301 -23.5 -10s-16.5 -18.334 -20.5 -35.001v-44h-37z" />
    <glyph glyph-name="uniFE86" unicode="&#x624;" horiz-adv-x="1222" arabic-form="final" 
d="M1104 159h153v-159h-153v-250c0 -51.333 -17.5 -94.5 -52.5 -129.5s-77.5 -52.5 -127.5 -52.5h-875v108h579c22 0 39 7.66699 51 23c14 14 21 31 21 51v250h-649v360c0 58 20.167 107.333 60.5 148s89.166 61 146.499 61h639c58.667 0 107.834 -20.5 147.501 -61.5
s59.5 -90.167 59.5 -147.5v-201zM454 159h246.001v249c0 21.333 -9.5 39.166 -28.5 53.499s-34.5 21.5 -46.5 21.5h-96c-20.667 0 -38.334 -7.16699 -53.001 -21.5s-22 -32.166 -22 -53.499v-249zM334.001 827v87c0 24 8.83301 44.667 26.5 62s38.5 26 62.5 26h396
c18 0 31.667 -5.5 41 -16.5s14 -23.833 14 -38.5v-45h-172v43c-5.33301 6 -9.5 10.333 -12.5 13s-5.83301 5 -8.5 7h-143c-20.667 0 -31 -10.667 -31 -32v-106h367v-66h-615v66h75z" />
    <glyph glyph-name="uniFE88" unicode="&#x625;" horiz-adv-x="633" arabic-form="final" 
d="M161.5 46.5c-31 31 -46.5 68.5 -46.5 112.5v975h-84v68h260h52l84 7l56 12l37 12v-1075h167v-158h-413c-44 0 -81.5 15.5 -112.5 46.5zM277 -153v44c6 16 12 27.333 18 34c8 7.33301 16.667 11 26 11h198l22 -11c4 -4.66699 6 -10.667 6 -18v-22h-87v22l-4 6l-6 3h-71
c-10.667 -0.666992 -16 -5.66699 -16 -15v-54h184v-33h-307v33h37z" />
    <glyph glyph-name="uniFE8A" unicode="&#x626;" horiz-adv-x="1789" arabic-form="final" 
d="M1652 0l0.999023 -161c0 -44 -15.833 -81.333 -47.5 -112s-69.5 -46 -113.5 -46h-1209c-44 0 -81.5 15.5 -112.5 46.5s-46.5 68.5 -46.5 112.5v311c0 43.333 15.833 80.5 47.5 111.5s68.834 46.5 111.501 46.5h246v-520h719v210h-429v160h1066v-159h-233zM173.999 534v87
c0 24 8.83301 44.667 26.5 62s38.5 26 62.5 26h396c18 0 31.667 -5.5 41 -16.5s14 -23.833 14 -38.5v-45h-172v43c-5.33301 6 -9.5 10.333 -12.5 13s-5.83301 5 -8.5 7h-143c-20.667 0 -31 -10.667 -31 -32v-106h367v-66h-615v66h75z" />
    <glyph glyph-name="uniFE8B" unicode="&#x626;" horiz-adv-x="645" arabic-form="initial" 
d="M186 378v123h-84v68h260l121 6l66 12l42 13v-222v-219c0 -44 -15.5 -81.5 -46.5 -112.5s-68.5 -46.5 -112.5 -46.5h-453v158h207v220zM69 827v87c0 24 8.83301 44.667 26.5 62s38.5 26 62.5 26h396c18 0 31.667 -5.5 41 -16.5s14 -23.833 14 -38.5v-45h-172v43
c-5.33301 6 -9.5 10.333 -12.5 13s-5.83301 5 -8.5 7h-143c-20.667 0 -31 -10.667 -31 -32v-106h367v-66h-615v66h75z" />
    <glyph glyph-name="uniFE8C" unicode="&#x626;" horiz-adv-x="793" arabic-form="medial" 
d="M553 588l45 14v-443h230v-159h-866v159h231v344h-85v66h261c54.667 0 99.667 3 135 9zM78 827v87c0 24 8.66699 44.667 26 62s38 26 62 26h396c18 0 31.833 -5.5 41.5 -16.5s14.5 -23.833 14.5 -38.5v-45h-173v43c-4.66699 6 -8.5 10.333 -11.5 13s-6.16699 5 -9.5 7
h-142c-21.333 0 -32 -10.667 -32 -32v-106h368v-66h-615v66h75z" />
    <glyph glyph-name="uniFE8E" unicode="&#x627;" horiz-adv-x="634" arabic-form="final" 
d="M161.5 46.5c-31 31 -46.5 68.5 -46.5 112.5v975h-84v68h260h52l84 7l56 12l37 12v-1075h167v-158h-413c-44 0 -81.5 15.5 -112.5 46.5z" />
    <glyph glyph-name="uniFE90" unicode="&#x628;" horiz-adv-x="1850" arabic-form="final" 
d="M1335 158l2 343h-87v68h261l120 6l66 12l43 13v-115v-326h147v-159h-1686c-44 0 -81.5 15.5 -112.5 46.5s-46.5 68.5 -46.5 112.5v251c0 44 15.5 81.5 46.5 112.5s68.5 46.5 112.5 46.5h335v-86h-89v-325h888zM1015.5 -390.5c-29 -27.667 -62.833 -41.499 -101.5 -41.499
c-43.333 0 -78.5 15 -105.5 45s-40.5 63 -40.5 99c0 41.333 14 76 42 104s62.667 42 104 42c40.667 0 75 -14 103 -42s42 -62.667 42 -104c0 -40.667 -14.5 -74.834 -43.5 -102.501z" />
    <glyph glyph-name="uniFE91" unicode="&#x628;" horiz-adv-x="639" arabic-form="initial" 
d="M186 378v123h-84v68h260l121 6l66 12l42 13v-222v-219c0 -44 -15.5 -81.5 -46.5 -112.5s-68.5 -46.5 -112.5 -46.5h-453v158h207v220zM269 -390c-28 -28 -62.667 -42 -104 -42c-42.667 0 -77.5 15 -104.5 45s-40.5 63 -40.5 99c0 38 14 72.667 42 104
c28.667 28 63 42 103 42c41.333 0 76 -14 104 -42s42 -62.667 42 -104c0 -40 -14 -74 -42 -102z" />
    <glyph glyph-name="uniFE92" unicode="&#x628;" horiz-adv-x="793" arabic-form="medial" 
d="M553 588l45 14v-443h230v-159h-866v159h231v344h-85v66h261c54.667 0 99.667 3 135 9zM498 -388c-29.333 -29.333 -63.333 -44 -102 -44c-41.333 0 -76 14 -104 42s-42 62.667 -42 104c0 40.667 14 75 42 103s62.667 42 104 42c40 0 74.167 -14.167 102.5 -42.5
s42.5 -62.5 42.5 -102.5c0 -41.333 -14.333 -75.333 -43 -102z" />
    <glyph glyph-name="uniFE96" unicode="&#x62a;" horiz-adv-x="1850" arabic-form="final" 
d="M1335 158l2 343h-87v68h261l120 6l66 12l43 13v-115v-326h147v-159h-1686c-44 0 -81.5 15.5 -112.5 46.5s-46.5 68.5 -46.5 112.5v251c0 44 15.5 81.5 46.5 112.5s68.5 46.5 112.5 46.5h335v-86h-89v-325h888zM1182.5 832c-29 -28.667 -63.167 -43 -102.5 -43
c-38 0 -72.333 14 -103 42c-28 29.333 -42 64 -42 104c0 40.667 14 75 42 103s62.333 42 103 42c41.333 0 76 -14 104 -42s42 -62.333 42 -103c0 -40 -14.5 -74.333 -43.5 -103zM870.5 832c-29 -28.667 -63.167 -43 -102.5 -43c-38 0 -72.333 14 -103 42
c-28 29.333 -42 64 -42 104c0 40.667 14 75 42 103s62.333 42 103 42c41.333 0 76 -14 104 -42s42 -62.333 42 -103c0 -40 -14.5 -74.333 -43.5 -103z" />
    <glyph glyph-name="uniFE97" unicode="&#x62a;" horiz-adv-x="645" arabic-form="initial" 
d="M186 378v123h-84v68h260l121 6l66 12l42 13v-222v-219c0 -44 -15.5 -81.5 -46.5 -112.5s-68.5 -46.5 -112.5 -46.5h-453v158h207v220zM565.5 832c-29 -28.667 -62.833 -43 -101.5 -43c-38 0 -72.667 14 -104 42c-28 29.333 -42 64 -42 104c0 40.667 14 75 42 103
s62.667 42 104 42c40.667 0 75 -14 103 -42s42 -62.333 42 -103c0 -40 -14.5 -74.333 -43.5 -103zM253.5 832c-29 -28.667 -62.833 -43 -101.5 -43c-38 0 -72.667 14 -104 42c-28 29.333 -42 64 -42 104c0 40.667 14 75 42 103s62.667 42 104 42c40.667 0 75 -14 103 -42
s42 -62.333 42 -103c0 -40 -14.5 -74.333 -43.5 -103z" />
    <glyph glyph-name="uniFE98" unicode="&#x62a;" horiz-adv-x="793" arabic-form="medial" 
d="M553 588l45 14v-443h230v-159h-866v159h231v344h-85v66h261c54.667 0 99.667 3 135 9zM653.5 833.5c-29 -28.333 -62.833 -42.5 -101.5 -42.5c-41.333 0 -76 14 -104 42s-42 62.333 -42 103c0 41.333 14 76 42 104s62.667 42 104 42c40.667 0 74.667 -14.667 102 -44
c28.667 -28.667 43 -62.667 43 -102c0 -40 -14.5 -74.167 -43.5 -102.5zM341.5 833.5c-29 -28.333 -62.833 -42.5 -101.5 -42.5c-41.333 0 -76 14 -104 42s-42 62.333 -42 103c0 41.333 14 76 42 104s62.667 42 104 42c40.667 0 74.667 -14.667 102 -44
c28.667 -28.667 43 -62.667 43 -102c0 -40 -14.5 -74.167 -43.5 -102.5z" />
    <glyph glyph-name="uniFE9A" unicode="&#x62b;" horiz-adv-x="1850" arabic-form="final" 
d="M1335 158l2 343h-87v68h261l120 6l66 12l43 13v-115v-326h147v-159h-1686c-44 0 -81.5 15.5 -112.5 46.5s-46.5 68.5 -46.5 112.5v251c0 44 15.5 81.5 46.5 112.5s68.5 46.5 112.5 46.5h335v-86h-89v-325h888zM1026.5 976c-29 -28.667 -63.167 -43 -102.5 -43
c-38 0 -72.333 14 -103 42c-28 29.333 -42 64 -42 104c0 40.667 14 75 42 103s62.333 42 103 42c41.333 0 76 -14 104 -42s42 -62.333 42 -103c0 -40 -14.5 -74.333 -43.5 -103zM1182.5 712c-29 -28.667 -63.167 -43 -102.5 -43c-38 0 -72.333 14 -103 42
c-28 29.333 -42 64 -42 104c0 40.667 14 75 42 103s62.333 42 103 42c41.333 0 76 -14 104 -42s42 -62.333 42 -103c0 -40 -14.5 -74.333 -43.5 -103zM870.5 712c-29 -28.667 -63.167 -43 -102.5 -43c-38 0 -72.333 14 -103 42c-28 29.333 -42 64 -42 104
c0 40.667 14 75 42 103s62.333 42 103 42c41.333 0 76 -14 104 -42s42 -62.333 42 -103c0 -40 -14.5 -74.333 -43.5 -103z" />
    <glyph glyph-name="uniFE9B" unicode="&#x62b;" horiz-adv-x="645" arabic-form="initial" 
d="M186 378v123h-84v68h260l121 6l66 12l42 13v-222v-219c0 -44 -15.5 -81.5 -46.5 -112.5s-68.5 -46.5 -112.5 -46.5h-453v158h207v220zM409.5 976c-29 -28.667 -62.833 -43 -101.5 -43c-38 0 -72.667 14 -104 42c-28 29.333 -42 64 -42 104c0 40.667 14 75 42 103
s62.667 42 104 42c40.667 0 75 -14 103 -42s42 -62.333 42 -103c0 -40 -14.5 -74.333 -43.5 -103zM565.5 712c-29 -28.667 -62.833 -43 -101.5 -43c-38 0 -72.667 14 -104 42c-28 29.333 -42 64 -42 104c0 40.667 14 75 42 103s62.667 42 104 42c40.667 0 75 -14 103 -42
s42 -62.333 42 -103c0 -40 -14.5 -74.333 -43.5 -103zM253.5 712c-29 -28.667 -62.833 -43 -101.5 -43c-38 0 -72.667 14 -104 42c-28 29.333 -42 64 -42 104c0 40.667 14 75 42 103s62.667 42 104 42c40.667 0 75 -14 103 -42s42 -62.333 42 -103
c0 -40 -14.5 -74.333 -43.5 -103z" />
    <glyph glyph-name="uniFE9C" unicode="&#x62b;" horiz-adv-x="793" arabic-form="medial" 
d="M553 588l45 14v-443h230v-159h-866v159h231v344h-85v66h261c54.667 0 99.667 3 135 9zM497.5 977.5c-29 -28.333 -62.833 -42.5 -101.5 -42.5c-41.333 0 -76 14 -104 42s-42 62.333 -42 103c0 41.333 14 76 42 104s62.667 42 104 42c40.667 0 74.667 -14.667 102 -44
c28.667 -28.667 43 -62.667 43 -102c0 -40 -14.5 -74.167 -43.5 -102.5zM653.5 713.5c-29 -28.333 -62.833 -42.5 -101.5 -42.5c-41.333 0 -76 14 -104 42s-42 62.333 -42 103c0 41.333 14 76 42 104s62.667 42 104 42c40.667 0 74.667 -14.667 102 -44
c28.667 -28.667 43 -62.667 43 -102c0 -40 -14.5 -74.167 -43.5 -102.5zM341.5 713.5c-29 -28.333 -62.833 -42.5 -101.5 -42.5c-41.333 0 -76 14 -104 42s-42 62.333 -42 103c0 41.333 14 76 42 104s62.667 42 104 42c40.667 0 74.667 -14.667 102 -44
c28.667 -28.667 43 -62.667 43 -102c0 -40 -14.5 -74.167 -43.5 -102.5z" />
    <glyph glyph-name="uniFE9E" unicode="&#x62c;" horiz-adv-x="1746" arabic-form="final" 
d="M1621 159l182.001 0.000976562v-159h-1206c-44 0 -82 -16 -114 -48s-48 -70 -48 -114c0 -44.667 15.667 -82.834 47 -114.501s69.666 -47.5 114.999 -47.5h321v-108h-591c-83.333 0 -153.5 31 -210.5 93s-85.5 129.667 -85.5 203c0 80.667 29 150 87 208
s127.667 87 209 87h889v249c0 22 -7 40 -21 54s-31.333 21 -52 21h-338c-32 0 -48 -16 -48 -48v-100l-405 1v104c0 34.667 12.833 64.834 38.5 90.501s56.5 38.5 92.5 38.5h930c60 0 109.667 -20.333 149 -61s59 -89.334 59 -146.001v-203zM1372 -389.999
c-28 -28 -62.333 -42 -103 -42c-41.333 0 -76 14 -104 42s-42 62.667 -42 104c0 38 14 72.333 42 103c29.333 28 64 42 104 42s74.167 -14.167 102.5 -42.5s42.5 -62.5 42.5 -102.5c0 -41.333 -14 -76 -42 -104z" />
    <glyph glyph-name="uniFE9F" unicode="&#x62c;" horiz-adv-x="1464" arabic-form="initial" 
d="M-51 159h1061v249c0 22 -7 40 -21 54s-31.667 21 -53 21h-337c-14 -0.666992 -25.667 -5.66699 -35 -15l-13 -34v-99h-405v103c0 36 12.667 66.833 38 92.5s56 38.5 92 38.5h930c60 0 109.833 -20.5 149.5 -61.5s59.5 -90.167 59.5 -147.5v-360h-1466v159zM752 -390
c-28 -28 -62.667 -42 -104 -42c-40.667 0 -75 14 -103 42s-42 62.667 -42 104c0 38 14 72.333 42 103c28.667 28 63 42 103 42s74.333 -14.167 103 -42.5s43 -62.5 43 -102.5c0 -41.333 -14 -76 -42 -104z" />
    <glyph glyph-name="uniFEA0" unicode="&#x62c;" horiz-adv-x="1517" arabic-form="medial" 
d="M1556 0l-1599 0.000976562v159h1016v249c0 21.333 -9.5 39.166 -28.5 53.499s-34.5 21.5 -46.5 21.5h-336c-32 0 -48 -16 -48 -48v-100l-405 1v104c0 34.667 12.667 64.834 38 90.501s56 38.5 92 38.5h930c59.333 0 108.666 -20.333 147.999 -61s59 -89.334 59 -146.001
v-203h180v-159zM767.001 -389.999c-28 -28 -62.333 -42 -103 -42c-41.333 0 -76 14 -104 42s-42 62.667 -42 104c0 38 14 72.333 42 103c29.333 28 64 42 104 42s74.167 -14.167 102.5 -42.5s42.5 -62.5 42.5 -102.5c0 -41.333 -14 -76 -42 -104z" />
    <glyph glyph-name="uniFEA2" unicode="&#x62d;" horiz-adv-x="1746" arabic-form="final" 
d="M1621 159l182.001 0.000976562v-159h-1206c-44 0 -82 -16 -114 -48s-48 -70 -48 -114c0 -44.667 15.667 -82.834 47 -114.501s69.666 -47.5 114.999 -47.5h321v-108h-591c-83.333 0 -153.5 31 -210.5 93s-85.5 129.667 -85.5 203c0 80.667 29 150 87 208
s127.667 87 209 87h889v249c0 22 -7 40 -21 54s-31.333 21 -52 21h-338c-32 0 -48 -16 -48 -48v-100l-405 1v104c0 34.667 12.833 64.834 38.5 90.501s56.5 38.5 92.5 38.5h930c60 0 109.667 -20.333 149 -61s59 -89.334 59 -146.001v-203z" />
    <glyph glyph-name="uniFEA3" unicode="&#x62d;" horiz-adv-x="1464" arabic-form="initial" 
d="M-51 159h1061v249c0 22 -7 40 -21 54s-31.667 21 -53 21h-337c-14 -0.666992 -25.667 -5.66699 -35 -15l-13 -34v-99h-405v103c0 36 12.667 66.833 38 92.5s56 38.5 92 38.5h930c60 0 109.833 -20.5 149.5 -61.5s59.5 -90.167 59.5 -147.5v-360h-1466v159z" />
    <glyph glyph-name="uniFEA4" unicode="&#x62d;" horiz-adv-x="1517" arabic-form="medial" 
d="M1556 0l-1599 0.000976562v159h1016v249c0 21.333 -9.5 39.166 -28.5 53.499s-34.5 21.5 -46.5 21.5h-336c-32 0 -48 -16 -48 -48v-100l-405 1v104c0 34.667 12.667 64.834 38 90.501s56 38.5 92 38.5h930c59.333 0 108.666 -20.333 147.999 -61s59 -89.334 59 -146.001
v-203h180v-159z" />
    <glyph glyph-name="uniFEA6" unicode="&#x62e;" horiz-adv-x="1746" arabic-form="final" 
d="M1621 159l182.001 0.000976562v-159h-1206c-44 0 -82 -16 -114 -48s-48 -70 -48 -114c0 -44.667 15.667 -82.834 47 -114.501s69.666 -47.5 114.999 -47.5h321v-108h-591c-83.333 0 -153.5 31 -210.5 93s-85.5 129.667 -85.5 203c0 80.667 29 150 87 208
s127.667 87 209 87h889v249c0 22 -7 40 -21 54s-31.333 21 -52 21h-338c-32 0 -48 -16 -48 -48v-100l-405 1v104c0 34.667 12.833 64.834 38.5 90.501s56.5 38.5 92.5 38.5h930c60 0 109.667 -20.333 149 -61s59 -89.334 59 -146.001v-203zM1055 771.501
c-30 -27 -63 -40.5 -99 -40.5c-42.667 0 -77.667 14.333 -105 43c-26.667 35.333 -40 69 -40 101c0 40.667 14 75 42 103s62.333 42 103 42c40 0 74 -14 102 -42s42 -62.333 42 -103c0 -42 -15 -76.5 -45 -103.5z" />
    <glyph glyph-name="uniFEA7" unicode="&#x62e;" horiz-adv-x="1464" arabic-form="initial" 
d="M-51 159h1061v249c0 22 -7 40 -21 54s-31.667 21 -53 21h-337c-14 -0.666992 -25.667 -5.66699 -35 -15l-13 -34v-99h-405v103c0 36 12.667 66.833 38 92.5s56 38.5 92 38.5h930c60 0 109.833 -20.5 149.5 -61.5s59.5 -90.167 59.5 -147.5v-360h-1466v159zM772.5 746.5
c-29 -28.333 -62.833 -42.5 -101.5 -42.5c-38 0 -72.667 14 -104 42c-28 28.667 -42 63 -42 103c0 41.333 14 76 42 104s62.667 42 104 42c40.667 0 75 -14 103 -42s42 -62.667 42 -104c0 -40 -14.5 -74.167 -43.5 -102.5z" />
    <glyph glyph-name="uniFEA8" unicode="&#x62e;" horiz-adv-x="1517" arabic-form="medial" 
d="M1556 0l-1599 0.000976562v159h1016v249c0 21.333 -9.5 39.166 -28.5 53.499s-34.5 21.5 -46.5 21.5h-336c-32 0 -48 -16 -48 -48v-100l-405 1v104c0 34.667 12.667 64.834 38 90.501s56 38.5 92 38.5h930c59.333 0 108.666 -20.333 147.999 -61s59 -89.334 59 -146.001
v-203h180v-159zM788.501 746.501c-29 -28.333 -63.167 -42.5 -102.5 -42.5c-38 0 -72.333 14 -103 42c-28 28.667 -42 63 -42 103c0 41.333 14 76 42 104s62.333 42 103 42c41.333 0 76 -14 104 -42s42 -62.667 42 -104c0 -40 -14.5 -74.167 -43.5 -102.5z" />
    <glyph glyph-name="uniFEAA" unicode="&#x62f;" horiz-adv-x="1247" arabic-form="final" 
d="M1288 0l-1238 -0.000976562v159h666v251c0 20.667 -9.66699 38.334 -29 53.001s-34 22 -44 22h-593v85h864c59.333 0 108.666 -20.5 147.999 -61.5s59 -89.833 59 -146.5v-203h167v-159z" />
    <glyph glyph-name="uniFEAC" unicode="&#x630;" horiz-adv-x="1247" arabic-form="final" 
d="M1288 0l-1238 -0.000976562v159h666v251c0 20.667 -9.66699 38.334 -29 53.001s-34 22 -44 22h-593v85h864c59.333 0 108.666 -20.5 147.999 -61.5s59 -89.833 59 -146.5v-203h167v-159zM562.001 746.999c-28 -28 -62.667 -42 -104 -42c-40.667 0 -75 14 -103 42
s-42 62.667 -42 104c0 40 14.167 74.167 42.5 102.5s62.5 42.5 102.5 42.5c41.333 0 75.333 -14.333 102 -43c29.333 -29.333 44 -63.333 44 -102c0 -41.333 -14 -76 -42 -104z" />
    <glyph glyph-name="uniFEAE" unicode="&#x631;" horiz-adv-x="849" arabic-form="final" 
d="M686 159h212v-159h-212v-250c0 -51.333 -17.5 -94.5 -52.5 -129.5s-77.833 -52.5 -128.5 -52.5h-533v110h237c21.333 0 39 7 53 21s21 31 21 51v753h-86v66h260c54.667 0 99.667 3 135 9l49 10l45 14v-443z" />
    <glyph glyph-name="uniFEB0" unicode="&#x632;" horiz-adv-x="849" arabic-form="final" 
d="M686 159h212v-159h-212v-250c0 -51.333 -17.5 -94.5 -52.5 -129.5s-77.833 -52.5 -128.5 -52.5h-533v110h237c21.333 0 39 7 53 21s21 31 21 51v753h-86v66h260c54.667 0 99.667 3 135 9l49 10l45 14v-443zM557 747c-28 -28 -62.333 -42 -103 -42
c-41.333 0 -76 14 -104 42s-42 62.667 -42 104c0 40.667 14.5 74.834 43.5 102.501s63.167 41.5 102.5 41.5c42 0 76.667 -14.333 104 -43s41 -62.334 41 -101.001c0 -41.333 -14 -76 -42 -104z" />
    <glyph glyph-name="uniFEB2" unicode="&#x633;" horiz-adv-x="2358" arabic-form="final" 
d="M2402 0h-1277v-274c0 -44 -15.5 -81.5 -46.5 -112.5s-68.5 -46.5 -112.5 -46.5l-753 1c-46 0 -84 16.5 -114 49.5s-45 69.167 -45 108.5v684c0 44 15.5 81.5 46.5 112.5s68.5 46.5 112.5 46.5h246v-887h264l-1 887h403v-410h146v410h405v-410h148v410h174l122 6l66 12
l42 13v-441h174v-159z" />
    <glyph glyph-name="uniFEB3" unicode="&#x633;" horiz-adv-x="1691" arabic-form="initial" 
d="M133 159v410h404v-410h145v410h405v-410h149l-2 410h176l124 6l62 12l43 15v-443c0 -44 -15.5 -81.5 -46.5 -112.5s-68.5 -46.5 -112.5 -46.5h-1539v159h192z" />
    <glyph glyph-name="uniFEB4" unicode="&#x633;" horiz-adv-x="1790" arabic-form="medial" 
d="M1667 159h174v-159h-1889v159h207l2 410h402v-410h145v410h405v-410h149v410h175c55.333 0 100.333 3 135 9l50 10l43 14z" />
    <glyph glyph-name="uniFEB6" unicode="&#x634;" horiz-adv-x="2358" arabic-form="final" 
d="M2402 0h-1277v-274c0 -44 -15.5 -81.5 -46.5 -112.5s-68.5 -46.5 -112.5 -46.5l-753 1c-46 0 -84 16.5 -114 49.5s-45 69.167 -45 108.5v684c0 44 15.5 81.5 46.5 112.5s68.5 46.5 112.5 46.5h246v-887h264l-1 887h403v-410h146v410h405v-410h148v410h174l122 6l66 12
l42 13v-441h174v-159zM1568 984c-28 -28 -62.667 -42 -104 -42c-40.667 0 -75 14 -103 42s-42 62.667 -42 104c0 40 14.167 74.167 42.5 102.5s62.5 42.5 102.5 42.5c41.333 0 75.333 -14.333 102 -43c29.333 -29.333 44 -63.333 44 -102c0 -41.333 -14 -76 -42 -104z
M1724 720c-28 -28 -62.667 -42 -104 -42c-40.667 0 -75 14 -103 42s-42 62.667 -42 104c0 40 14.167 74.167 42.5 102.5s62.5 42.5 102.5 42.5c41.333 0 76 -14 104 -42s42 -62.333 42 -103c0 -41.333 -14 -76 -42 -104zM1412 720c-28 -28 -62.667 -42 -104 -42
c-40.667 0 -75 14 -103 42s-42 62.667 -42 104c0 40 14.167 74.167 42.5 102.5s62.5 42.5 102.5 42.5c41.333 0 76 -14 104 -42s42 -62.333 42 -103c0 -41.333 -14 -76 -42 -104z" />
    <glyph glyph-name="uniFEB7" unicode="&#x634;" horiz-adv-x="1691" arabic-form="initial" 
d="M133 159v410h404v-410h145v410h405v-410h149l-2 410h176l124 6l62 12l43 15v-443c0 -44 -15.5 -81.5 -46.5 -112.5s-68.5 -46.5 -112.5 -46.5h-1539v159h192zM989.5 985c-29 -28.667 -62.833 -43 -101.5 -43c-38 0 -72.667 14 -104 42c-28 29.333 -42 64 -42 104
c0 40.667 14 75 42 103s62.667 42 104 42c40.667 0 75 -14 103 -42s42 -62.333 42 -103c0 -40 -14.5 -74.333 -43.5 -103zM1145.5 721c-29 -28.667 -62.833 -43 -101.5 -43c-38 0 -72.667 14 -104 42c-28 29.333 -42 64 -42 104c0 40.667 14 75 42 103s62.667 42 104 42
c40.667 0 75 -14 103 -42s42 -62.333 42 -103c0 -40 -14.5 -74.333 -43.5 -103zM833.5 721c-29 -28.667 -62.833 -43 -101.5 -43c-38 0 -72.667 14 -104 42c-28 29.333 -42 64 -42 104c0 40.667 14 75 42 103s62.667 42 104 42c40.667 0 75 -14 103 -42s42 -62.333 42 -103
c0 -40 -14.5 -74.333 -43.5 -103z" />
    <glyph glyph-name="uniFEB8" unicode="&#x634;" horiz-adv-x="1790" arabic-form="medial" 
d="M1667 159h174v-159h-1889v159h207l2 410h402v-410h145v410h405v-410h149v410h175c55.333 0 100.333 3 135 9l50 10l43 14zM1035 984c-28 -28 -62.333 -42 -103 -42c-38 0 -72.667 14 -104 42c-28 29.333 -42 64 -42 104s14.333 74.167 43 102.5s63 42.5 103 42.5
c40.667 0 75 -14 103 -42s42 -62.333 42 -103c0 -41.333 -14 -76 -42 -104zM1191 720c-28 -28 -62.333 -42 -103 -42c-38 0 -72.667 14 -104 42c-28 29.333 -42 64 -42 104s14.333 74.167 43 102.5s63 42.5 103 42.5c40.667 0 75 -14 103 -42s42 -62.333 42 -103
c0 -41.333 -14 -76 -42 -104zM876 718.5c-30 -27 -63 -40.5 -99 -40.5c-38 0 -72.333 14 -103 42c-28 29.333 -42 64 -42 104c0 40.667 14 75 42 103s62.333 42 103 42c40 0 74 -14 102 -42s42 -62.333 42 -103c0 -43.333 -15 -78.5 -45 -105.5z" />
    <glyph glyph-name="uniFEBA" unicode="&#x635;" horiz-adv-x="2195" arabic-form="final" 
d="M2252 0l-1134 0.000976562v-273c0 -44 -15.5 -81.5 -46.5 -112.5s-68.5 -46.5 -112.5 -46.5h-753c-44 0 -81.5 15.5 -112.5 46.5s-46.5 68.5 -46.5 112.5v683c0 44 15.5 81.5 46.5 112.5s68.5 46.5 112.5 46.5h246l-1 -887h264v356v531h175h53l84 7l55 12l38 12v-138
c24.667 31.333 45 52.333 61 63c44 29.333 91.667 44 143 44h544c59.333 0 108.666 -20.333 147.999 -61s59 -89.334 59 -146.001v-203h177v-159zM1306 483.001c-45.333 0 -87.667 -21.667 -127 -65s-59 -80.666 -59 -111.999v-147h552v249
c0 21.333 -9.5 39.166 -28.5 53.499s-34.5 21.5 -46.5 21.5h-291z" />
    <glyph glyph-name="uniFEBB" unicode="&#x635;" horiz-adv-x="1545" arabic-form="initial" 
d="M731 485c-46 0 -88.833 -21.833 -128.5 -65.5s-59.5 -80.834 -59.5 -111.501v-149h552v251c0 20.667 -9.66699 38.334 -29 53.001s-34 22 -44 22h-291zM140 159v344h-86v66l260 1l136 6l51 12l44 14l-2 -140c18 32 38.667 53.667 62 65c44 28.667 91.333 43 142 43h545
c60 0 109.667 -20.5 149 -61.5s59 -89.833 59 -146.5v-362h-1530v159h170z" />
    <glyph glyph-name="uniFEBC" unicode="&#x635;" horiz-adv-x="1632" arabic-form="medial" 
d="M1673 0l-1700 0.000976562v159h170v342h-84v68h259l120 6l68 12l42 13v-138c24.667 31.333 45 52.333 61 63c44 29.333 91.667 44 143 44h544c60 0 109.833 -20.333 149.5 -61s59.5 -89.334 59.5 -146.001v-203h168v-159zM734 483.001
c-45.333 0 -87.667 -21.667 -127 -65s-59 -80.666 -59 -111.999v-147h552v249c0 21.333 -9.5 39.166 -28.5 53.499s-34.5 21.5 -46.5 21.5h-291z" />
    <glyph glyph-name="uniFEBE" unicode="&#x636;" horiz-adv-x="2195" arabic-form="final" 
d="M2252 0l-1134 0.000976562v-273c0 -44 -15.5 -81.5 -46.5 -112.5s-68.5 -46.5 -112.5 -46.5h-753c-44 0 -81.5 15.5 -112.5 46.5s-46.5 68.5 -46.5 112.5v683c0 44 15.5 81.5 46.5 112.5s68.5 46.5 112.5 46.5h246l-1 -887h264v356v531h175h53l84 7l55 12l38 12v-138
c24.667 31.333 45 52.333 61 63c44 29.333 91.667 44 143 44h544c59.333 0 108.666 -20.333 147.999 -61s59 -89.334 59 -146.001v-203h177v-159zM1306 483.001c-45.333 0 -87.667 -21.667 -127 -65s-59 -80.666 -59 -111.999v-147h552v249
c0 21.333 -9.5 39.166 -28.5 53.499s-34.5 21.5 -46.5 21.5h-291zM1615 746.001c-28 -28 -62.667 -42 -104 -42c-38 0 -72.333 14 -103 42c-28 28.667 -42 63 -42 103s14.167 74.333 42.5 103s62.5 43 102.5 43c41.333 0 76 -14 104 -42s42 -62.667 42 -104
c0 -40.667 -14 -75 -42 -103z" />
    <glyph glyph-name="uniFEBF" unicode="&#x636;" horiz-adv-x="1545" arabic-form="initial" 
d="M731 485c-46 0 -88.833 -21.833 -128.5 -65.5s-59.5 -80.834 -59.5 -111.501v-149h552v251c0 20.667 -9.66699 38.334 -29 53.001s-34 22 -44 22h-291zM140 159v344h-86v66l260 1l136 6l51 12l44 14l-2 -140c18 32 38.667 53.667 62 65c44 28.667 91.333 43 142 43h545
c60 0 109.667 -20.5 149 -61.5s59 -89.833 59 -146.5v-362h-1530v159h170zM999 747c-28 -28 -62.333 -42 -103 -42c-41.333 0 -76 14 -104 42s-42 62.667 -42 104c0 40 14.333 74.167 43 102.5s63 42.5 103 42.5c40.667 0 74.667 -14.333 102 -43
c28.667 -29.333 43 -63.333 43 -102c0 -41.333 -14 -76 -42 -104z" />
    <glyph glyph-name="uniFEC0" unicode="&#x636;" horiz-adv-x="1632" arabic-form="medial" 
d="M1673 0l-1700 0.000976562v159h170v342h-84v68h259l120 6l68 12l42 13v-138c24.667 31.333 45 52.333 61 63c44 29.333 91.667 44 143 44h544c60 0 109.833 -20.333 149.5 -61s59.5 -89.334 59.5 -146.001v-203h168v-159zM734 483.001
c-45.333 0 -87.667 -21.667 -127 -65s-59 -80.666 -59 -111.999v-147h552v249c0 21.333 -9.5 39.166 -28.5 53.499s-34.5 21.5 -46.5 21.5h-291zM1002.5 746.501c-29 -28.333 -63.167 -42.5 -102.5 -42.5c-38 0 -72.333 14 -103 42c-28 28.667 -42 63 -42 103
c0 41.333 14 76 42 104s62.333 42 103 42c41.333 0 76 -14 104 -42s42 -62.667 42 -104c0 -40 -14.5 -74.167 -43.5 -102.5z" />
    <glyph glyph-name="uniFEC2" unicode="&#x637;" horiz-adv-x="1672" arabic-form="final" 
d="M1709 0h-1656v159h150v977h-84v67h119h141h52l84 8l56 12l37 12v-773c18 30 38.667 51.667 62 65c44 28.667 91.333 43 142 43h545c60 0 109.667 -20.5 149 -61.5s59 -89.833 59 -146.5v-203h144v-159zM794 485c-44.667 0 -86.834 -21.833 -126.501 -65.5
s-59.5 -80.834 -59.5 -111.501v-149h552v251c0 18.667 -8.16699 35.834 -24.5 51.501s-33.166 23.5 -50.499 23.5h-291z" />
    <glyph glyph-name="uniFEC3" unicode="&#x637;" horiz-adv-x="1588" arabic-form="initial" 
d="M774 483c-44.667 0 -86.833 -21.667 -126.5 -65s-59.5 -80.666 -59.5 -111.999v-148h552v250c0 21.333 -9.5 39.166 -28.5 53.499s-34.5 21.5 -46.5 21.5h-291zM543.001 1221l44.999 14v-774c18 30 38.667 51.333 62 64c42 29.333 89 44 141 44h546
c58.667 0 107.834 -20.5 147.501 -61.5s59.5 -90.167 59.5 -147.5v-360h-1586v158h225v978h-85v66h261c54.667 0 99.667 3 135 9z" />
    <glyph glyph-name="uniFEC4" unicode="&#x637;" horiz-adv-x="1645" arabic-form="medial" 
d="M1684 0h-1731v159h225v977h-84v67h260h52l84 8l56 12l37 12v-773c18 30 38.667 51.667 62 65c44 28.667 91.333 43 142 43h545c60 0 109.667 -20.5 149 -61.5s59 -89.833 59 -146.5v-203h144v-159zM769 485c-44.667 0 -86.834 -21.833 -126.501 -65.5
s-59.5 -80.834 -59.5 -111.501v-149h552v251c0 18.667 -8.16699 35.834 -24.5 51.501s-33.166 23.5 -50.499 23.5h-291z" />
    <glyph glyph-name="uniFEC6" unicode="&#x638;" horiz-adv-x="1672" arabic-form="final" 
d="M1709 0h-1656v159h150v977h-84v67h260h52l84 8l56 12l37 12v-773c18 30 38.667 51.667 62 65c44 28.667 91.333 43 142 43h545c60 0 109.667 -20.5 149 -61.5s59 -89.833 59 -146.5v-203h144v-159zM794 485c-44.667 0 -86.834 -21.833 -126.501 -65.5
s-59.5 -80.834 -59.5 -111.501v-149h552v251c0 18.667 -8.16699 35.834 -24.5 51.501s-33.166 23.5 -50.499 23.5h-291zM1111 747c-28 -28 -62.667 -42 -104 -42c-40.667 0 -75 14 -103 42s-42 62.667 -42 104c0 40 14.167 74.167 42.5 102.5s62.5 42.5 102.5 42.5
c41.333 0 75.333 -14.333 102 -43c29.333 -29.333 44 -63.333 44 -102c0 -41.333 -14 -76 -42 -104z" />
    <glyph glyph-name="uniFEC7" unicode="&#x638;" horiz-adv-x="1588" arabic-form="initial" 
d="M774 483c-44.667 0 -86.833 -21.667 -126.5 -65s-59.5 -80.666 -59.5 -111.999v-148h552v250c0 21.333 -9.5 39.166 -28.5 53.499s-34.5 21.5 -46.5 21.5h-291zM543.001 1221l44.999 14v-774c18 30 38.667 51.333 62 64c42 29.333 89 44 141 44h546
c58.667 0 107.834 -20.5 147.501 -61.5s59.5 -90.167 59.5 -147.5v-360h-1586v158h225v978h-85v66h261c54.667 0 99.667 3 135 9zM1109 746c-28 -28 -62.667 -42 -104 -42c-40.667 0 -75 14 -103 42s-42 62.333 -42 103c0 40 14.167 74.333 42.5 103s62.5 43 102.5 43
c41.333 0 76 -14 104 -42s42 -62.667 42 -104c0 -40.667 -14 -75 -42 -103z" />
    <glyph glyph-name="uniFEC8" unicode="&#x638;" horiz-adv-x="1645" arabic-form="medial" 
d="M1684 0h-1731v159h225v977h-84v67h260h52l84 8l56 12l37 12v-773c18 30 38.667 51.667 62 65c44 28.667 91.333 43 142 43h545c60 0 109.667 -20.5 149 -61.5s59 -89.833 59 -146.5v-203h144v-159zM769 485c-44.667 0 -86.834 -21.833 -126.501 -65.5
s-59.5 -80.834 -59.5 -111.501v-149h552v251c0 18.667 -8.16699 35.834 -24.5 51.501s-33.166 23.5 -50.499 23.5h-291zM1086 747c-28 -28 -62.667 -42 -104 -42c-40.667 0 -75 14 -103 42s-42 62.667 -42 104c0 40 14.167 74.167 42.5 102.5s62.5 42.5 102.5 42.5
c41.333 0 75.333 -14.333 102 -43c29.333 -29.333 44 -63.333 44 -102c0 -41.333 -14 -76 -42 -104z" />
    <glyph glyph-name="uniFECA" unicode="&#x639;" horiz-adv-x="1921" arabic-form="final" 
d="M1388 417c0 19.333 -7.16699 35.167 -21.5 47.5s-31.5 18.5 -51.5 18.5h-285c-20 0 -37.5 -7.5 -52.5 -22.5s-22.5 -28.5 -22.5 -40.5l4 -21l158 -240h111l157 240zM1970 0.000976562l-1366 0.000976562c-42 0 -78.667 -15.333 -110 -46
c-28.667 -32 -43 -70.667 -43 -116c0 -44.667 15.667 -82.834 47 -114.501s69.666 -47.5 114.999 -47.5h429v-108h-699c-83.333 0 -153.5 31 -210.5 93s-85.5 129.667 -85.5 203c0 80 29 149 87 207s127.667 87 209 87l369 1l-161 201c-6 15.333 -9 30.333 -9 45
c0 48 22.833 87.333 68.5 118s94.834 46 147.501 46h828c48 0 96.333 -16.5 145 -49.5s73 -70.167 73 -111.5l-11 -48l-160 -201h337v-159z" />
    <glyph glyph-name="uniFECB" unicode="&#x639;" horiz-adv-x="1451" arabic-form="initial" 
d="M128 159v202.999c0 56.667 20.167 105.334 60.5 146.001s89.5 61 147.5 61h930c37.333 0 68.5 -12.5 93.5 -37.5s37.5 -55.5 37.5 -91.5v-104h-405v99c0 32 -16 48 -48 48h-336c-22 0 -40 -7 -54 -21s-21 -31.333 -21 -52v-251h865v-159h-1446v159h176z" />
    <glyph glyph-name="uniFECC" unicode="&#x639;" horiz-adv-x="1512" arabic-form="medial" 
d="M1553 0h-1596v159h338l-161 203c-6 14.667 -9 29.667 -9 45c0 46.667 22.833 85.334 68.5 116.001s94.834 46 147.501 46h828c48 0 96.333 -16.833 145 -50.5s73 -69.834 73 -108.501c0 -15.333 -3 -31.333 -9 -48l-162 -203h337v-159zM970.999 417
c0 19.333 -7.16699 35.167 -21.5 47.5s-31.5 18.5 -51.5 18.5h-285c-20 0 -37.5 -6 -52.5 -18s-22.5 -27 -22.5 -45l4 -21l158 -240h111l157 240z" />
    <glyph glyph-name="uniFECE" unicode="&#x63a;" horiz-adv-x="1921" arabic-form="final" 
d="M1388 417c0 19.333 -7.16699 35.167 -21.5 47.5s-31.5 18.5 -51.5 18.5h-285c-20 0 -37.5 -7.5 -52.5 -22.5s-22.5 -28.5 -22.5 -40.5l4 -21l158 -240h111l157 240zM1970 0.000976562l-1366 0.000976562c-42 0 -78.667 -15.333 -110 -46
c-28.667 -32 -43 -70.667 -43 -116c0 -44.667 15.667 -82.834 47 -114.501s69.666 -47.5 114.999 -47.5h429v-108h-699c-83.333 0 -153.5 31 -210.5 93s-85.5 129.667 -85.5 203c0 80 29 149 87 207s127.667 87 209 87l369 1l-161 201c-6 15.333 -9 30.333 -9 45
c0 48 22.833 87.333 68.5 118s94.834 46 147.501 46h828c48 0 96.333 -16.5 145 -49.5s73 -70.167 73 -111.5l-11 -48l-160 -201h337v-159zM1271 746.002c-28 -28 -62.333 -42 -103 -42c-38 0 -72.667 14 -104 42c-28 28.667 -42 63 -42 103s14.333 74.333 43 103
s63 43 103 43c40.667 0 75 -14 103 -42s42 -62.667 42 -104c0 -40.667 -14 -75 -42 -103z" />
    <glyph glyph-name="uniFECF" unicode="&#x63a;" horiz-adv-x="1451" arabic-form="initial" 
d="M128 159v202.999c0 56.667 20.167 105.334 60.5 146.001s89.5 61 147.5 61h930c37.333 0 68.5 -12.5 93.5 -37.5s37.5 -55.5 37.5 -91.5v-104h-405v99c0 32 -16 48 -48 48h-336c-22 0 -40 -7 -54 -21s-21 -31.333 -21 -52v-251h865v-159h-1446v159h176zM881 745.999
c-28 -28 -62.667 -42 -104 -42c-38 0 -72.333 14 -103 42c-28 28.667 -42 63 -42 103s14.167 74.333 42.5 103s62.5 43 102.5 43c41.333 0 76 -14 104 -42s42 -62.667 42 -104c0 -40.667 -14 -75 -42 -103z" />
    <glyph glyph-name="uniFED0" unicode="&#x63a;" horiz-adv-x="1512" arabic-form="medial" 
d="M1553 0h-1596v159h338l-161 203c-6 14.667 -9 29.667 -9 45c0 46.667 22.833 85.334 68.5 116.001s94.834 46 147.501 46h828c48 0 96.333 -16.833 145 -50.5s73 -69.834 73 -108.501c0 -15.333 -3 -31.333 -9 -48l-162 -203h337v-159zM970.999 417
c0 19.333 -7.16699 35.167 -21.5 47.5s-31.5 18.5 -51.5 18.5h-285c-20 0 -37.5 -6 -52.5 -18s-22.5 -27 -22.5 -45l4 -21l158 -240h111l157 240zM858.999 746.001c-28 -28 -62.667 -42 -104 -42c-38 0 -72.333 14 -103 42c-28 28.667 -42 63 -42 103
s14.167 74.333 42.5 103s62.5 43 102.5 43c41.333 0 76 -14 104 -42s42 -62.667 42 -104c0 -40.667 -14 -75 -42 -103z" />
    <glyph glyph-name="uniFED2" unicode="&#x641;" horiz-adv-x="2230" arabic-form="final" 
d="M2267 0l-1976 2.00098h-81c-44 0 -81.5 15.667 -112.5 47s-46.5 68 -46.5 110v252c0 44 15.333 81.333 46 112s68.334 46 113.001 46h335v-86h-89v-324h698c-35.333 6 -64.666 22.5 -87.999 49.5s-35 59.167 -35 96.5v135c0 36 12.5 66.5 37.5 91.5s55.5 37.5 91.5 37.5
h747c60 0 109.667 -20.333 149 -61s59 -89.334 59 -146.001v-203h152v-159zM1436 435.001v-196c0 -22 7 -41 21 -57c24 -15.333 41 -23 51 -23h202v251c0 20.667 -7 38 -21 52s-31.333 21 -52 21h-153c-32 0 -48 -16 -48 -48zM1677.5 748.001
c-29 -28.667 -63.167 -43 -102.5 -43c-40.667 0 -75 14 -103 42s-42 62.667 -42 104c0 40.667 14 75 42 103s62.333 42 103 42c41.333 0 75.333 -14.333 102 -43c29.333 -29.333 44 -63.333 44 -102c0 -40 -14.5 -74.333 -43.5 -103z" />
    <glyph glyph-name="uniFED3" unicode="&#x641;" horiz-adv-x="1276" arabic-form="initial" 
d="M162.5 208.5c-23 27 -34.499 59.167 -34.499 96.5v135c0 34.667 12.667 64.834 38 90.501s56 38.5 92 38.5h747c59.333 0 108.666 -20.333 147.999 -61s59 -89.334 59 -146.001v-362h-1254v159h293c-36 6 -65.5 22.5 -88.5 49.5zM545.501 465.5
c-8.33301 -9 -12.5 -19.166 -12.5 -30.499v-196c0 -22 7 -41 21 -57c26 -15.333 43.333 -23 52 -23h203v249c0 21.333 -9.5 39.166 -28.5 53.499s-34.5 21.5 -46.5 21.5h-152c-16 -2.66699 -28.167 -8.5 -36.5 -17.5zM803.001 746.001c-28 -28 -62.667 -42 -104 -42
c-38 0 -72.333 14 -103 42c-28 28.667 -42 63 -42 103s14.167 74.333 42.5 103s62.5 43 102.5 43c41.333 0 76 -14 104 -42s42 -62.667 42 -104c0 -40.667 -14 -75 -42 -103z" />
    <glyph glyph-name="uniFED4" unicode="&#x641;" horiz-adv-x="1350" arabic-form="medial" 
d="M1386 0h-1421v159h293c-37.333 6 -67.166 22.833 -89.499 50.5s-33.5 59.5 -33.5 95.5v133c0 37.333 12.5 68.5 37.5 93.5s55.5 37.5 91.5 37.5h747c60 0 109.667 -20.5 149 -61.5s59 -90.167 59 -147.5v-201h167v-159zM550.999 466
c-8.66699 -8.66699 -13 -19.3311 -13 -31.998v-195c0 -22 7 -41 21 -57c26 -15.333 43.667 -23 53 -23h202v249c0 21.333 -9.5 39.166 -28.5 53.499s-34.5 21.5 -46.5 21.5h-151c-16 -2.66699 -28.333 -8.33398 -37 -17.001zM798.999 746.003c-28 -28 -62.333 -42 -103 -42
c-38 0 -72.667 14 -104 42c-28 28.667 -42 63 -42 103s14.333 74.333 43 103s63 43 103 43c40.667 0 75 -14 103 -42s42 -62.667 42 -104c0 -40.667 -14 -75 -42 -103z" />
    <glyph glyph-name="uniFED6" unicode="&#x642;" horiz-adv-x="1708" arabic-form="final" 
d="M1579 0l-0.000976562 -273c0 -44 -15.5 -81.5 -46.5 -112.5s-68.5 -46.5 -112.5 -46.5h-1210c-45.333 0 -83 18 -113 54s-45 71 -45 105v684c0 44 15.333 81.333 46 112s68 46 112 46h247l-1 -891h720v322h-587v362c0 56.667 20.333 105.334 61 146.001
s89.334 61 146.001 61h575c60 0 109.667 -20.333 149 -61s59 -89.334 59 -146.001v-203h176v-159h-176zM992.999 159h180.999v251c0 20.667 -7 38 -21 52s-31.333 21 -52 21h-33c-21.333 0 -39.166 -7.16699 -53.499 -21.5s-21.5 -31.5 -21.5 -51.5v-251zM1331.5 748
c-29 -28.667 -62.833 -43 -101.5 -43c-41.333 0 -76 14 -104 42s-42 62.667 -42 104c0 40.667 14 75 42 103s62.667 42 104 42c40.667 0 74.667 -14.333 102 -43c28.667 -29.333 43 -63.333 43 -102c0 -40 -14.5 -74.333 -43.5 -103zM1016.5 748
c-29 -28.667 -62.833 -43 -101.5 -43c-41.333 0 -76 14 -104 42s-42 62.667 -42 104c0 40.667 14 75 42 103s62.667 42 104 42c40.667 0 74.667 -14.333 102 -43c28.667 -29.333 43 -63.333 43 -102c0 -40 -14.5 -74.333 -43.5 -103z" />
    <glyph glyph-name="uniFED7" unicode="&#x642;" horiz-adv-x="1276" arabic-form="initial" 
d="M162.5 208.5c-23 27 -34.499 59.167 -34.499 96.5v135c0 34.667 12.667 64.834 38 90.501s56 38.5 92 38.5h747c59.333 0 108.666 -20.333 147.999 -61s59 -89.334 59 -146.001v-362h-1254v159h293c-36 6 -65.5 22.5 -88.5 49.5zM545.501 465.5
c-8.33301 -9 -12.5 -19.166 -12.5 -30.499v-196c0 -22 7 -41 21 -57c26 -15.333 43.333 -23 52 -23h203v249c0 21.333 -9.5 39.166 -28.5 53.499s-34.5 21.5 -46.5 21.5h-152c-16 -2.66699 -28.167 -8.5 -36.5 -17.5zM938.001 746.001c-28 -28 -62.667 -42 -104 -42
c-38 0 -72.333 14 -103 42c-28 28.667 -42 63 -42 103s14.167 74.333 42.5 103s62.5 43 102.5 43c41.333 0 76 -14 104 -42s42 -62.667 42 -104c0 -40.667 -14 -75 -42 -103zM623.001 746.001c-28 -28 -62.667 -42 -104 -42c-38 0 -72.333 14 -103 42
c-28 28.667 -42 63 -42 103s14.167 74.333 42.5 103s62.5 43 102.5 43c41.333 0 76 -14 104 -42s42 -62.667 42 -104c0 -40.667 -14 -75 -42 -103z" />
    <glyph glyph-name="uniFED8" unicode="&#x642;" horiz-adv-x="1350" arabic-form="medial" 
d="M1386 0h-1421v159h293c-37.333 6 -67.166 22.833 -89.499 50.5s-33.5 59.5 -33.5 95.5v133c0 37.333 12.5 68.5 37.5 93.5s55.5 37.5 91.5 37.5h747c60 0 109.667 -20.5 149 -61.5s59 -90.167 59 -147.5v-201h167v-159zM550.999 466
c-8.66699 -8.66699 -13 -19.3311 -13 -31.998v-195c0 -22 7 -41 21 -57c26 -15.333 43.667 -23 53 -23h202v249c0 21.333 -9.5 39.166 -28.5 53.499s-34.5 21.5 -46.5 21.5h-151c-16 -2.66699 -28.333 -8.33398 -37 -17.001zM949.499 746.503
c-29 -28.333 -63.167 -42.5 -102.5 -42.5c-38 0 -72.333 14 -103 42c-28 28.667 -42 63 -42 103c0 41.333 14 76 42 104s62.333 42 103 42c41.333 0 76 -14 104 -42s42 -62.667 42 -104c0 -40 -14.5 -74.167 -43.5 -102.5zM633.999 746.003c-28 -28 -62.333 -42 -103 -42
c-38 0 -72.667 14 -104 42c-28 28.667 -42 63 -42 103s14.333 74.333 43 103s63 43 103 43c40.667 0 75 -14 103 -42s42 -62.667 42 -104c0 -40.667 -14 -75 -42 -103z" />
    <glyph glyph-name="uniFEDE" unicode="&#x644;" horiz-adv-x="1409" arabic-form="final" 
d="M1303 159h146.999v-159h-1242c-44 0 -81.5 15.5 -112.5 46.5s-46.5 68.5 -46.5 112.5v252c0 43.333 15.833 80.5 47.5 111.5s68.834 46.5 111.501 46.5h335v-86h-89v-324h444v977h-85v66l261 1l72 2l64 6l56 12l37 12v-1076z" />
    <glyph glyph-name="uniFEDF" unicode="&#x644;" horiz-adv-x="662" arabic-form="initial" 
d="M-47 159h245v977h-84v67h259l122 6l66 12l42 14v-1076c0 -46 -16.5 -84 -49.5 -114s-69.167 -45 -108.5 -45h-492v159z" />
    <glyph glyph-name="uniFEE0" unicode="&#x644;" horiz-adv-x="739" arabic-form="medial" 
d="M556 1220l42 13v-1075h184v-158h-822v158h233v976h-84v68h259h53l84 7z" />
    <glyph glyph-name="uniFEE2" unicode="&#x645;" horiz-adv-x="1672" arabic-form="final" 
d="M1154 159v252c0 20 -7 37 -21 51s-31 21 -51 21h-33c-20 0 -37 -7 -51 -21s-21 -31 -21 -51v-252h177zM573 459h-120v-891h-246c-44 0 -81.5 15.5 -112.5 46.5s-46.5 68.5 -46.5 112.5v683c0 44 15.5 81.5 46.5 112.5s68.5 46.5 112.5 46.5h1193
c44 0 81.5 -15.5 112.5 -46.5s46.5 -68.5 46.5 -112.5v-251h144v-159h-971c-44 0 -81.5 15.5 -112.5 46.5s-46.5 68.5 -46.5 112.5v300z" />
    <glyph glyph-name="uniFEE3" unicode="&#x645;" horiz-adv-x="1184" arabic-form="initial" 
d="M975 569c42.667 0 79.5 -15.3311 110.5 -45.998s46.5 -68.334 46.5 -113.001v-410h-390c-66.667 0 -118 25 -154 75c-12 15.333 -23.667 40 -35 74v-41c0 -38.667 -14 -66.334 -42 -83.001s-71.333 -25 -130 -25h-413v159h180v251c0 44 15.833 81.5 47.5 112.5
s68.5 46.5 110.5 46.5h669zM729 159.002v252c0 20 -7 37 -21 51s-31 21 -51 21h-33c-20 0 -37 -7 -51 -21s-21 -31 -21 -51v-252h177z" />
    <glyph glyph-name="uniFEE4" unicode="&#x645;" horiz-adv-x="1273" arabic-form="medial" 
d="M743 158v253c0 20 -7 37 -21 51s-31 21 -51 21h-33c-20 0 -37 -7 -51 -21s-21 -31 -21 -51v-253h177zM1307 0l-551.001 0.000976562c-66.667 0 -118 25 -154 75c-12 15.333 -23.667 40 -35 74v-41c0 -38 -13.667 -65.5 -41 -82.5s-71.666 -25.5 -132.999 -25.5h-429v158
h198v252c0 44 15.833 81.5 47.5 112.5s68.5 46.5 110.5 46.5h669c42.667 0 79.5 -15.333 110.5 -46s46.5 -68.334 46.5 -113.001v-252h161v-158z" />
    <glyph glyph-name="uniFEE6" unicode="&#x646;" horiz-adv-x="1477" arabic-form="final" 
d="M802 720c-28 -28 -62.667 -42 -104 -42c-40.667 0 -75 14 -103 42s-42 62.667 -42 104c0 40 14.167 74.167 42.5 102.5s62.5 42.5 102.5 42.5c41.333 0 75.333 -14.333 102 -43c29.333 -29.333 44 -63.333 44 -102c0 -41.333 -14 -76 -42 -104zM1348 -273
c0 -44 -15.5 -81.5 -46.5 -112.5s-68.5 -46.5 -112.5 -46.5h-980c-44 0 -81.5 15.5 -112.5 46.5s-46.5 68.5 -46.5 112.5v684c0 39.333 15 75.5 45 108.5s68 49.5 114 49.5h248v-885h484v885h248c42 0 79 -15.333 111 -46s48 -68 48 -112v-252h163v-159h-163v-273z" />
    <glyph glyph-name="uniFEE7" unicode="&#x646;" horiz-adv-x="639" arabic-form="initial" 
d="M186 378v123h-84v68h260l121 6l66 12l42 13v-222v-219c0 -44 -15.5 -81.5 -46.5 -112.5s-68.5 -46.5 -112.5 -46.5h-453v158h207v220zM409.5 976c-29 -28.667 -62.833 -43 -101.5 -43c-38 0 -72.667 14 -104 42c-28 29.333 -42 64 -42 104c0 40.667 14 75 42 103
s62.667 42 104 42c40.667 0 75 -14 103 -42s42 -62.333 42 -103c0 -40 -14.5 -74.333 -43.5 -103z" />
    <glyph glyph-name="uniFEE8" unicode="&#x646;" horiz-adv-x="793" arabic-form="medial" 
d="M553 588l45 14v-443h230v-159h-866v159h231v344h-85v66h261c54.667 0 99.667 3 135 9zM497.5 977.5c-29 -28.333 -62.833 -42.5 -101.5 -42.5c-41.333 0 -76 14 -104 42s-42 62.333 -42 103c0 41.333 14 76 42 104s62.667 42 104 42c40.667 0 74.667 -14.667 102 -44
c28.667 -28.667 43 -62.667 43 -102c0 -40 -14.5 -74.167 -43.5 -102.5z" />
    <glyph glyph-name="uniFEEA" unicode="&#x647;" horiz-adv-x="1414" arabic-form="final" 
d="M526 483c-21.333 0 -39 -7 -53 -21s-21 -31.333 -21 -52v-251h432v149c0 38 -19 76.667 -57 116s-81 59 -129 59h-172zM1289 159l165 -0.000976562v-159h-1407v362c0 56.667 20.333 105.334 61 146.001s90 61 148 61h424c53.333 0 101.333 -14.667 144 -44
c34 -22 54 -43 60 -63v107h176l120 6l66 12l43 13v-441z" />
    <glyph glyph-name="uniFEEB" unicode="&#x647;" horiz-adv-x="1430" arabic-form="initial" 
d="M746 159l219 0.000976562v251c0 20 -9.5 37.167 -28.5 51.5s-34.5 21.5 -46.5 21.5h-730v86h1002c60 0 109.667 -20.333 149 -61s59 -89.334 59 -146.001v-362h-1410v159h200v183c0 27.333 11.167 52 33.5 74s46.5 33 72.5 33h374c28 0 52.667 -11.333 74 -34
s32 -47 32 -73v-183zM365 159.001h176v197h-176v-197z" />
    <glyph glyph-name="uniFEEC" unicode="&#x647;" horiz-adv-x="1464" arabic-form="medial" 
d="M1487 0l-1520 0.000976562v158h185v183c0 30 12.5 55.167 37.5 75.5s47.5 30.5 67.5 30.5h375c28 0 52.667 -11.167 74 -33.5s32 -46.5 32 -72.5v-183h219v250c0 21.333 -9.5 39.166 -28.5 53.499s-34.5 21.5 -46.5 21.5h-730v86h1002
c58.667 0 107.834 -20.5 147.501 -61.5s59.5 -90.167 59.5 -147.5v-202h126v-158zM356.999 158.001h174v196h-174v-196z" />
    <glyph glyph-name="uniFEEE" unicode="&#x648;" horiz-adv-x="1222" arabic-form="final" 
d="M1104 159h153v-159h-153v-250c0 -51.333 -17.5 -94.5 -52.5 -129.5s-77.5 -52.5 -127.5 -52.5h-875v108h579c22 0 39 7.66699 51 23c14 14 21 31 21 51v250h-649v360c0 58 20.167 107.333 60.5 148s89.166 61 146.499 61h639c58.667 0 107.834 -20.5 147.501 -61.5
s59.5 -90.167 59.5 -147.5v-201zM454 159h246.001v249c0 21.333 -9.5 39.166 -28.5 53.499s-34.5 21.5 -46.5 21.5h-96c-20.667 0 -38.334 -7.16699 -53.001 -21.5s-22 -32.166 -22 -53.499v-249z" />
    <glyph glyph-name="uniFEF0" unicode="&#x649;" horiz-adv-x="1745" arabic-form="final" 
d="M1608 0l0.999023 -161c0 -44 -15.833 -81.333 -47.5 -112s-69.5 -46 -113.5 -46h-1209c-44 0 -81.5 15.5 -112.5 46.5s-46.5 68.5 -46.5 112.5v311c0 43.333 15.833 80.5 47.5 111.5s68.834 46.5 111.501 46.5h246v-520h719v210h-429v160h1066v-159h-233z" />
    <glyph glyph-name=".notdef" horiz-adv-x="1024" 
d="M128 0v1298h768v-1298h-768zM256 128h512v1042h-512v-1042z" />
    <glyph glyph-name="space" unicode=" " horiz-adv-x="483" 
 />
    <glyph glyph-name="exclam" unicode="!" horiz-adv-x="512" 
d="M333 411l-38 -35.998l-18 -9c-4 0 -6 3.66699 -6 11l3 24l4 26l5 32l2 43v37l-3 26c0 9.33301 -1.33301 19.666 -4 30.999l-7 36c-10 45.333 -27.667 94.666 -53 147.999c-11.333 35.333 -31 82.333 -59 141l-43 79l-21 36l-24 37l39 79l44 84l66 127l21 -36l24 -42
l47 -93c39.333 -92 68 -165 86 -219l28 -123l7 -57l3 -60c0 -46.667 -12.333 -106 -37 -178c-20.667 -60.667 -42.667 -108.667 -66 -144zM301 -0.998047l-225 146l159 209l225 -152z" />
    <glyph glyph-name="percent" unicode="%" horiz-adv-x="1024" 
d="M701 1231l137 15l-567 -1228l-162 -18zM379 911l7 -11.999l4 -13c0 -12.667 -8 -23.667 -24 -33l-110 -110c-7.33301 -6 -17.333 -9 -30 -9c-12 0 -21.667 3 -29 9l-110 110c-16.667 9.33301 -25 20 -25 32l3 8l10 18l117 110c4.66699 5.33301 9.66699 9.66602 15 12.999
c8 3.33301 15.333 5 22 5c6 0 9.66699 -0.666992 11 -2l14 -5zM946 483.001c7.33301 -8.66699 11 -16.666 11 -23.999s-2.33301 -13.333 -7 -18l-19 -18l-109 -106c-7.33301 -6.66699 -17 -10 -29 -10c-10.667 0 -20 3.33301 -28 10l-111 106
c-16.667 9.33301 -25 20.666 -25 33.999l4 13l8 13l117 108l15 14l20 4l13 -1l14 -7z" />
    <glyph glyph-name="parenleft" unicode="(" horiz-adv-x="700" 
d="M75 488l0.000976562 31.999c0 80.667 9.66699 163.334 29 248.001c22 91.333 54.333 177 97 257c5.33301 12.667 15.666 32 30.999 58l46 71l16 21l22 28l58 67l78 47c28 16.667 55 30.334 81 41.001l20 9l26 10l50 16c-90.667 -111.333 -167 -246.333 -229 -405
l-28 -107l-27 -130l-6 -45l-9 -84l-1 -49l-4 -85c0 -172 25 -338 75 -498c24 -70.667 55 -140.5 93 -209.5s83.333 -134.167 136 -195.5l-49 16l-44 16l-20 9l-18 10l-46 24l-78 48c-50.667 56.667 -110 142 -178 256c-41.333 83.333 -72.333 172 -93 266
c-8.66699 43.333 -15.667 85.666 -21 126.999l-5 62z" />
    <glyph glyph-name="parenright" unicode=")" horiz-adv-x="700" 
d="M623 488c0 -62 -2.00098 -105.333 -6.00098 -130l-21 -127c-20.667 -96.667 -51.667 -185.667 -93 -267l-21 -38l-9 -19l-8 -12l-18 -28l-24 -36c-14 -20.667 -46.667 -61.667 -98 -123l-79 -47l-41 -22l-40 -20l-48 -18l-48 -16c100 119.333 176 254.333 228 405
c25.333 74.667 44.333 154 57 238l14 127l3 67l2 66c0 100 -6.16699 191.167 -18.5 273.5s-30.833 156.833 -55.5 223.5c-49.333 149.333 -126 285.333 -230 408c14.667 -2.66699 46.334 -14 95.001 -34l34 -16c14 -6 30 -14.333 48 -25l79 -48
c67.333 -72.667 125.333 -155 174 -247c24 -50 41.333 -89.333 52 -118l16 -50l27 -90l20 -121l6 -64l3 -65v-27z" />
    <glyph glyph-name="asterisk" unicode="*" horiz-adv-x="899" 
d="M709 1452h132l-189 -139l136 -191l-123 39l40 -128l-198 141l-138 -188v121l-105 -74l74 235l-230 75l116 38l-96 71h241v247l78 -106l39 119l72 -222l230 73z" />
    <glyph glyph-name="plus" unicode="+" horiz-adv-x="851" 
d="M32 618h320v320h143v-320h321v-142h-321v-320h-143v320h-320v142z" />
    <glyph glyph-name="comma" unicode="," horiz-adv-x="476" 
d="M184 202l-19.999 -7.00195l-31 -5c-22 0 -41.667 9.33301 -59 28c-17.333 21.333 -26 51.333 -26 90l2 39c0 5.33301 1.33301 11.333 4 18l6 20c12 36.667 26.667 64.334 44 83.001c20.667 24 46 36 76 36c56 0 98.667 -11.167 128 -33.5s52 -62.5 68 -120.5l2 -17v-8
c0 -33.333 -4.66699 -70.333 -14 -111c-12 -55.333 -31.333 -107.666 -58 -156.999c-15.333 -32 -32.666 -61.667 -51.999 -89l-31 -43l-38 -43l-19 -16l-19 -14l-17 -5l-14 -4c-14 0 -21 6.66699 -21 20c0 10 5.33301 21.333 16 34c27.333 31.333 58.666 80.333 93.999 147
c9.33301 20 16.333 38.667 21 56l7 34l5 27v15v18l-3 17c-2 8 -6.33301 15.333 -13 22c-6.66699 -12 -19.334 -22.333 -38.001 -31z" />
    <glyph glyph-name="hyphen" unicode="-" horiz-adv-x="739" 
d="M663 272h-604v117h604v-117z" />
    <glyph glyph-name="period" unicode="." horiz-adv-x="515" 
d="M379 179c7.33301 -7.33301 11.001 -15.666 11.001 -24.999c0 -8.66699 -8 -20.334 -24 -35.001l-110 -107c-7.33301 -6.66699 -17.333 -10 -30 -10c-10.667 0 -20.334 3.33301 -29.001 10l-110 107c-16.667 9.33301 -25 20.333 -25 33c1.33301 8 3 12.667 5 14l8 13
l117 108c3.33301 4.66699 8.33301 9 15 13l20 4l13 -2l14 -5z" />
    <glyph glyph-name="slash" unicode="/" horiz-adv-x="950" 
d="M606 1202h250l-542 -1202h-264z" />
    <glyph glyph-name="zero" unicode="0" horiz-adv-x="670" 
d="M153 582h377v-317h-378z" />
    <glyph glyph-name="zero" unicode="&#x6f0;" horiz-adv-x="670" 
d="M153 582h377v-317h-378z" />
    <glyph glyph-name="zero" unicode="&#x660;" horiz-adv-x="670" 
d="M153 582h377v-317h-378z" />
    <glyph glyph-name="one" unicode="1" horiz-adv-x="639" 
d="M115 1136h-84v67h260l60 2l81 7l51 11l37 12v-1235h-405v1136z" />
    <glyph glyph-name="one" unicode="&#x6f1;" horiz-adv-x="639" 
d="M115 1136h-84v67h260l60 2l81 7l51 11l37 12v-1235h-405v1136z" />
    <glyph glyph-name="one" unicode="&#x661;" horiz-adv-x="639" 
d="M115 1136h-84v67h260l60 2l81 7l51 11l37 12v-1235h-405v1136z" />
    <glyph glyph-name="two" unicode="2" horiz-adv-x="1405" 
d="M520 711h361v453h-84v68h489v-520c0 -44 -15.5 -81.5 -46.5 -112.5s-68.5 -46.5 -112.5 -46.5h-607v-553h-405v1136h-84v67h260l60 2l81 7l51 11l37 12v-524z" />
    <glyph glyph-name="two" unicode="&#x6f2;" horiz-adv-x="1405" 
d="M520 711h361v453h-84v68h489v-520c0 -44 -15.5 -81.5 -46.5 -112.5s-68.5 -46.5 -112.5 -46.5h-607v-553h-405v1136h-84v67h260l60 2l81 7l51 11l37 12v-524z" />
    <glyph glyph-name="two" unicode="&#x662;" horiz-adv-x="1405" 
d="M520 711h361v453h-84v68h489v-520c0 -44 -15.5 -81.5 -46.5 -112.5s-68.5 -46.5 -112.5 -46.5h-607v-553h-405v1136h-84v67h260l60 2l81 7l51 11l37 12v-524z" />
    <glyph glyph-name="three" unicode="3" horiz-adv-x="1986" 
d="M520 553v-553h-405v1136h-84v67h260l60 2l81 7l51 11l37 12v-524h278v453h-84v68h489v-521h259v453h-84v68h489v-520c0 -44 -15.5 -81.5 -46.5 -112.5s-68.5 -46.5 -112.5 -46.5h-512v83c-18 -54 -52 -81.667 -102 -83h-574z" />
    <glyph glyph-name="three" unicode="&#x6f3;" horiz-adv-x="1986" 
d="M520 553v-553h-405v1136h-84v67h260l60 2l81 7l51 11l37 12v-524h278v453h-84v68h489v-521h259v453h-84v68h489v-520c0 -44 -15.5 -81.5 -46.5 -112.5s-68.5 -46.5 -112.5 -46.5h-512v83c-18 -54 -52 -81.667 -102 -83h-574z" />
    <glyph glyph-name="three" unicode="&#x663;" horiz-adv-x="1986" 
d="M520 553v-553h-405v1136h-84v67h260l60 2l81 7l51 11l37 12v-524h278v453h-84v68h489v-521h259v453h-84v68h489v-520c0 -44 -15.5 -81.5 -46.5 -112.5s-68.5 -46.5 -112.5 -46.5h-512v83c-18 -54 -52 -81.667 -102 -83h-574z" />
    <glyph glyph-name="four" unicode="4" horiz-adv-x="1539" 
d="M680 712l-1 359c0 44 15.5 81.5 46.5 112.5s68.5 46.5 112.5 46.5h361c44 0 81.5 -15.5 112.5 -46.5s46.5 -68.5 46.5 -112.5v-125h-86v89h-245v-323h313v110h68v-161l2 -38l16 -72h-906v-551h-405v1136h-84v67h260l60 2l81 7l51 11l37 12v-523h160z" />
    <glyph glyph-name="four" unicode="&#x6f4;" horiz-adv-x="1539" 
d="M680 712l-1 359c0 44 15.5 81.5 46.5 112.5s68.5 46.5 112.5 46.5h361c44 0 81.5 -15.5 112.5 -46.5s46.5 -68.5 46.5 -112.5v-125h-86v89h-245v-323h313v110h68v-161l2 -38l16 -72h-906v-551h-405v1136h-84v67h260l60 2l81 7l51 11l37 12v-523h160z" />
    <glyph glyph-name="four" unicode="&#x664;" horiz-adv-x="1539" 
d="M680 712l-1 359c0 44 15.5 81.5 46.5 112.5s68.5 46.5 112.5 46.5h361c44 0 81.5 -15.5 112.5 -46.5s46.5 -68.5 46.5 -112.5v-125h-86v89h-245v-323h313v110h68v-161l2 -38l16 -72h-906v-551h-405v1136h-84v67h260l60 2l81 7l51 11l37 12v-523h160z" />
    <glyph glyph-name="five" unicode="5" horiz-adv-x="1487" 
d="M1116 945c0 21.333 -7 39 -21 53s-31 21 -51 21h-493c-20 0 -37.167 -9.5 -51.5 -28.5s-22.166 -34.5 -23.499 -46.5v-683c0 -22 7 -40 21 -54s31.667 -21 53 -21h7c14.667 0 33 -0.333008 55 -1s43 16 63 50v239h223v-239c27.333 -32.667 53.166 -49 77.499 -49h66.5
c21.333 0 39 7 53 21s21 32 21 54v684zM1374 209c0 -57.333 -19.835 -106.5 -59.502 -147.5s-89.5 -61.5 -149.5 -61.5h-242c-36 0 -66.667 13 -92 39c-17.333 17.333 -29 37.666 -35 60.999c-5.33301 -23.333 -16.666 -43.666 -33.999 -60.999c-25.333 -26 -56 -39 -92 -39
h-390c-60 0 -109.833 20.5 -149.5 61.5s-59.5 90.167 -59.5 147.5v815c0 60 20.333 109.667 61 149s89.334 59 146.001 59h916c52 0 94.667 -18 128 -54c34.667 -34.667 52 -77 52 -127v-842z" />
    <glyph glyph-name="five" unicode="&#x6f5;" horiz-adv-x="1487" 
d="M1116 945c0 21.333 -7 39 -21 53s-31 21 -51 21h-493c-20 0 -37.167 -9.5 -51.5 -28.5s-22.166 -34.5 -23.499 -46.5v-683c0 -22 7 -40 21 -54s31.667 -21 53 -21h7c14.667 0 33 -0.333008 55 -1s43 16 63 50v239h223v-239c27.333 -32.667 53.166 -49 77.499 -49h66.5
c21.333 0 39 7 53 21s21 32 21 54v684zM1374 209c0 -57.333 -19.835 -106.5 -59.502 -147.5s-89.5 -61.5 -149.5 -61.5h-242c-36 0 -66.667 13 -92 39c-17.333 17.333 -29 37.666 -35 60.999c-5.33301 -23.333 -16.666 -43.666 -33.999 -60.999c-25.333 -26 -56 -39 -92 -39
h-390c-60 0 -109.833 20.5 -149.5 61.5s-59.5 90.167 -59.5 147.5v815c0 60 20.333 109.667 61 149s89.334 59 146.001 59h916c52 0 94.667 -18 128 -54c34.667 -34.667 52 -77 52 -127v-842z" />
    <glyph glyph-name="five" unicode="&#x665;" horiz-adv-x="1487" 
d="M1116 945c0 21.333 -7 39 -21 53s-31 21 -51 21h-493c-20 0 -37.167 -9.5 -51.5 -28.5s-22.166 -34.5 -23.499 -46.5v-683c0 -22 7 -40 21 -54s31.667 -21 53 -21h7c14.667 0 33 -0.333008 55 -1s43 16 63 50v239h223v-239c27.333 -32.667 53.166 -49 77.499 -49h66.5
c21.333 0 39 7 53 21s21 32 21 54v684zM1374 209c0 -57.333 -19.835 -106.5 -59.502 -147.5s-89.5 -61.5 -149.5 -61.5h-242c-36 0 -66.667 13 -92 39c-17.333 17.333 -29 37.666 -35 60.999c-5.33301 -23.333 -16.666 -43.666 -33.999 -60.999c-25.333 -26 -56 -39 -92 -39
h-390c-60 0 -109.833 20.5 -149.5 61.5s-59.5 90.167 -59.5 147.5v815c0 60 20.333 109.667 61 149s89.334 59 146.001 59h916c52 0 94.667 -18 128 -54c34.667 -34.667 52 -77 52 -127v-842z" />
    <glyph glyph-name="six" unicode="6" horiz-adv-x="1312" 
d="M794 1072h-300.999v-410h-415v362c0 58 20.167 107.167 60.5 147.5s89.166 60.5 146.499 60.5h914v-1232h-405v1072z" />
    <glyph glyph-name="six" unicode="&#x6f6;" horiz-adv-x="1312" 
d="M794 1072h-300.999v-410h-415v362c0 58 20.167 107.167 60.5 147.5s89.166 60.5 146.499 60.5h914v-1232h-405v1072z" />
    <glyph glyph-name="six" unicode="&#x666;" horiz-adv-x="1312" 
d="M794 1072h-300.999v-410h-415v362c0 58 20.167 107.167 60.5 147.5s89.166 60.5 146.499 60.5h914v-1232h-405v1072z" />
    <glyph glyph-name="seven" unicode="7" horiz-adv-x="1379" 
d="M1224 1220l42 13v-1074c0 -46 -16.5 -84 -49.5 -114s-69.167 -45 -108.5 -45h-876c-44 -0 -81.5 15.833 -112.5 47.5s-46.5 68.5 -46.5 110.5v919c0 44 15.5 81.5 46.5 112.5s68.5 46.5 112.5 46.5h245v-1078h385v976h-85v68h307l89 7z" />
    <glyph glyph-name="seven" unicode="&#x6f7;" horiz-adv-x="1379" 
d="M1224 1220l42 13v-1074c0 -46 -16.5 -84 -49.5 -114s-69.167 -45 -108.5 -45h-876c-44 -0 -81.5 15.833 -112.5 47.5s-46.5 68.5 -46.5 110.5v919c0 44 15.5 81.5 46.5 112.5s68.5 46.5 112.5 46.5h245v-1078h385v976h-85v68h307l89 7z" />
    <glyph glyph-name="seven" unicode="&#x667;" horiz-adv-x="1379" 
d="M1224 1220l42 13v-1074c0 -46 -16.5 -84 -49.5 -114s-69.167 -45 -108.5 -45h-876c-44 -0 -81.5 15.833 -112.5 47.5s-46.5 68.5 -46.5 110.5v919c0 44 15.5 81.5 46.5 112.5s68.5 46.5 112.5 46.5h245v-1078h385v976h-85v68h307l89 7z" />
    <glyph glyph-name="eight" unicode="8" horiz-adv-x="1379" 
d="M115 16l-42 -13v1074c0 46 16.5 84 49.5 114s69.167 45 108.5 45h876c44 0 81.5 -15.833 112.5 -47.5s46.5 -68.5 46.5 -110.5v-919c0 -44 -15.5 -81.5 -46.5 -112.5s-68.5 -46.5 -112.5 -46.5h-245v1078h-385v-976h85v-68h-307l-89 -7z" />
    <glyph glyph-name="eight" unicode="&#x6f8;" horiz-adv-x="1379" 
d="M115 16l-42 -13v1074c0 46 16.5 84 49.5 114s69.167 45 108.5 45h876c44 0 81.5 -15.833 112.5 -47.5s46.5 -68.5 46.5 -110.5v-919c0 -44 -15.5 -81.5 -46.5 -112.5s-68.5 -46.5 -112.5 -46.5h-245v1078h-385v-976h85v-68h-307l-89 -7z" />
    <glyph glyph-name="eight" unicode="&#x668;" horiz-adv-x="1379" 
d="M115 16l-42 -13v1074c0 46 16.5 84 49.5 114s69.167 45 108.5 45h876c44 0 81.5 -15.833 112.5 -47.5s46.5 -68.5 46.5 -110.5v-919c0 -44 -15.5 -81.5 -46.5 -112.5s-68.5 -46.5 -112.5 -46.5h-245v1078h-385v-976h85v-68h-307l-89 -7z" />
    <glyph glyph-name="nine" unicode="9" horiz-adv-x="1122" 
d="M317 757c-4 -122.667 16.832 -184.333 62.499 -185s83.834 -1 114.501 -1h96v386h-273v-200zM779.999 1203l59.999 2l81 7l51 11l37 12v-1235h-405v422h-330c-56.667 0 -105.5 19.667 -146.5 59s-61.5 89 -61.5 149v295c0 50.667 14.333 98 43 142
c13.333 23.333 35 44 65 62l46 34c30.667 22.667 65.334 36 104.001 40h456z" />
    <glyph glyph-name="nine" unicode="&#x6f9;" horiz-adv-x="1122" 
d="M317 757c-4 -122.667 16.832 -184.333 62.499 -185s83.834 -1 114.501 -1h96v386h-273v-200zM779.999 1203l59.999 2l81 7l51 11l37 12v-1235h-405v422h-330c-56.667 0 -105.5 19.667 -146.5 59s-61.5 89 -61.5 149v295c0 50.667 14.333 98 43 142
c13.333 23.333 35 44 65 62l46 34c30.667 22.667 65.334 36 104.001 40h456z" />
    <glyph glyph-name="nine" unicode="&#x669;" horiz-adv-x="1122" 
d="M317 757c-4 -122.667 16.832 -184.333 62.499 -185s83.834 -1 114.501 -1h96v386h-273v-200zM779.999 1203l59.999 2l81 7l51 11l37 12v-1235h-405v422h-330c-56.667 0 -105.5 19.667 -146.5 59s-61.5 89 -61.5 149v295c0 50.667 14.333 98 43 142
c13.333 23.333 35 44 65 62l46 34c30.667 22.667 65.334 36 104.001 40h456z" />
    <glyph glyph-name="colon" unicode=":" horiz-adv-x="510" 
d="M365 559c5.33301 -5.33301 9.33398 -13.666 12.001 -24.999c0 -9.33301 -8.66699 -20.333 -26 -33l-109 -106c-8 -7.33301 -17.667 -11 -29 -11c-12 0 -21.667 3.66699 -29 11l-111 106c-16 9.33301 -24 20.333 -24 33l5 12l7 13l118 110
c3.33301 5.33301 8.5 9.66602 15.5 12.999s13.167 5 18.5 5l14 -3c3.33301 0 7.66602 -1.66699 12.999 -5zM387.001 179c7.33301 -7.33301 11 -15.666 11 -24.999c0 -8.66699 -8.33301 -20.334 -25 -35.001l-110 -107c-6.66699 -6.66699 -16.667 -10 -30 -10
c-10 0 -19.333 3.33301 -28 10l-110 107c-16.667 9.33301 -25 20.333 -25 33c0.666992 8 2 12.667 4 14l9 13l116 108c4 4.66699 9.33301 9 16 13l20 4l13 -2l14 -5z" />
    </font>
</defs>
</svg>
