<?xml version="1.0" standalone="no"?>
<!DOCTYPE svg PUBLIC "-//W3C//DTD SVG 1.1//EN" "http://www.w3.org/Graphics/SVG/1.1/DTD/svg11.dtd" >
<svg>
<metadata>
Created by FontForge 20090914 at Wed Oct 19 01:00:48 2011
 By www-data
(c) by Abolfazl Seilsepour - +98 912 591 3420  -  seilsepor@yahoo.com
</metadata>
<defs>
<font id="FarCasablanca" horiz-adv-x="0" >
  <font-face 
    font-family="Far.Casablanca"
    font-weight="400"
    font-stretch="normal"
    units-per-em="2048"
    panose-1="0 0 4 0 0 0 0 0 0 0"
    ascent="1638"
    descent="-410"
    bbox="-211 -1483 2212 2140"
    underline-thickness="60"
    underline-position="-650"
    unicode-range="U+0020-U+FEFC"
  />
<missing-glyph horiz-adv-x="1024" 
d="M128 -156v1343h768v-1343h-768zM256 -28h512v1087h-512v-1087z" />
    <glyph glyph-name="uniE818" unicode="&#x651;&#x64b;" 
d="M519 1770l-377 -155v114l377 150v-109zM555 1436c0 -40.667 -11.667 -75.3359 -35 -104.003c-28 -32.667 -64 -49 -108 -49c-46 0 -78 15.667 -96 47c-27.333 -33.333 -68 -50 -122 -50c-38 0 -69 18 -93 54c-18 26.667 -27 52.334 -27 77.001c0 22 6.33301 46.667 19 74
c16.667 36 38 54 64 54c19.333 0 29 -10 29 -30c0 -6.66699 -0.833008 -16.5 -2.5 -29.5s-2.5 -22.5 -2.5 -28.5c0 -28 11 -42 33 -42c25.333 0 43 10.333 53 31c2.66699 6 9 30.333 19 73c4 20 16.667 30 38 30s33 -11 35 -33c8 -70.667 25.667 -106 53 -106
c25.333 0 38 15 38 45c0 14.667 -3.33301 33.334 -10 56.001l79 64c24 -37.333 36 -81.666 36 -132.999zM519 1983l-377 -155v114l377 149v-108z" />
    <glyph glyph-name="uniFC5E" unicode="&#x651;&#x64c;" arabic-form="isolated" 
d="M524 1535c0 -40 -11.6641 -74.6699 -34.9971 -104.003c-28 -32.667 -64 -49 -108 -49c-46.667 0 -78.667 15.667 -96 47c-28.667 -34 -69.334 -51 -122.001 -51c-34.667 0 -63.334 14.333 -86.001 43s-34 58.334 -34 89.001c0 22.667 6.33301 47.334 19 74.001
c16.667 36.667 38 55 64 55c19.333 0 29 -10.333 29 -31c0 -7.33301 -0.833008 -17.333 -2.5 -30s-2.5 -22.334 -2.5 -29.001c0 -28 11 -42 33 -42c25.333 0 43 10.333 53 31c3.33301 8 9.66602 32.333 18.999 73c4 20.667 16.667 31 38 31s33 -11.333 35 -34
c8 -70.667 25.667 -106 53 -106c25.333 0 38 15 38 45c0 14.667 -3.33301 33.334 -10 56.001l79 65c24 -39.333 36 -83.666 36 -132.999zM535.003 1982c0 -34 -23.668 -77.335 -71.001 -130.002l47 -14l-50 -86c-45.333 8 -78 19.333 -98 34
c-78.667 -46.667 -151.334 -70 -218.001 -70c-28.667 0 -57.667 32 -87 96c42.667 0 67 1 73 3c14 16 21 32.667 21 50c0 13.333 -5.33301 20 -16 20c-11.333 0 -32 -16 -62 -48l-18 84c32.667 37.333 66.334 56 101.001 56c12.667 0 25 -3 37 -9
c32 -14.667 48 -40.667 48 -78c0 -28 -5 -49.667 -15 -65c30.667 2.66699 54 10.334 70 23.001c-24 40.667 -36 69.334 -36 86.001c0 37.333 25 74 75 110c42.667 32 76.334 48 101.001 48c65.333 0 98 -36.667 98 -110zM423.002 1970c0 15.333 -6.66699 23 -20 23
c-22.667 0 -34 -12.333 -34 -37c0 -23.333 8.66699 -42 26 -56c18.667 12 28 35.333 28 70z" />
    <glyph glyph-name="uniFC5F" unicode="&#x651;&#x64d;" horiz-adv-x="1" arabic-form="isolated" 
d="M547 1964c0 -40.667 -11.6641 -75.668 -34.9971 -105.001c-28 -32.667 -64 -49 -108 -49c-46.667 0 -78.667 15.667 -96 47c-28.667 -34 -69.334 -51 -122.001 -51c-34.667 0 -63.334 14.5 -86.001 43.5s-34 58.5 -34 88.5c0 22.667 6.33301 47.334 19 74.001
c16.667 36.667 38 55 64 55c19.333 0 29 -10.333 29 -31c0 -7.33301 -0.833008 -17.333 -2.5 -30s-2.5 -22.334 -2.5 -29.001c0 -27.333 11 -41 33 -41c25.333 0 43 10 53 30c3.33301 8 9.66602 32.667 18.999 74c4 20 16.667 30 38 30s33 -11 35 -33
c8 -71.333 25.667 -107 53 -107c25.333 0 38 15 38 45c0 14.667 -3.33301 33.667 -10 57l79 65c24 -39.333 36 -83.666 36 -132.999zM492.003 1658l-378 -154v113l378 150v-109zM492.003 1474l-378 -154v113l378 150v-109z" />
    <glyph glyph-name="uniFC60" unicode="&#x651;&#x64e;" arabic-form="isolated" 
d="M546 1664c0 -40 -11.6641 -74.6699 -34.9971 -104.003c-28 -32.667 -64 -49 -108 -49c-46.667 0 -78.667 15.667 -96 47c-28.667 -34 -69.334 -51 -122.001 -51c-34.667 0 -63.334 14.333 -86.001 43s-34 58.334 -34 89.001c0 22.667 6.33301 47.334 19 74.001
c16.667 36.667 38 55 64 55c19.333 0 29 -10.333 29 -31c0 -7.33301 -0.833008 -17.333 -2.5 -30s-2.5 -22.334 -2.5 -29.001c0 -28 11 -42 33 -42c25.333 0 43 10.333 53 31c3.33301 8 9.66602 32.333 18.999 73c4 20.667 16.667 31 38 31s33 -11.333 35 -34
c8 -70.667 25.667 -106 53 -106c25.333 0 38 15 38 45c0 14.667 -3.33301 33.334 -10 56.001l79 65c24 -39.333 36 -83.666 36 -132.999zM505.003 1967l-377 -155v114l377 149v-108z" />
    <glyph glyph-name="uniFC61" unicode="&#x651;&#x64f;" horiz-adv-x="1" arabic-form="isolated" 
d="M524 1575c0 -40.667 -11.667 -75.3359 -35 -104.003c-28 -32.667 -64 -49 -108 -49c-46 0 -77.667 15.667 -95 47c-28 -33.333 -69 -50 -123 -50c-38 0 -69 18 -93 54c-18 26.667 -27 52.334 -27 77.001c0 22 6.33301 46.667 19 74c16.667 36 38 54 64 54
c19.333 0 29 -10 29 -30c0 -6.66699 -0.833008 -16.5 -2.5 -29.5s-2.5 -22.5 -2.5 -28.5c0 -28 11 -42 33 -42c25.333 0 43 10.333 53 31c2.66699 6 9 30.333 19 73c4 20 16.667 30 38 30s33 -11 35 -33c8 -70.667 25.667 -106 53 -106c25.333 0 38 15 38 45
c0 14.667 -3.33301 33.334 -10 56.001l79 64c24 -37.333 36 -81.666 36 -132.999zM516 2028c0 -33.333 -23.666 -76.3311 -70.999 -128.998c0.666992 0 16.334 -4 47.001 -12l-49 -88c-47.333 8.66699 -80.333 20 -99 34c-82 -46.667 -154.333 -70 -217 -70
c-30.667 0 -59.334 32.333 -86.001 97c78 1.33301 128.333 3.66602 151 6.99902c42 5.33301 70.667 14.666 86 27.999c-23.333 42 -35 71 -35 87c0 36.667 25 73 75 109c42.667 32.667 76 49 100 49c31.333 0 56.666 -13 75.999 -39c14.667 -21.333 22 -45.666 22 -73z
M404.001 2017c0 16 -6.33203 24 -18.999 24c-6.66699 0 -14.334 -3.83301 -23.001 -11.5s-13 -16.167 -13 -25.5c0 -23.333 9 -42 27 -56c18.667 12 28 35 28 69z" />
    <glyph glyph-name="uniFC62" unicode="&#x651;&#x650;" horiz-adv-x="1" arabic-form="isolated" 
d="M547 1842c0 -40.667 -11.6641 -75.668 -34.9971 -105.001c-28 -32.667 -64 -49 -108 -49c-46.667 0 -78.667 15.667 -96 47c-28.667 -34 -69.334 -51 -122.001 -51c-34.667 0 -63.334 14.5 -86.001 43.5s-34 58.5 -34 88.5c0 22.667 6.33301 47.334 19 74.001
c16.667 36.667 38 55 64 55c19.333 0 29 -10.333 29 -31c0 -7.33301 -0.833008 -17.333 -2.5 -30s-2.5 -22.334 -2.5 -29.001c0 -27.333 11 -41 33 -41c25.333 0 43 10 53 30c3.33301 8 9.66602 32.667 18.999 74c4 20 16.667 30 38 30s33 -11 35 -33
c8 -71.333 25.667 -107 53 -107c25.333 0 38 15 38 45c0 14.667 -3.33301 33.667 -10 57l79 65c24 -39.333 36 -83.666 36 -132.999zM492.003 1536l-378 -154v113l378 150v-109z" />
    <glyph glyph-name="uniFDF2" unicode="&#xfedf;&#xfee0;&#xfeea;" horiz-adv-x="1844" arabic-form="isolated" 
d="M1284 1087l-0.00585938 -719.001c0 -21.333 3.66699 -40 11 -56s17 -29.667 29 -41s25.833 -20 41.5 -26s31.5 -9 47.5 -9s31.833 3 47.5 9s29.667 14.667 42 26s22.166 25 29.499 41s11 34.667 11 56v824h234v-827c0 -50 -9.66699 -97 -29 -141
s-45.5 -82.333 -78.5 -115s-71.5 -58.667 -115.5 -78s-91 -29 -141 -29c-45.333 -0.666992 -89.166 7.5 -131.499 24.5s-80.166 40.833 -113.499 71.5c-34.667 -31.333 -72.334 -54.666 -113.001 -69.999s-83.667 -24 -129 -26c-49.333 -2 -96.166 6.66699 -140.499 26
s-83.166 46 -116.499 80s-59.666 73.333 -78.999 118s-29 91 -29 139v176c0 24 -3.66699 44.667 -11 62s-17.166 31.666 -29.499 42.999s-26.333 19.5 -42 24.5s-31.5 7.16699 -47.5 6.5c-16.667 -0.666992 -32.834 -4.16699 -48.501 -10.5s-29.5 -15.333 -41.5 -27
s-21.667 -25.667 -29 -42s-11 -35.166 -11 -56.499v-173c0 -21.333 3.66699 -40 11 -56s17 -29.5 29 -40.5s25.833 -19.5 41.5 -25.5s31.834 -9.33301 48.501 -10h28l-76 -231c-44.667 6 -86.167 19.5 -124.5 40.5s-71.666 47.5 -99.999 79.5s-50.666 68.5 -66.999 109.5
s-24.5 84.5 -24.5 130.5v181c0 50 9.5 97 28.5 141s45 82.5 78 115.5s71.667 59 116 78s91.5 28.5 141.5 28.5s97 -9.5 141 -28.5s82.5 -45 115.5 -78s59.167 -71.5 78.5 -115.5s29 -91 29 -141v-178c0 -20.667 3.66699 -39.167 11 -55.5s17 -30 29 -41
s25.667 -19.5 41 -25.5s31 -9.33301 47 -10c16 0.666992 31.667 4 47 10s29 14.5 41 25.5s21.667 24.667 29 41s11 34.833 11 55.5v626zM1448.99 1473l-0.00195312 -165c0 -22.667 -4.5 -44.167 -13.5 -64.5s-21.167 -38 -36.5 -53s-33.333 -26.833 -54 -35.5
s-42.667 -13 -66 -13c-24.667 0 -47.667 4.66699 -69 14s-39.666 22.333 -54.999 39c-15.333 -16.667 -33.5 -29.667 -54.5 -39s-43.833 -14 -68.5 -14c-23.333 0 -45.333 4.33301 -66 13s-38.667 20.5 -54 35.5s-27.5 32.667 -36.5 53s-13.5 41.833 -13.5 64.5v88l92 13
v-78c0 -24 6.83301 -44.667 20.5 -62s29.834 -26 48.501 -26h18c18.667 0 34.667 8.66699 48 26s20 38 20 62v98l92 12v-110c0 -24 6.66699 -44.667 20 -62s29.333 -26 48 -26h18c19.333 0 35.5 8.66699 48.5 26s19.5 38 19.5 62v130z" />
    <glyph glyph-name="uniFEF5" unicode="&#xfedf;&#xfe82;" horiz-adv-x="989" arabic-form="isolated" 
d="M133 -103l-0.00292969 234.001c0.666992 49.333 8.83398 94.5 24.501 135.5s37.334 77.667 65.001 110s60.334 60.5 98.001 84.5s78.834 43.333 123.501 58l-377 553l194 131l387 -567c24 26 36 62 36 108v448h235l1 -170c0 -35.333 0.333008 -70.833 1 -106.5
s0 -71.334 -2 -107.001s-6 -71 -12 -106s-15 -69.5 -27 -103.5c-11.333 -30 -26.333 -57.5 -45 -82.5l-57 -73.5c42 -86 64 -163.5 66 -232.5s-13.5 -127.333 -46.5 -175s-81.833 -83.5 -146.5 -107.5s-142.334 -34.333 -233.001 -31h-285zM9.99707 1231
c0 53.333 19.168 104.168 57.501 152.501s110.333 50.666 216 6.99902s186.5 -28.167 242.5 46.5c-26.667 -158 -103.834 -210.333 -231.501 -157s-222.5 37 -284.5 -49zM500.998 131.003c26 -0.666992 49.001 2.50098 69.001 9.50098s34.5 18.333 43.5 34
s11.167 35.667 6.5 60s-18.334 53.5 -41.001 87.5c-28 -5.33301 -53.5 -12.666 -76.5 -21.999s-43.5 -21.333 -61.5 -36s-33.167 -32.834 -45.5 -54.501s-21.833 -47.834 -28.5 -78.501h134z" />
    <glyph glyph-name="uniFEF6" unicode="&#xfee0;&#xfe82;" horiz-adv-x="1053" arabic-form="final" 
d="M920 1192l0.000976562 -823.998c2.66699 -21.333 8.33398 -40.166 17.001 -56.499s19 -30 31 -41s25.5 -19.5 40.5 -25.5s30.167 -9 45.5 -9v-234c-62.667 0 -120.334 14.5 -173.001 43.5s-95.334 67.5 -128.001 115.5c-38.667 -34 -80.834 -61.5 -126.501 -82.5
s-91.5 -37.667 -137.5 -50s-90.5 -20.833 -133.5 -25.5s-81.333 -7.33398 -115 -8.00098s-61 -0.333984 -82 0.999023s-32.5 2.33301 -34.5 3l67 242c22.667 -0.666992 47.5 -0.5 74.5 0.5s54.5 3.16699 82.5 6.5s56 8.16602 84 14.499s54.667 14.5 80 24.5
c-18.667 60 -46.167 121.5 -82.5 184.5s-76.666 126.333 -120.999 190l-136.5 189.5c-46.667 62.667 -89.667 123.667 -129 183l191 161c22.667 -34 50.167 -71.333 82.5 -112l100 -128c34.333 -44.667 67.5 -91 99.5 -139s59.5 -96.167 82.5 -144.5s39.5 -96.5 49.5 -144.5
s9.66699 -94.333 -1 -139c25.333 34.667 38 76.667 38 126v678h235zM10.001 1231c0 53.333 19.168 104.168 57.501 152.501s110.333 50.666 216 6.99902s186.5 -28.167 242.5 46.5c-26.667 -158 -103.834 -210.333 -231.501 -157s-222.5 37 -284.5 -49z" />
    <glyph glyph-name="uniFEF7" unicode="&#xfedf;&#xfe84;" horiz-adv-x="989" arabic-form="isolated" 
d="M133 -103l-0.00292969 234.001c0.666992 49.333 8.83398 94.5 24.501 135.5s37.334 77.667 65.001 110s60.334 60.5 98.001 84.5s78.834 43.333 123.501 58l-377 553l194 131l387 -567c24 26 36 62 36 108v448h235l1 -170c0 -35.333 0.333008 -70.833 1 -106.5
s0 -71.334 -2 -107.001s-6 -71 -12 -106s-15 -69.5 -27 -103.5c-11.333 -30 -26.333 -57.5 -45 -82.5l-57 -73.5c42 -86 64 -163.5 66 -232.5s-13.5 -127.333 -46.5 -175s-81.833 -83.5 -146.5 -107.5s-142.334 -34.333 -233.001 -31h-285zM354.997 1293
c-50 0 -97.3311 -0.832031 -141.998 -2.49902s-91.667 -8.16699 -141 -19.5l-18 85l82 22c-17.333 26 -27 51.167 -29 75.5s1.5 46.5 10.5 66.5s22.167 37.167 39.5 51.5s36.666 24.833 57.999 31.5s43.5 8.5 66.5 5.5s44.5 -11.833 64.5 -26.5l-23 -86
c-8.66699 3.33301 -18.167 6.16602 -28.5 8.49902s-20.333 3.16602 -30 2.49902s-18.667 -3.16699 -27 -7.5s-15.166 -10.833 -20.499 -19.5c-7.33301 -11.333 -9.83301 -22.833 -7.5 -34.5s7.16602 -22.167 14.499 -31.5c9.33301 -11.333 20.166 -19.166 32.499 -23.499
s25.333 -7 39 -8s27.5 -0.833008 41.5 0.5s27.333 2 40 2zM500.999 131.002c26 -0.666992 49.001 2.50098 69.001 9.50098s34.5 18.333 43.5 34s11.167 35.667 6.5 60s-18.334 53.5 -41.001 87.5c-28 -5.33301 -53.5 -12.666 -76.5 -21.999s-43.5 -21.333 -61.5 -36
s-33.167 -32.834 -45.5 -54.501s-21.833 -47.834 -28.5 -78.501h134z" />
    <glyph glyph-name="uniFEF8" unicode="&#xfee0;&#xfe84;" horiz-adv-x="1053" arabic-form="final" 
d="M920 1192l0.000976562 -823.998c2.66699 -21.333 8.33398 -40.166 17.001 -56.499s19 -30 31 -41s25.5 -19.5 40.5 -25.5s30.167 -9 45.5 -9v-234c-62.667 0 -120.334 14.5 -173.001 43.5s-95.334 67.5 -128.001 115.5c-38.667 -34 -80.834 -61.5 -126.501 -82.5
s-91.5 -37.667 -137.5 -50s-90.5 -20.833 -133.5 -25.5s-81.333 -7.33398 -115 -8.00098s-61 -0.333984 -82 0.999023s-32.5 2.33301 -34.5 3l67 242c22.667 -0.666992 47.5 -0.5 74.5 0.5s54.5 3.16699 82.5 6.5s56 8.16602 84 14.499s54.667 14.5 80 24.5
c-18.667 60 -46.167 121.5 -82.5 184.5s-76.666 126.333 -120.999 190l-136.5 189.5c-46.667 62.667 -89.667 123.667 -129 183l191 161c22.667 -34 50.167 -71.333 82.5 -112l100 -128c34.333 -44.667 67.5 -91 99.5 -139s59.5 -96.167 82.5 -144.5s39.5 -96.5 49.5 -144.5
s9.66699 -94.333 -1 -139c25.333 34.667 38 76.667 38 126v678h235zM355.001 1293c-50 0 -97.3311 -0.832031 -141.998 -2.49902s-91.667 -8.16699 -141 -19.5l-18 85l82 22c-17.333 26 -27 51.167 -29 75.5s1.5 46.5 10.5 66.5s22.167 37.167 39.5 51.5
s36.666 24.833 57.999 31.5s43.5 8.5 66.5 5.5s44.5 -11.833 64.5 -26.5l-23 -86c-8.66699 3.33301 -18.167 6.16602 -28.5 8.49902s-20.333 3.16602 -30 2.49902s-18.667 -3.16699 -27 -7.5s-15.166 -10.833 -20.499 -19.5c-7.33301 -11.333 -9.83301 -22.833 -7.5 -34.5
s7.16602 -22.167 14.499 -31.5c9.33301 -11.333 20.166 -19.166 32.499 -23.499s25.333 -7 39 -8s27.5 -0.833008 41.5 0.5s27.333 2 40 2z" />
    <glyph glyph-name="uniFEF9" unicode="&#xfedf;&#xfe88;" horiz-adv-x="989" arabic-form="isolated" 
d="M133 -103l-0.00292969 234.001c0.666992 49.333 8.83398 94.5 24.501 135.5s37.334 77.667 65.001 110s60.334 60.5 98.001 84.5s78.834 43.333 123.501 58l-377 553l194 131l387 -567c24 26 36 62 36 108v448h235l1 -170c0 -35.333 0.333008 -70.833 1 -106.5
s0 -71.334 -2 -107.001s-6 -71 -12 -106s-15 -69.5 -27 -103.5c-11.333 -30 -26.333 -57.5 -45 -82.5l-57 -73.5c42 -86 64 -163.5 66 -232.5s-13.5 -127.333 -46.5 -175s-81.833 -83.5 -146.5 -107.5s-142.334 -34.333 -233.001 -31h-285zM358.997 -504.999
c-50 0 -97.498 -0.998047 -142.498 -2.99805s-91.833 -8.33301 -140.5 -19l-18 85l82 22c-17.333 26 -26.833 51.167 -28.5 75.5s2 46.5 11 66.5s22.167 37.167 39.5 51.5s36.666 24.666 57.999 30.999s43.5 8 66.5 5s44.5 -11.833 64.5 -26.5l-25 -84
c-8.66699 3.33301 -18 6 -28 8s-19.833 2.66699 -29.5 2s-18.834 -3 -27.501 -7s-15.667 -10.667 -21 -20c-6.66699 -11.333 -8.66699 -22.833 -6 -34.5s7.66699 -22.167 15 -31.5c8.66699 -10.667 19.167 -18.334 31.5 -23.001s25.333 -7.5 39 -8.5
s27.5 -0.833008 41.5 0.5s27.333 2 40 2zM500.999 131.003c26 -0.666992 49.001 2.50098 69.001 9.50098s34.5 18.333 43.5 34s11.167 35.667 6.5 60s-18.334 53.5 -41.001 87.5c-28 -5.33301 -53.5 -12.666 -76.5 -21.999s-43.5 -21.333 -61.5 -36
s-33.167 -32.834 -45.5 -54.501s-21.833 -47.834 -28.5 -78.501h134z" />
    <glyph glyph-name="uniFEFA" unicode="&#xfee0;&#xfe88;" horiz-adv-x="1053" arabic-form="final" 
d="M920 1192l0.000976562 -823.998c2.66699 -21.333 8.33398 -40.166 17.001 -56.499s19 -30 31 -41s25.5 -19.5 40.5 -25.5s30.167 -9 45.5 -9v-234c-62.667 0 -120.334 14.5 -173.001 43.5s-95.334 67.5 -128.001 115.5c-38.667 -34 -80.834 -61.5 -126.501 -82.5
s-91.5 -37.667 -137.5 -50s-90.5 -20.833 -133.5 -25.5s-81.333 -7.33398 -115 -8.00098s-61 -0.333984 -82 0.999023s-32.5 2.33301 -34.5 3l67 242c22.667 -0.666992 47.5 -0.5 74.5 0.5s54.5 3.16699 82.5 6.5s56 8.16602 84 14.499s54.667 14.5 80 24.5
c-18.667 60 -46.167 121.5 -82.5 184.5s-76.666 126.333 -120.999 190l-136.5 189.5c-46.667 62.667 -89.667 123.667 -129 183l191 161c22.667 -34 50.167 -71.333 82.5 -112l100 -128c34.333 -44.667 67.5 -91 99.5 -139s59.5 -96.167 82.5 -144.5s39.5 -96.5 49.5 -144.5
s9.66699 -94.333 -1 -139c25.333 34.667 38 76.667 38 126v678h235zM359.001 -407.998c-50 0 -97.3311 -0.833008 -141.998 -2.5s-91.667 -8.16699 -141 -19.5l-18 86l82 21c-17.333 26 -26.833 51 -28.5 75s2 46.167 11 66.5s22.167 37.666 39.5 51.999
s36.666 24.833 57.999 31.5s43.5 8.5 66.5 5.5s44.5 -11.833 64.5 -26.5l-25 -85c-8.66699 3.33301 -18 6 -28 8s-19.833 2.66699 -29.5 2s-18.834 -3 -27.501 -7s-15.667 -10.667 -21 -20c-6.66699 -11.333 -8.66699 -22.833 -6 -34.5s7.66699 -22.167 15 -31.5
c8.66699 -11.333 19.167 -19.166 31.5 -23.499s25.333 -7 39 -8s27.5 -1 41.5 0s27.333 1.5 40 1.5z" />
    <glyph glyph-name="uniFEFB" unicode="&#xfedf;&#xfe8e;" horiz-adv-x="989" arabic-form="isolated" 
d="M133 -103l-0.00292969 234.001c0.666992 49.333 8.83398 94.5 24.501 135.5s37.334 77.667 65.001 110s60.334 60.5 98.001 84.5s78.834 43.333 123.501 58l-377 553l194 131l387 -567c24 26 36 62 36 108v448h235l1 -170c0 -35.333 0.333008 -70.833 1 -106.5
s0 -71.334 -2 -107.001s-6 -71 -12 -106s-15 -69.5 -27 -103.5c-11.333 -30 -26.333 -57.5 -45 -82.5l-57 -73.5c42 -86 64 -163.5 66 -232.5s-13.5 -127.333 -46.5 -175s-81.833 -83.5 -146.5 -107.5s-142.334 -34.333 -233.001 -31h-285zM500.997 131.001
c26 -0.666992 49.001 2.50098 69.001 9.50098s34.5 18.333 43.5 34s11.167 35.667 6.5 60s-18.334 53.5 -41.001 87.5c-28 -5.33301 -53.5 -12.666 -76.5 -21.999s-43.5 -21.333 -61.5 -36s-33.167 -32.834 -45.5 -54.501s-21.833 -47.834 -28.5 -78.501h134z" />
    <glyph glyph-name="uniFEFC" unicode="&#xfee0;&#xfe8e;" horiz-adv-x="1053" arabic-form="final" 
d="M920 1192l0.000976562 -823.998c2.66699 -21.333 8.33398 -40.166 17.001 -56.499s19 -30 31 -41s25.5 -19.5 40.5 -25.5s30.167 -9 45.5 -9v-234c-62.667 0 -120.334 14.5 -173.001 43.5s-95.334 67.5 -128.001 115.5c-38.667 -34 -80.834 -61.5 -126.501 -82.5
s-91.5 -37.667 -137.5 -50s-90.5 -20.833 -133.5 -25.5s-81.333 -7.33398 -115 -8.00098s-61 -0.333984 -82 0.999023s-32.5 2.33301 -34.5 3l67 242c22.667 -0.666992 47.5 -0.5 74.5 0.5s54.5 3.16699 82.5 6.5s56 8.16602 84 14.499s54.667 14.5 80 24.5
c-18.667 60 -46.167 121.5 -82.5 184.5s-76.666 126.333 -120.999 190l-136.5 189.5c-46.667 62.667 -89.667 123.667 -129 183l191 161c22.667 -34 50.167 -71.333 82.5 -112l100 -128c34.333 -44.667 67.5 -91 99.5 -139s59.5 -96.167 82.5 -144.5s39.5 -96.5 49.5 -144.5
s9.66699 -94.333 -1 -139c25.333 34.667 38 76.667 38 126v678h235z" />
    <glyph glyph-name="afii57458_afii57454.liga" unicode="&#x652;&#x64e;" horiz-adv-x="1" 
d="M259 773c0 -16 -5 -30.333 -15 -43c-6 -7.33301 -10.333 -11.333 -13 -12c-2 1.33301 -3 6.33301 -3 15c0 44.667 -12.333 153 -37 325l50 30c4 2.66699 7 4 9 4c1.33301 -0.666992 2.33301 -3 3 -7c4 -50 6 -154 6 -312z" />
    <glyph glyph-name="afii57458_afii57451.liga" unicode="&#x652;&#x64b;" horiz-adv-x="1" 
d="M563 739l-99 -99l-100 100l99 98zM343 739l-98 -99l-100 100l99 98z" />
    <glyph glyph-name="afii57458_afii57453.liga" unicode="&#x652;&#x64d;" horiz-adv-x="1" 
d="M827 -896l-99 -99l-100 100l99 98zM607 -896l-98 -99l-100 100l99 98z" />
    <glyph glyph-name="afii57410" unicode="&#x622;" horiz-adv-x="421" arabic-form="isolated" 
d="M328 1192l0.000976562 -820c0 -33.333 -0.833008 -67.5 -2.5 -102.5s-5.83398 -69.333 -12.501 -103s-16.167 -65.667 -28.5 -96s-28.833 -56.833 -49.5 -79.5l-155 88c6 25.333 10.167 54.5 12.5 87.5s2.83301 71.5 1.5 115.5v910h234zM-23.999 1231
c-0.666992 53.333 18.168 104.168 56.501 152.501s110.333 50.666 216 6.99902s186.5 -28.167 242.5 46.5c-26.667 -158 -103.834 -210.333 -231.501 -157s-222.167 37 -283.5 -49z" />
    <glyph glyph-name="afii57411" unicode="&#x623;" horiz-adv-x="425" arabic-form="isolated" 
d="M332 1192l-0.00195312 -820c0 -33.333 -0.833008 -67.5 -2.5 -102.5s-5.66699 -69.333 -12 -103s-15.666 -65.667 -27.999 -96s-29.166 -56.833 -50.499 -79.5l-155 88c6 25.333 10.167 54.5 12.5 87.5s2.83301 71.5 1.5 115.5v910h234zM354.998 1293
c-50 0 -97.3311 -0.832031 -141.998 -2.49902s-91.667 -8.16699 -141 -19.5l-18 85l82 22c-17.333 26 -27 51.167 -29 75.5s1.5 46.5 10.5 66.5s22.167 37.167 39.5 51.5s36.666 24.833 57.999 31.5s43.5 8.5 66.5 5.5s44.5 -11.833 64.5 -26.5l-23 -86
c-8.66699 3.33301 -18.167 6.16602 -28.5 8.49902s-20.333 3.16602 -30 2.49902s-18.667 -3.16699 -27 -7.5s-15.166 -10.833 -20.499 -19.5c-7.33301 -11.333 -9.83301 -22.833 -7.5 -34.5s7.16602 -22.167 14.499 -31.5c9.33301 -11.333 20.166 -19.166 32.499 -23.499
s25.333 -7 39 -8s27.5 -0.833008 41.5 0.5s27.333 2 40 2z" />
    <glyph glyph-name="afii57412" unicode="&#x624;" horiz-adv-x="862" arabic-form="isolated" 
d="M124 -115c38.667 -15.333 79.832 -25.4971 123.499 -30.4971s85 -2.66699 124 7s73 27.5 102 53.5s47.833 62 56.5 108c-37.333 -14 -74.666 -21.333 -111.999 -22s-73.166 4.33301 -107.499 15s-66.333 26.167 -96 46.5s-55.5 44.5 -77.5 72.5s-39.167 59.667 -51.5 95
s-18.5 72.666 -18.5 111.999v204c0 50 9.5 97 28.5 141s45 82.5 78 115.5s71.667 59 116 78s91.5 28.5 141.5 28.5s97 -9.5 141 -28.5s82.5 -45 115.5 -78s59.167 -71.5 78.5 -115.5s29 -91 29 -141v-184c0 -72 -3.5 -142.167 -10.5 -210.5s-19.5 -132 -37.5 -191
s-42.833 -112 -74.5 -159s-72.334 -84.833 -122.001 -113.5s-109.5 -46.834 -179.5 -54.501s-152.333 -1.83398 -247 17.499v234zM590.998 1025c-34 0 -66.667 -0.166992 -98 -0.5s-62.333 -1.33301 -93 -3s-61.667 -4.5 -93 -8.5s-63.333 -10 -96 -18l-23 115l110 29
c-23.333 34.667 -36.333 68.167 -39 100.5s2 62 14 89s29.667 50.167 53 69.5s49.166 33.333 77.499 42s58 11 89 7s59.833 -15.667 86.5 -35l-33 -115c-11.333 4.66699 -23.666 8.5 -36.999 11.5s-26.5 4.16699 -39.5 3.5s-25.333 -3.83398 -37 -9.50098
s-20.834 -14.834 -27.501 -27.501c-9.33301 -15.333 -12.5 -30.666 -9.5 -45.999s9.83301 -29 20.5 -41c12 -15.333 26.333 -26 43 -32s34 -9.66699 52 -11s36.333 -1.16602 55 0.500977s36.334 2.5 53.001 2.5zM301.998 541.003v-173.003
c0 -21.333 3.66699 -40.166 11 -56.499s17 -30.166 29 -41.499s25.667 -20.166 41 -26.499s31.333 -9.83301 48 -10.5c16 -0.666992 31.833 1.5 47.5 6.5s29.667 13 42 24s22.166 25.167 29.499 42.5s11 38 11 62v173c0 24 -3.66699 44.667 -11 62
s-17.166 31.666 -29.499 42.999s-26.333 19.5 -42 24.5s-31.5 7.16699 -47.5 6.5c-16.667 -0.666992 -32.667 -4.16699 -48 -10.5s-29 -15.333 -41 -27s-21.667 -25.667 -29 -42s-11 -35.166 -11 -56.499z" />
    <glyph glyph-name="afii57413" unicode="&#x625;" horiz-adv-x="448" arabic-form="isolated" 
d="M350 1192l0.000976562 -820c0 -33.333 -0.833008 -67.5 -2.5 -102.5s-5.83398 -69.333 -12.501 -103s-16.167 -65.667 -28.5 -96s-28.833 -56.833 -49.5 -79.5l-155 88c6 25.333 10.167 54.5 12.5 87.5s2.83301 71.5 1.5 115.5v910h234zM329.001 -408
c-50 0 -97.334 -0.833008 -142.001 -2.5s-91.667 -8.16699 -141 -19.5l-17 86l81 21c-17.333 26 -26.833 51 -28.5 75s1.83301 46.167 10.5 66.5s21.834 37.666 39.501 51.999s37.167 24.833 58.5 31.5s43.5 8.5 66.5 5.5s44.5 -11.833 64.5 -26.5l-24 -85
c-8.66699 3.33301 -18.167 6 -28.5 8s-20.333 2.66699 -30 2s-18.667 -3 -27 -7s-15.166 -10.667 -20.499 -20c-7.33301 -11.333 -9.83301 -22.833 -7.5 -34.5s7.16602 -22.167 14.499 -31.5c9.33301 -11.333 20.333 -19.166 33 -23.499s25.667 -7 39 -8s27 -1 41 0
s27.333 1.5 40 1.5z" />
    <glyph glyph-name="afii57414" unicode="&#x626;" horiz-adv-x="1346" arabic-form="isolated" 
d="M472 2c-63.333 1.33301 -116.664 13.001 -159.997 35.001s-78.5 51.667 -105.5 89s-46.5 80.666 -58.5 129.999s-18 102.333 -18 159l207 82c0 -27.333 3 -56.333 9 -87s16.667 -58.667 32 -84s36.166 -46.5 62.499 -63.5s59.5 -25.833 99.5 -26.5h374
c30.667 0 55.5 5.5 74.5 16.5s32.667 24.5 41 40.5s11.5 33.5 9.5 52.5s-8.66699 36.5 -20 52.5s-27 29.333 -47 40s-44 15.667 -72 15l-126 -1c-38.667 -2 -72.667 0.5 -102 7.5s-54.166 17.333 -74.499 31s-36.5 29.834 -48.5 48.501s-20 39 -24 61
c-8 39.333 -7.66699 76.666 1 111.999s22.667 68.5 42 99.5s42.833 60.167 70.5 87.5s57 53.166 88 77.499s62.167 46.833 93.5 67.5l87 58l143 -186c-56.667 -26 -110.334 -57.333 -161.001 -94s-96 -82 -136 -136c26 0 52 0.166992 78 0.5s51.667 0 77 -1
s50.666 -3.5 75.999 -7.5s50.333 -10 75 -18c45.333 -15.333 83.333 -36.666 114 -63.999s54.5 -57.833 71.5 -91.5s27.5 -69.5 31.5 -107.5s2 -75.667 -6 -113s-21.667 -73 -41 -107s-44 -64 -74 -90s-64.833 -46.667 -104.5 -62s-83.834 -23 -132.501 -23h-446z
M379.002 631.001c-34 0 -66.6719 -0.170898 -98.0049 -0.503906s-62.333 -1.33301 -93 -3s-61.5 -4.5 -92.5 -8.5s-62.833 -10 -95.5 -18l-23 115l109 28c-23.333 34.667 -36.166 68.334 -38.499 101.001s2.5 62.334 14.5 89.001s29.667 49.834 53 69.501
s49.166 33.667 77.499 42s57.833 10.666 88.5 6.99902s59.334 -15.5 86.001 -35.5l-32 -114c-11.333 4.66699 -23.666 8.5 -36.999 11.5s-26.666 4 -39.999 3s-25.666 -4.16699 -36.999 -9.5s-20.666 -14.333 -27.999 -27c-8.66699 -15.333 -11.5 -30.666 -8.5 -45.999
s9.5 -29 19.5 -41c12.667 -15.333 27.167 -26 43.5 -32s33.666 -9.66699 51.999 -11s36.833 -1.16602 55.5 0.500977s36.334 2.5 53.001 2.5z" />
    <glyph glyph-name="afii57415" unicode="&#x627;" horiz-adv-x="452" arabic-form="isolated" 
d="M345 1192l-0.00195312 -820c0 -33.333 -0.833008 -67.5 -2.5 -102.5s-5.66699 -69.333 -12 -103s-15.666 -65.667 -27.999 -96s-29.166 -56.833 -50.499 -79.5l-155 88c6.66699 25.333 11.167 54.5 13.5 87.5s2.83301 71.5 1.5 115.5v910h233z" />
    <glyph glyph-name="afii57416" unicode="&#x628;" horiz-adv-x="1332" arabic-form="isolated" 
d="M1107 754c27.333 -20.667 51.501 -45.8311 72.501 -75.498s38.5 -61.834 52.5 -96.501c20 -50 30.833 -99.167 32.5 -147.5s-5.16602 -94.166 -20.499 -137.499s-38.5 -83.166 -69.5 -119.499s-69.167 -67.833 -114.5 -94.5c-55.333 -32 -116.833 -56 -184.5 -72
s-136.834 -24 -207.501 -24c-75.333 0 -149 9 -221 27s-136.167 45.333 -192.5 82s-101.666 82.167 -135.999 136.5s-51.5 118.166 -51.5 191.499v35h234v-31c0 -36 10.5 -67.5 31.5 -94.5s48.833 -49.5 83.5 -67.5s73.834 -31.667 117.501 -41s88.5 -14 134.5 -14
c39.333 0 78.166 3.16699 116.499 9.5s73.666 16.166 105.999 29.499s60.333 30 84 50s40.5 43.667 50.5 71c5.33301 23.333 7.33301 45.5 6 66.5s-5.33301 41.167 -12 60.5s-15.834 38.166 -27.501 56.499s-25.167 36.833 -40.5 55.5zM666.001 -157.997l169 -168l-169 -167
l-167 167z" />
    <glyph glyph-name="afii57417" unicode="&#x629;" horiz-adv-x="862" arabic-form="isolated" 
d="M795 365c0 -50 -9.66699 -97.167 -29 -141.5s-45.5 -83 -78.5 -116s-71.5 -59.167 -115.5 -78.5s-91 -29 -141 -29s-97.167 9.66699 -141.5 29s-83 45.5 -116 78.5s-59 71.667 -78 116s-28.5 91.5 -28.5 141.5v181c0 50 9.5 97 28.5 141s45 82.5 78 115.5
s71.667 59 116 78s91.5 28.5 141.5 28.5s97 -9.5 141 -28.5s82.5 -45 115.5 -78s59.167 -71.5 78.5 -115.5s29 -91 29 -141v-181zM302 541v-173.003c0 -21.333 3.66699 -40.166 11 -56.499s17 -30.166 29 -41.499s25.833 -20.166 41.5 -26.499s31.5 -9.83301 47.5 -10.5
s31.833 1.5 47.5 6.5s29.667 13 42 24s22.166 25.167 29.499 42.5s11 38 11 62v173c0 24 -3.66699 44.667 -11 62s-17.166 31.666 -29.499 42.999s-26.333 19.5 -42 24.5s-31.5 7.16699 -47.5 6.5s-31.833 -4.16699 -47.5 -10.5s-29.5 -15.333 -41.5 -27
s-21.667 -25.667 -29 -42s-11 -35.166 -11 -56.499zM447 1190c-50 0 -97.3311 -0.832031 -141.998 -2.49902s-91.667 -8.16699 -141 -19.5l-18 85l82 22c-17.333 26 -27 51.167 -29 75.5s1.5 46.5 10.5 66.5s22.167 37.167 39.5 51.5s36.666 24.833 57.999 31.5
s43.5 8.5 66.5 5.5s44.5 -11.833 64.5 -26.5l-23 -86c-8.66699 3.33301 -18.167 6.16602 -28.5 8.49902s-20.333 3.16602 -30 2.49902s-18.667 -3.16699 -27 -7.5s-15.166 -10.833 -20.499 -19.5c-7.33301 -11.333 -9.83301 -22.833 -7.5 -34.5
s7.16602 -22.167 14.499 -31.5c9.33301 -11.333 20.166 -19.166 32.499 -23.499s25.333 -7 39 -8s27.5 -0.833008 41.5 0.5s27.333 2 40 2z" />
    <glyph glyph-name="afii57418" unicode="&#x62a;" horiz-adv-x="1332" arabic-form="isolated" 
d="M1107 754c27.333 -20.667 51.501 -45.8311 72.501 -75.498s38.5 -61.834 52.5 -96.501c20 -50 30.833 -99.167 32.5 -147.5s-5.16602 -94.166 -20.499 -137.499s-38.5 -83.166 -69.5 -119.499s-69.167 -67.833 -114.5 -94.5c-55.333 -32 -116.833 -56 -184.5 -72
s-136.834 -24 -207.501 -24c-75.333 0 -149 9 -221 27s-136.167 45.333 -192.5 82s-101.666 82.167 -135.999 136.5s-51.5 118.166 -51.5 191.499v35h234v-31c0 -36 10.5 -67.5 31.5 -94.5s48.833 -49.5 83.5 -67.5s73.834 -31.667 117.501 -41s88.5 -14 134.5 -14
c39.333 0 78.166 3.16699 116.499 9.5s73.666 16.166 105.999 29.499s60.333 30 84 50s40.5 43.667 50.5 71c5.33301 23.333 7.33301 45.5 6 66.5s-5.33301 41.167 -12 60.5s-15.834 38.166 -27.501 56.499s-25.167 36.833 -40.5 55.5zM675.001 949.003l139 139l168 -167
l-168 -167l-139 139l-141 -139l-168 167l168 167z" />
    <glyph glyph-name="afii57419" unicode="&#x62b;" horiz-adv-x="1332" arabic-form="isolated" 
d="M1107 754c27.333 -20.667 51.501 -45.8311 72.501 -75.498s38.5 -61.834 52.5 -96.501c20 -50 30.833 -99.167 32.5 -147.5s-5.16602 -94.166 -20.499 -137.499s-38.5 -83.166 -69.5 -119.499s-69.167 -67.833 -114.5 -94.5c-55.333 -32 -116.833 -56 -184.5 -72
s-136.834 -24 -207.501 -24c-75.333 0 -149 9 -221 27s-136.167 45.333 -192.5 82s-101.666 82.167 -135.999 136.5s-51.5 118.166 -51.5 191.499v35h234v-31c0 -36 10.5 -67.5 31.5 -94.5s48.833 -49.5 83.5 -67.5s73.834 -31.667 117.501 -41s88.5 -14 134.5 -14
c39.333 0 78.166 3.16699 116.499 9.5s73.666 16.166 105.999 29.499s60.333 30 84 50s40.5 43.667 50.5 71c5.33301 23.333 7.33301 45.5 6 66.5s-5.33301 41.167 -12 60.5s-15.834 38.166 -27.501 56.499s-25.167 36.833 -40.5 55.5zM675.001 949.003l139 139l168 -167
l-168 -167l-139 139l-141 -139l-168 167l168 167zM846.001 1224l-169 -167l-167 167l167 168z" />
    <glyph glyph-name="afii57420" unicode="&#x62c;" horiz-adv-x="992" arabic-form="isolated" 
d="M826 293c-33.333 2.66699 -68.8252 3.33105 -106.492 1.99805s-75.167 -5.33301 -112.5 -12s-73.333 -16.667 -108 -30s-65.834 -30.666 -93.501 -51.999s-50.667 -47.166 -69 -77.499s-29.833 -65.5 -34.5 -105.5c-3.33301 -28 -1.83301 -55.667 4.5 -83
s17.833 -52.5 34.5 -75.5s38.667 -43.167 66 -60.5s60.333 -29.333 99 -36c26.667 -5.33301 54.834 -7 84.501 -5s59 5.83301 88 11.5s57 12.334 84 20.001s51.5 14.167 73.5 19.5l35 -218c-42 -12.667 -85.167 -24 -129.5 -34s-88.833 -17.333 -133.5 -22
s-88.834 -5.5 -132.501 -2.5s-85.834 11.333 -126.501 25s-78.834 33.667 -114.501 60s-68.167 60.5 -97.5 102.5c-28 42 -47.833 92.667 -59.5 152s-13.167 121.333 -4.5 186c8 66 26 124.333 54 175s63.5 94.667 106.5 132s92.167 68.5 147.5 93.5
s114.666 44.5 177.999 58.5c-26.667 22.667 -54.334 41.667 -83.001 57s-58.834 25.666 -90.501 30.999s-65.334 5 -101.001 -1s-73.5 -19 -113.5 -39l-5 221c44 36 88 58.333 132 67s87.5 8 130.5 -2s85.667 -27 128 -51s84.333 -50.667 126 -80l123 -88.5
c40.333 -29.667 80.166 -55.167 119.499 -76.5zM592.008 178.997l169 -168l-169 -167l-167 167z" />
    <glyph glyph-name="afii57421" unicode="&#x62d;" horiz-adv-x="992" arabic-form="isolated" 
d="M826 293c-33.333 2.66699 -68.8252 3.33105 -106.492 1.99805s-75.167 -5.33301 -112.5 -12s-73.333 -16.667 -108 -30s-65.834 -30.666 -93.501 -51.999s-50.667 -47.166 -69 -77.499s-29.833 -65.5 -34.5 -105.5c-3.33301 -28 -1.83301 -55.667 4.5 -83
s17.833 -52.5 34.5 -75.5s38.667 -43.167 66 -60.5s60.333 -29.333 99 -36c26.667 -5.33301 54.834 -7 84.501 -5s59 5.83301 88 11.5s57 12.334 84 20.001s51.5 14.167 73.5 19.5l35 -218c-42 -12.667 -85.167 -24 -129.5 -34s-88.833 -17.333 -133.5 -22
s-88.834 -5.5 -132.501 -2.5s-85.834 11.333 -126.501 25s-78.834 33.667 -114.501 60s-68.167 60.5 -97.5 102.5c-28 42 -47.833 92.667 -59.5 152s-13.167 121.333 -4.5 186c8 66 26 124.333 54 175s63.5 94.667 106.5 132s92.167 68.5 147.5 93.5
s114.666 44.5 177.999 58.5c-26.667 22.667 -54.334 41.667 -83.001 57s-58.834 25.666 -90.501 30.999s-65.334 5 -101.001 -1s-73.5 -19 -113.5 -39l-5 221c44 36 88 58.333 132 67s87.5 8 130.5 -2s85.667 -27 128 -51s84.333 -50.667 126 -80l123 -88.5
c40.333 -29.667 80.166 -55.167 119.499 -76.5z" />
    <glyph glyph-name="afii57422" unicode="&#x62e;" horiz-adv-x="992" arabic-form="isolated" 
d="M826 293c-33.333 2.66699 -68.8252 3.33105 -106.492 1.99805s-75.167 -5.33301 -112.5 -12s-73.333 -16.667 -108 -30s-65.834 -30.666 -93.501 -51.999s-50.667 -47.166 -69 -77.499s-29.833 -65.5 -34.5 -105.5c-3.33301 -28 -1.83301 -55.667 4.5 -83
s17.833 -52.5 34.5 -75.5s38.667 -43.167 66 -60.5s60.333 -29.333 99 -36c26.667 -5.33301 54.834 -7 84.501 -5s59 5.83301 88 11.5s57 12.334 84 20.001s51.5 14.167 73.5 19.5l35 -218c-42 -12.667 -85.167 -24 -129.5 -34s-88.833 -17.333 -133.5 -22
s-88.834 -5.5 -132.501 -2.5s-85.834 11.333 -126.501 25s-78.834 33.667 -114.501 60s-68.167 60.5 -97.5 102.5c-28 42 -47.833 92.667 -59.5 152s-13.167 121.333 -4.5 186c8 66 26 124.333 54 175s63.5 94.667 106.5 132s92.167 68.5 147.5 93.5
s114.666 44.5 177.999 58.5c-26.667 22.667 -54.334 41.667 -83.001 57s-58.834 25.666 -90.501 30.999s-65.334 5 -101.001 -1s-73.5 -19 -113.5 -39l-5 221c44 36 88 58.333 132 67s87.5 8 130.5 -2s85.667 -27 128 -51s84.333 -50.667 126 -80l123 -88.5
c40.333 -29.667 80.166 -55.167 119.499 -76.5zM331.008 1268l169 -168l-169 -167l-167 167z" />
    <glyph glyph-name="afii57423" unicode="&#x62f;" horiz-adv-x="763" arabic-form="isolated" 
d="M378 842c36 -29.333 72.666 -62.168 109.999 -98.501s71.333 -75 102 -116s55.834 -83.5 75.501 -127.5s29.834 -88.667 30.501 -134c0.666992 -50 -8.5 -97.167 -27.5 -141.5s-45.167 -83 -78.5 -116s-72.333 -59 -117 -78s-92 -28.5 -142 -28.5h-264v234h260
c24 0 44.667 3.66699 62 11s31.5 17.166 42.5 29.499s19.167 26.333 24.5 42s7.66602 31.5 6.99902 47.5c-1.33301 22 -9.5 45.333 -24.5 70s-34.333 49.834 -58 75.501s-50.167 51.334 -79.5 77.001l-87 73.5z" />
    <glyph glyph-name="afii57424" unicode="&#x630;" horiz-adv-x="763" arabic-form="isolated" 
d="M378 842c36 -29.333 72.666 -62.168 109.999 -98.501s71.333 -75 102 -116s55.834 -83.5 75.501 -127.5s29.834 -88.667 30.501 -134c0.666992 -50 -8.5 -97.167 -27.5 -141.5s-45.167 -83 -78.5 -116s-72.333 -59 -117 -78s-92 -28.5 -142 -28.5h-264v234h260
c24 0 44.667 3.66699 62 11s31.5 17.166 42.5 29.499s19.167 26.333 24.5 42s7.66602 31.5 6.99902 47.5c-1.33301 22 -9.5 45.333 -24.5 70s-34.333 49.834 -58 75.501s-50.167 51.334 -79.5 77.001l-87 73.5zM225.999 1210l169 -168l-169 -167l-167 167z" />
    <glyph glyph-name="afii57425" unicode="&#x631;" horiz-adv-x="813" arabic-form="isolated" 
d="M554 754c49.333 -42 88.998 -93.165 118.998 -153.498s50.667 -124.833 62 -193.5s14 -139 8 -211s-20.5 -141 -43.5 -207s-53.833 -126.167 -92.5 -180.5s-84.667 -98 -138 -131s-113.666 -53 -180.999 -60s-141 4.16699 -221 33.5v234
c58.667 -23.333 111.167 -34 157.5 -32s86.833 12.833 121.5 32.5s63.834 47 87.501 82s41.834 74.167 54.501 117.5s20.167 89.166 22.5 137.499s-0.333984 96 -8.00098 143s-20.167 91.667 -37.5 134s-39.333 79.166 -66 110.499z" />
    <glyph glyph-name="afii57426" unicode="&#x632;" horiz-adv-x="813" arabic-form="isolated" 
d="M554 754c49.333 -42 88.998 -93.165 118.998 -153.498s50.667 -124.833 62 -193.5s14 -139 8 -211s-20.5 -141 -43.5 -207s-53.833 -126.167 -92.5 -180.5s-84.667 -98 -138 -131s-113.666 -53 -180.999 -60s-141 4.16699 -221 33.5v234
c58.667 -23.333 111.167 -34 157.5 -32s86.833 12.833 121.5 32.5s63.834 47 87.501 82s41.834 74.167 54.501 117.5s20.167 89.166 22.5 137.499s-0.333984 96 -8.00098 143s-20.167 91.667 -37.5 134s-39.333 79.166 -66 110.499zM289.998 1095l168 -167l-168 -168
l-167 168z" />
    <glyph glyph-name="afii57427" unicode="&#x633;" horiz-adv-x="2019" arabic-form="isolated" 
d="M967 750l0.00195312 -513.998h132c16 0 31.833 3 47.5 9s29.667 14.5 42 25.5s22.166 24.667 29.499 41s11 35.166 11 56.499v382h234v-382c0 -20.667 3.66699 -39.167 11 -55.5s17 -30 29 -41s25.667 -19.5 41 -25.5s31 -9.33301 47 -10c16 0.666992 31.667 4 47 10
s29 14.5 41 25.5s21.667 24.667 29 41s11 34.833 11 55.5v382h233v-385c0 -50 -9.33301 -97 -28 -141s-44.334 -82.333 -77.001 -115s-70.667 -58.5 -114 -77.5s-89.666 -28.833 -138.999 -29.5c-48 0 -93.167 8.5 -135.5 25.5s-79.5 40.5 -111.5 70.5
c-32.667 -30 -70.167 -53.5 -112.5 -70.5s-87.5 -25.5 -135.5 -25.5h-137c-8.66699 -54.667 -27.167 -104.167 -55.5 -148.5s-62.833 -82 -103.5 -113s-85.667 -55 -135 -72s-99.666 -25.5 -150.999 -25.5c-56 0 -111 10.167 -165 30.5s-102.167 49.166 -144.5 86.499
s-76.333 82 -102 134s-38.5 110 -38.5 174v369h234v-365c0 -33.333 6.16699 -62.333 18.5 -87s28.666 -45.167 48.999 -61.5s43.333 -28.833 69 -37.5s52.167 -13 79.5 -13c26.667 0 53 4 79 12s49.167 20.333 69.5 37s36.666 37.5 48.999 62.5s18.5 54.167 18.5 87.5v678
h234z" />
    <glyph glyph-name="afii57428" unicode="&#x634;" horiz-adv-x="2019" arabic-form="isolated" 
d="M967 750l0.00195312 -513.998h132c16 0 31.833 3 47.5 9s29.667 14.5 42 25.5s22.166 24.667 29.499 41s11 35.166 11 56.499v382h234v-382c0 -20.667 3.66699 -39.167 11 -55.5s17 -30 29 -41s25.667 -19.5 41 -25.5s31 -9.33301 47 -10c16 0.666992 31.667 4 47 10
s29 14.5 41 25.5s21.667 24.667 29 41s11 34.833 11 55.5v382h233v-385c0 -50 -9.33301 -97 -28 -141s-44.334 -82.333 -77.001 -115s-70.667 -58.5 -114 -77.5s-89.666 -28.833 -138.999 -29.5c-48 0 -93.167 8.5 -135.5 25.5s-79.5 40.5 -111.5 70.5
c-32.667 -30 -70.167 -53.5 -112.5 -70.5s-87.5 -25.5 -135.5 -25.5h-137c-8.66699 -54.667 -27.167 -104.167 -55.5 -148.5s-62.833 -82 -103.5 -113s-85.667 -55 -135 -72s-99.666 -25.5 -150.999 -25.5c-56 0 -111 10.167 -165 30.5s-102.167 49.166 -144.5 86.499
s-76.333 82 -102 134s-38.5 110 -38.5 174v369h234v-365c0 -33.333 6.16699 -62.333 18.5 -87s28.666 -45.167 48.999 -61.5s43.333 -28.833 69 -37.5s52.167 -13 79.5 -13c26.667 0 53 4 79 12s49.167 20.333 69.5 37s36.666 37.5 48.999 62.5s18.5 54.167 18.5 87.5v678
h234zM1206 1215l141 -140l139 140l168 -167l-168 -168l-139 139l-141 -139l-168 168zM1348 1518l168 -168l-168 -167l-167 167z" />
    <glyph glyph-name="afii57429" unicode="&#x635;" horiz-adv-x="2159" arabic-form="isolated" 
d="M968 236c36.667 44.667 76.4961 90.6699 119.496 138.003s88.833 92.666 137.5 135.999s99.334 82.666 152.001 117.999s107 63.166 163 83.499s112.833 31.333 170.5 33s115.834 -9.5 174.501 -33.5c32.667 -13.333 61.834 -32.333 87.501 -57
s47.334 -52.667 65.001 -84s31.167 -64.666 40.5 -99.999s14 -70 14 -104c0 -50 -9.5 -97.167 -28.5 -141.5s-45 -83 -78 -116s-71.5 -59 -115.5 -78s-91 -28.5 -141 -28.5h-767c-8.66699 -54.667 -27.167 -104.167 -55.5 -148.5s-62.833 -82 -103.5 -113
s-85.667 -55 -135 -72s-99.666 -25.5 -150.999 -25.5c-56 0 -111 10.167 -165 30.5s-102.167 49.166 -144.5 86.499s-76.333 82 -102 134s-38.5 110 -38.5 174v338h234v-334c0 -33.333 6.16699 -62.333 18.5 -87s28.666 -45.167 48.999 -61.5s43.333 -28.833 69 -37.5
s52.167 -13 79.5 -13s54 4 80 12s49 20.333 69 37s36.167 37.5 48.5 62.5s18.5 54.167 18.5 87.5v334l235 93v-263zM1724 236.003c24 0 44.666 3.66797 61.999 11.001s31.666 17.166 42.999 29.499s19.5 26.333 24.5 42s7.16699 31.5 6.5 47.5s-4 31.667 -10 47
s-14.5 29 -25.5 41s-24.667 22 -41 30s-35.166 13 -56.499 15c-28 2 -56.333 -0.333008 -85 -7s-57 -16.667 -85 -30s-55.5 -29 -82.5 -47s-52.667 -37.167 -77 -57.5s-47.166 -41 -68.499 -62s-40.333 -40.833 -57 -59.5h452z" />
    <glyph glyph-name="afii57430" unicode="&#x636;" horiz-adv-x="2159" arabic-form="isolated" 
d="M968 236l119.497 139.005c43 48 88.667 93.667 137 137s98.833 82.666 151.5 117.999s106.834 63.166 162.501 83.499s112.667 31.166 171 32.499s116.833 -10.334 175.5 -35.001c32.667 -13.333 61.834 -32.5 87.501 -57.5s47.334 -53 65.001 -84
s31.167 -64.167 40.5 -99.5s14 -70 14 -104c0 -50 -9.5 -97.167 -28.5 -141.5s-45 -83 -78 -116s-71.5 -59 -115.5 -78s-91 -28.5 -141 -28.5h-767c-8.66699 -54.667 -27.167 -104.167 -55.5 -148.5s-62.833 -82 -103.5 -113s-85.667 -55 -135 -72
s-99.666 -25.5 -150.999 -25.5c-56 0 -111 10.167 -165 30.5s-102.167 49.166 -144.5 86.499s-76.333 82 -102 134s-38.5 110 -38.5 174v338h234v-334c0 -33.333 6.16699 -62.333 18.5 -87s28.666 -45.167 48.999 -61.5s43.333 -28.833 69 -37.5s52.167 -13 79.5 -13
s54 4 80 12s49 20.333 69 37s36.167 37.5 48.5 62.5s18.5 54.167 18.5 87.5v334l235 93v-263zM1724 236.005c24 0 44.666 3.66797 61.999 11.001s31.666 17.166 42.999 29.499s19.5 26.333 24.5 42s7.16699 31.5 6.5 47.5s-4 31.667 -10 47s-14.5 29 -25.5 41
s-24.667 22 -41 30s-35.166 13 -56.499 15c-28 2 -56.333 -0.333008 -85 -7s-57 -16.667 -85 -30s-55.5 -29 -82.5 -47s-52.667 -37.167 -77 -57.5s-47.166 -41 -68.499 -62s-40.333 -40.833 -57 -59.5h452zM1263 1091.01l168 -168l-168 -167l-167 167z" />
    <glyph glyph-name="afii57431" unicode="&#x637;" horiz-adv-x="1439" arabic-form="isolated" 
d="M361 -1c-42.667 4 -88.5 13.8311 -137.5 29.498s-101.167 38.834 -156.5 69.501l70 225c17.333 -15.333 36.5 -29 57.5 -41s42.5 -22.333 64.5 -31v941h233v-746c26.667 29.333 55.5 58.333 86.5 87s63.667 55.5 98 80.5s70.166 47.167 107.499 66.5
s76.166 34 116.499 44s81.833 14.667 124.5 14s86.334 -8.66699 131.001 -24c33.333 -11.333 63.333 -29.333 90 -54s49.334 -53.167 68.001 -85.5s33 -66.666 43 -102.999s15 -71.5 15 -105.5c0 -50 -9.5 -97.167 -28.5 -141.5s-45 -83 -78 -116s-71.5 -59 -115.5 -78
s-91 -28.5 -141 -28.5zM1005 235.998c24 0 44.499 3.66797 61.499 11.001s31 17.166 42 29.499s19.167 26.333 24.5 42s7.66602 31.5 6.99902 47.5s-3.83398 31.667 -9.50098 47s-14.167 29 -25.5 41s-25.166 22 -41.499 30s-35.166 13 -56.499 15
c-28 2 -56.333 -0.333008 -85 -7s-57 -16.667 -85 -30s-55.5 -29 -82.5 -47s-52.667 -37.167 -77 -57.5s-47.166 -41 -68.499 -62s-40.333 -40.833 -57 -59.5h453z" />
    <glyph glyph-name="afii57432" unicode="&#x638;" horiz-adv-x="1439" arabic-form="isolated" 
d="M361 -1c-42.667 4 -88.5 13.8311 -137.5 29.498s-101.167 38.834 -156.5 69.501l70 225c17.333 -15.333 36.5 -29 57.5 -41s42.5 -22.333 64.5 -31v941h233v-746c26.667 29.333 55.5 58.333 86.5 87s63.667 55.5 98 80.5s70.166 47.167 107.499 66.5
s76.166 34 116.499 44s81.833 14.667 124.5 14s86.334 -8.66699 131.001 -24c33.333 -11.333 63.333 -29.333 90 -54s49.334 -53.167 68.001 -85.5s33 -66.666 43 -102.999s15 -71.5 15 -105.5c0 -50 -9.5 -97.167 -28.5 -141.5s-45 -83 -78 -116s-71.5 -59 -115.5 -78
s-91 -28.5 -141 -28.5zM1005 235.998c24 0 44.499 3.66797 61.499 11.001s31 17.166 42 29.499s19.167 26.333 24.5 42s7.66602 31.5 6.99902 47.5s-3.83398 31.667 -9.50098 47s-14.167 29 -25.5 41s-25.166 22 -41.499 30s-35.166 13 -56.499 15
c-28 2 -56.333 -0.333008 -85 -7s-57 -16.667 -85 -30s-55.5 -29 -82.5 -47s-52.667 -37.167 -77 -57.5s-47.166 -41 -68.499 -62s-40.333 -40.833 -57 -59.5h453zM762.999 1145l169 -168l-169 -167l-167 167z" />
    <glyph glyph-name="afii57433" unicode="&#x639;" horiz-adv-x="925" arabic-form="isolated" 
d="M773 217c-23.333 -6 -51.165 -11.8311 -83.498 -17.498s-65.833 -12.5 -100.5 -20.5s-68.834 -17.833 -102.501 -29.5s-64 -26.334 -91 -44.001s-48.833 -38.667 -65.5 -63s-25 -53.166 -25 -86.499s5.16699 -62 15.5 -86s24.5 -44 42.5 -60s39 -28.5 63 -37.5
s49.667 -14.833 77 -17.5c26 -3.33301 52.5 -3.5 79.5 -0.5s54.167 7.5 81.5 13.5s54.333 12.833 81 20.5s52.667 14.5 78 20.5l35 -218c-42 -12.667 -84.667 -24 -128 -34s-86.666 -17.333 -129.999 -22s-86.166 -5.5 -128.499 -2.5s-83.166 11.333 -122.499 25
s-76.5 33.667 -111.5 60s-66.833 60.5 -95.5 102.5c-28.667 41.333 -49.334 86.5 -62.001 135.5s-15.834 98.833 -9.50098 149.5s23.5 101 51.5 151s68.667 97 122 141c-38.667 58.667 -64.167 116.5 -76.5 173.5s-13.833 110.667 -4.5 161s28.666 96.166 57.999 137.499
s66.666 76 111.999 104c28.667 18 59.167 31 91.5 39s64.666 11.5 96.999 10.5s64.166 -6.33301 95.499 -16s61 -22.834 89 -39.501l-27 -225c-16.667 14 -35.834 24.333 -57.501 31s-44 9.83398 -67 9.50098s-45.167 -4 -66.5 -11s-39.666 -17 -54.999 -30
s-26.666 -29.167 -33.999 -48.5s-8.33301 -41.333 -3 -66c5.33301 -24 14.5 -47.667 27.5 -71s24.833 -45.666 35.5 -66.999l84.5 22.5l90.5 22.5c30.667 7.33301 61.334 14.166 92.001 20.499s60.667 12.166 90 17.499z" />
    <glyph glyph-name="afii57434" unicode="&#x63a;" horiz-adv-x="925" arabic-form="isolated" 
d="M773 217c-23.333 -6 -51.165 -11.8311 -83.498 -17.498s-65.833 -12.5 -100.5 -20.5s-68.834 -17.833 -102.501 -29.5s-64 -26.334 -91 -44.001s-48.833 -38.667 -65.5 -63s-25 -53.166 -25 -86.499s5.16699 -62 15.5 -86s24.5 -44 42.5 -60s39 -28.5 63 -37.5
s49.667 -14.833 77 -17.5c26 -3.33301 52.5 -3.5 79.5 -0.5s54.167 7.5 81.5 13.5s54.333 12.833 81 20.5s52.667 14.5 78 20.5l35 -218c-42 -12.667 -84.667 -24 -128 -34s-86.666 -17.333 -129.999 -22s-86.166 -5.5 -128.499 -2.5s-83.166 11.333 -122.499 25
s-76.5 33.667 -111.5 60s-66.833 60.5 -95.5 102.5c-28.667 41.333 -49.334 86.5 -62.001 135.5s-15.834 98.833 -9.50098 149.5s23.5 101 51.5 151s68.667 97 122 141c-38.667 58.667 -64.167 116.5 -76.5 173.5s-13.833 110.667 -4.5 161s28.666 96.166 57.999 137.499
s66.666 76 111.999 104c28.667 18 59.167 31 91.5 39s64.666 11.5 96.999 10.5s64.166 -6.33301 95.499 -16s61 -22.834 89 -39.501l-27 -225c-16.667 14 -35.834 24.333 -57.501 31s-44 9.83398 -67 9.50098s-45.167 -4 -66.5 -11s-39.666 -17 -54.999 -30
s-26.666 -29.167 -33.999 -48.5s-8.33301 -41.333 -3 -66c5.33301 -24 14.5 -47.667 27.5 -71s24.833 -45.666 35.5 -66.999l84.5 22.5l90.5 22.5c30.667 7.33301 61.334 14.166 92.001 20.499s60.667 12.166 90 17.499zM364.001 1368l168 -168l-168 -167l-167 167z" />
    <glyph glyph-name="afii57441" unicode="&#x641;" horiz-adv-x="1437" arabic-form="isolated" 
d="M666 236c-16 40 -24.001 82.998 -24.001 128.998v181c0 50 9.66699 97 29 141s45.5 82.5 78.5 115.5s71.667 59 116 78s91.5 28.5 141.5 28.5c49.333 0 96 -9.5 140 -28.5s82.5 -45 115.5 -78s59.167 -71.5 78.5 -115.5s29 -91 29 -141v-181
c0 -50 -9.66699 -97.167 -29 -141.5s-45.5 -83.166 -78.5 -116.499s-71.5 -59.5 -115.5 -78.5s-90.667 -28.5 -140 -28.5l-576 2c-50 0 -97.167 9.5 -141.5 28.5s-83 45 -116 78s-59 71.5 -78 115.5s-28.5 91 -28.5 141v73h234v-70c0 -21.333 3.66699 -40.166 11 -56.499
s17 -30 29 -41s25.833 -19.5 41.5 -25.5s31.834 -9 48.501 -9h235zM875.999 540.998v-173.003c0 -21.333 3.66699 -40.166 11 -56.499s17.166 -30.166 29.499 -41.499s26.333 -20.166 42 -26.499s31.834 -9.83301 48.501 -10.5c16 -0.666992 31.833 1.5 47.5 6.5
s29.5 13 41.5 24s21.667 25.167 29 42.5s11 38 11 62v173c0 24 -3.66699 44.667 -11 62s-17 31.666 -29 42.999s-25.833 19.5 -41.5 24.5s-31.5 7.16699 -47.5 6.5c-16.667 -0.666992 -32.834 -4.16699 -48.501 -10.5s-29.667 -15.333 -42 -27s-22.166 -25.667 -29.499 -42
s-11 -35.166 -11 -56.499zM1004 1368l169 -168l-169 -167l-167 167z" />
    <glyph glyph-name="afii57442" unicode="&#x642;" horiz-adv-x="1197" arabic-form="isolated" 
d="M598 -404c-67.333 -2 -133.001 6.66992 -197.001 26.0029s-120.667 49 -170 89s-89 89.833 -119 149.5s-45 128.834 -45 207.501v90h234v-86c0 -53.333 12.667 -98.333 38 -135s57.333 -64.834 96 -84.501s81 -30.834 127 -33.501s89.833 3 131.5 17s78 36.667 109 68
s51.167 71 60.5 119c-37.333 -14 -74.666 -20.833 -111.999 -20.5s-73 6.5 -107 18.5s-65.833 29.167 -95.5 51.5s-55.5 48.5 -77.5 78.5s-39.167 63.167 -51.5 99.5s-18.5 74.5 -18.5 114.5v181c0 50 9.5 97 28.5 141s45 82.5 78 115.5s71.667 59 116 78
s91.5 28.5 141.5 28.5s97 -9.5 141 -28.5s82.5 -45 115.5 -78s59.167 -71.5 78.5 -115.5s29 -91 29 -141v-184v-62c0 -28 -1.66699 -60.833 -5 -98.5s-9 -78.334 -17 -122.001s-19.833 -87.5 -35.5 -131.5s-36.167 -86.5 -61.5 -127.5s-57 -77.667 -95 -110
s-83 -58.833 -135 -79.5s-112.667 -32.334 -182 -35.001zM618.999 1369l141 -140l139 140l168 -167l-168 -168l-139 139l-141 -139l-168 168zM634.999 541.003v-173.003c0 -21.333 3.66699 -40.166 11 -56.499s17 -30.166 29 -41.499s25.833 -20.166 41.5 -26.499
s31.834 -9.83301 48.501 -10.5c16 -0.666992 31.833 1.5 47.5 6.5s29.667 13 42 24s22.166 25.167 29.499 42.5s11 38 11 62v173c0 24 -3.66699 44.667 -11 62s-17.166 31.666 -29.499 42.999s-26.333 19.5 -42 24.5s-31.5 7.16699 -47.5 6.5
c-16.667 -0.666992 -32.834 -4.16699 -48.501 -10.5s-29.5 -15.333 -41.5 -27s-21.667 -25.667 -29 -42s-11 -35.166 -11 -56.499z" />
    <glyph glyph-name="afii57443" unicode="&#x643;" horiz-adv-x="1833" arabic-form="isolated" 
d="M961 708l473.996 -0.00585938c59.333 0 111.333 -10.167 156 -30.5s81.834 -47 111.501 -80s51.834 -70.667 66.501 -113s22 -85.5 22 -129.5s-7.5 -87.167 -22.5 -129.5s-37.333 -80 -67 -113s-66.667 -59.667 -111 -80s-96.166 -30.5 -155.499 -30.5h-911
c-10.667 0 -21.334 2.33301 -32.001 7c-53.333 21.333 -106.333 45.333 -159 72s-98.834 60.5 -138.501 101.5s-71 88.833 -94 143.5s-34.5 116.334 -34.5 185.001v36h234v-32c0 -47.333 10.5 -88.833 31.5 -124.5s48.667 -65.5 83 -89.5s73.5 -42.333 117.5 -55l46 -10h854
c30.667 0 55.834 5.83301 75.501 17.5s34.334 26.334 44.001 44.001s14.167 36.834 13.5 57.501s-6.16699 39.834 -16.5 57.501s-25.166 32.334 -44.499 44.001s-43.333 17.5 -72 17.5h-529c-32 -1.33301 -62.167 2.16699 -90.5 10.5s-52.5 21.333 -72.5 39
s-35 39.5 -45 65.5s-13 56 -9 90c3.33301 22.667 8.83301 43.334 16.5 62.001s17 36.167 28 52.5s23.167 32.333 36.5 48l41 48.5l290 334l176 -153z" />
    <glyph glyph-name="afii57444" unicode="&#x644;" horiz-adv-x="1034" arabic-form="isolated" 
d="M967 1192l-4.00098 -1041c0 -42 -1.83301 -82 -5.5 -120s-11 -74 -22 -108s-27 -66.167 -48 -96.5s-48.833 -58.833 -83.5 -85.5c-41.333 -32 -86.666 -56.333 -135.999 -73s-99.666 -25 -150.999 -25c-56.667 0 -112 10.167 -166 30.5s-102 49.166 -144 86.499
s-75.833 82 -101.5 134s-38.5 110 -38.5 174v369h234v-365c0 -33.333 6.16699 -62.333 18.5 -87s28.666 -45.167 48.999 -61.5s43.333 -28.833 69 -37.5s52.167 -13 79.5 -13s54 4 80 12s49 20.333 69 37s36.167 37.5 48.5 62.5s18.5 54.167 18.5 87.5v1120h234z" />
    <glyph glyph-name="afii57445" unicode="&#x645;" horiz-adv-x="1126" arabic-form="isolated" 
d="M142 -351c-16.667 42 -31.3311 85.667 -43.998 131s-21.5 90.166 -26.5 134.499s-5 87.5 0 129.5s17.333 80.833 37 116.5s47.667 67.5 84 95.5s82.833 50.333 139.5 67l-1 223c0 50 9.5 97 28.5 141s45 82.5 78 115.5s71.667 59 116 78s91.5 28.5 141.5 28.5
s97 -9.5 141 -28.5s82.5 -45 115.5 -78s59.167 -71.5 78.5 -115.5s29 -91 29 -141v-193c0 -50 -9.5 -97 -28.5 -141s-45.167 -82.333 -78.5 -115c-34.667 -34 -69 -58.5 -103 -73.5s-68.667 -23.333 -104 -25s-71.5 2 -108.5 11s-75.5 20.5 -115.5 34.5
c-24.667 8.66699 -48.834 14 -72.501 16s-45.167 -0.5 -64.5 -7.5s-35.333 -19.167 -48 -36.5s-20.334 -41.333 -23.001 -72c-2.66699 -32.667 2.33301 -73.167 15 -121.5s35.667 -106.166 69 -173.499h-255zM565.003 541l-0.000976562 -246.997
c2.66699 -2.66699 11.167 -7.33398 25.5 -14.001s31 -12.834 50 -18.501s39.333 -9.83398 61 -12.501s41.667 -1 60 5s33.5 17.5 45.5 34.5s18 41.833 18 74.5v178c0 24 -3.66699 44.667 -11 62s-17.166 31.666 -29.499 42.999s-26.333 19.5 -42 24.5
s-31.5 7.16699 -47.5 6.5s-31.833 -4.16699 -47.5 -10.5s-29.5 -15.333 -41.5 -27s-21.833 -25.667 -29.5 -42s-11.5 -35.166 -11.5 -56.499z" />
    <glyph glyph-name="afii57446" unicode="&#x646;" horiz-adv-x="1034" arabic-form="isolated" 
d="M968 750l0.000976562 -682c0 -64 -13 -122 -39 -174s-60 -96.667 -102 -134s-90 -66.166 -144 -86.499s-109 -30.5 -165 -30.5c-56.667 0 -112 10.167 -166 30.5s-102.167 49.166 -144.5 86.499s-76.333 82 -102 134s-38.5 110 -38.5 174v369h235v-365
c0 -33.333 6.16699 -62.333 18.5 -87s28.5 -45.167 48.5 -61.5s43 -28.833 69 -37.5s52.667 -13 80 -13c26.667 0 53 4 79 12s49.167 20.333 69.5 37s36.666 37.5 48.999 62.5s18.5 54.167 18.5 87.5v678h234zM434.001 986l169 -168l-169 -167l-167 167z" />
    <glyph glyph-name="afii57470" unicode="&#x647;" horiz-adv-x="862" arabic-form="isolated" 
d="M795 365c0 -50 -9.66699 -97.167 -29 -141.5s-45.5 -83 -78.5 -116s-71.5 -59.167 -115.5 -78.5s-91 -29 -141 -29s-97.167 9.66699 -141.5 29s-83 45.5 -116 78.5s-59 71.667 -78 116s-28.5 91.5 -28.5 141.5v181c0 50 9.5 97 28.5 141s45 82.5 78 115.5
s71.667 59 116 78s91.5 28.5 141.5 28.5s97 -9.5 141 -28.5s82.5 -45 115.5 -78s59.167 -71.5 78.5 -115.5s29 -91 29 -141v-181zM302 541v-173.003c0 -21.333 3.66699 -40.166 11 -56.499s17 -30.166 29 -41.499s25.833 -20.166 41.5 -26.499s31.5 -9.83301 47.5 -10.5
s31.833 1.5 47.5 6.5s29.667 13 42 24s22.166 25.167 29.499 42.5s11 38 11 62v173c0 24 -3.66699 44.667 -11 62s-17.166 31.666 -29.499 42.999s-26.333 19.5 -42 24.5s-31.5 7.16699 -47.5 6.5s-31.833 -4.16699 -47.5 -10.5s-29.5 -15.333 -41.5 -27
s-21.667 -25.667 -29 -42s-11 -35.166 -11 -56.499z" />
    <glyph glyph-name="afii57448" unicode="&#x648;" horiz-adv-x="862" arabic-form="isolated" 
d="M124 -115c38.667 -15.333 79.832 -25.4971 123.499 -30.4971s85 -2.66699 124 7s73 27.5 102 53.5s47.833 62 56.5 108c-37.333 -14 -74.666 -21.333 -111.999 -22s-73.166 4.33301 -107.499 15s-66.333 26.167 -96 46.5s-55.5 44.5 -77.5 72.5s-39.167 59.667 -51.5 95
s-18.5 72.666 -18.5 111.999v204c0 50 9.5 97 28.5 141s45 82.5 78 115.5s71.667 59 116 78s91.5 28.5 141.5 28.5s97 -9.5 141 -28.5s82.5 -45 115.5 -78s59.167 -71.5 78.5 -115.5s29 -91 29 -141v-184c0 -72 -3.5 -142.167 -10.5 -210.5s-19.5 -132 -37.5 -191
s-42.833 -112 -74.5 -159s-72.334 -84.833 -122.001 -113.5s-109.5 -46.834 -179.5 -54.501s-152.333 -1.83398 -247 17.499v234zM301.998 541.003v-173.003c0 -21.333 3.66699 -40.166 11 -56.499s17 -30.166 29 -41.499s25.667 -20.166 41 -26.499
s31.333 -9.83301 48 -10.5c16 -0.666992 31.833 1.5 47.5 6.5s29.667 13 42 24s22.166 25.167 29.499 42.5s11 38 11 62v173c0 24 -3.66699 44.667 -11 62s-17.166 31.666 -29.499 42.999s-26.333 19.5 -42 24.5s-31.5 7.16699 -47.5 6.5
c-16.667 -0.666992 -32.667 -4.16699 -48 -10.5s-29 -15.333 -41 -27s-21.667 -25.667 -29 -42s-11 -35.166 -11 -56.499z" />
    <glyph glyph-name="afii57449" unicode="&#x649;" horiz-adv-x="1282" arabic-form="isolated" 
d="M409 2c-63.333 1.33301 -116.67 13.001 -160.003 35.001s-78.5 51.667 -105.5 89s-46.5 80.666 -58.5 129.999s-18 102.333 -18 159l206 82c0 -27.333 3 -56.333 9 -87s16.833 -58.667 32.5 -84s36.667 -46.5 63 -63.5s59.5 -25.833 99.5 -26.5h374
c30.667 0 55.5 5.5 74.5 16.5s32.5 24.5 40.5 40.5s11.167 33.5 9.5 52.5s-8.16699 36.5 -19.5 52.5s-27 29.333 -47 40s-44 15.667 -72 15l-126 -1c-38.667 -2 -72.667 0.5 -102 7.5s-54.333 17.333 -75 31s-37 29.834 -49 48.501s-20 39 -24 61
c-7.33301 39.333 -6.66602 76.666 2.00098 111.999s22.667 68.5 42 99.5s42.833 60.167 70.5 87.5s57 53.166 88 77.499s62.167 46.833 93.5 67.5l87 58l143 -186c-57.333 -26 -111.166 -57.333 -161.499 -94s-95.5 -82 -135.5 -136c26 0 51.833 0.166992 77.5 0.5
s51.334 0 77.001 -1s51 -3.5 76 -7.5s49.833 -10 74.5 -18c45.333 -15.333 83.333 -36.666 114 -63.999s54.667 -57.833 72 -91.5s28 -69.5 32 -107.5s1.83301 -75.667 -6.5 -113s-22.166 -73 -41.499 -107s-44 -64 -74 -90s-64.833 -46.667 -104.5 -62
s-83.834 -23 -132.501 -23h-445z" />
    <glyph glyph-name="afii57450" unicode="&#x64a;" horiz-adv-x="1282" arabic-form="isolated" 
d="M409 2c-63.333 1.33301 -116.67 13.001 -160.003 35.001s-78.5 51.667 -105.5 89s-46.5 80.666 -58.5 129.999s-18 102.333 -18 159l206 82c0 -27.333 3 -56.333 9 -87s16.833 -58.667 32.5 -84s36.667 -46.5 63 -63.5s59.5 -25.833 99.5 -26.5h374
c30.667 0 55.5 5.5 74.5 16.5s32.5 24.5 40.5 40.5s11.167 33.5 9.5 52.5s-8.16699 36.5 -19.5 52.5s-27 29.333 -47 40s-44 15.667 -72 15l-126 -1c-38.667 -2 -72.667 0.5 -102 7.5s-54.333 17.333 -75 31s-37 29.834 -49 48.501s-20 39 -24 61
c-7.33301 39.333 -6.66602 76.666 2.00098 111.999s22.667 68.5 42 99.5s42.833 60.167 70.5 87.5s57 53.166 88 77.499s62.167 46.833 93.5 67.5l87 58l143 -186c-57.333 -26 -111.166 -57.333 -161.499 -94s-95.5 -82 -135.5 -136c26 0 51.833 0.166992 77.5 0.5
s51.334 0 77.001 -1s51 -3.5 76 -7.5s49.833 -10 74.5 -18c45.333 -15.333 83.333 -36.666 114 -63.999s54.667 -57.833 72 -91.5s28 -69.5 32 -107.5s1.83301 -75.667 -6.5 -113s-22.166 -73 -41.499 -107s-44 -64 -74 -90s-64.833 -46.667 -104.5 -62
s-83.834 -23 -132.501 -23h-445z" />
    <glyph glyph-name="afii57506" unicode="&#x67e;" horiz-adv-x="1332" arabic-form="isolated" 
d="M1107 754c27.333 -20.667 51.501 -45.8311 72.501 -75.498s38.5 -61.834 52.5 -96.501c20 -50 30.833 -99.167 32.5 -147.5s-5.16602 -94.166 -20.499 -137.499s-38.5 -83.166 -69.5 -119.499s-69.167 -67.833 -114.5 -94.5c-55.333 -32 -116.833 -56 -184.5 -72
s-136.834 -24 -207.501 -24c-75.333 0 -149 9 -221 27s-136.167 45.333 -192.5 82s-101.666 82.167 -135.999 136.5s-51.5 118.166 -51.5 191.499v35h234v-31c0 -36 10.5 -67.5 31.5 -94.5s48.833 -49.5 83.5 -67.5s73.834 -31.667 117.501 -41s88.5 -14 134.5 -14
c39.333 0 78.166 3.16699 116.499 9.5s73.666 16.166 105.999 29.499s60.333 30 84 50s40.5 43.667 50.5 71c5.33301 23.333 7.33301 45.5 6 66.5s-5.33301 41.167 -12 60.5s-15.834 38.166 -27.501 56.499s-25.167 36.833 -40.5 55.5zM379.001 -294.997l168 167l141 -138
l139 138l168 -167l-168 -167l-139 140l-141 -140zM522.001 -596.997l167 167l168 -167l-168 -168z" />
    <glyph glyph-name="afii57507" unicode="&#x686;" horiz-adv-x="992" arabic-form="isolated" 
d="M826 293c-33.333 2.66699 -68.8271 3.33398 -106.494 2.00098s-75.167 -5.33301 -112.5 -12s-73.333 -16.667 -108 -30s-65.834 -30.666 -93.501 -51.999s-50.667 -47.166 -69 -77.499s-29.833 -65.5 -34.5 -105.5c-3.33301 -28 -1.83301 -55.667 4.5 -83
s17.833 -52.5 34.5 -75.5s38.667 -43.167 66 -60.5l91 -57c19.333 -14 28.5 -32.5 27.5 -55.5s-9.5 -48.167 -25.5 -75.5s-39.333 -44.833 -70 -52.5s-62 -6.33398 -94 3.99902s-65.833 28.666 -101.5 54.999s-68.167 60.5 -97.5 102.5c-28 42 -47.833 92.667 -59.5 152
s-13.167 121.333 -4.5 186c8 66 26 124.333 54 175s63.5 94.667 106.5 132s92.167 68.5 147.5 93.5s114.666 44.5 177.999 58.5c-26.667 22.667 -54.334 41.667 -83.001 57s-58.834 25.666 -90.501 30.999s-65.334 5 -101.001 -1s-73.5 -19 -113.5 -39l-5 221
c44 36 88 58.333 132 67s87.5 8 130.5 -2s85.667 -27 128 -51s84.333 -50.667 126 -80l123 -88.5c40.333 -29.667 80.166 -55.167 119.499 -76.5zM393.006 57l134 134l113 -111l111 111l135 -134l-135 -134l-111 112l-113 -112zM507.006 -184l134 133l134 -133l-134 -135z
" />
    <glyph glyph-name="afii57508" unicode="&#x698;" horiz-adv-x="813" arabic-form="isolated" 
d="M554 754c49.333 -42 88.998 -93.165 118.998 -153.498s50.667 -124.833 62 -193.5s14 -139 8 -211s-20.5 -141 -43.5 -207s-53.833 -126.167 -92.5 -180.5s-84.667 -98 -138 -131s-113.666 -53 -180.999 -60s-141 4.16699 -221 33.5v234
c58.667 -23.333 111.167 -34 157.5 -32s86.833 12.833 121.5 32.5s63.834 47 87.501 82s41.834 74.167 54.501 117.5s20.167 89.166 22.5 137.499s-0.333984 96 -8.00098 143s-20.167 91.667 -37.5 134s-39.333 79.166 -66 110.499zM272.998 1217l141 -140l139 140l168 -167
l-168 -168l-139 139l-141 -139l-168 168zM414.998 1520l168 -168l-168 -167l-167 167z" />
    <glyph glyph-name="afii57509" unicode="&#x6af;" horiz-adv-x="1833" arabic-form="isolated" 
d="M961 708l473.996 -0.00585938c59.333 0 111.333 -10.167 156 -30.5s81.834 -47 111.501 -80s51.834 -70.667 66.501 -113s22 -85.5 22 -129.5s-7.5 -87.167 -22.5 -129.5s-37.333 -80 -67 -113s-66.667 -59.667 -111 -80s-96.166 -30.5 -155.499 -30.5h-911
c-10.667 0 -21.334 2.33301 -32.001 7c-53.333 21.333 -106.333 45.333 -159 72s-98.834 60.5 -138.501 101.5s-71 88.833 -94 143.5s-34.5 116.334 -34.5 185.001v36h234v-32c0 -47.333 10.5 -88.833 31.5 -124.5s48.667 -65.5 83 -89.5s73.5 -42.333 117.5 -55l46 -10h854
c30.667 0 55.834 5.83301 75.501 17.5s34.334 26.334 44.001 44.001s14.167 36.834 13.5 57.501s-6.16699 39.834 -16.5 57.501s-25.166 32.334 -44.499 44.001s-43.333 17.5 -72 17.5h-529c-32 -1.33301 -62.167 2.16699 -90.5 10.5s-52.5 21.333 -72.5 39
s-35 39.5 -45 65.5s-13 56 -9 90c3.33301 22.667 8.83301 43.334 16.5 62.001s17 36.167 28 52.5s23.167 32.333 36.5 48l41 48.5l290 334l176 -153zM627.996 753.994c-9.33301 28.667 -12 59.332 -8 91.999c3.33301 22.667 8.83301 43.334 16.5 62.001s17 36.167 28 52.5
s23.167 32.333 36.5 48l41 48.5l234 271l84 -75z" />
    <glyph glyph-name="uniFB57" unicode="&#x67e;" horiz-adv-x="1331" arabic-form="final" 
d="M1202 368c0 -21.333 3.83594 -40.1631 11.5029 -56.4961s17.5 -30 29.5 -41s25.833 -19.5 41.5 -25.5s31.5 -9 47.5 -9v-234c-48 0 -93 8.5 -135 25.5s-79 40.5 -111 70.5c-38.667 -27.333 -82.834 -50.5 -132.501 -69.5s-102.167 -33.167 -157.5 -42.5
s-111.666 -13.833 -168.999 -13.5s-113 6.16602 -167 17.499s-104.833 28.666 -152.5 51.999s-89.334 52.666 -125.001 87.999s-63.834 77.5 -84.501 126.5s-31 104.833 -31 167.5v35h235v-31c0 -36 9.66699 -67.5 29 -94.5s45.166 -49.833 77.499 -68.5
s69.5 -32.834 111.5 -42.501s86 -15.167 132 -16.5c6 0 18 1 36 3s38.667 5.5 62 10.5s48 12 74 21s49.667 20 71 33s39 28.667 53 47s21 39.5 21 63.5v366h233v-382zM379.003 -294.997l168 167l141 -138l139 138l168 -167l-168 -167l-139 140l-141 -140zM522.003 -596.997
l167 167l168 -167l-168 -168z" />
    <glyph glyph-name="uniFB58" unicode="&#x67e;" horiz-adv-x="573" arabic-form="initial" 
d="M508 750l-0.000976562 -384.999c0 -50 -9.66699 -97.167 -29 -141.5s-45.5 -82.833 -78.5 -115.5s-71.667 -58.5 -116 -77.5s-147.166 -29.5 -308.499 -31.5v234c127.333 2 198.833 6 214.5 12s29.667 14.5 42 25.5s22.333 24.667 30 41s11.5 35.166 11.5 56.499v382h234
zM46.999 -260.999l134 134l113 -111l111 111l135 -134l-135 -133l-111 112l-113 -112zM160.999 -501.999l134 133l134 -133l-134 -135z" />
    <glyph glyph-name="uniFB59" unicode="&#x67e;" horiz-adv-x="624" arabic-form="medial" 
d="M497 368c0 -21.333 3.66699 -40.166 11 -56.499s17 -30 29 -41s25.833 -19.5 41.5 -25.5s31.5 -9 47.5 -9v-234c-48 0 -93 8.5 -135 25.5s-79.333 40.5 -112 70.5c-32.667 -30 -70 -53.5 -112 -70.5s-140.667 -26.5 -296 -28.5v234c123.333 2 192.833 6 208.5 12
s29.667 14.5 42 25.5s22.333 24.667 30 41s11.5 35.166 11.5 56.499v382h234v-382zM77 -262l134 134l113 -111l111 111l135 -134l-135 -133l-111 112l-113 -112zM191 -503l134 133l134 -133l-134 -135z" />
    <glyph glyph-name="uniFB7B" unicode="&#x686;" horiz-adv-x="954" arabic-form="final" 
d="M604 281c-37.333 -8 -73.6689 -18.3311 -109.002 -30.998s-66.833 -29.334 -94.5 -50.001s-50.5 -45.834 -68.5 -75.501s-28.333 -65.167 -31 -106.5c-2 -28 -1.16699 -55.667 2.5 -83s13.334 -54 29.001 -80s36.834 -52.167 63.501 -78.5s44.667 -47.166 54 -62.499
s11 -34 5 -56s-21.167 -42.833 -45.5 -62.5s-50.666 -27.5 -78.999 -23.5s-60.5 19.167 -96.5 45.5s-68.333 60.5 -97 102.5c-28 42 -47.833 92.667 -59.5 152s-13.5 121.333 -5.5 186c8 66 26 124.333 54 175s63.5 94.667 106.5 132s92.333 68.5 148 93.5
s115.167 44.5 178.5 58.5c-31.333 22 -63 40.5 -95 55.5s-64.167 25.167 -96.5 30.5s-64.833 5.16602 -97.5 -0.500977s-65.667 -18.167 -99 -37.5l-6 221c44 36 88 58.333 132 67s87.5 8 130.5 -2s85.833 -27 128.5 -51s84.834 -50.667 126.501 -80l123 -88.5
c40.333 -29.667 80.166 -55.167 119.499 -76.5l-90 -243c11.333 -24.667 28 -43.5 50 -56.5s45 -19.5 69 -19.5v-234c-44 0 -85.333 6.66699 -124 20s-73.334 32.333 -104.001 57s-56.667 54 -78 88s-36 72 -44 114zM369.997 -92.998l134 134l113 -111l111 111l135 -134
l-135 -133l-111 111l-113 -111zM483.997 -333.998l134 133l134 -133l-134 -135z" />
    <glyph glyph-name="uniFB7C" unicode="&#x686;" horiz-adv-x="1060" arabic-form="initial" 
d="M918 272c-45.333 0.666992 -88.666 -5.66797 -129.999 -19.001s-82.833 -30.166 -124.5 -50.499s-85 -42.666 -130 -66.999s-94 -46.666 -147 -66.999s-111.167 -37 -174.5 -50s-134.333 -18.5 -213 -16.5v234c50.667 0 97.167 2.83301 139.5 8.5s85.333 16 129 31
s90.667 35.667 141 62s109.5 60.166 177.5 101.499c-38.667 30.667 -78.167 58.167 -118.5 82.5s-81.5 43 -123.5 56s-84.667 19.167 -128 18.5s-87.333 -11 -132 -31l-1 221c40.667 33.333 81 55 121 65s79.667 11.667 119 5s78.5 -19.834 117.5 -39.501
s77.667 -42.167 116 -67.5s76.166 -52 113.499 -80s74.333 -54 111 -78s72.667 -43.833 108 -59.5s70 -24.167 104 -25.5zM169 -295.002l168 168l141 -139l139 139l168 -168l-168 -167l-139 140l-141 -140zM312 -597.002l167 167l168 -167l-168 -168z" />
    <glyph glyph-name="uniFB7D" unicode="&#x686;" horiz-adv-x="1140" arabic-form="medial" 
d="M1141 2l-1142 -0.00390625v234h678l-78 98.5c-24 31.667 -47.667 60.5 -71 86.5s-47.333 48 -72 66s-52.167 30.333 -82.5 37s-64.5 6.83398 -102.5 0.500977s-81.667 -21.5 -131 -45.5l-4 221c46 38 91.333 63 136 75s89 14 133 6
c52 -9.33301 99.667 -29.166 143 -59.499s84 -65.666 122 -105.999s73.667 -82.833 107 -127.5s66 -85.667 98 -123s63.667 -68.166 95 -92.499s64 -36.5 98 -36.5h73v-234zM271 -295.004l168 168l141 -139l139 139l168 -168l-168 -167l-139 140l-141 -140zM414 -597.004
l167 167l168 -167l-168 -168z" />
    <glyph glyph-name="uniFB8B" unicode="&#x698;" horiz-adv-x="865" arabic-form="final" 
d="M718 355l-0.00292969 -57c0 -20 -0.666992 -40.667 -2 -62h150v-234h-171c-7.33301 -36 -16.5 -70.5 -27.5 -103.5s-24.833 -62.5 -41.5 -88.5c-23.333 -34 -52.333 -64 -87 -90s-75.167 -46.5 -121.5 -61.5s-98.666 -23.5 -156.999 -25.5s-122.833 4 -193.5 18v234
c38.667 -15.333 79.834 -25.5 123.501 -30.5s85 -2.66699 124 7s72.833 27.5 101.5 53.5s47.334 62 56.001 108c4.66699 56 8.16699 114 10.5 174s2.83301 125.333 1.5 196v357h234v-395zM365.997 1215l141 -140l139 140l168 -167l-168 -168l-139 139l-141 -139l-168 168z
M507.997 1518l168 -168l-168 -167l-167 167z" />
    <glyph glyph-name="uniFB8F" unicode="&#x6a9;" horiz-adv-x="1920" arabic-form="final" 
d="M1780 450c6 -22 9.66895 -44.3369 11.002 -67.0039c0.666992 -9.33301 1 -18.666 1 -27.999c0 -40 -6.33301 -79.333 -19 -118h155v-234h-461c-10 -0.666992 -20.333 -1 -31 -1h-911c-10.667 0 -21.334 2.33301 -32.001 7c-53.333 21.333 -106.333 45.333 -159 72
s-98.834 60.5 -138.501 101.5s-71 88.833 -94 143.5s-34.5 116.334 -34.5 185.001v36h234v-32c0 -47.333 10.5 -88.833 31.5 -124.5s48.667 -65.5 83 -89.5s73.5 -42.333 117.5 -55l46 -10h859v1c25.333 1.33301 46.666 7 63.999 17c20 12 34.667 26.833 44 44.5
s13.666 36.834 12.999 57.501s-6 39.834 -16 57.501s-24.667 32.167 -44 43.5c-2.66699 1.33301 -5.66699 2.66602 -9 3.99902l1 3c-16.667 6.66699 -36 10 -58 10h-529c-32 -1.33301 -62.167 2.16699 -90.5 10.5s-52.5 21.333 -72.5 39s-35 39.5 -45 65.5s-13 56 -9 90
c3.33301 22.667 8.83301 43.334 16.5 62.001s17 36.167 28 52.5s23.167 32.333 36.5 48l41 48.5l290 334l176 -153l-313 -363h474c59.333 0 111.333 -10.167 156 -30.5s81.834 -47 111.501 -80s51.834 -70.5 66.501 -112.5c4 -12 7.33301 -23.667 10 -35z" />
    <glyph glyph-name="uniFB90" unicode="&#x6a9;" horiz-adv-x="1313" arabic-form="initial" 
d="M358 474c-32 -1.33301 -62.1729 2.16211 -90.5059 10.4951s-52.5 21.333 -72.5 39s-35 39.5 -45 65.5s-13 56 -9 90c3.33301 22.667 8.83301 43.334 16.5 62.001s17 36.167 28 52.5s23.167 32.333 36.5 48l41 48.5l290 334l176 -153l-313 -363h474
c59.333 0 111.333 -10.167 156 -30.5s81.834 -47 111.501 -80s51.834 -70.667 66.501 -113s22 -85.5 22 -129.5s-7.5 -87.167 -22.5 -129.5s-37.333 -80 -67 -113s-66.667 -59.667 -111 -80s-96.166 -30.5 -155.499 -30.5h-891v234h888c30.667 0 55.834 5.83301 75.501 17.5
s34.334 26.334 44.001 44.001s14.167 36.834 13.5 57.501s-6.16699 39.834 -16.5 57.501s-25.166 32.334 -44.499 44.001s-43.333 17.5 -72 17.5h-529z" />
    <glyph glyph-name="uniFB91" unicode="&#x6a9;" horiz-adv-x="1387" arabic-form="medial" 
d="M358 474c-32 -1.33301 -62.1689 2.16211 -90.502 10.4951s-52.666 21.333 -72.999 39s-35.5 39.5 -45.5 65.5s-12.667 56 -8 90c3.33301 22.667 8.83301 43.334 16.5 62.001s16.834 36.167 27.501 52.5s22.667 32.333 36 48l41 48.5l290 334l177 -153l-314 -363h474
c42.667 0 82.834 -6.33301 120.501 -19s71.5 -30.167 101.5 -52.5s55.833 -48.5 77.5 -78.5s37.834 -62.5 48.501 -97.5s15.5 -71.5 14.5 -109.5s-8.83301 -76.333 -23.5 -115h160v-234h-1389v234h887c30.667 0 56 5.83301 76 17.5s34.667 26.334 44 44.001
s13.666 36.834 12.999 57.501s-6 39.834 -16 57.501s-24.833 32.334 -44.5 44.001s-43.834 17.5 -72.501 17.5h-528z" />
    <glyph glyph-name="uniFB93" unicode="&#x6af;" horiz-adv-x="1920" arabic-form="final" 
d="M1780 450c6 -22 9.66895 -44.3369 11.002 -67.0039c0.666992 -9.33301 1 -18.666 1 -27.999c0 -40 -6.33301 -79.333 -19 -118h155v-234h-461c-10 -0.666992 -20.333 -1 -31 -1h-911c-10.667 0 -21.334 2.33301 -32.001 7c-53.333 21.333 -106.333 45.333 -159 72
s-98.834 60.5 -138.501 101.5s-71 88.833 -94 143.5s-34.5 116.334 -34.5 185.001v36h234v-32c0 -47.333 10.5 -88.833 31.5 -124.5s48.667 -65.5 83 -89.5s73.5 -42.333 117.5 -55l46 -10h859v1c25.333 1.33301 46.666 7 63.999 17c20 12 34.667 26.833 44 44.5
s13.666 36.834 12.999 57.501s-6 39.834 -16 57.501s-24.667 32.167 -44 43.5c-2.66699 1.33301 -5.66699 2.66602 -9 3.99902l1 3c-16.667 6.66699 -36 10 -58 10h-529c-32 -1.33301 -62.167 2.16699 -90.5 10.5s-52.5 21.333 -72.5 39s-35 39.5 -45 65.5s-13 56 -9 90
c3.33301 22.667 8.83301 43.334 16.5 62.001s17 36.167 28 52.5s23.167 32.333 36.5 48l41 48.5l290 334l176 -153l-313 -363h474c59.333 0 111.333 -10.167 156 -30.5s81.834 -47 111.501 -80s51.834 -70.5 66.501 -112.5c4 -12 7.33301 -23.667 10 -35zM628.002 753.996
c-9.33301 28.667 -12 59.332 -8 91.999c3.33301 22.667 8.83301 43.334 16.5 62.001s17 36.167 28 52.5s23.167 32.333 36.5 48l41 48.5l234 271l84 -75z" />
    <glyph glyph-name="uniFB94" unicode="&#x6af;" horiz-adv-x="1313" arabic-form="initial" 
d="M358 474c-32 -1.33301 -62.1729 2.16211 -90.5059 10.4951s-52.5 21.333 -72.5 39s-35 39.5 -45 65.5s-13 56 -9 90c3.33301 22.667 8.83301 43.334 16.5 62.001s17 36.167 28 52.5s23.167 32.333 36.5 48l41 48.5l290 334l176 -153l-313 -363h474
c59.333 0 111.333 -10.167 156 -30.5s81.834 -47 111.501 -80s51.834 -70.667 66.501 -113s22 -85.5 22 -129.5s-7.5 -87.167 -22.5 -129.5s-37.333 -80 -67 -113s-66.667 -59.667 -111 -80s-96.166 -30.5 -155.499 -30.5h-891v234h888c30.667 0 55.834 5.83301 75.501 17.5
s34.334 26.334 44.001 44.001s14.167 36.834 13.5 57.501s-6.16699 39.834 -16.5 57.501s-25.166 32.334 -44.499 44.001s-43.333 17.5 -72 17.5h-529zM77.9941 753.995c-9.33301 28.667 -12 59.332 -8 91.999c3.33301 22.667 8.83301 43.334 16.5 62.001s17 36.167 28 52.5
s23.167 32.333 36.5 48l41 48.5l234 271l84 -75z" />
    <glyph glyph-name="uniFB95" unicode="&#x6af;" horiz-adv-x="1387" arabic-form="medial" 
d="M358 474c-32 -1.33301 -62.1689 2.16211 -90.502 10.4951s-52.666 21.333 -72.999 39s-35.5 39.5 -45.5 65.5s-12.667 56 -8 90c3.33301 22.667 8.83301 43.334 16.5 62.001s16.834 36.167 27.501 52.5s22.667 32.333 36 48l41 48.5l290 334l177 -153l-314 -363h474
c42.667 0 82.834 -6.33301 120.501 -19s71.5 -30.167 101.5 -52.5s55.833 -48.5 77.5 -78.5s37.834 -62.5 48.501 -97.5s15.5 -71.5 14.5 -109.5s-8.83301 -76.333 -23.5 -115h160v-234h-1389v234h887c30.667 0 56 5.83301 76 17.5s34.667 26.334 44 44.001
s13.666 36.834 12.999 57.501s-6 39.834 -16 57.501s-24.833 32.334 -44.5 44.001s-43.834 17.5 -72.501 17.5h-528zM77.998 753.995c-9.33301 28.667 -12 59.332 -8 91.999c3.33301 22.667 8.83301 43.334 16.5 62.001s17 36.167 28 52.5s23.167 32.333 36.5 48l41 48.5
l234 271l84 -75z" />
    <glyph glyph-name="uniFBA5" unicode="&#x6c0;" horiz-adv-x="925" arabic-form="final" 
d="M302 368c0 -21.333 3.66504 -40.001 10.998 -56.001s17 -29.5 29 -40.5s25.833 -19.5 41.5 -25.5s31.834 -9.33301 48.501 -10h28l-76 -231c-44.667 6 -86.334 19.5 -125.001 40.5s-72.167 47.5 -100.5 79.5s-50.666 68.5 -66.999 109.5s-24.5 84.5 -24.5 130.5v181
c0 50 9.66699 97 29 141s45.5 82.5 78.5 115.5s71.667 59 116 78s91.5 28.5 141.5 28.5s97 -9.5 141 -28.5s82.5 -45 115.5 -78s59 -71.5 78 -115.5s28.5 -91 28.5 -141v-178c0 -21.333 3.66699 -40.166 11 -56.499s17.166 -30 29.499 -41s26.333 -19.5 42 -25.5
s31.834 -9 48.501 -9v-234c-50 0 -97.167 9.5 -141.5 28.5s-83 44.833 -116 77.5s-59.167 71.167 -78.5 115.5s-29 91.5 -29 141.5v176c0 24 -3.66699 44.667 -11 62s-17.166 31.666 -29.499 42.999s-26.166 19.5 -41.499 24.5s-31 7.16699 -47 6.5
c-16.667 -0.666992 -32.834 -4.16699 -48.501 -10.5s-29.5 -15.333 -41.5 -27s-21.667 -25.667 -29 -42s-11 -35.166 -11 -56.499v-173zM446.998 1190c-50 0 -97.3311 -0.832031 -141.998 -2.49902s-91.667 -8.16699 -141 -19.5l-18 85l82 22
c-17.333 26 -27 51.167 -29 75.5s1.5 46.5 10.5 66.5s22.167 37.167 39.5 51.5s36.666 24.833 57.999 31.5s43.5 8.5 66.5 5.5s44.5 -11.833 64.5 -26.5l-23 -86c-8.66699 3.33301 -18.167 6.16602 -28.5 8.49902s-20.333 3.16602 -30 2.49902s-18.667 -3.16699 -27 -7.5
s-15.166 -10.833 -20.499 -19.5c-7.33301 -11.333 -9.83301 -22.833 -7.5 -34.5s7.16602 -22.167 14.499 -31.5c9.33301 -11.333 20.166 -19.166 32.499 -23.499s25.333 -7 39 -8s27.5 -0.833008 41.5 0.5s27.333 2 40 2z" />
    <glyph glyph-name="uniFBFD" unicode="&#x6cc;" horiz-adv-x="1307" arabic-form="final" 
d="M1308 2l-130.001 -0.00390625c2 -50.667 -7.83301 -99 -29.5 -145s-51.667 -88.667 -90 -128s-83.166 -74.5 -134.499 -105.5s-105.5 -56.667 -162.5 -77s-115.167 -34.666 -174.5 -42.999s-116 -9.5 -170 -3.5c-46 4 -87.167 14.167 -123.5 30.5
s-68.333 37.166 -96 62.499s-50.667 54.333 -69 87s-32.666 67.5 -42.999 104.5s-16.5 75.333 -18.5 115s0 78.834 6 117.501l212 83c-12 -74.667 -11.833 -136.167 0.5 -184.5s32.666 -86 60.999 -113s62.5 -45 102.5 -54s81.5 -11.5 124.5 -7.5s85.167 13 126.5 27
s77.833 30.167 109.5 48.5s56.167 37.833 73.5 58.5s23 39.334 17 56.001s-25.5 30.334 -58.5 41.001s-83.833 15.334 -152.5 14.001l-70 -1l85 252l604 -1v-234z" />
    <glyph glyph-name="uniFBFE" unicode="&#x6cc;" horiz-adv-x="587" arabic-form="initial" 
d="M520 365c0 -50 -9.49805 -96.999 -28.498 -140.999s-44.833 -82.5 -77.5 -115.5s-71.167 -59 -115.5 -78s-91.5 -28.5 -141.5 -28.5h-158v234h158c16 0 31.667 3 47 9s29.166 14.5 41.499 25.5s22.166 24.667 29.499 41s11 35.166 11 56.499v382h234v-385z
M103.002 -122.999l140 -140l140 140l168 -167l-168 -168l-140 139l-140 -139l-168 168z" />
    <glyph glyph-name="uniFBFF" unicode="&#x6cc;" horiz-adv-x="492" arabic-form="medial" 
d="M364 368c0 -21.333 3.66699 -40.166 11 -56.499s17 -30 29 -41s25.833 -19.5 41.5 -25.5s31.5 -9 47.5 -9v-234c-48 0 -93 8.5 -135 25.5s-79.333 40.5 -112 70.5c-32.667 -30 -70 -53.5 -112 -70.5s-87 -25.5 -135 -25.5v234c16 0 31.833 3 47.5 9s29.667 14.5 42 25.5
s22.333 24.667 30 41s11.5 35.166 11.5 56.499v382h234v-382zM103 -123l140 -140l140 140l168 -167l-168 -168l-140 139l-140 -139l-168 168z" />
    <glyph glyph-name="uniFE82" unicode="&#x622;" horiz-adv-x="465" arabic-form="final" 
d="M102 1192l234.001 -0.000976562v-824c0 -21.333 3.66699 -40.166 11 -56.499s17.166 -30 29.499 -41s26.333 -19.5 42 -25.5s31.5 -9 47.5 -9v-234c-50 0 -97.167 9.5 -141.5 28.5s-83 44.833 -116 77.5s-59 71.167 -78 115.5s-28.5 91.5 -28.5 141.5v827zM-31.999 1231
c-0.666992 53.333 18.168 104.168 56.501 152.501s110.166 50.666 215.499 6.99902s186.333 -28.167 243 46.5c-26.667 -158 -104 -210.333 -232 -157s-222.333 37 -283 -49z" />
    <glyph glyph-name="uniFE84" unicode="&#x623;" horiz-adv-x="474" arabic-form="final" 
d="M111 1192l234.001 -0.000976562v-824c0 -21.333 3.66699 -40.166 11 -56.499s17.166 -30 29.499 -41s26.333 -19.5 42 -25.5s31.5 -9 47.5 -9v-234c-50 0 -97.167 9.5 -141.5 28.5s-83 44.833 -116 77.5s-59 71.167 -78 115.5s-28.5 91.5 -28.5 141.5v827zM365.001 1293
c-50.667 0 -98.4971 -0.832031 -143.497 -2.49902s-91.833 -8.16699 -140.5 -19.5l-17 85l81 22c-17.333 26 -26.833 51.167 -28.5 75.5s2 46.5 11 66.5s22.167 37.167 39.5 51.5s36.666 24.833 57.999 31.5s43.5 8.5 66.5 5.5s44.5 -11.833 64.5 -26.5l-25 -86
c-8 3.33301 -17 6.16602 -27 8.49902s-20 3.16602 -30 2.49902s-19.333 -3.16699 -28 -7.5s-15.667 -10.833 -21 -19.5c-6.66699 -11.333 -8.66699 -22.833 -6 -34.5s7.66699 -22.167 15 -31.5c9.33301 -11.333 20.166 -19.166 32.499 -23.499s25.166 -7 38.499 -8
s27 -0.833008 41 0.5s27.333 2 40 2z" />
    <glyph glyph-name="uniFE86" unicode="&#x624;" horiz-adv-x="933" arabic-form="final" 
d="M934 2l-174.002 -0.00585938c-18.667 -79.333 -49.167 -145.333 -91.5 -198s-92.166 -93.167 -149.499 -121.5s-120 -45 -188 -50s-137 1.16699 -207 18.5v234c36.667 -15.333 76 -25.666 118 -30.999s82 -4 120 4s71.667 23.5 101 46.5s50 55.5 62 97.5
c-26 -4.66699 -55.167 -6.66699 -87.5 -6s-65.5 4.83398 -99.5 12.501s-67.167 19.334 -99.5 35.001s-61.333 36.834 -87 63.501s-46.167 59.334 -61.5 98.001s-23 84.334 -23 137.001v204c0 50 9.5 97 28.5 141s45 82.5 78 115.5s71.667 59 116 78s91.5 28.5 141.5 28.5
s97 -9.5 141 -28.5s82.5 -45 115.5 -78s59.167 -71.5 78.5 -115.5s29 -91 29 -141v-138c0 -35.333 -0.166992 -64 -0.5 -86s-0.666016 -39.167 -0.999023 -51.5s-0.833008 -23.833 -1.5 -34.5h142v-234zM590.998 1024.99c-34 0 -66.667 -0.166992 -98 -0.5
s-62.333 -1.33301 -93 -3s-61.667 -4.5 -93 -8.5s-63.333 -10 -96 -18l-23 115l110 29c-23.333 34.667 -36.333 68.167 -39 100.5s2 62 14 89s29.667 50.167 53 69.5s49.166 33.333 77.499 42s58 11 89 7s59.833 -15.667 86.5 -35l-33 -115
c-11.333 4.66699 -23.666 8.5 -36.999 11.5s-26.5 4.16699 -39.5 3.5s-25.333 -3.83398 -37 -9.50098s-20.834 -14.834 -27.501 -27.501c-9.33301 -15.333 -12.5 -30.666 -9.5 -45.999s9.83301 -29 20.5 -41c12 -15.333 26.333 -26 43 -32s34 -9.66699 52 -11
s36.333 -1.16602 55 0.500977s36.334 2.5 53.001 2.5zM301.998 540.994l-0.000976562 -173.003c0 -21.333 3.66699 -40.166 11 -56.499s17 -30.166 29 -41.499s25.667 -20.166 41 -26.499s31.333 -9.83301 48 -10.5h130v308c0 24 -3.66699 44.667 -11 62
s-17.166 31.666 -29.499 42.999s-26.333 19.5 -42 24.5s-31.5 7.16699 -47.5 6.5c-16.667 -0.666992 -32.667 -4.16699 -48 -10.5s-29 -15.333 -41 -27s-21.667 -25.667 -29 -42s-11 -35.166 -11 -56.499z" />
    <glyph glyph-name="uniFE88" unicode="&#x625;" horiz-adv-x="470" arabic-form="final" 
d="M106 1192l234.001 -0.000976562v-824c0 -21.333 3.66699 -40.166 11 -56.499s17.166 -30 29.499 -41s26.333 -19.5 42 -25.5s31.5 -9 47.5 -9v-234c-50 0 -97.167 9.5 -141.5 28.5s-83 44.833 -116 77.5s-59 71.167 -78 115.5s-28.5 91.5 -28.5 141.5v827z
M398.001 -408.001c-50 0 -97.333 -0.833008 -142 -2.5s-91.667 -8.16699 -141 -19.5l-18 86l82 21c-17.333 26 -26.833 51 -28.5 75s2 46.167 11 66.5s22.167 37.666 39.5 51.999s36.666 24.833 57.999 31.5s43.5 8.5 66.5 5.5s44.5 -11.833 64.5 -26.5l-25 -85
c-8.66699 3.33301 -18 6 -28 8s-19.667 2.66699 -29 2s-18.333 -3 -27 -7s-15.667 -10.667 -21 -20c-7.33301 -11.333 -9.66602 -22.833 -6.99902 -34.5s7.66699 -22.167 15 -31.5c8.66699 -11.333 19.167 -19.166 31.5 -23.499s25.333 -7 39 -8s27.5 -1 41.5 0
s27.333 1.5 40 1.5z" />
    <glyph glyph-name="uniFE8A" unicode="&#x626;" horiz-adv-x="1307" arabic-form="final" 
d="M1308 2l-130.001 -0.00390625c2 -50.667 -7.83301 -99 -29.5 -145s-51.667 -88.667 -90 -128s-83.166 -74.5 -134.499 -105.5s-105.5 -56.667 -162.5 -77s-115.167 -34.666 -174.5 -42.999s-116 -9.5 -170 -3.5c-46 4 -87.167 14.167 -123.5 30.5
s-68.333 37.166 -96 62.499s-50.667 54.333 -69 87s-32.666 67.5 -42.999 104.5s-16.5 75.333 -18.5 115s0 78.834 6 117.501l212 83c-12 -74.667 -11.833 -136.167 0.5 -184.5s32.666 -86 60.999 -113s62.5 -45 102.5 -54s81.5 -11.5 124.5 -7.5s85.167 13 126.5 27
s77.833 30.167 109.5 48.5s56.167 37.833 73.5 58.5s23 39.334 17 56.001s-25.5 30.334 -58.5 41.001s-83.833 15.334 -152.5 14.001l-70 -1l85 252l604 -1v-234zM442.999 235.996c-34 0 -66.6689 -0.168945 -98.002 -0.501953s-62.333 -1.33301 -93 -3
s-61.5 -4.5 -92.5 -8.5s-62.833 -10 -95.5 -18l-24 115l110 28c-23.333 34.667 -36.333 68.167 -39 100.5s2 62 14 89s29.667 50.167 53 69.5s49.333 33.333 78 42s58.334 11.167 89.001 7.5s59.334 -15.5 86.001 -35.5l-33 -114
c-11.333 4.66699 -23.666 8.33398 -36.999 11.001s-26.5 3.66699 -39.5 3s-25.333 -3.83398 -37 -9.50098s-20.834 -14.5 -27.501 -26.5c-9.33301 -15.333 -12.5 -30.666 -9.5 -45.999s9.83301 -29 20.5 -41c12.667 -15.333 27.167 -26 43.5 -32s33.666 -9.66699 51.999 -11
s36.833 -1.16602 55.5 0.500977s36.334 2.5 53.001 2.5z" />
    <glyph glyph-name="uniFE8B" unicode="&#x626;" horiz-adv-x="430" arabic-form="initial" 
d="M364 750v-384.999c0 -50 -9.66699 -97.167 -29 -141.5s-45.5 -82.833 -78.5 -115.5s-71.667 -58.5 -116 -77.5s-91.5 -28.5 -141.5 -28.5v234c16 0 31.833 3 47.5 9s29.667 14.5 42 25.5s22.333 24.667 30 41s11.5 35.166 11.5 56.499v382h234zM365 881.001
c-34 0 -66.6719 -0.166016 -98.0049 -0.499023s-62.5 -1.5 -93.5 -3.5s-62 -5 -93 -9s-62.833 -9.66699 -95.5 -17l-23 115l109 28c-23.333 34.667 -36.166 68.167 -38.499 100.5s2.33398 62 14.001 89s29.167 50.167 52.5 69.5s49.333 33.333 78 42
s58.334 11.167 89.001 7.5s59.334 -15.5 86.001 -35.5l-32 -114c-11.333 4.66699 -23.666 8.5 -36.999 11.5s-26.666 4 -39.999 3s-25.833 -4.33301 -37.5 -10s-21.167 -14.834 -28.5 -27.501c-8.66699 -15.333 -11.334 -30.5 -8.00098 -45.5s10.333 -28.833 21 -41.5
c12 -14.667 26.167 -25 42.5 -31s33.5 -9.83301 51.5 -11.5s36.333 -1.66699 55 0s36.667 2.5 54 2.5z" />
    <glyph glyph-name="uniFE8C" unicode="&#x626;" horiz-adv-x="492" arabic-form="medial" 
d="M364 368c0 -21.333 3.66699 -40.166 11 -56.499s17 -30 29 -41s25.833 -19.5 41.5 -25.5s31.5 -9 47.5 -9v-234c-48 0 -93 8.5 -135 25.5s-79.333 40.5 -112 70.5c-32.667 -30 -70 -53.5 -112 -70.5s-87 -25.5 -135 -25.5v234c16 0 31.833 3 47.5 9s29.667 14.5 42 25.5
s22.333 24.667 30 41s11.5 35.166 11.5 56.499v382h234v-382zM425 881c-33.333 0 -65.6748 -0.166016 -97.0078 -0.499023s-62.5 -1.5 -93.5 -3.5s-62 -5 -93 -9s-62.833 -9.66699 -95.5 -17l-23 115l109 28c-23.333 34.667 -36.166 68.167 -38.499 100.5
s2.33398 62 14.001 89s29.167 50.167 52.5 69.5s49.333 33.333 78 42s58.334 11.167 89.001 7.5s59.334 -15.5 86.001 -35.5l-32 -114c-11.333 4.66699 -23.666 8.5 -36.999 11.5s-26.666 4 -39.999 3s-25.666 -4.33301 -36.999 -10s-20.666 -14.834 -27.999 -27.501
c-9.33301 -15.333 -12.333 -30.5 -9 -45.5s10.333 -28.833 21 -41.5c12 -14.667 26.167 -25 42.5 -31s33.5 -9.83301 51.5 -11.5s36.333 -1.66699 55 0s36.667 2.5 54 2.5z" />
    <glyph glyph-name="uniFE8E" unicode="&#x627;" horiz-adv-x="474" arabic-form="final" 
d="M111 1192l234.001 -0.000976562v-824c0 -21.333 3.66699 -40.166 11 -56.499s17.166 -30 29.499 -41s26.333 -19.5 42 -25.5s31.5 -9 47.5 -9v-234c-50 0 -97.167 9.5 -141.5 28.5s-83 44.833 -116 77.5s-59 71.167 -78 115.5s-28.5 91.5 -28.5 141.5v827z" />
    <glyph glyph-name="uniFE90" unicode="&#x628;" horiz-adv-x="1331" arabic-form="final" 
d="M1202 368c0 -21.333 3.83594 -40.1631 11.5029 -56.4961s17.5 -30 29.5 -41s25.833 -19.5 41.5 -25.5s31.5 -9 47.5 -9v-234c-48 0 -93 8.5 -135 25.5s-79 40.5 -111 70.5c-38.667 -27.333 -82.834 -50.5 -132.501 -69.5s-102.167 -33.167 -157.5 -42.5
s-111.666 -13.833 -168.999 -13.5s-113 6.16602 -167 17.499s-104.833 28.666 -152.5 51.999s-89.334 52.666 -125.001 87.999s-63.834 77.5 -84.501 126.5s-31 104.833 -31 167.5v35h235v-31c0 -36 9.66699 -67.5 29 -94.5s45.166 -49.833 77.499 -68.5
s69.5 -32.834 111.5 -42.501s86 -15.167 132 -16.5c6 0 18 1 36 3s38.667 5.5 62 10.5s48 12 74 21s49.667 20 71 33s39 28.667 53 47s21 39.5 21 63.5v366h233v-382zM645.003 -171.997l168 -168l-168 -167l-167 167z" />
    <glyph glyph-name="uniFE91" unicode="&#x628;" horiz-adv-x="430" arabic-form="initial" 
d="M364 750v-384.999c0 -50 -9.66699 -97.167 -29 -141.5s-45.5 -82.833 -78.5 -115.5s-71.667 -58.5 -116 -77.5s-91.5 -28.5 -141.5 -28.5v234c16 0 31.833 3 47.5 9s29.667 14.5 42 25.5s22.333 24.667 30 41s11.5 35.166 11.5 56.499v382h234zM189 -126.999l169 -168
l-169 -167l-167 167z" />
    <glyph glyph-name="uniFE92" unicode="&#x628;" horiz-adv-x="492" arabic-form="medial" 
d="M364 368c0 -21.333 3.66699 -40.166 11 -56.499s17 -30 29 -41s25.833 -19.5 41.5 -25.5s31.5 -9 47.5 -9v-234c-48 0 -93 8.5 -135 25.5s-79.333 40.5 -112 70.5c-32.667 -30 -70 -53.5 -112 -70.5s-87 -25.5 -135 -25.5v234c16 0 31.833 3 47.5 9s29.667 14.5 42 25.5
s22.333 24.667 30 41s11.5 35.166 11.5 56.499v382h234v-382zM244 -127l169 -168l-169 -167l-167 167z" />
    <glyph glyph-name="uniFE96" unicode="&#x62a;" horiz-adv-x="1331" arabic-form="final" 
d="M1202 368c0 -21.333 3.83594 -40.1631 11.5029 -56.4961s17.5 -30 29.5 -41s25.833 -19.5 41.5 -25.5s31.5 -9 47.5 -9v-234c-48 0 -93 8.5 -135 25.5s-79 40.5 -111 70.5c-38.667 -27.333 -82.834 -50.5 -132.501 -69.5s-102.167 -33.167 -157.5 -42.5
s-111.666 -13.833 -168.999 -13.5s-113 6.16602 -167 17.499s-104.833 28.666 -152.5 51.999s-89.334 52.666 -125.001 87.999s-63.834 77.5 -84.501 126.5s-31 104.833 -31 167.5v35h235v-31c0 -36 9.66699 -67.5 29 -94.5s45.166 -49.833 77.499 -68.5
s69.5 -32.834 111.5 -42.501s86 -15.167 132 -16.5c6 0 18 1 36 3s38.667 5.5 62 10.5s48 12 74 21s49.667 20 71 33s39 28.667 53 47s21 39.5 21 63.5v366h233v-382zM611.003 949.003l139 139l168 -167l-168 -167l-139 139l-141 -139l-167 167l167 167z" />
    <glyph glyph-name="uniFE97" unicode="&#x62a;" horiz-adv-x="587" arabic-form="initial" 
d="M520 365c0 -50 -9.49805 -96.999 -28.498 -140.999s-44.833 -82.5 -77.5 -115.5s-71.167 -59 -115.5 -78s-91.5 -28.5 -141.5 -28.5h-158v234h158c16 0 31.667 3 47 9s29.166 14.5 41.499 25.5s22.166 24.667 29.499 41s11 35.166 11 56.499v382h234v-385zM269.002 1075
l139 140l168 -167l-168 -168l-139 139l-140 -139l-168 168l168 167z" />
    <glyph glyph-name="uniFE98" unicode="&#x62a;" horiz-adv-x="492" arabic-form="medial" 
d="M364 368c0 -21.333 3.66699 -40.166 11 -56.499s17 -30 29 -41s25.833 -19.5 41.5 -25.5s31.5 -9 47.5 -9v-234c-48 0 -93 8.5 -135 25.5s-79.333 40.5 -112 70.5c-32.667 -30 -70 -53.5 -112 -70.5s-87 -25.5 -135 -25.5v234c16 0 31.833 3 47.5 9s29.667 14.5 42 25.5
s22.333 24.667 30 41s11.5 35.166 11.5 56.499v382h234v-382zM104 1215l140 -140l140 140l168 -167l-168 -168l-140 139l-140 -139l-168 168z" />
    <glyph glyph-name="uniFE9A" unicode="&#x62b;" horiz-adv-x="1331" arabic-form="final" 
d="M1202 368c0 -21.333 3.83594 -40.1631 11.5029 -56.4961s17.5 -30 29.5 -41s25.833 -19.5 41.5 -25.5s31.5 -9 47.5 -9v-234c-48 0 -93 8.5 -135 25.5s-79 40.5 -111 70.5c-38.667 -27.333 -82.834 -50.5 -132.501 -69.5s-102.167 -33.167 -157.5 -42.5
s-111.666 -13.833 -168.999 -13.5s-113 6.16602 -167 17.499s-104.833 28.666 -152.5 51.999s-89.334 52.666 -125.001 87.999s-63.834 77.5 -84.501 126.5s-31 104.833 -31 167.5v35h235v-31c0 -36 9.66699 -67.5 29 -94.5s45.166 -49.833 77.499 -68.5
s69.5 -32.834 111.5 -42.501s86 -15.167 132 -16.5c6 0 18 1 36 3s38.667 5.5 62 10.5s48 12 74 21s49.667 20 71 33s39 28.667 53 47s21 39.5 21 63.5v366h233v-382zM611.003 949.003l139 139l168 -167l-168 -167l-139 139l-141 -139l-167 167l167 167zM781.003 1224
l-169 -167l-167 167l167 168z" />
    <glyph glyph-name="uniFE9B" unicode="&#x62b;" horiz-adv-x="587" arabic-form="initial" 
d="M520 365c0 -50 -9.49805 -96.999 -28.498 -140.999s-44.833 -82.5 -77.5 -115.5s-71.167 -59 -115.5 -78s-91.5 -28.5 -141.5 -28.5h-158v234h158c16 0 31.667 3 47 9s29.166 14.5 41.499 25.5s22.166 24.667 29.499 41s11 35.166 11 56.499v382h234v-385zM269.002 1075
l139 140l168 -167l-168 -168l-139 139l-140 -139l-168 168l168 167zM439.002 1350l-168 -167l-167 167l167 168z" />
    <glyph glyph-name="uniFE9C" unicode="&#x62b;" horiz-adv-x="492" arabic-form="medial" 
d="M364 368c0 -21.333 3.66699 -40.166 11 -56.499s17 -30 29 -41s25.833 -19.5 41.5 -25.5s31.5 -9 47.5 -9v-234c-48 0 -93 8.5 -135 25.5s-79.333 40.5 -112 70.5c-32.667 -30 -70 -53.5 -112 -70.5s-87 -25.5 -135 -25.5v234c16 0 31.833 3 47.5 9s29.667 14.5 42 25.5
s22.333 24.667 30 41s11.5 35.166 11.5 56.499v382h234v-382zM104 1215l140 -140l140 140l168 -167l-168 -168l-140 139l-140 -139l-168 168zM245 1518l169 -168l-169 -167l-167 167z" />
    <glyph glyph-name="uniFE9E" unicode="&#x62c;" horiz-adv-x="954" arabic-form="final" 
d="M604 281c-37.333 -8 -73.667 -18.3311 -109 -30.998s-66.833 -29.334 -94.5 -50.001s-50.5 -45.834 -68.5 -75.501s-28.333 -65.167 -31 -106.5c-2 -28 0.333008 -55.667 7 -83s18.167 -52.5 34.5 -75.5s38 -43.167 65 -60.5s59.833 -29.333 98.5 -36
c26.667 -5.33301 54.667 -7 84 -5s58.5 5.83301 87.5 11.5s57 12.334 84 20.001s51.5 14.167 73.5 19.5l35 -218c-42 -12.667 -85.167 -24 -129.5 -34s-88.666 -17.333 -132.999 -22s-88.5 -5.5 -132.5 -2.5s-86.167 11.333 -126.5 25s-78.5 33.667 -114.5 60
s-68.333 60.5 -97 102.5c-28 42 -47.833 92.667 -59.5 152s-13.5 121.333 -5.5 186c8 66 26 124.333 54 175s63.5 94.667 106.5 132s92.333 68.5 148 93.5s115.167 44.5 178.5 58.5c-31.333 22 -63 40.5 -95 55.5s-64.167 25.167 -96.5 30.5
s-64.833 5.16602 -97.5 -0.500977s-65.667 -18.167 -99 -37.5l-6 221c44 36 88 58.333 132 67s87.5 8 130.5 -2s85.833 -27 128.5 -51s84.834 -50.667 126.501 -80l123 -88.5c40.333 -29.667 80.166 -55.167 119.499 -76.5l-90 -243c11.333 -24.667 28 -43.5 50 -56.5
s45 -19.5 69 -19.5v-234c-44 0 -85.333 6.66699 -124 20s-73.334 32.333 -104.001 57s-56.667 54 -78 88s-36 72 -44 114zM525.999 161.002l169 -168l-169 -167l-167 167z" />
    <glyph glyph-name="uniFE9F" unicode="&#x62c;" horiz-adv-x="1060" arabic-form="initial" 
d="M918 272c-45.333 0.666992 -88.666 -5.66797 -129.999 -19.001s-82.833 -30.166 -124.5 -50.499s-85 -42.666 -130 -66.999s-94 -46.666 -147 -66.999s-111.167 -37 -174.5 -50s-134.333 -18.5 -213 -16.5v234c50.667 0 97.167 2.83301 139.5 8.5s85.333 16 129 31
s90.667 35.667 141 62s109.5 60.166 177.5 101.499c-38.667 30.667 -78.167 58.167 -118.5 82.5s-81.5 43 -123.5 56s-84.667 19.167 -128 18.5s-87.333 -11 -132 -31l-1 221c40.667 33.333 81 55 121 65s79.667 11.667 119 5s78.5 -19.834 117.5 -39.501
s77.667 -42.167 116 -67.5s76.166 -52 113.499 -80s74.333 -54 111 -78s72.667 -43.833 108 -59.5s70 -24.167 104 -25.5zM372 -127.002l169 -168l-169 -167l-167 167z" />
    <glyph glyph-name="uniFEA0" unicode="&#x62c;" horiz-adv-x="1140" arabic-form="medial" 
d="M1141 2l-1142 -0.00390625v234h678l-78 98.5c-24 31.667 -47.667 60.5 -71 86.5s-47.333 48 -72 66s-52.167 30.333 -82.5 37s-64.5 6.83398 -102.5 0.500977s-81.667 -21.5 -131 -45.5l-4 221c46 38 91.333 63 136 75s89 14 133 6
c52 -9.33301 99.667 -29.166 143 -59.499s84 -65.666 122 -105.999s73.667 -82.833 107 -127.5s66 -85.667 98 -123s63.667 -68.166 95 -92.499s64 -36.5 98 -36.5h73v-234zM448 -127.004l168 -168l-168 -167l-167 167z" />
    <glyph glyph-name="uniFEA2" unicode="&#x62d;" horiz-adv-x="954" arabic-form="final" 
d="M604 281c-37.333 -8 -73.667 -18.3311 -109 -30.998s-66.833 -29.334 -94.5 -50.001s-50.5 -45.834 -68.5 -75.501s-28.333 -65.167 -31 -106.5c-2 -28 0.333008 -55.667 7 -83s18.167 -52.5 34.5 -75.5s38 -43.167 65 -60.5s59.833 -29.333 98.5 -36
c26.667 -5.33301 54.667 -7 84 -5s58.5 5.83301 87.5 11.5s57 12.334 84 20.001s51.5 14.167 73.5 19.5l35 -218c-42 -12.667 -85.167 -24 -129.5 -34s-88.666 -17.333 -132.999 -22s-88.5 -5.5 -132.5 -2.5s-86.167 11.333 -126.5 25s-78.5 33.667 -114.5 60
s-68.333 60.5 -97 102.5c-28 42 -47.833 92.667 -59.5 152s-13.5 121.333 -5.5 186c8 66 26 124.333 54 175s63.5 94.667 106.5 132s92.333 68.5 148 93.5s115.167 44.5 178.5 58.5c-31.333 22 -63 40.5 -95 55.5s-64.167 25.167 -96.5 30.5
s-64.833 5.16602 -97.5 -0.500977s-65.667 -18.167 -99 -37.5l-6 221c44 36 88 58.333 132 67s87.5 8 130.5 -2s85.833 -27 128.5 -51s84.834 -50.667 126.501 -80l123 -88.5c40.333 -29.667 80.166 -55.167 119.499 -76.5l-90 -243c11.333 -24.667 28 -43.5 50 -56.5
s45 -19.5 69 -19.5v-234c-44 0 -85.333 6.66699 -124 20s-73.334 32.333 -104.001 57s-56.667 54 -78 88s-36 72 -44 114z" />
    <glyph glyph-name="uniFEA3" unicode="&#x62d;" horiz-adv-x="1060" arabic-form="initial" 
d="M918 272c-45.333 0.666992 -88.666 -5.66797 -129.999 -19.001s-82.833 -30.166 -124.5 -50.499s-85 -42.666 -130 -66.999s-94 -46.666 -147 -66.999s-111.167 -37 -174.5 -50s-134.333 -18.5 -213 -16.5v234c50.667 0 97.167 2.83301 139.5 8.5s85.333 16 129 31
s90.667 35.667 141 62s109.5 60.166 177.5 101.499c-38.667 30.667 -78.167 58.167 -118.5 82.5s-81.5 43 -123.5 56s-84.667 19.167 -128 18.5s-87.333 -11 -132 -31l-1 221c40.667 33.333 81 55 121 65s79.667 11.667 119 5s78.5 -19.834 117.5 -39.501
s77.667 -42.167 116 -67.5s76.166 -52 113.499 -80s74.333 -54 111 -78s72.667 -43.833 108 -59.5s70 -24.167 104 -25.5z" />
    <glyph glyph-name="uniFEA4" unicode="&#x62d;" horiz-adv-x="1140" arabic-form="medial" 
d="M1141 2l-1142 -0.00390625v234h678l-78 98.5c-24 31.667 -47.667 60.5 -71 86.5s-47.333 48 -72 66s-52.167 30.333 -82.5 37s-64.5 6.83398 -102.5 0.500977s-81.667 -21.5 -131 -45.5l-4 221c46 38 91.333 63 136 75s89 14 133 6
c52 -9.33301 99.667 -29.166 143 -59.499s84 -65.666 122 -105.999s73.667 -82.833 107 -127.5s66 -85.667 98 -123s63.667 -68.166 95 -92.499s64 -36.5 98 -36.5h73v-234z" />
    <glyph glyph-name="uniFEA6" unicode="&#x62e;" horiz-adv-x="954" arabic-form="final" 
d="M604 281c-37.333 -8 -73.667 -18.3311 -109 -30.998s-66.833 -29.334 -94.5 -50.001s-50.5 -45.834 -68.5 -75.501s-28.333 -65.167 -31 -106.5c-2 -28 0.333008 -55.667 7 -83s18.167 -52.5 34.5 -75.5s38 -43.167 65 -60.5s59.833 -29.333 98.5 -36
c26.667 -5.33301 54.667 -7 84 -5s58.5 5.83301 87.5 11.5s57 12.334 84 20.001s51.5 14.167 73.5 19.5l35 -218c-42 -12.667 -85.167 -24 -129.5 -34s-88.666 -17.333 -132.999 -22s-88.5 -5.5 -132.5 -2.5s-86.167 11.333 -126.5 25s-78.5 33.667 -114.5 60
s-68.333 60.5 -97 102.5c-28 42 -47.833 92.667 -59.5 152s-13.5 121.333 -5.5 186c8 66 26 124.333 54 175s63.5 94.667 106.5 132s92.333 68.5 148 93.5s115.167 44.5 178.5 58.5c-31.333 22 -63 40.5 -95 55.5s-64.167 25.167 -96.5 30.5
s-64.833 5.16602 -97.5 -0.500977s-65.667 -18.167 -99 -37.5l-6 221c44 36 88 58.333 132 67s87.5 8 130.5 -2s85.833 -27 128.5 -51s84.834 -50.667 126.501 -80l123 -88.5c40.333 -29.667 80.166 -55.167 119.499 -76.5l-90 -243c11.333 -24.667 28 -43.5 50 -56.5
s45 -19.5 69 -19.5v-234c-44 0 -85.333 6.66699 -124 20s-73.334 32.333 -104.001 57s-56.667 54 -78 88s-36 72 -44 114zM451.999 1286l168 -168l-168 -167l-168 167z" />
    <glyph glyph-name="uniFEA7" unicode="&#x62e;" horiz-adv-x="1060" arabic-form="initial" 
d="M918 272c-45.333 0.666992 -88.666 -5.66797 -129.999 -19.001s-82.833 -30.166 -124.5 -50.499s-85 -42.666 -130 -66.999s-94 -46.666 -147 -66.999s-111.167 -37 -174.5 -50s-134.333 -18.5 -213 -16.5v234c50.667 0 97.167 2.83301 139.5 8.5s85.333 16 129 31
s90.667 35.667 141 62s109.5 60.166 177.5 101.499c-38.667 30.667 -78.167 58.167 -118.5 82.5s-81.5 43 -123.5 56s-84.667 19.167 -128 18.5s-87.333 -11 -132 -31l-1 221c40.667 33.333 81 55 121 65s79.667 11.667 119 5s78.5 -19.834 117.5 -39.501
s77.667 -42.167 116 -67.5s76.166 -52 113.499 -80s74.333 -54 111 -78s72.667 -43.833 108 -59.5s70 -24.167 104 -25.5zM281 1293l168 -168l-168 -167l-167 167z" />
    <glyph glyph-name="uniFEA8" unicode="&#x62e;" horiz-adv-x="1140" arabic-form="medial" 
d="M1141 2l-1142 -0.00390625v234h678l-78 98.5c-24 31.667 -47.667 60.5 -71 86.5s-47.333 48 -72 66s-52.167 30.333 -82.5 37s-64.5 6.83398 -102.5 0.500977s-81.667 -21.5 -131 -45.5l-4 221c46 38 91.333 63 136 75s89 14 133 6
c52 -9.33301 99.667 -29.166 143 -59.499s84 -65.666 122 -105.999s73.667 -82.833 107 -127.5s66 -85.667 98 -123s63.667 -68.166 95 -92.499s64 -36.5 98 -36.5h73v-234zM406 1236l168 -168l-168 -167l-167 167z" />
    <glyph glyph-name="uniFEAA" unicode="&#x62f;" horiz-adv-x="874" arabic-form="final" 
d="M530 858l226.001 -545c10.667 -24.667 27 -43.667 49 -57s45.333 -20 70 -20v-234c-48 0 -93 8.5 -135 25.5s-79.333 40.5 -112 70.5c-32.667 -30 -70 -53.5 -112 -70.5s-86.667 -25.5 -134 -25.5h-315v234h311c21.333 0 40.166 3 56.499 9s28.5 16.333 36.5 31
s11 34.167 9 58.5s-10.333 54.5 -25 90.5l-142 342z" />
    <glyph glyph-name="uniFEAC" unicode="&#x630;" horiz-adv-x="874" arabic-form="final" 
d="M530 858l226.001 -545c10.667 -24.667 27 -43.667 49 -57s45.333 -20 70 -20v-234c-48 0 -93 8.5 -135 25.5s-79.333 40.5 -112 70.5c-32.667 -30 -70 -53.5 -112 -70.5s-86.667 -25.5 -134 -25.5h-315v234h311c21.333 0 40.166 3 56.499 9s28.5 16.333 36.5 31
s11 34.167 9 58.5s-10.333 54.5 -25 90.5l-142 342zM399.001 1284l169 -168l-169 -167l-167 167z" />
    <glyph glyph-name="uniFEAE" unicode="&#x631;" horiz-adv-x="865" arabic-form="final" 
d="M718 355l-0.00292969 -57c0 -20 -0.666992 -40.667 -2 -62h150v-234h-171c-7.33301 -36 -16.5 -70.5 -27.5 -103.5s-24.833 -62.5 -41.5 -88.5c-23.333 -34 -52.333 -64 -87 -90s-75.167 -46.5 -121.5 -61.5s-98.666 -23.5 -156.999 -25.5s-122.833 4 -193.5 18v234
c38.667 -15.333 79.834 -25.5 123.501 -30.5s85 -2.66699 124 7s72.833 27.5 101.5 53.5s47.334 62 56.001 108c4.66699 56 8.16699 114 10.5 174s2.83301 125.333 1.5 196v357h234v-395z" />
    <glyph glyph-name="uniFEB0" unicode="&#x632;" horiz-adv-x="865" arabic-form="final" 
d="M718 355l-0.00292969 -57c0 -20 -0.666992 -40.667 -2 -62h150v-234h-171c-7.33301 -36 -16.5 -70.5 -27.5 -103.5s-24.833 -62.5 -41.5 -88.5c-23.333 -34 -52.333 -64 -87 -90s-75.167 -46.5 -121.5 -61.5s-98.666 -23.5 -156.999 -25.5s-122.833 4 -193.5 18v234
c38.667 -15.333 79.834 -25.5 123.501 -30.5s85 -2.66699 124 7s72.833 27.5 101.5 53.5s47.334 62 56.001 108c4.66699 56 8.16699 114 10.5 174s2.83301 125.333 1.5 196v357h234v-395zM592.997 1209l169 -168l-169 -167l-167 167z" />
    <glyph glyph-name="uniFEB2" unicode="&#x633;" horiz-adv-x="2082" arabic-form="final" 
d="M968 750l0.00195312 -514h131c16 0 31.833 3 47.5 9s29.667 14.5 42 25.5s22.166 24.667 29.499 41s11 35.166 11 56.499v382h234v-382c0 -20.667 3.66699 -39.167 11 -55.5s17 -30 29 -41s25.667 -19.5 41 -25.5s31 -9.33301 47 -10c16 0.666992 31.667 4 47 10
s29 14.5 41 25.5s21.667 24.667 29 41s11 34.833 11 55.5v382h234v-382c0 -21.333 3.66699 -40.166 11 -56.499s17.166 -30 29.499 -41s26.333 -19.5 42 -25.5s31.5 -9 47.5 -9v-234c-47.333 0 -92.166 8.5 -134.499 25.5s-79.833 40.5 -112.5 70.5
c-32 -30 -68.667 -53.167 -110 -69.5s-85.333 -25.166 -132 -26.499c-48 0 -93.167 8.5 -135.5 25.5s-79.5 40.5 -111.5 70.5c-32.667 -30 -70.167 -53.5 -112.5 -70.5s-87.5 -25.5 -135.5 -25.5h-136c-8.66699 -54.667 -27.167 -104.167 -55.5 -148.5
s-62.833 -82 -103.5 -113s-85.834 -55 -135.501 -72s-100.167 -25.5 -151.5 -25.5c-56 0 -111 10.167 -165 30.5s-102.167 49.166 -144.5 86.499s-76.333 82 -102 134s-38.5 110 -38.5 174v369h235v-365c0 -33.333 6.16699 -62.333 18.5 -87s28.5 -45.167 48.5 -61.5
s42.833 -28.833 68.5 -37.5s52.167 -13 79.5 -13s54 4 80 12s49 20.333 69 37s36.167 37.5 48.5 62.5s18.5 54.167 18.5 87.5v678h235z" />
    <glyph glyph-name="uniFEB3" unicode="&#x633;" horiz-adv-x="1411" arabic-form="initial" 
d="M1345 750l-0.000976562 -384.999c0 -50 -9.5 -97 -28.5 -141s-44.667 -82.333 -77 -115s-70.333 -58.5 -114 -77.5s-90.167 -28.833 -139.5 -29.5c-48 0 -93 8.5 -135 25.5s-79.333 40.5 -112 70.5c-36 -32 -74.167 -55.333 -114.5 -70s-84.166 -23.334 -131.499 -26.001
c-45.333 0 -89.333 8.33301 -132 25s-81 40.334 -115 71.001c-32.667 -30 -70 -53.5 -112 -70.5s-87 -25.5 -135 -25.5v234c16 0 31.833 3 47.5 9s29.667 14.5 42 25.5s22.333 24.667 30 41s11.5 35.166 11.5 56.499v382h234v-382c0 -20.667 3.66699 -39.167 11 -55.5
s17 -30.166 29 -41.499s25.667 -20 41 -26s31 -9 47 -9s31.833 3 47.5 9s29.5 14.667 41.5 26s21.667 25.166 29 41.499s11 34.833 11 55.5v382h234v-382c0 -20.667 3.66699 -39.167 11 -55.5s17 -30 29 -41s25.667 -19.5 41 -25.5s31 -9.33301 47 -10
c16 0.666992 31.667 4 47 10s29 14.5 41 25.5s21.667 24.667 29 41s11 34.833 11 55.5v382h234z" />
    <glyph glyph-name="uniFEB4" unicode="&#x633;" horiz-adv-x="1474" arabic-form="medial" 
d="M1345 750l-0.00195312 -382.001c0 -21.333 3.66699 -40.166 11 -56.499s17 -30 29 -41s25.833 -19.5 41.5 -25.5s31.834 -9 48.501 -9v-234c-48 0 -93 8.5 -135 25.5s-79.333 40.5 -112 70.5c-32.667 -30 -69.5 -53.167 -110.5 -69.5s-84.833 -25.166 -131.5 -26.499
c-48 0 -93 8.5 -135 25.5s-79.333 40.5 -112 70.5c-36 -32 -74.167 -55.333 -114.5 -70s-84.166 -23.334 -131.499 -26.001c-45.333 0 -89.333 8.33301 -132 25s-81 40.334 -115 71.001c-32.667 -30 -70 -53.5 -112 -70.5s-87 -25.5 -135 -25.5v234c16 0 31.833 3 47.5 9
s29.667 14.5 42 25.5s22.333 24.667 30 41s11.5 35.166 11.5 56.499v382h234v-382c0 -20.667 3.66699 -39.167 11 -55.5s17 -30.166 29 -41.499s25.667 -20 41 -26s31 -9 47 -9s31.833 3 47.5 9s29.5 14.667 41.5 26s21.667 25.166 29 41.499s11 34.833 11 55.5v382h234
v-382c0 -20.667 3.66699 -39.167 11 -55.5s17 -30 29 -41s25.667 -19.5 41 -25.5s31 -9.33301 47 -10c16 0.666992 31.667 4 47 10s29 14.5 41 25.5s21.667 24.667 29 41s11 34.833 11 55.5v382h234z" />
    <glyph glyph-name="uniFEB6" unicode="&#x634;" horiz-adv-x="2082" arabic-form="final" 
d="M968 750l0.00195312 -514h131c16 0 31.833 3 47.5 9s29.667 14.5 42 25.5s22.166 24.667 29.499 41s11 35.166 11 56.499v382h234v-382c0 -20.667 3.66699 -39.167 11 -55.5s17 -30 29 -41s25.667 -19.5 41 -25.5s31 -9.33301 47 -10c16 0.666992 31.667 4 47 10
s29 14.5 41 25.5s21.667 24.667 29 41s11 34.833 11 55.5v382h234v-382c0 -21.333 3.66699 -40.166 11 -56.499s17.166 -30 29.499 -41s26.333 -19.5 42 -25.5s31.5 -9 47.5 -9v-234c-47.333 0 -92.166 8.5 -134.499 25.5s-79.833 40.5 -112.5 70.5
c-32 -30 -68.667 -53.167 -110 -69.5s-85.333 -25.166 -132 -26.499c-48 0 -93.167 8.5 -135.5 25.5s-79.5 40.5 -111.5 70.5c-32.667 -30 -70.167 -53.5 -112.5 -70.5s-87.5 -25.5 -135.5 -25.5h-136c-8.66699 -54.667 -27.167 -104.167 -55.5 -148.5
s-62.833 -82 -103.5 -113s-85.834 -55 -135.501 -72s-100.167 -25.5 -151.5 -25.5c-56 0 -111 10.167 -165 30.5s-102.167 49.166 -144.5 86.499s-76.333 82 -102 134s-38.5 110 -38.5 174v369h235v-365c0 -33.333 6.16699 -62.333 18.5 -87s28.5 -45.167 48.5 -61.5
s42.833 -28.833 68.5 -37.5s52.167 -13 79.5 -13s54 4 80 12s49 20.333 69 37s36.167 37.5 48.5 62.5s18.5 54.167 18.5 87.5v678h235zM1206 1215l141 -140l139 140l168 -167l-168 -168l-139 139l-141 -139l-168 168zM1348 1518l168 -168l-168 -167l-167 167z" />
    <glyph glyph-name="uniFEB7" unicode="&#x634;" horiz-adv-x="1411" arabic-form="initial" 
d="M1345 750l-0.000976562 -384.999c0 -50 -9.5 -97 -28.5 -141s-44.667 -82.333 -77 -115s-70.333 -58.5 -114 -77.5s-90.167 -28.833 -139.5 -29.5c-48 0 -93 8.5 -135 25.5s-79.333 40.5 -112 70.5c-36 -32 -74.167 -55.333 -114.5 -70s-84.166 -23.334 -131.499 -26.001
c-45.333 0 -89.333 8.33301 -132 25s-81 40.334 -115 71.001c-32.667 -30 -70 -53.5 -112 -70.5s-87 -25.5 -135 -25.5v234c16 0 31.833 3 47.5 9s29.667 14.5 42 25.5s22.333 24.667 30 41s11.5 35.166 11.5 56.499v382h234v-382c0 -20.667 3.66699 -39.167 11 -55.5
s17 -30.166 29 -41.499s25.667 -20 41 -26s31 -9 47 -9s31.833 3 47.5 9s29.5 14.667 41.5 26s21.667 25.166 29 41.499s11 34.833 11 55.5v382h234v-382c0 -20.667 3.66699 -39.167 11 -55.5s17 -30 29 -41s25.667 -19.5 41 -25.5s31 -9.33301 47 -10
c16 0.666992 31.667 4 47 10s29 14.5 41 25.5s21.667 24.667 29 41s11 34.833 11 55.5v382h234zM594.999 1215l140 -140l139 140l168 -167l-168 -168l-139 139l-140 -139l-168 168zM736.999 1518l169 -168l-169 -167l-167 167z" />
    <glyph glyph-name="uniFEB8" unicode="&#x634;" horiz-adv-x="1474" arabic-form="medial" 
d="M1345 750l-0.00195312 -382.001c0 -21.333 3.66699 -40.166 11 -56.499s17 -30 29 -41s25.833 -19.5 41.5 -25.5s31.834 -9 48.501 -9v-234c-48 0 -93 8.5 -135 25.5s-79.333 40.5 -112 70.5c-32.667 -30 -69.5 -53.167 -110.5 -69.5s-84.833 -25.166 -131.5 -26.499
c-48 0 -93 8.5 -135 25.5s-79.333 40.5 -112 70.5c-36 -32 -74.167 -55.333 -114.5 -70s-84.166 -23.334 -131.499 -26.001c-45.333 0 -89.333 8.33301 -132 25s-81 40.334 -115 71.001c-32.667 -30 -70 -53.5 -112 -70.5s-87 -25.5 -135 -25.5v234c16 0 31.833 3 47.5 9
s29.667 14.5 42 25.5s22.333 24.667 30 41s11.5 35.166 11.5 56.499v382h234v-382c0 -20.667 3.66699 -39.167 11 -55.5s17 -30.166 29 -41.499s25.667 -20 41 -26s31 -9 47 -9s31.833 3 47.5 9s29.5 14.667 41.5 26s21.667 25.166 29 41.499s11 34.833 11 55.5v382h234
v-382c0 -20.667 3.66699 -39.167 11 -55.5s17 -30 29 -41s25.667 -19.5 41 -25.5s31 -9.33301 47 -10c16 0.666992 31.667 4 47 10s29 14.5 41 25.5s21.667 24.667 29 41s11 34.833 11 55.5v382h234zM594.998 1215l140 -140l139 140l168 -167l-168 -168l-139 139l-140 -139
l-168 168zM736.998 1518l169 -168l-169 -167l-167 167z" />
    </font>
</defs>
</svg>
