<?xml version="1.0" standalone="no"?>
<!DOCTYPE svg PUBLIC "-//W3C//DTD SVG 1.1//EN" "http://www.w3.org/Graphics/SVG/1.1/DTD/svg11.dtd" >
<svg>
<metadata>
Created by FontForge 20090914 at Wed Oct 19 01:03:44 2011
 By www-data
(c) by Abolfazl Seilsepour - +98 912 591 3420  -  seilsepor@yahoo.com
</metadata>
<defs>
<font id="FarCurves" horiz-adv-x="0" >
  <font-face 
    font-family="Far.Curves"
    font-weight="400"
    font-stretch="normal"
    units-per-em="2048"
    panose-1="2 10 5 3 2 1 2 2 2 4"
    ascent="1638"
    descent="-410"
    bbox="-183 -821 2070 2331"
    underline-thickness="100"
    underline-position="-670"
    unicode-range="U+0020-U+FEFC"
  />
<missing-glyph horiz-adv-x="1024" 
d="M128 0v1278h768v-1278h-768zM256 128h512v1022h-512v-1022z" />
    <glyph glyph-name=".notdef" unicode="&#x652;&#x64d;" horiz-adv-x="1024" 
d="M128 0v1278h768v-1278h-768zM256 128h512v1022h-512v-1022z" />
    <glyph glyph-name="copyright" unicode="&#x652;&#x64b;" horiz-adv-x="1816" 
d="M862 1495c125.333 0 247.5 -32 366.5 -96s211.833 -155.5 278.5 -274.5s100 -243.167 100 -372.5s-32.833 -253.333 -98.5 -372s-157.667 -210.5 -276 -275.5s-241.833 -97.5 -370.5 -97.5c-129.333 0 -252.833 32.5 -370.5 97.5s-209.5 156.833 -275.5 275.5
s-99 242.667 -99 372s33.5 253.5 100.5 372.5s160 210.5 279 274.5s240.833 96 365.5 96zM862 1431c-114 0 -225.169 -29.333 -333.502 -88s-193.166 -142.334 -254.499 -251.001s-92 -222 -92 -340s30 -230.833 90 -338.5s144 -191.667 252 -252s220.667 -90.5 338 -90.5
s230 30.167 338 90.5s192.167 144.333 252.5 252s90.5 220.5 90.5 338.5s-30.667 231.333 -92 340s-146.166 192.334 -254.499 251.001s-219.833 88 -334.5 88zM1230 1230l22 -293.999h-41c-26 83.333 -66.167 145.5 -120.5 186.5s-120.166 61.5 -197.499 61.5
c-58 0 -109.333 -12 -154 -36s-81.334 -55.667 -110.001 -95c-21.333 -30.667 -39 -71 -53 -121s-21 -102 -21 -156c0 -148.667 32 -258.167 96 -328.5s148 -105.5 252 -105.5c136 0 245 56.667 327 170l39 -20c-97.333 -142 -231 -213 -401 -213
c-140.667 0 -257 45.333 -349 136s-138 200.667 -138 330c0 134 49 248.333 147 343s223 142 375 142c33.333 0 60.333 -2 81 -6s59 -15 115 -33c16.667 -6 29 -9 37 -9c11.333 0 21 3.16699 29 9.5s16 19.166 24 38.499h41z" />
    <glyph glyph-name="uniE818" unicode="&#x651;&#x64b;" 
d="M465 1448c0 -36.667 -9.66602 -67.3311 -28.999 -91.998c-21.333 -26.667 -49.333 -40 -84 -40c-57.333 0 -101 21.333 -131 64c-32.667 -77.333 -83.667 -116 -153 -116c-76 0 -114 43.333 -114 130c0 38.667 16.667 93.667 50 165l72 -36c-20 -52 -30 -82.667 -30 -92
c0 -37.333 12.667 -56 38 -56c37.333 0 62 19.667 74 59c6.66699 22 9 57 7 105l91 48c0 -106 24.333 -159 73 -159c26 0 38 16 36 48c-0.666992 17.333 -14.334 47.666 -41.001 90.999l72 53c19.333 -26.667 36.333 -59.334 51 -98.001c12 -33.333 18 -58 18 -74z
M438.001 1896l-448 -112l-25 92l451 115zM444.001 1727l-448 -111l-25 92l450 114z" />
    <glyph glyph-name="uniFC5E" unicode="&#x651;&#x64c;" horiz-adv-x="1" arabic-form="isolated" 
d="M459 1479c0 -34.667 -9.66602 -64.332 -28.999 -88.999c-20 -26 -47.333 -39 -82 -39c-56 0 -98.667 20.667 -128 62c-32 -76 -82 -114 -150 -114c-74.667 0 -112 42.667 -112 128c0 37.333 16.667 91 50 161l69 -36c-19.333 -50 -29 -79.667 -29 -89
c0 -36.667 12.667 -55 38 -55c36.667 0 60.667 19 72 57c6.66699 22 9 56.667 7 104l89 46c0 -104 24 -156 72 -156c25.333 0 37 16 35 48c-0.666992 18 -5.66699 34 -15 48c-4.66699 8 -13.334 21.333 -26.001 40l71 52c19.333 -24.667 36 -56.334 50 -95.001
c12 -32.667 18 -57 18 -73zM474.001 1853c0 -83.333 -50.667 -137.001 -152 -161.001l-322 -76l-30 81l30 15c32.667 14.667 49 37 49 67c0 17.333 -6.66699 26 -20 26c-11.333 0 -26.333 -6.66699 -45 -20l-36 52c28.667 38.667 59.667 57.334 93 56.001
c54.667 -0.666992 82 -28 82 -82c0 -30.667 -8.33301 -58.667 -25 -84l87 33c-16 27.333 -24 57 -24 89c0 42 18 77.667 54 107c32 26 63.667 39 95 39c41.333 0 78.333 -13.333 111 -40c35.333 -28 53 -62 53 -102zM386.001 1853c0 32.667 -23.333 49 -70 49
c-16 0 -31 -5.16699 -45 -15.5s-21 -23.5 -21 -39.5c0 -17.333 7 -32.333 21 -45s29.667 -18.334 47 -17.001c45.333 2.66699 68 25.334 68 68.001z" />
    <glyph glyph-name="uniFC5F" unicode="&#x651;&#x64d;" horiz-adv-x="1" arabic-form="isolated" 
d="M430 1893l-448 -111l-24 92l450 114zM447 2158c0 -36 -9.66602 -66.333 -28.999 -91c-21.333 -26.667 -49.333 -40 -84 -40c-56.667 0 -100.334 21.333 -131.001 64c-32.667 -77.333 -83.667 -116 -153 -116c-76 0 -114 43.333 -114 130c0 38 16.667 92.667 50 164
l72 -36c-20 -51.333 -30 -82 -30 -92c0 -36.667 12.667 -55 38 -55c38.667 0 63.667 19.333 75 58c6 21.333 8.33301 56.333 7 105c18 10.667 48 26.667 90 48c0 -106 24.333 -159 73 -159c26.667 0 39 16 37 48c-1.33301 20 -15.333 50.333 -42 91l72 54
c46 -62 69 -119.667 69 -173zM446.001 1709l-448 -111l-24 92l450 114z" />
    <glyph glyph-name="uniFC60" unicode="&#x651;&#x64e;" horiz-adv-x="7" arabic-form="isolated" 
d="M497 1621c0 -34.667 -9.66602 -64.332 -28.999 -88.999c-20 -26 -47.333 -39 -82 -39c-56 0 -98.667 20.667 -128 62c-32 -76 -82 -114 -150 -114c-74.667 0 -112 42.667 -112 128c0 37.333 16.667 91 50 161l69 -36c-19.333 -50 -29 -79.667 -29 -89
c0 -36.667 12.667 -55 38 -55c36.667 0 60.667 19 72 57c6.66699 22 9 56.667 7 104l89 46c0 -104 24 -156 72 -156c25.333 0 37 16 35 48c-0.666992 18 -5.66699 34 -15 48c-4.66699 8 -13.334 21.333 -26.001 40l71 52c19.333 -24.667 36 -56.334 50 -95.001
c12 -32.667 18 -57 18 -73zM449.001 1915l-439 -110l-25 91l442 112z" />
    <glyph glyph-name="uniFC61" unicode="&#x651;&#x64f;" horiz-adv-x="1" arabic-form="isolated" 
d="M470 1446c0 -36.667 -9.66602 -67.332 -28.999 -91.999c-21.333 -26.667 -49.333 -40 -84 -40c-56.667 0 -100.334 21.333 -131.001 64c-32.667 -77.333 -83.667 -116 -153 -116c-76 0 -114 43.333 -114 130c0 38.667 16.667 93.667 50 165l72 -36
c-20 -52 -30 -82.667 -30 -92c0 -37.333 12.667 -56 38 -56c38.667 0 63.667 19.667 75 59c6 20.667 8.33301 55.667 7 105l90 48c0 -106 24.333 -159 73 -159c26.667 0 39 16 37 48c-1.33301 19.333 -15.333 49.666 -42 90.999l72 53c20.667 -27.333 38 -60 52 -98
c11.333 -32 17 -56.667 17 -74zM377.001 1850c0 33.333 -23.999 50 -71.999 50c-17.333 0 -33 -5.33301 -47 -16c-15.333 -12 -23 -26 -23 -42c0 -18 7.66699 -33 23 -45s31.666 -17.333 48.999 -16c46.667 3.33301 70 26.333 70 69zM172.002 1758
c-17.333 27.333 -26.001 56 -26.001 86c0 42 18.333 78.667 55 110c32.667 26.667 65.334 40 98.001 40c42 0 79.667 -13.333 113 -40c35.333 -28 53 -62.667 53 -104c0 -85.333 -51.667 -140 -155 -164l-319 -75l-22 87c51.333 14 119 34 203 60z" />
    <glyph glyph-name="uniFC62" unicode="&#x651;&#x650;" arabic-form="isolated" 
d="M440 1709l-448 -111l-24 92l450 114zM457 1974c0 -36 -9.66602 -66.333 -28.999 -91c-21.333 -26.667 -49.333 -40 -84 -40c-56.667 0 -100.334 21.333 -131.001 64c-32.667 -77.333 -83.667 -116 -153 -116c-76 0 -114 43.333 -114 130c0 38 16.667 92.667 50 164
l72 -36c-20 -51.333 -30 -82 -30 -92c0 -36.667 12.667 -55 38 -55c38.667 0 63.667 19.333 75 58c6 21.333 8.33301 56.333 7 105c18 10.667 48 26.667 90 48c0 -106 24.333 -159 73 -159c26.667 0 39 16 37 48c-1.33301 20 -15.333 50.333 -42 91l72 54
c46 -62 69 -119.667 69 -173z" />
    <glyph glyph-name="uniFD3E" unicode="&#x652;&#x64e;" horiz-adv-x="759" 
d="M659 -8c-31.333 -36 -51.3311 -66.3311 -59.998 -90.998c-5.33301 -14.667 -7.66602 -35.667 -6.99902 -63c2 -16 9.66699 -84.667 23 -206l-203 250c-72 89.333 -122 191.333 -150 306c-58 0 -121.667 -6 -191 -18c59.333 44 109.666 87.333 150.999 130
c13.333 14.667 24.666 29 33.999 43c-11.333 8.66699 -20 17.334 -26 26.001c-17.333 -12 -31.666 -23.333 -42.999 -34c-41.333 -39.333 -84.666 -89.666 -129.999 -150.999c12.667 72 19 138 19 198v123c0 60.667 -6.33301 126.667 -19 198
c45.333 -60.667 88.666 -111 129.999 -151c11.333 -10.667 25.666 -22 42.999 -34c8 10 17 19 27 27c-10.667 15.333 -22.334 29.666 -35.001 42.999c-41.333 42.667 -91.666 86 -150.999 130c72 -12.667 135.667 -19 191 -19c28 115.333 78 217.333 150 306l203 251
c-8 -60.667 -15.667 -129.334 -23 -206.001c-0.666992 -28 1.66602 -49 6.99902 -63c8.66699 -24.667 28.667 -55.334 60 -92.001c-70.667 0 -120.334 -10.333 -149.001 -31c-36.667 -24.667 -70.334 -79.667 -101.001 -165c49.333 0 109.666 6.33301 180.999 19
c-60.667 -45.333 -111 -88.666 -151 -129.999c-12.667 -14 -24.334 -28.333 -35.001 -43c10 -8 19 -17 27 -27c18.667 13.333 33.334 24.666 44.001 33.999c40 38 83.333 88.333 130 151c-12 -68.667 -18 -134.667 -18 -198v-123c0 -62.667 6 -128.667 18 -198
c-45.333 61.333 -88.666 111.666 -129.999 150.999c-12.667 11.333 -27.334 22.666 -44.001 33.999c-7.33301 -10 -16.333 -18.667 -27 -26c10.667 -14.667 22.334 -29 35.001 -43c40 -41.333 90.333 -84.666 151 -129.999c-68.667 12 -129 18 -181 18
c30.667 -85.333 64.334 -140.333 101.001 -165c28.667 -20.667 78.334 -31 149.001 -31zM422.002 444.002c0 24.667 -9 46 -27 64s-39.333 27 -64 27s-46.167 -9 -64.5 -27s-27.5 -39.333 -27.5 -64s9 -46 27 -64s39.667 -27 65 -27c24.667 0 46 9 64 27s27 39.333 27 64z
" />
    <glyph glyph-name="uniFDF2" unicode="&#xfedf;&#xfee0;&#xfeea;" horiz-adv-x="2070" arabic-form="isolated" 
d="M1407 1239c0 14 4 21.001 12 21.001h33c9.33301 0 14 5.33301 14 16v76c0 8 -4.66699 12 -14 12h-285c-9.33301 0 -14 -4.66699 -14 -14l2 -1209h-371v729c0 14 4 21 12 21h33c9.33301 0 14 5.33301 14 16v76c0 8 -4.66699 12 -14 12l-387 2c-56.667 0 -110 -13 -160 -39
c-65.333 -36 -111.333 -91.333 -138 -166c-28 -76.667 -42 -190.334 -42 -341.001c0 -300.667 113.333 -451 340 -451h948l17 92c40.667 -61.333 98 -92 172 -92h227c136.667 0 205 75.667 205 227v1012c0 14 4 21 12 21h33c9.33301 0 14 5.33301 14 16v76
c0 8 -4.66699 12 -14 12h-285c-9.33301 0 -14 -4.66699 -14 -14v-1123c0 -57.333 -15.667 -86 -47 -86h-224c-52.667 0 -79 26 -79 78v1020zM442 141.001c-45.333 0 -68 38.333 -68 115v547c0 76.667 22.667 115 68 115h70v-777h-70zM1230 1659l0.000976562 -125
c0 -10.667 5.66699 -16 17 -16c10.667 0 16 5.33301 16 16v125h72v-125c0 -10.667 6.66699 -16 20 -16c11.333 0 17 5.33301 17 16v125h71v-121c1.33301 -11.333 -5 -23.333 -19 -36c-16.667 -14 -38.334 -21 -65.001 -21s-45.667 4.66699 -57 14
c-13.333 -9.33301 -29 -14 -47 -14c-31.333 0 -56 6.66699 -74 20c-14.667 10.667 -22 23 -22 37v121h71z" />
    <glyph glyph-name="uniFEF5" unicode="&#xfedf;&#xfe82;" horiz-adv-x="888" arabic-form="isolated" 
d="M436 1364l-254 0.00195312v-1162c-0.666992 -10.667 -1 -20.334 -1 -29.001c-2 -23.333 -5 -44.333 -9 -63c-12 -50 -35.333 -86.667 -70 -110h522c136.667 0 205 75.667 205 227v1012c0 14 4 21 12 21h33c9.33301 0 14 5.33301 14 16v76c0 8 -4.66699 12 -14 12h-285
c-9.33301 0 -14 -4.66699 -14 -14v-1031c0 -50.667 -6 -89.334 -18 -116.001c-18.667 -41.333 -53 -62 -103 -62h-18v1223zM252 1595l115.001 -30c19.333 -4 33.333 -6 42 -6l24 -1c11.333 0 21.333 0.666992 30 2c27.333 5.33301 49.666 19.333 66.999 42l27 -33l-32 -39
c-12.667 -14 -25 -26 -37 -36c-28.667 -25.333 -55 -38 -79 -38c-10.667 0 -25.667 2.33301 -45 7l-114 29c-19.333 4.66699 -34 7 -44 7l-23 1c-11.333 0 -21.666 -0.666992 -30.999 -2c-26.667 -5.33301 -48.667 -19.333 -66 -42l-27 33l68 75
c29.333 25.333 55.666 38 78.999 38c10.667 0 26 -2.33301 46 -7z" />
    <glyph glyph-name="uniFEF6" unicode="&#xfee0;&#xfe82;" horiz-adv-x="1032" arabic-form="final" 
d="M1042 141l0.000976562 -141.002h-940c34.667 23.333 58 60 70 110c4 18.667 7 39.667 9 63c0 8.66699 0.333008 18.334 1 29.001v1162h254v-1223h18c50 0 84.333 20.667 103 62c12 26.667 18 65.334 18 116.001v1031c0 9.33301 4.66699 14 14 14h285
c9.33301 0 14 -4 14 -12v-76c0 -10.667 -4.66699 -16 -14 -16h-33c-8 0 -12 -7 -12 -21v-1035c-0.666992 -9.33301 -1.33398 -17.333 -2.00098 -24c-2 -17.333 -6 -30.333 -12 -39h227zM252.001 1595l115.001 -30c19.333 -4 33.333 -6 42 -6l24 -1
c11.333 0 21.333 0.666992 30 2c27.333 5.33301 49.666 19.333 66.999 42l27 -33l-32 -39c-12.667 -14 -25 -26 -37 -36c-28.667 -25.333 -55 -38 -79 -38c-10.667 0 -25.667 2.33301 -45 7l-114 29c-19.333 4.66699 -34 7 -44 7l-23 1
c-11.333 0 -21.666 -0.666992 -30.999 -2c-26.667 -5.33301 -48.667 -19.333 -66 -42l-27 33l68 75c29.333 25.333 55.666 38 78.999 38c10.667 0 26 -2.33301 46 -7z" />
    <glyph glyph-name="uniFEF7" unicode="&#xfedf;&#xfe84;" horiz-adv-x="888" arabic-form="isolated" 
d="M436 1364l-254 0.00195312v-1162c-0.666992 -10.667 -1 -20.334 -1 -29.001c-2 -23.333 -5 -44.333 -9 -63c-12 -50 -35.333 -86.667 -70 -110h522c136.667 0 205 75.667 205 227v1012c0 14 4 21 12 21h33c9.33301 0 14 5.33301 14 16v76c0 8 -4.66699 12 -14 12h-285
c-9.33301 0 -14 -4.66699 -14 -14v-1031c0 -50.667 -6 -89.334 -18 -116.001c-18.667 -41.333 -53 -62 -103 -62h-18v1223zM131 1456l18.001 48.999h86l-7 14c-2 5.33301 -3.66699 11 -5 17c-1.33301 8 -2 16.333 -2 25v63c0 102.667 37.333 154 112 154
c72.667 0 109 -31.667 109 -95c-2.66699 -54 -27.334 -81 -74.001 -81c-47.333 0 -71 23 -71 69c0 16 4.66699 31.667 14 47c-23.333 -9.33301 -35 -31.666 -35 -66.999c0 -97.333 45 -146 135 -146h41v-49h-321z" />
    <glyph glyph-name="uniFEF8" unicode="&#xfee0;&#xfe84;" horiz-adv-x="1032" arabic-form="final" 
d="M1042 141l0.000976562 -141.002h-940c34.667 23.333 58 60 70 110c4 18.667 7 39.667 9 63c0 8.66699 0.333008 18.334 1 29.001v1162h254v-1223h18c50 0 84.333 20.667 103 62c12 26.667 18 65.334 18 116.001v1031c0 9.33301 4.66699 14 14 14h285
c9.33301 0 14 -4 14 -12v-76c0 -10.667 -4.66699 -16 -14 -16h-33c-8 0 -12 -7 -12 -21v-1035c-0.666992 -9.33301 -1.33398 -17.333 -2.00098 -24c-2 -17.333 -6 -30.333 -12 -39h227zM131.001 1456l18.001 48.999h86l-7 14c-2 5.33301 -3.66699 11 -5 17
c-1.33301 8 -2 16.333 -2 25v63c0 102.667 37.333 154 112 154c72.667 0 109 -31.667 109 -95c-2.66699 -54 -27.334 -81 -74.001 -81c-47.333 0 -71 23 -71 69c0 16 4.66699 31.667 14 47c-23.333 -9.33301 -35 -31.666 -35 -66.999c0 -97.333 45 -146 135 -146h41v-49
h-321z" />
    <glyph glyph-name="uniFEF9" unicode="&#xfedf;&#xfe88;" horiz-adv-x="888" arabic-form="isolated" 
d="M435 1364l-254 0.00195312v-1162c0 -10.667 -0.333008 -20.334 -1 -29.001c-1.33301 -23.333 -4.33301 -44.333 -9 -63c-11.333 -50 -34.333 -86.667 -69 -110h522c136.667 0 205 75.667 205 227v1012c0 14 4 21 12 21h33c9.33301 0 14 5.33301 14 16v76
c0 8 -4.66699 12 -14 12h-285c-9.33301 0 -14 -4.66699 -14 -14v-1031c0 -50.667 -6.33301 -89.334 -19 -116.001c-18.667 -41.333 -52.667 -62 -102 -62h-19v1223zM77 -416.998l18 49h86l-7 14c-2 5.33301 -3.66699 11 -5 17c-1.33301 7.33301 -2 15.333 -2 24v64
c0 102 37.667 153 113 153c72 0 108 -31.333 108 -94c-2 -54.667 -26.333 -82 -73 -82c-48 0 -72 23.333 -72 70c0 16 4.66699 31.667 14 47c-23.333 -9.33301 -35 -32 -35 -68c0 -96.667 45.333 -145 136 -145h41v-49h-322z" />
    <glyph glyph-name="uniFEFA" unicode="&#xfee0;&#xfe88;" horiz-adv-x="1032" arabic-form="final" 
d="M1042 141v-141.002h-940c34.667 23.333 57.667 60 69 110c4.66699 18.667 7.66699 39.667 9 63c0.666992 8.66699 1 18.334 1 29.001v1162h254v-1223h19c49.333 0 83.333 20.667 102 62c12.667 26.667 19 65.334 19 116.001v1031c0 9.33301 4.66699 14 14 14h285
c9.33301 0 14 -4 14 -12v-76c0 -10.667 -4.66699 -16 -14 -16h-33c-8 0 -12 -7 -12 -21l-1 -1035c0 -9.33301 -0.333008 -17.333 -1 -24c-2 -17.333 -6.33301 -30.333 -13 -39h228zM77 -417.002l18 49h86l-7 14c-2 5.33301 -3.66699 11 -5 17
c-1.33301 7.33301 -2 15.333 -2 24v64c0 102 37.667 153 113 153c72 0 108 -31.333 108 -94c-2 -54.667 -26.333 -82 -73 -82c-48 0 -72 23.333 -72 70c0 16 4.66699 31.667 14 47c-23.333 -9.33301 -35 -32 -35 -68c0 -96.667 45.333 -145 136 -145h41v-49h-322z" />
    <glyph glyph-name="uniFEFB" unicode="&#xfedf;&#xfe8e;" horiz-adv-x="888" arabic-form="isolated" 
d="M436 1364l-254 0.00195312v-1162c-0.666992 -10.667 -1 -20.334 -1 -29.001c-2 -23.333 -5 -44.333 -9 -63c-12 -50 -35.333 -86.667 -70 -110h522c136.667 0 205 75.667 205 227v1012c0 14 4 21 12 21h33c9.33301 0 14 5.33301 14 16v76c0 8 -4.66699 12 -14 12h-285
c-9.33301 0 -14 -4.66699 -14 -14v-1031c0 -50.667 -6 -89.334 -18 -116.001c-18.667 -41.333 -53 -62 -103 -62h-18v1223z" />
    <glyph glyph-name="uniFEFC" unicode="&#xfee0;&#xfe8e;" horiz-adv-x="1032" arabic-form="final" 
d="M1042 141l0.000976562 -141.002h-940c34.667 23.333 58 60 70 110c4 18.667 7 39.667 9 63c0 8.66699 0.333008 18.334 1 29.001v1162h254v-1223h18c50 0 84.333 20.667 103 62c12 26.667 18 65.334 18 116.001v1031c0 9.33301 4.66699 14 14 14h285
c9.33301 0 14 -4 14 -12v-76c0 -10.667 -4.66699 -16 -14 -16h-33c-8 0 -12 -7 -12 -21v-1035c-0.666992 -9.33301 -1.33398 -17.333 -2.00098 -24c-2 -17.333 -6 -30.333 -12 -39h227z" />
    <glyph glyph-name="afii57410" unicode="&#x622;" horiz-adv-x="495" arabic-form="isolated" 
d="M102 0c34.667 23.333 58 59.999 70 109.999c4 18.667 7 39.667 9 63c0 8.66699 0.333008 18.334 1 29.001v1148c0 9.33301 4.66699 14 14 14h285c9.33301 0 14 -4 14 -12v-76c0 -10.667 -4.66699 -16 -14 -16h-33c-8 0 -12 -7 -12 -21v-1012
c0 -151.333 -68.333 -227 -205 -227h-129zM252 1555l115.001 -30c19.333 -4 33.333 -6 42 -6l24 -1c11.333 0 21.333 0.666992 30 2c27.333 5.33301 49.666 19.333 66.999 42l27 -33l-32 -39c-12.667 -14 -25 -26 -37 -36c-28.667 -25.333 -55 -38 -79 -38
c-10.667 0 -25.667 2.33301 -45 7l-114 29c-19.333 4.66699 -34 7 -44 7l-23 1c-11.333 0 -21.666 -0.666992 -30.999 -2c-26.667 -5.33301 -48.667 -19.333 -66 -42l-27 33l68 75c29.333 25.333 55.666 38 78.999 38c10.667 0 26 -2.33301 46 -7z" />
    <glyph glyph-name="afii57411" unicode="&#x623;" horiz-adv-x="495" arabic-form="isolated" 
d="M102 0c34.667 23.333 58 59.999 70 109.999c4 18.667 7 39.667 9 63c0 8.66699 0.333008 18.334 1 29.001v1118c0 9.33301 4.66699 14 14 14h285c9.33301 0 14 -4 14 -12v-76c0 -10.667 -4.66699 -16 -14 -16h-33c-8 0 -12 -7 -12 -21v-982
c0 -151.333 -68.333 -227 -205 -227h-129zM172 1406l18.001 48.999h86l-7 14c-2 5.33301 -3.66699 11 -5 17c-1.33301 8 -2 16.333 -2 25v63c0 102.667 37.333 154 112 154c72.667 0 109 -31.667 109 -95c-2.66699 -54 -27.334 -81 -74.001 -81c-47.333 0 -71 23 -71 69
c0 16 4.66699 31.667 14 47c-23.333 -9.33301 -35 -31.666 -35 -66.999c0 -97.333 45 -146 135 -146h41v-49h-321z" />
    <glyph glyph-name="afii57412" unicode="&#x624;" horiz-adv-x="806" arabic-form="isolated" 
d="M747 870c0 14 3.99902 21.001 11.999 21.001h33c10 0 15 5.33301 15 16v76c0 8 -5 12 -15 12h-397c-112 0 -191.333 -51.333 -238 -154c-20 -44 -34.667 -98.333 -44 -163c-7.33301 -55.333 -11 -120.333 -11 -195c0 -322 87.333 -483 262 -483
c48.667 0 92.334 16.333 131.001 49v-143c0 -77.333 -34 -116 -102 -116c-34.667 0 -66 7.33301 -94 22v-94c18.667 -12.667 41.334 -21.667 68.001 -27c22.667 -4.66699 34 -6 34 -4c74 0 137.333 12.333 190 37c42.667 20.667 77.334 49 104.001 85
c19.333 26.667 33.666 56.667 42.999 90c3.33301 11.333 5.66602 22.666 6.99902 33.999l2 20v917zM351.999 688.001c2 128.667 28 193 78 193c43.333 0 65 -40.333 65 -121v-522c0 -80.667 -21.667 -121 -65 -121c-50 0 -76 63.333 -78 190v381zM201.999 1085
l31.001 81.999h139l-3 6c-2.66699 5.33301 -5.33398 11 -8.00098 17c-3.33301 8.66699 -6 18 -8 28c-2 12.667 -3 25.667 -3 39v103c0 169.333 62 254 186 254c117.333 0 176 -52 176 -156c-2 -90 -42.333 -135 -121 -135c-77.333 0 -116 39 -116 117c0 28.667 8 54 24 76
c-38 -16 -57 -53 -57 -111c0 -67.333 18.333 -122.666 55 -165.999c40.667 -48 96 -72 166 -72h68v-82h-529z" />
    <glyph glyph-name="afii57413" unicode="&#x625;" horiz-adv-x="495" arabic-form="isolated" 
d="M102 0c34.667 23.333 57.667 59.999 69 109.999c4.66699 18.667 7.66699 39.667 9 63c0.666992 8.66699 1 18.334 1 29.001v1148c0 9.33301 5 14 15 14h284c10 0 15 -4 15 -12v-76c0 -10.667 -5 -16 -15 -16h-32c-8.66699 0 -13 -7 -13 -21v-1012
c0 -151.333 -68 -227 -204 -227h-129zM77 -377.001l18 49h86l-7 14c-2 5.33301 -3.66699 11 -5 17c-1.33301 7.33301 -2 15.333 -2 24v64c0 102 37.667 153 113 153c72 0 108 -31.333 108 -94c-2 -54.667 -26.333 -82 -73 -82c-48 0 -72 23.333 -72 70
c0 16 4.66699 31.667 14 47c-23.333 -9.33301 -35 -32 -35 -68c0 -96.667 45.333 -145 136 -145h41v-49h-322z" />
    <glyph glyph-name="afii57414" unicode="&#x626;" horiz-adv-x="864" arabic-form="isolated" 
d="M610 175c0 10 -0.330078 19.334 -0.99707 28.001c-2 22.667 -6.33301 44 -13 64c-17.333 52.667 -52 99.667 -104 141c-128.667 101.333 -193 207.666 -193 318.999c0 80 24.667 148 74 204c49.333 56.667 108.666 85 177.999 85c159.333 0 246.666 -91 261.999 -273
h-116c-15.333 0 -23 6.33301 -23 19c0 100.667 -32.667 151 -98 151c-54.667 0 -82 -29.333 -82 -88c0 -55.333 60 -133 180 -233c126 -105.333 189 -223.333 189 -354l2 -278c0 -90.667 -40.667 -163.334 -122 -218.001c-72 -48.667 -158.333 -73 -259 -73
s-187.334 24.333 -260.001 73c-80.667 54.667 -121 127.334 -121 218.001v357h252v-392c0 -56 14.667 -97.333 44 -124c22.667 -20 51 -30 85 -30c33.333 0 61 10 83 30c29.333 26.667 44 68 44 124zM-142.997 420.001l21 57h100l-8 16l-5 20c-2 8.66699 -3 18 -3 28v73
c0 118 42.667 177 128 177c83.333 0 125 -36.333 125 -109c-2 -62.667 -30 -94 -84 -94c-56 0 -84 26.667 -84 80c0 14.667 5.66699 33 17 55c-26 -12 -39 -38 -39 -78c0 -112 52 -168 156 -168h47v-57h-371z" />
    <glyph glyph-name="afii57415" unicode="&#x627;" horiz-adv-x="495" arabic-form="isolated" 
d="M102 0c34.667 23.333 58 59.999 70 109.999c4 18.667 7 39.667 9 63c0 8.66699 0.333008 18.334 1 29.001v1148c0 9.33301 4.66699 14 14 14h285c9.33301 0 14 -4 14 -12v-76c0 -10.667 -4.66699 -16 -14 -16h-33c-8 0 -12 -7 -12 -21v-1012
c0 -151.333 -68.333 -227 -205 -227h-129z" />
    <glyph glyph-name="afii57416" unicode="&#x628;" horiz-adv-x="1484" arabic-form="isolated" 
d="M476 649c-42 -13.333 -68.333 -40.666 -79 -81.999c-4.66699 -20 -8 -47.667 -10 -83c-0.666992 -14.667 -1.33398 -33.334 -2.00098 -56.001l-3 -201c0 -57.333 24 -86 72 -86h694c31.333 0 47 28.667 47 86v754c0 9.33301 4.66699 14 14 14h285c9.33301 0 14 -4 14 -12
v-76c0 -10.667 -4.66699 -16 -14 -16h-33c-8 0 -12 -7 -12 -21v-643c0 -151.333 -68.333 -227 -205 -227h-911c-59.333 0 -108.333 23.667 -147 71s-58 107 -58 179c-17.333 293.333 97.334 455 344.001 485zM826 -366c-96.667 0 -145 46.333 -145 139
c0 94 48.333 141 145 141c96 0 144 -47 144 -141c0 -92.667 -48 -139 -144 -139z" />
    <glyph glyph-name="afii57417" unicode="&#x629;" horiz-adv-x="843" arabic-form="isolated" 
d="M442 918c-45.333 0 -68 -38.333 -68 -115v-608c0 -76.667 22.667 -115 68 -115c46.667 0 70 38.333 70 115v723h-70zM829 995c9.33301 0 14 -4.00098 14 -12.001v-76c0 -10.667 -4.66699 -16 -14 -16h-33c-8 0 -12 -7 -12 -21v-374c0 -344 -114 -516 -342 -516
c-226.667 0 -340 157 -340 471c0 150.667 14 264.334 42 341.001c26.667 74.667 72.667 130 138 166c50 26 103.333 39 160 39zM131 1166l18.001 48.999h86l-7 14c-2 5.33301 -3.66699 11 -5 17c-1.33301 8 -2 16.333 -2 25v63c0 102.667 37.333 154 112 154
c72.667 0 109 -31.667 109 -95c-2.66699 -54 -27.334 -81 -74.001 -81c-47.333 0 -71 23 -71 69c0 16 4.66699 31.667 14 47c-23.333 -9.33301 -35 -31.666 -35 -66.999c0 -97.333 45 -146 135 -146h41v-49h-321z" />
    <glyph glyph-name="afii57418" unicode="&#x62a;" horiz-adv-x="1484" arabic-form="isolated" 
d="M986 1075c-96.667 0 -145 46.333 -145 139c0 94.667 48.333 142 145 142c96 0 144 -47.333 144 -142c0 -92.667 -48 -139 -144 -139zM613 1075c-96.667 0 -145 46.333 -145 139c0 94.667 48.333 142 145 142c96 0 144 -47.333 144 -142c0 -92.667 -48 -139 -144 -139z
M476 649c-42 -13.333 -68.333 -40.666 -79 -81.999c-4.66699 -20 -8 -47.667 -10 -83c-0.666992 -14.667 -1.33398 -33.334 -2.00098 -56.001l-3 -201c0 -57.333 24 -86 72 -86h694c31.333 0 47 28.667 47 86v754c0 9.33301 4.66699 14 14 14h285c9.33301 0 14 -4 14 -12
v-76c0 -10.667 -4.66699 -16 -14 -16h-33c-8 0 -12 -7 -12 -21v-643c0 -151.333 -68.333 -227 -205 -227h-911c-59.333 0 -108.333 23.667 -147 71s-58 107 -58 179c-17.333 293.333 97.334 455 344.001 485z" />
    <glyph glyph-name="afii57419" unicode="&#x62b;" horiz-adv-x="1484" arabic-form="isolated" 
d="M476 649c-42 -13.333 -68.333 -40.666 -79 -81.999c-4.66699 -20 -8 -47.667 -10 -83c-0.666992 -14.667 -1.33398 -33.334 -2.00098 -56.001l-3 -201c0 -57.333 24 -86 72 -86h694c31.333 0 47 28.667 47 86v754c0 9.33301 4.66699 14 14 14h285c9.33301 0 14 -4 14 -12
v-76c0 -10.667 -4.66699 -16 -14 -16h-33c-8 0 -12 -7 -12 -21v-643c0 -151.333 -68.333 -227 -205 -227h-911c-59.333 0 -108.333 23.667 -147 71s-58 107 -58 179c-17.333 293.333 97.334 455 344.001 485zM763 1118c-84.667 0 -127 41 -127 123s42.333 123 127 123
s127 -41 127 -123s-42.333 -123 -127 -123zM939 829c-96.667 0 -145 46.667 -145 140c0 94 48.333 141 145 141c95.333 0 143 -47 143 -141c0 -93.333 -47.667 -140 -143 -140zM597 829c-96.667 0 -145 46.667 -145 140c0 94 48.333 141 145 141c95.333 0 143 -47 143 -141
c0 -93.333 -47.667 -140 -143 -140z" />
    <glyph glyph-name="afii57420" unicode="&#x62c;" horiz-adv-x="989" arabic-form="isolated" 
d="M989 741c0 182 -113.334 273.001 -340.001 273.001c-101.333 0 -179.666 -22 -234.999 -66c-49.333 -38.667 -74 -88.334 -74 -149.001c0 -106.667 45.667 -160 137 -160c84.667 0 127 43.667 127 131c0 28.667 -10.333 55.667 -31 81l-31 32c0 20 30.667 30 92 30
c67.333 0 101 -34 101 -102v-670h-633c3.33301 -130.667 50 -240.667 140 -330c92 -92 207 -138 345 -138v127c-56 0 -105.333 17 -148 51c-47.333 37.333 -75 87 -83 149h633v741zM820.999 -365.999c-97.333 0 -146 46.333 -146 139c0 94 48.667 141 146 141
c95.333 0 143 -47 143 -141c0 -92.667 -47.667 -139 -143 -139z" />
    <glyph glyph-name="afii57421" unicode="&#x62d;" horiz-adv-x="989" arabic-form="isolated" 
d="M989 0l-0.00195312 741c0 182 -113.333 273 -340 273c-101.333 0 -179.666 -22 -234.999 -66c-49.333 -38.667 -74 -88.334 -74 -149.001c0 -106.667 45.667 -160 137 -160c84.667 0 127 43.667 127 131c0 42.667 -13 73.334 -39 92.001
c-15.333 9.33301 -23 16.333 -23 21c0 20 30.667 30 92 30c67.333 0 101 -34 101 -102v-670h-633c3.33301 -130.667 50 -240.667 140 -330c92 -92 207 -138 345 -138c136 0 234.333 39.667 295 119l-86 67c-37.333 -24.667 -73.666 -41 -108.999 -49
c-26 -6.66699 -59.333 -10 -100 -10c-56 0 -105.333 17 -148 51c-47.333 37.333 -75 87 -83 149h633z" />
    <glyph glyph-name="afii57422" unicode="&#x62e;" horiz-adv-x="989" arabic-form="isolated" 
d="M651 1104c-97.333 0 -146 46.333 -146 139c0 94 48.667 141 146 141c95.333 0 143 -47 143 -141c0 -92.667 -47.667 -139 -143 -139zM989 0l-0.00195312 741c0 182 -113.333 273 -340 273c-101.333 0 -179.666 -22 -234.999 -66
c-49.333 -38.667 -74 -88.334 -74 -149.001c0 -106.667 45.667 -160 137 -160c84.667 0 127 43.667 127 131c0 42.667 -13 73.334 -39 92.001c-15.333 9.33301 -23 16.333 -23 21c0 20 30.667 30 92 30c67.333 0 101 -34 101 -102v-670h-633
c3.33301 -130.667 50 -240.667 140 -330c92 -92 207 -138 345 -138c136 0 234.333 39.667 295 119l-86 67c-37.333 -24.667 -73.666 -41 -108.999 -49c-26 -6.66699 -59.333 -10 -100 -10c-56 0 -105.333 17 -148 51c-47.333 37.333 -75 87 -83 149h633z" />
    <glyph glyph-name="afii57423" unicode="&#x62f;" horiz-adv-x="712" arabic-form="isolated" 
d="M458 141v650c0 68 -27.333 102 -82 102h-170v102h177c219.333 0 329 -91.333 329 -274v-721h-610l20 141h336z" />
    <glyph glyph-name="afii57424" unicode="&#x630;" horiz-adv-x="712" arabic-form="isolated" 
d="M458 141v650c0 68 -27.333 102 -82 102h-170v102h177c219.333 0 329 -91.333 329 -274v-721h-610l20 141h336zM413 1104c-96.667 0 -145 46.333 -145 139c0 94 48.333 141 145 141c96 0 144 -47 144 -141c0 -92.667 -48 -139 -144 -139z" />
    <glyph glyph-name="afii57425" unicode="&#x631;" horiz-adv-x="561" arabic-form="isolated" 
d="M248 -94c0 -77.333 -34.334 -115.999 -103.001 -115.999c-34.667 0 -66 7.33301 -94 22v-94c18.667 -12.667 41.334 -21.667 68.001 -27c22.667 -4.66699 34 -6 34 -4c74.667 0 138 12.333 190 37c43.333 20.667 78.333 49 105 85c20 26.667 34.667 56.667 44 90
c3.33301 11.333 6 22.666 8 33.999l2 20v917c0 14 4 21 12 21h33c9.33301 0 14 5.33301 14 16v76c0 8 -4.66699 12 -14 12h-285c-9.33301 0 -14 -4.66699 -14 -14v-1075z" />
    <glyph glyph-name="afii57426" unicode="&#x632;" horiz-adv-x="561" arabic-form="isolated" 
d="M248 -94c0 -77.333 -34.334 -115.999 -103.001 -115.999c-34.667 0 -66 7.33301 -94 22v-94c18.667 -12.667 41.334 -21.667 68.001 -27c22.667 -4.66699 34 -6 34 -4c74.667 0 138 12.333 190 37c43.333 20.667 78.333 49 105 85c20 26.667 34.667 56.667 44 90
c3.33301 11.333 6 22.666 8 33.999l2 20v917c0 14 4 21 12 21h33c9.33301 0 14 5.33301 14 16v76c0 8 -4.66699 12 -14 12h-285c-9.33301 0 -14 -4.66699 -14 -14v-1075zM359.999 1083c-96.667 0 -145 46.667 -145 140c0 94 48.333 141 145 141c96 0 144 -47 144 -141
c0 -93.333 -48 -140 -144 -140z" />
    <glyph glyph-name="afii57427" unicode="&#x633;" horiz-adv-x="1677" arabic-form="isolated" 
d="M610 -57c0 -56 -14.6689 -97 -44.002 -123c-22 -20 -49.667 -30 -83 -30c-34 0 -62.333 10 -85 30c-29.333 26 -44 67 -44 123v659h-252v-624c0 -90.667 40.333 -163.334 121 -218.001c72.667 -48.667 159.334 -73 260.001 -73s187.334 24.333 260.001 73
c80.667 54.667 121 127.334 121 218.001v81c56 -50 112 -75 168 -75c78 0 138 34.667 180 104l20 -20c60 -54.667 119.667 -82 179 -82c138 0 207 77 207 231v653c0 14 4 21 12 21h33c9.33301 0 14 5.33301 14 16v76c0 8 -4.66699 12 -14 12h-285
c-9.33301 0 -14 -4.66699 -14 -14v-772c0 -54.667 -16 -82 -48 -82c-50 0 -75 27.333 -75 82v661c0 14 4 21 12 21h33c9.33301 0 14 5.33301 14 16v76c0 8 -4.66699 12 -14 12h-285c-9.33301 0 -14 -4.66699 -14 -14v-772c0 -54.667 -15.667 -82 -47 -82
c-50.667 0 -76 27.333 -76 82v661c0 14 4 21 12 21h33c9.33301 0 14 5.33301 14 16v76c0 8 -4.66699 12 -14 12h-285c-9.33301 0 -14 -4.66699 -14 -14v-1038z" />
    <glyph glyph-name="afii57428" unicode="&#x634;" horiz-adv-x="1677" arabic-form="isolated" 
d="M610 -57c0 -56 -14.6689 -97 -44.002 -123c-22 -20 -49.667 -30 -83 -30c-34 0 -62.333 10 -85 30c-29.333 26 -44 67 -44 123v659h-252v-624c0 -90.667 40.333 -163.334 121 -218.001c72.667 -48.667 159.334 -73 260.001 -73s187.334 24.333 260.001 73
c80.667 54.667 121 127.334 121 218.001v81c56 -50 112 -75 168 -75c78 0 138 34.667 180 104l20 -20c60 -54.667 119.667 -82 179 -82c138 0 207 77 207 231v653c0 14 4 21 12 21h33c9.33301 0 14 5.33301 14 16v76c0 8 -4.66699 12 -14 12h-285
c-9.33301 0 -14 -4.66699 -14 -14v-772c0 -54.667 -16 -82 -48 -82c-50 0 -75 27.333 -75 82v661c0 14 4 21 12 21h33c9.33301 0 14 5.33301 14 16v76c0 8 -4.66699 12 -14 12h-285c-9.33301 0 -14 -4.66699 -14 -14v-772c0 -54.667 -15.667 -82 -47 -82
c-50.667 0 -76 27.333 -76 82v661c0 14 4 21 12 21h33c9.33301 0 14 5.33301 14 16v76c0 8 -4.66699 12 -14 12h-285c-9.33301 0 -14 -4.66699 -14 -14v-1038zM945.998 1083c-97.333 0 -146 46.667 -146 140c0 94 48.667 141 146 141c95.333 0 143 -47 143 -141
c0 -93.333 -47.667 -140 -143 -140zM1288 1083c-97.333 0 -146 46.667 -146 140c0 94 48.667 141 146 141c95.333 0 143 -47 143 -141c0 -93.333 -47.667 -140 -143 -140zM1112 1372c-84.667 0 -127 41 -127 123s42.333 123 127 123s127 -41 127 -123
s-42.333 -123 -127 -123z" />
    <glyph glyph-name="afii57429" unicode="&#x635;" horiz-adv-x="1411" arabic-form="isolated" 
d="M608 586c0 -1.33301 0.668945 -2.00195 2.00195 -2.00195v321c0 34 14.333 51 43 51h242c-14 -16.667 -23 -45.667 -27 -87c-2.66699 -26 -4 -74 -4 -144c25.333 116 71 196.333 137 241c26 18 55.667 30.333 89 37c24.667 6 53.667 9 87 9c92.667 0 158 -30.333 196 -91
c14.667 -23.333 25 -50.666 31 -81.999c4.66699 -23.333 7 -49.666 7 -78.999v-760h-547v-22c0 -90.667 -40.333 -163.334 -121 -218.001c-72.667 -48.667 -159.334 -73 -260.001 -73s-187.334 24.333 -260.001 73c-80.667 54.667 -121 127.334 -121 218.001v624h252v-659
c0 -56 14.667 -97 44 -123c22.667 -20 51 -30 85 -30c33.333 0 61 10 83 30c29.333 26 44 67 44 123zM1159 140.998l-0.00195312 613c0 20.667 -0.666992 38 -2 52c-2 18.667 -5.33301 34.667 -10 48c-11.333 31.333 -32.666 47 -63.999 47
c-69.333 0 -124.666 -84.333 -165.999 -253c-35.333 -146 -53 -315 -53 -507h295z" />
    <glyph glyph-name="afii57430" unicode="&#x636;" horiz-adv-x="1411" arabic-form="isolated" 
d="M608 586c0 -1.33301 0.668945 -2.00195 2.00195 -2.00195v321c0 34 14.333 51 43 51h242c-14 -16.667 -23 -45.667 -27 -87c-2.66699 -26 -4 -74 -4 -144c25.333 116 71 196.333 137 241c26 18 55.667 30.333 89 37c24.667 6 53.667 9 87 9c92.667 0 158 -30.333 196 -91
c14.667 -23.333 25 -50.666 31 -81.999c4.66699 -23.333 7 -49.666 7 -78.999v-760h-547v-22c0 -90.667 -40.333 -163.334 -121 -218.001c-72.667 -48.667 -159.334 -73 -260.001 -73s-187.334 24.333 -260.001 73c-80.667 54.667 -121 127.334 -121 218.001v624h252v-659
c0 -56 14.667 -97 44 -123c22.667 -20 51 -30 85 -30c33.333 0 61 10 83 30c29.333 26 44 67 44 123zM1159 140.998l-0.00195312 613c0 20.667 -0.666992 38 -2 52c-2 18.667 -5.33301 34.667 -10 48c-11.333 31.333 -32.666 47 -63.999 47
c-69.333 0 -124.666 -84.333 -165.999 -253c-35.333 -146 -53 -315 -53 -507h295zM1169 1100c-96.667 0 -145 46.333 -145 139c0 94 48.333 141 145 141c95.333 0 143 -47 143 -141c0 -92.667 -47.667 -139 -143 -139z" />
    <glyph glyph-name="afii57431" unicode="&#x637;" horiz-adv-x="983" arabic-form="isolated" 
d="M731 141l-0.00195312 613c0 20.667 -0.666992 38 -2 52c-2 18.667 -5.33301 34.667 -10 48c-11.333 31.333 -32.666 47 -63.999 47c-69.333 0 -124.666 -84.333 -165.999 -253c-35.333 -146 -53 -315 -53 -507h295zM101.998 0
c34.667 23.333 58.001 59.9971 70.001 109.997c4 18.667 7 39.667 9 63c0 8.66699 0.333008 18.334 1 29.001v1148c0 9.33301 4.66699 14 14 14h285c9.33301 0 14 -4 14 -12v-76c0 -10.667 -4.66699 -16 -14 -16h-33c-8 0 -12 -7 -12 -21v-471
c32 100.667 79.333 169.334 142 206.001c25.333 15.333 54 25.666 86 30.999c23.333 4.66699 51.666 7 84.999 7c92.667 0 158 -30.333 196 -91c14.667 -23.333 25 -50.666 31 -81.999c4.66699 -23.333 7 -49.666 7 -78.999v-760h-881z" />
    <glyph glyph-name="afii57432" unicode="&#x638;" horiz-adv-x="983" arabic-form="isolated" 
d="M731 141l-0.00195312 613c0 20.667 -0.666992 38 -2 52c-2 18.667 -5.33301 34.667 -10 48c-11.333 31.333 -32.666 47 -63.999 47c-69.333 0 -124.666 -84.333 -165.999 -253c-35.333 -146 -53 -315 -53 -507h295zM101.998 0
c34.667 23.333 58.001 59.9971 70.001 109.997c4 18.667 7 39.667 9 63c0 8.66699 0.333008 18.334 1 29.001v1148c0 9.33301 4.66699 14 14 14h285c9.33301 0 14 -4 14 -12v-76c0 -10.667 -4.66699 -16 -14 -16h-33c-8 0 -12 -7 -12 -21v-471
c32 100.667 79.333 169.334 142 206.001c25.333 15.333 54 25.666 86 30.999c23.333 4.66699 51.666 7 84.999 7c92.667 0 158 -30.333 196 -91c14.667 -23.333 25 -50.666 31 -81.999c4.66699 -23.333 7 -49.666 7 -78.999v-760h-881zM740.999 1100
c-96.667 0 -145 46.333 -145 139c0 94 48.333 141 145 141c95.333 0 143 -47 143 -141c0 -92.667 -47.667 -139 -143 -139z" />
    <glyph glyph-name="afii57433" unicode="&#x639;" horiz-adv-x="1003" arabic-form="isolated" 
d="M356 0c8 -62 35.6689 -111.667 83.002 -149c42.667 -34 92 -51 148 -51c40.667 0 74 3.33301 100 10c35.333 8 71.666 24.333 108.999 49l86 -67c-60.667 -79.333 -159 -119 -295 -119c-138 0 -253 46 -345 138c-90 89.333 -136.667 199.333 -140 330h354
c-9.33301 16 -17.333 32.333 -24 49c-9.33301 21.333 -17 44.666 -23 69.999c-14.667 61.333 -22 137 -22 227c0 63.333 5.33301 123 16 179c12.667 62.667 31.667 117.334 57 164.001c60.667 111.333 152.334 167 275.001 167c76.667 0 140.667 -25.333 192 -76
c50.667 -51.333 76 -115.333 76 -192c0 -117.333 -47.667 -176 -143 -176c-83.333 0 -125 47 -125 141c0 26.667 5.33301 49.667 16 69c9.33301 15.333 21.666 28 36.999 38c11.333 8 23.666 13.667 36.999 17c10.667 2.66699 16 3 16 1c0 52 -25 78 -75 78
c-42 0 -70.333 -17.667 -85 -53c-14 -36 -22 -109 -24 -219v-246c3.33301 -158.667 39 -238 107 -238c46 0 78.667 15 98 45l100 -36c-35.333 -100 -117.333 -150 -246 -150h-360z" />
    <glyph glyph-name="afii57434" unicode="&#x63a;" horiz-adv-x="1003" arabic-form="isolated" 
d="M737 1100c-97.333 0 -146 46.333 -146 139c0 94 48.667 141 146 141c95.333 0 143 -47 143 -141c0 -92.667 -47.667 -139 -143 -139zM356 0c8 -62 35.6689 -111.667 83.002 -149c42.667 -34 92 -51 148 -51c40.667 0 74 3.33301 100 10
c35.333 8 71.666 24.333 108.999 49l86 -67c-60.667 -79.333 -159 -119 -295 -119c-138 0 -253 46 -345 138c-90 89.333 -136.667 199.333 -140 330h354c-9.33301 16 -17.333 32.333 -24 49c-9.33301 21.333 -17 44.666 -23 69.999c-14.667 61.333 -22 137 -22 227
c0 63.333 5.33301 123 16 179c12.667 62.667 31.667 117.334 57 164.001c60.667 111.333 152.334 167 275.001 167c76.667 0 140.667 -25.333 192 -76c50.667 -51.333 76 -115.333 76 -192c0 -117.333 -47.667 -176 -143 -176c-83.333 0 -125 47 -125 141
c0 26.667 5.33301 49.667 16 69c9.33301 15.333 21.666 28 36.999 38c11.333 8 23.666 13.667 36.999 17c10.667 2.66699 16 3 16 1c0 52 -25 78 -75 78c-42 0 -70.333 -17.667 -85 -53c-14 -36 -22 -109 -24 -219v-246c3.33301 -158.667 39 -238 107 -238
c46 0 78.667 15 98 45l100 -36c-35.333 -100 -117.333 -150 -246 -150h-360z" />
    <glyph glyph-name="afii57441" unicode="&#x641;" horiz-adv-x="1396" arabic-form="isolated" 
d="M1168 780c0 70 -21 105 -63 105c-22 0 -39.333 -22.333 -52 -67c-12 -39.333 -18 -88 -18 -146c0 -139.333 28.667 -209 86 -209l47 4v313zM1113 1100c-96.667 0 -145 46.333 -145 139c0 94 48.333 141 145 141c96 0 144 -47 144 -141c0 -92.667 -48 -139 -144 -139z
M1168 330c0 22.667 -4 34.666 -12 35.999l-53 -4c-102.667 0 -183 32.333 -241 97c-54 59.333 -81 135 -81 227c0 94.667 23.667 171.334 71 230.001c56 69.333 139 104 249 104l43 -1c17.333 -0.666992 34 -2.33398 50 -5.00098
c40.667 -5.33301 75.667 -15.666 105 -30.999c80.667 -40 121 -113 121 -219v-537c0 -151.333 -68 -227 -204 -227h-883c-59.333 0 -108.333 23.667 -147 71s-58 107 -58 179c-17.333 293.333 97.334 455 344.001 485l4 -86c-42 -13.333 -68.333 -40.666 -79 -81.999
c-4.66699 -20 -8 -47.667 -10 -83c-0.666992 -14.667 -1.33398 -33.334 -2.00098 -56.001l-3 -201c0 -57.333 24 -86 72 -86h665c31.333 0 47 28.667 47 86z" />
    <glyph glyph-name="afii57442" unicode="&#x642;" horiz-adv-x="1159" arabic-form="isolated" 
d="M983 1100c-97.333 0 -146 46.333 -146 139c0 94 48.667 141 146 141c95.333 0 143 -47 143 -141c0 -92.667 -47.667 -139 -143 -139zM641 1100c-97.333 0 -146 46.333 -146 139c0 94 48.667 141 146 141c95.333 0 143 -47 143 -141c0 -92.667 -47.667 -139 -143 -139z
M1099 870c0 14 4.33203 21 12.999 21h32c10 0 15 5.33301 15 16v76c0 8 -5 12 -15 12h-397c-112 0 -191.333 -51.333 -238 -154c-20 -44 -34.333 -98.333 -43 -163c-8 -55.333 -12 -120.333 -12 -195c0 -322 87.333 -483 262 -483c48.667 0 91.667 15.667 129 47
c0 -171.333 -80.333 -257 -241 -257c-72 0 -132 23 -180 69c-46.667 45.333 -70 100 -70 164v393h-252v-359c0 -98.667 46.667 -184.334 140 -257.001c96.667 -75.333 217.334 -113 362.001 -113c151.333 0 273.333 37.667 366 113c86 70.667 129 156.334 129 257.001v813z
M703.999 688c2 128.667 28 193 78 193c43.333 0 65 -40.333 65 -121v-522c0 -80.667 -21.667 -121 -65 -121c-50 0 -76 63.333 -78 190v381z" />
    <glyph glyph-name="afii57443" unicode="&#x643;" horiz-adv-x="1484" arabic-form="isolated" 
d="M333 0c-59.333 0 -108.333 23.6689 -147 71.002s-58 107 -58 179c-17.333 293.333 97.334 455 344.001 485l4 -86c-42 -13.333 -68.333 -40.666 -79 -81.999c-4.66699 -20 -8 -47.667 -10 -83c-0.666992 -14.667 -1.33398 -33.334 -2.00098 -56.001l-3 -201
c0 -57.333 24 -86 72 -86h633c70.667 0 107 63.667 109 191v331c0 102 -25.667 170.667 -77 206c-39.333 28 -108.666 42 -207.999 42l287 453h170l-100 -132l-89 -121l-82 -116h33c7.33301 -0.666992 14.666 -1.66699 21.999 -3c44 -6.66699 84 -22.334 120 -47.001
c51.333 -34.667 91.333 -84.667 120 -150c36 -82 54 -186 54 -312c0 -274.667 -68 -432.334 -204 -473.001l2 -10h-911z" />
    <glyph glyph-name="afii57444" unicode="&#x644;" horiz-adv-x="923" arabic-form="isolated" 
d="M610 1350c0 9.33301 4.66895 14 14.002 14h285c9.33301 0 14 -4 14 -12v-76c0 -10.667 -4.66699 -16 -14 -16h-33c-8 0 -12 -7 -12 -21v-1261c0 -90.667 -40.333 -163.334 -121 -218.001c-72.667 -48.667 -159.334 -73 -260.001 -73s-187.334 24.333 -260.001 73
c-80.667 54.667 -121 127.334 -121 218.001v452h252v-487c0 -56 14.667 -97 44 -123c22.667 -20 51 -30 85 -30c33.333 0 61 10 83 30c29.333 26 44 67 44 123v1407z" />
    <glyph glyph-name="afii57445" unicode="&#x645;" horiz-adv-x="1189" arabic-form="isolated" 
d="M919 174c0 -76.667 -23 -115 -69 -115c-45.333 0 -68 38.333 -68 115v627c0 76 22.667 114 68 114c46 0 69 -38 69 -114v-627zM510 422c-44.667 28.667 -93.3311 42.9971 -145.998 42.9971c-26 0 -50.667 -3.66699 -74 -11
c-32.667 -9.33301 -61.334 -24.666 -86.001 -45.999c-30.667 -27.333 -54.334 -63 -71.001 -107c-20 -52 -30.333 -115.333 -31 -190v-424h244v469c0 126 26.667 190 80 192c40.667 2 81.334 -56 122.001 -174c55.333 -142.667 156 -214 302 -214c226 0 339 171.667 339 515
c0 346.667 -113 520 -339 520c-132 0 -222.667 -48.667 -272 -146c-22.667 -45.333 -39.334 -104.666 -50.001 -177.999c-9.33301 -61.333 -15.333 -141.666 -18 -240.999v-8z" />
    <glyph glyph-name="afii57446" unicode="&#x646;" horiz-adv-x="923" arabic-form="isolated" 
d="M610 981c0 9.33301 4.66895 14 14.002 14h285c9.33301 0 14 -4 14 -12v-76c0 -10.667 -4.66699 -16 -14 -16h-33c-8 0 -12 -7 -12 -21v-892c0 -90.667 -40.333 -163.334 -121 -218.001c-72.667 -48.667 -159.334 -73 -260.001 -73s-187.334 24.333 -260.001 73
c-80.667 54.667 -121 127.334 -121 218.001v624h252v-659c0 -56 14.667 -97 44 -123c22.667 -20 51 -30 85 -30c33.333 0 61 10 83 30c29.333 26 44 67 44 123v1038zM477.002 1083c-97.333 0 -146 46.667 -146 140c0 94 48.667 141 146 141c95.333 0 143 -47 143 -141
c0 -93.333 -47.667 -140 -143 -140z" />
    <glyph glyph-name="afii57470" unicode="&#x647;" horiz-adv-x="843" arabic-form="isolated" 
d="M442 918c-45.333 0 -68 -38.333 -68 -115v-608c0 -76.667 22.667 -115 68 -115c46.667 0 70 38.333 70 115v723h-70zM829 995c9.33301 0 14 -4.00098 14 -12.001v-76c0 -10.667 -4.66699 -16 -14 -16h-33c-8 0 -12 -7 -12 -21v-374c0 -344 -114 -516 -342 -516
c-226.667 0 -340 157 -340 471c0 150.667 14 264.334 42 341.001c26.667 74.667 72.667 130 138 166c50 26 103.333 39 160 39z" />
    <glyph glyph-name="afii57448" unicode="&#x648;" horiz-adv-x="806" arabic-form="isolated" 
d="M747 870c0 14 3.99902 21.001 11.999 21.001h33c10 0 15 5.33301 15 16v76c0 8 -5 12 -15 12h-397c-112 0 -191.333 -51.333 -238 -154c-20 -44 -34.667 -98.333 -44 -163c-7.33301 -55.333 -11 -120.333 -11 -195c0 -322 87.333 -483 262 -483
c48.667 0 92.334 16.333 131.001 49v-143c0 -77.333 -34 -116 -102 -116c-34.667 0 -66 7.33301 -94 22v-94c18.667 -12.667 41.334 -21.667 68.001 -27c22.667 -4.66699 34 -6 34 -4c74 0 137.333 12.333 190 37c42.667 20.667 77.334 49 104.001 85
c19.333 26.667 33.666 56.667 42.999 90c3.33301 11.333 5.66602 22.666 6.99902 33.999l2 20v917zM351.999 688.001c2 128.667 28 193 78 193c43.333 0 65 -40.333 65 -121v-522c0 -80.667 -21.667 -121 -65 -121c-50 0 -76 63.333 -78 190v381z" />
    <glyph glyph-name="afii57449" unicode="&#x649;" horiz-adv-x="864" arabic-form="isolated" 
d="M610 175c-0.666992 10 -1.33105 19.334 -1.99805 28.001c-2 22.667 -6.33301 44 -13 64c-17.333 52.667 -52 99.667 -104 141c-128 101.333 -192 207.666 -192 318.999c0 80 24.333 148 73 204c49.333 56.667 109 85 179 85c158.667 0 246 -91 262 -273h-117
c-15.333 0 -23 6.33301 -23 19c0 100.667 -32.667 151 -98 151c-54.667 0 -82 -29.333 -82 -88c0 -55.333 60 -133 180 -233c126 -105.333 189 -223.333 189 -354l2 -278c0 -90.667 -40.333 -163.334 -121 -218.001c-72.667 -48.667 -159.334 -73 -260.001 -73
s-187.334 24.333 -260.001 73c-80.667 54.667 -121 127.334 -121 218.001v357h252v-392c0 -56 14.667 -97.333 44 -124c22.667 -20 51 -30 85 -30c33.333 0 61 10 83 30c29.333 26.667 44 68 44 124v250z" />
    <glyph glyph-name="afii57450" unicode="&#x64a;" horiz-adv-x="864" arabic-form="isolated" 
d="M610 175c-0.666992 10 -1.33105 19.334 -1.99805 28.001c-2 22.667 -6.33301 44 -13 64c-17.333 52.667 -52 99.667 -104 141c-128 101.333 -192 207.666 -192 318.999c0 80 24.333 148 73 204c49.333 56.667 109 85 179 85c158.667 0 246 -91 262 -273h-117
c-15.333 0 -23 6.33301 -23 19c0 100.667 -32.667 151 -98 151c-54.667 0 -82 -29.333 -82 -88c0 -55.333 60 -133 180 -233c126 -105.333 189 -223.333 189 -354l2 -278c0 -90.667 -40.333 -163.334 -121 -218.001c-72.667 -48.667 -159.334 -73 -260.001 -73
s-187.334 24.333 -260.001 73c-80.667 54.667 -121 127.334 -121 218.001v357h252v-392c0 -56 14.667 -97.333 44 -124c22.667 -20 51 -30 85 -30c33.333 0 61 10 83 30c29.333 26.667 44 68 44 124v250z" />
    <glyph glyph-name="afii57506" unicode="&#x67e;" horiz-adv-x="1484" arabic-form="isolated" 
d="M476 649c-42 -13.333 -68.333 -40.666 -79 -81.999c-4.66699 -20 -8 -47.667 -10 -83c-0.666992 -14.667 -1.33398 -33.334 -2.00098 -56.001l-3 -201c0 -57.333 24 -86 72 -86h694c31.333 0 47 28.667 47 86v754c0 9.33301 4.66699 14 14 14h285c9.33301 0 14 -4 14 -12
v-76c0 -10.667 -4.66699 -16 -14 -16h-33c-8 0 -12 -7 -12 -21v-643c0 -151.333 -68.333 -227 -205 -227h-911c-59.333 0 -108.333 23.667 -147 71s-58 107 -58 179c-17.333 293.333 97.334 455 344.001 485zM837 -374c-84.667 0 -127 -41 -127 -123s42.333 -123 127 -123
s127 41 127 123s-42.333 123 -127 123zM1013 -86c-97.333 0 -146 -46.333 -146 -139c0 -94 48.667 -141 146 -141c95.333 0 143 47 143 141c0 92.667 -47.667 139 -143 139zM671 -86c-97.333 0 -146 -46.333 -146 -139c0 -94 48.667 -141 146 -141c95.333 0 143 47 143 141
c0 92.667 -47.667 139 -143 139z" />
    <glyph glyph-name="afii57507" unicode="&#x686;" horiz-adv-x="989" arabic-form="isolated" 
d="M989 741c0 182 -113.334 273.001 -340.001 273.001c-101.333 0 -179.666 -22 -234.999 -66c-49.333 -38.667 -74 -88.334 -74 -149.001c0 -106.667 45.667 -160 137 -160c84.667 0 127 43.667 127 131c0 28.667 -10.333 55.667 -31 81l-31 32c0 20 30.667 30 92 30
c67.333 0 101 -34 101 -102v-670h-633c3.33301 -130.667 50 -240.667 140 -330c92 -92 207 -138 345 -138v127c-56 0 -105.333 17 -148 51c-47.333 37.333 -75 87 -83 149h633v741zM838.999 -267.999c-54.667 0 -82 -26 -82 -78c0 -52.667 27.333 -79 82 -79
s82 26.333 82 79c0 52 -27.333 78 -82 78zM953.999 -80.999c-62.667 0 -94 -30.333 -94 -91c0 -60 31.333 -90 94 -90c61.333 0 92 30 92 90c0 60.667 -30.667 91 -92 91zM732.999 -80.999c-62.667 0 -94 -30.333 -94 -91c0 -60 31.333 -90 94 -90c61.333 0 92 30 92 90
c0 60.667 -30.667 91 -92 91z" />
    <glyph glyph-name="afii57508" unicode="&#x698;" horiz-adv-x="561" arabic-form="isolated" 
d="M249 -94c0 -77.333 -34.3359 -115.999 -103.003 -115.999c-34.667 0 -66 7.33301 -94 22v-94c18.667 -12.667 41.334 -21.667 68.001 -27c22.667 -4.66699 34 -6 34 -4c74.667 0 138.334 12.333 191.001 37c42.667 20.667 77.334 49 104.001 85
c20 26.667 34.667 56.667 44 90c3.33301 11.333 6 22.666 8 33.999l2 20v917c0 14 4 21 12 21h33c9.33301 0 14 5.33301 14 16v76c0 8 -4.66699 12 -14 12h-285c-9.33301 0 -14 -4.66699 -14 -14v-1075zM331.997 1329c-72 0 -108 34.667 -108 104c0 70 36 105 108 105
s108 -35 108 -105c0 -69.333 -36 -104 -108 -104zM481.997 1083c-82 0 -123 39.667 -123 119c0 80 41 120 123 120c81.333 0 122 -40 122 -120c0 -79.333 -40.667 -119 -122 -119zM190.997 1083c-82 0 -123 39.667 -123 119c0 80 41 120 123 120s123 -40 123 -120
c0 -79.333 -41 -119 -123 -119z" />
    <glyph glyph-name="afii57509" unicode="&#x6af;" horiz-adv-x="1484" arabic-form="isolated" 
d="M333 0c-59.333 0 -108.333 23.6689 -147 71.002s-58 107 -58 179c-17.333 293.333 97.334 455 344.001 485l4 -86c-42 -13.333 -68.333 -40.666 -79 -81.999c-4.66699 -20 -8 -47.667 -10 -83c-0.666992 -14.667 -1.33398 -33.334 -2.00098 -56.001l-3 -201
c0 -57.333 24 -86 72 -86h633c70.667 0 107 63.667 109 191v331c0 102 -25.667 170.667 -77 206c-39.333 28 -108.666 42 -207.999 42l287 453h170l-100 -132l-89 -121l-82 -116h33c7.33301 -0.666992 14.666 -1.66699 21.999 -3c44 -6.66699 84 -22.334 120 -47.001
c51.333 -34.667 91.333 -84.667 120 -150c36 -82 54 -186 54 -312c0 -274.667 -68 -432.334 -204 -473.001l2 -10h-911zM1022 1364h102l-266 -407l-63 55z" />
    <glyph glyph-name="uniFB57" unicode="&#x67e;" horiz-adv-x="1576" arabic-form="final" 
d="M476 649c-42 -13.333 -68.333 -40.666 -79 -81.999c-4.66699 -20 -8 -47.667 -10 -83c-0.666992 -14.667 -1.33398 -33.334 -2.00098 -56.001l-3 -201c0 -57.333 24 -86 72 -86h741v840c0 9.33301 4.66699 14 14 14h285c9.33301 0 14 -4 14 -12v-76
c0 -10.667 -4.66699 -16 -14 -16h-33c-8 0 -12 -7 -12 -21v-729h162v-141h-1278c-59.333 0 -108.333 23.667 -147 71s-58 107 -58 179c-17.333 293.333 97.334 455 344.001 485zM837 -374c-84.667 0 -127 -41 -127 -123s42.333 -123 127 -123s127 41 127 123
s-42.333 123 -127 123zM1013 -86c-97.333 0 -146 -46.333 -146 -139c0 -94 48.667 -141 146 -141c95.333 0 143 47 143 141c0 92.667 -47.667 139 -143 139zM671 -86c-97.333 0 -146 -46.333 -146 -139c0 -94 48.667 -141 146 -141c95.333 0 143 47 143 141
c0 92.667 -47.667 139 -143 139z" />
    <glyph glyph-name="uniFB58" unicode="&#x67e;" horiz-adv-x="679" arabic-form="initial" 
d="M-8 141h328c31.333 0 47 28.667 47 86v754c0 9.33301 4.66699 14 14 14h285c9.33301 0 14 -4 14 -12v-76c0 -10.667 -4.66699 -16 -14 -16h-33c-8 0 -12 -7 -12 -21v-643c0 -151.333 -68.333 -227 -205 -227h-424v141zM359 -374c-84.667 0 -127 -41 -127 -123
s42.333 -123 127 -123s127 41 127 123s-42.333 123 -127 123zM535 -86c-97.333 0 -146 -46.333 -146 -139c0 -94 48.667 -141 146 -141c95.333 0 143 47 143 141c0 92.667 -47.667 139 -143 139zM193 -86c-97.333 0 -146 -46.333 -146 -139c0 -94 48.667 -141 146 -141
c95.333 0 143 47 143 141c0 92.667 -47.667 139 -143 139z" />
    <glyph glyph-name="uniFB59" unicode="&#x67e;" horiz-adv-x="796" arabic-form="medial" 
d="M599 219c0 -52 26.667 -78 80 -78h129v-141h-37c-74 0 -131.333 30.667 -172 92l-17 -92h-591v141h356l-2 840c0 9.33301 4.66699 14 14 14h285c9.33301 0 14 -4 14 -12v-76c0 -10.667 -4.66699 -16 -14 -16h-33c-8 0 -12 -7 -12 -21v-651zM369 -374
c-84.667 0 -127 -41 -127 -123s42.333 -123 127 -123s127 41 127 123s-42.333 123 -127 123zM545 -86c-96.667 0 -145 -46.333 -145 -139c0 -94 48.333 -141 145 -141c96 0 144 47 144 141c0 92.667 -48 139 -144 139zM203 -86c-96.667 0 -145 -46.333 -145 -139
c0 -94 48.333 -141 145 -141c96 0 144 47 144 141c0 92.667 -48 139 -144 139z" />
    <glyph glyph-name="uniFB7B" unicode="&#x686;" horiz-adv-x="1187" arabic-form="final" 
d="M587 -327c-138 0 -252.999 46 -344.999 138c-90 89.333 -136.667 199.333 -140 330h633v670c0 68 -33.667 102 -101 102c-61.333 0 -92 -10 -92 -30c0 -4.66699 7.66699 -11.667 23 -21c26 -18.667 39 -49.334 39 -92.001c0 -87.333 -42.333 -131 -127 -131
c-91.333 0 -137 53.333 -137 160c0 60.667 24.667 110.334 74 149.001c55.333 44 133.666 66 234.999 66c226.667 0 340 -91 340 -273v-600h209v-141h-842c8 -62 35.667 -111.667 83 -149c42.667 -34 92 -51 148 -51v-127zM839.001 -268c-54.667 0 -82 -26 -82 -78
c0 -52.667 27.333 -79 82 -79s82 26.333 82 79c0 52 -27.333 78 -82 78zM954.001 -81c-62.667 0 -94 -30.333 -94 -91c0 -60 31.333 -90 94 -90c61.333 0 92 30 92 90c0 60.667 -30.667 91 -92 91zM733.001 -81c-62.667 0 -94 -30.333 -94 -91c0 -60 31.333 -90 94 -90
c61.333 0 92 30 92 90c0 60.667 -30.667 91 -92 91z" />
    <glyph glyph-name="uniFB7C" unicode="&#x686;" horiz-adv-x="798" arabic-form="initial" 
d="M545 141l0.000976562 670c0 68 -33.333 102 -100 102c-62 0 -93 -10 -93 -30c0 -4.66699 7.66699 -11.667 23 -21c26 -18.667 39 -49.334 39 -92.001c0 -87.333 -42.333 -131 -127 -131c-91.333 0 -137 53.333 -137 160c0 60.667 24.667 110.334 74 149.001
c55.333 44 133.666 66 234.999 66c226.667 0 340 -91 340 -273v-741h-809v141h555zM434.001 -374c-84.667 0 -127 -41 -127 -123s42.333 -123 127 -123s127 41 127 123s-42.333 123 -127 123zM611.001 -86c-97.333 0 -146 -46.333 -146 -139c0 -94 48.667 -141 146 -141
c95.333 0 143 47 143 141c0 92.667 -47.667 139 -143 139zM269.001 -86c-97.333 0 -146 -46.333 -146 -139c0 -94 48.667 -141 146 -141c95.333 0 143 47 143 141c0 92.667 -47.667 139 -143 139z" />
    <glyph glyph-name="uniFB7D" unicode="&#x686;" horiz-adv-x="997" arabic-form="medial" 
d="M545 141l0.000976562 670c0 68 -33.333 102 -100 102c-62 0 -93 -10 -93 -30c0 -4.66699 7.66699 -11.667 23 -21c26 -18.667 39 -49.334 39 -92.001c0 -87.333 -42.333 -131 -127 -131c-91.333 0 -137 53.333 -137 160c0 60.667 24.667 110.334 74 149.001
c55.333 44 133.666 66 234.999 66c226.667 0 340 -91 340 -273v-522c0 -52 26.667 -78 80 -78h129v-141h-37c-74 0 -131.333 30.667 -172 92v-92h-809v141h555zM475.001 -374c-84.667 0 -127 -41 -127 -123s42.333 -123 127 -123s127 41 127 123s-42.333 123 -127 123z
M652.001 -86c-97.333 0 -146 -46.333 -146 -139c0 -94 48.667 -141 146 -141c95.333 0 143 47 143 141c0 92.667 -47.667 139 -143 139zM309.001 -86c-96.667 0 -145 -46.333 -145 -139c0 -94 48.333 -141 145 -141c96 0 144 47 144 141c0 92.667 -48 139 -144 139z" />
    <glyph glyph-name="uniFB8B" unicode="&#x698;" horiz-adv-x="700" arabic-form="final" 
d="M249 981c0 9.33301 4.66992 13.999 14.0029 13.999h285c9.33301 0 14 -4 14 -12v-76c0 -10.667 -4.66699 -16 -14 -16h-33c-8 0 -12 -7 -12 -21v-729h209v-141h-209l-2 -67c-2 -11.333 -4.66699 -22.666 -8 -33.999c-9.33301 -33.333 -24 -63.333 -44 -90
c-26.667 -36 -61.334 -64.333 -104.001 -85c-52.667 -24.667 -116.334 -37 -191.001 -37c0 -2 -11.333 -0.666992 -34 4c-26.667 5.33301 -49.334 14.333 -68.001 27v94c28 -14.667 59.333 -22 94 -22c68.667 0 103 38.667 103 116v1075zM352.003 1329
c-72 0 -108 34.667 -108 104c0 70 36 105 108 105s108 -35 108 -105c0 -69.333 -36 -104 -108 -104zM502.003 1083c-82 0 -123 39.667 -123 119c0 80 41 120 123 120c81.333 0 122 -40 122 -120c0 -79.333 -40.667 -119 -122 -119zM211.003 1083c-82 0 -123 39.667 -123 119
c0 80 41 120 123 120s123 -40 123 -120c0 -79.333 -41 -119 -123 -119z" />
    <glyph glyph-name="uniFB8F" unicode="&#x6a9;" horiz-adv-x="1576" arabic-form="final" 
d="M1198 1364l170 0.000976562l-100 -132l-89 -121l-82 -116h33c7.33301 -0.666992 14.666 -1.66699 21.999 -3c44 -6.66699 84 -22.334 120 -47.001c51.333 -34.667 91.333 -84.667 120 -150c36 -82 54 -186 54 -312c0 -148 -19.667 -262 -59 -342h224v-141h-1278
c-59.333 0 -108.333 23.667 -147 71s-58 107 -58 179c-17.333 293.333 97.334 455 344.001 485l4 -86c-42 -13.333 -68.333 -40.666 -79 -81.999c-4.66699 -20 -8 -47.667 -10 -83c-0.666992 -14.667 -1.33398 -33.334 -2.00098 -56.001l-3 -201c0 -57.333 24 -86 72 -86
h633c70.667 0 107 63.667 109 191v331c0 102 -25.667 170.667 -77 206c-39.333 28 -108.666 42 -207.999 42z" />
    <glyph glyph-name="uniFB90" unicode="&#x6a9;" horiz-adv-x="698" arabic-form="initial" 
d="M348 995h32.999l22 -2c44 -7.33301 84 -23.333 120 -48c51.333 -34.667 91.333 -84.667 120 -150c36 -82 54 -186 54 -312c0 -322 -93.667 -483 -281 -483h-426v141h348c70.667 0 107 63.667 109 191v332c0 101.333 -25.667 170 -77 206
c-39.333 27.333 -108.666 41 -207.999 41l287 453h170l-100 -132l-89 -120z" />
    <glyph glyph-name="uniFB91" unicode="&#x6a9;" horiz-adv-x="862" arabic-form="medial" 
d="M633 141c-49.333 -94 -121.668 -141 -217.001 -141h-426v141h348c70.667 0 107 63.667 109 191v332c0 101.333 -25.667 170 -77 206c-39.333 27.333 -108.666 41 -207.999 41l287 453h170l-100 -132l-89 -120l-82 -117l55 -2c44 -7.33301 84 -23.333 120 -48
c51.333 -34.667 91.333 -84.667 120 -150c36 -82 54 -186 54 -312c0 -101.333 -11 -189.333 -33 -264c0 -52 26.667 -78 80 -78h129v-141h-37c-72 0 -129.333 30.667 -172 92z" />
    <glyph glyph-name="uniFB93" unicode="&#x6af;" horiz-adv-x="1576" arabic-form="final" 
d="M1198 1364l170 0.000976562l-100 -132l-89 -121l-82 -116h33c7.33301 -0.666992 14.666 -1.66699 21.999 -3c44 -6.66699 84 -22.334 120 -47.001c51.333 -34.667 91.333 -84.667 120 -150c36 -82 54 -186 54 -312c0 -148 -19.667 -262 -59 -342h224v-141h-1278
c-59.333 0 -108.333 23.667 -147 71s-58 107 -58 179c-17.333 293.333 97.334 455 344.001 485l4 -86c-42 -13.333 -68.333 -40.666 -79 -81.999c-4.66699 -20 -8 -47.667 -10 -83c-0.666992 -14.667 -1.33398 -33.334 -2.00098 -56.001l-3 -201c0 -57.333 24 -86 72 -86
h633c70.667 0 107 63.667 109 191v331c0 102 -25.667 170.667 -77 206c-39.333 28 -108.666 42 -207.999 42zM1022 1364h102l-266 -407l-63 55z" />
    <glyph glyph-name="uniFB94" unicode="&#x6af;" horiz-adv-x="698" arabic-form="initial" 
d="M348 995h32.999l22 -2c44 -7.33301 84 -23.333 120 -48c51.333 -34.667 91.333 -84.667 120 -150c36 -82 54 -186 54 -312c0 -322 -93.667 -483 -281 -483h-426v141h348c70.667 0 107 63.667 109 191v332c0 101.333 -25.667 170 -77 206
c-39.333 27.333 -108.666 41 -207.999 41l287 453h170l-100 -132l-89 -120zM281.999 1364h102l-266 -407l-63 55z" />
    <glyph glyph-name="uniFB95" unicode="&#x6af;" horiz-adv-x="862" arabic-form="medial" 
d="M633 141c-49.333 -94 -121.668 -141 -217.001 -141h-426v141h348c70.667 0 107 63.667 109 191v332c0 101.333 -25.667 170 -77 206c-39.333 27.333 -108.666 41 -207.999 41l287 453h170l-100 -132l-89 -120l-82 -117l55 -2c44 -7.33301 84 -23.333 120 -48
c51.333 -34.667 91.333 -84.667 120 -150c36 -82 54 -186 54 -312c0 -101.333 -11 -189.333 -33 -264c0 -52 26.667 -78 80 -78h129v-141h-37c-72 0 -129.333 30.667 -172 92zM281.998 1364h102l-266 -407l-63 55z" />
    <glyph glyph-name="uniFBA5" unicode="&#x6c0;" horiz-adv-x="962" arabic-form="final" 
d="M442 0c-226.667 0 -340 150.332 -340 450.999c0 150.667 14 264.334 42 341.001c26.667 74.667 72.667 130 138 166c50 26 103.333 39 160 39l387 -2c9.33301 0 14 -4 14 -12v-76c0 -10.667 -4.66699 -16 -14 -16h-33c-8 0 -12 -7 -12 -21v-729h188v-141h-530z
M512 140.999v777h-70c-45.333 0 -68 -38.333 -68 -115v-547c0 -76.667 22.667 -115 68 -115h70zM131 1166l18.001 48.999h86l-7 14c-2 5.33301 -3.66699 11 -5 17c-1.33301 8 -2 16.333 -2 25v63c0 102.667 37.333 154 112 154c72.667 0 109 -31.667 109 -95
c-2.66699 -54 -27.334 -81 -74.001 -81c-47.333 0 -71 23 -71 69c0 16 4.66699 31.667 14 47c-23.333 -9.33301 -35 -31.666 -35 -66.999c0 -97.333 45 -146 135 -146h41v-49h-321z" />
    <glyph glyph-name="uniFBFD" unicode="&#x6cc;" horiz-adv-x="1386" arabic-form="final" 
d="M1396 141l0.000976562 -141.002h-424v791c0 68 -27.333 102 -82 102h-253c-54.667 0 -82 -28.667 -82 -86s60 -129 180 -215c56 -41.333 93 -95.666 111 -162.999c7.33301 -26.667 12 -58 14 -94c0.666992 -14 1.33398 -30 2.00098 -48l2 -327
c0 -90.667 -40.333 -163.334 -121 -218.001c-72.667 -48.667 -159.334 -73 -260.001 -73s-187.334 24.333 -260.001 73c-80.667 54.667 -121 127.334 -121 218.001v357h252v-392c0 -56 14.667 -97.333 44 -124c22.667 -20 51 -30 85 -30c33.333 0 61 10 83 30
c29.333 26.667 44 68 44 124v225c0 66 -4.66699 119.333 -14 160c-11.333 49.333 -31.333 89.333 -60 120l-67 74c-23.333 26.667 -42 50 -56 70c-35.333 50.667 -53 99.667 -53 147c0 78.667 24.667 144.334 74 197.001c48 51.333 107.333 77 178 77h285
c219.333 0 329 -91.333 329 -274v-580h170z" />
    <glyph glyph-name="uniFBFE" unicode="&#x6cc;" horiz-adv-x="679" arabic-form="initial" 
d="M-8 141h328c31.333 0 47 28.667 47 86v754c0 9.33301 4.66699 14 14 14h285c9.33301 0 14 -4 14 -12v-76c0 -10.667 -4.66699 -16 -14 -16h-33c-8 0 -12 -7 -12 -21v-643c0 -151.333 -68.333 -227 -205 -227h-424v141zM537 -366c-97.333 0 -146 46.333 -146 139
c0 94 48.667 141 146 141c95.333 0 143 -47 143 -141c0 -92.667 -47.667 -139 -143 -139zM195 -366c-97.333 0 -146 46.333 -146 139c0 94 48.667 141 146 141c95.333 0 143 -47 143 -141c0 -92.667 -47.667 -139 -143 -139z" />
    <glyph glyph-name="uniFBFF" unicode="&#x6cc;" horiz-adv-x="796" arabic-form="medial" 
d="M599 219c0 -52 26.667 -78 80 -78h129v-141h-37c-74 0 -131.333 30.667 -172 92l-17 -92h-591v141h356l-2 840c0 9.33301 4.66699 14 14 14h285c9.33301 0 14 -4 14 -12v-76c0 -10.667 -4.66699 -16 -14 -16h-33c-8 0 -12 -7 -12 -21v-651zM455 -366
c-96.667 0 -145 46.333 -145 139c0 94 48.333 141 145 141c96 0 144 -47 144 -141c0 -92.667 -48 -139 -144 -139zM113 -366c-96.667 0 -145 46.333 -145 139c0 94 48.333 141 145 141c96 0 144 -47 144 -141c0 -92.667 -48 -139 -144 -139z" />
    <glyph glyph-name="uniFE82" unicode="&#x622;" horiz-adv-x="595" arabic-form="final" 
d="M606 0h-422v1350c0 9.33301 4.66699 14 14 14h285c9.33301 0 14 -4 14 -12v-76c0 -10.667 -4.66699 -16 -14 -16h-33c-8 0 -12 -7 -12 -21v-1098h168v-141zM252 1555l115.001 -30c19.333 -4 33.333 -6 42 -6l24 -1c11.333 0 21.333 0.666992 30 2
c27.333 5.33301 49.666 19.333 66.999 42l27 -33l-32 -39c-12.667 -14 -25 -26 -37 -36c-28.667 -25.333 -55 -38 -79 -38c-10.667 0 -25.667 2.33301 -45 7l-114 29c-19.333 4.66699 -34 7 -44 7l-23 1c-11.333 0 -21.666 -0.666992 -30.999 -2
c-26.667 -5.33301 -48.667 -19.333 -66 -42l-27 33l68 75c29.333 25.333 55.666 38 78.999 38c10.667 0 26 -2.33301 46 -7z" />
    <glyph glyph-name="uniFE84" unicode="&#x623;" horiz-adv-x="595" arabic-form="final" 
d="M606 0h-422v1320c0 9.33301 5 14 15 14h284c10 0 15 -4 15 -12v-76c0 -10.667 -5 -16 -15 -16h-32c-8.66699 0 -13 -7 -13 -21v-1068h168v-141zM172 1406l18.001 48.999h86l-7 14c-2 5.33301 -3.66699 11 -5 17c-1.33301 8 -2 16.333 -2 25v63
c0 102.667 37.333 154 112 154c72.667 0 109 -31.667 109 -95c-2.66699 -54 -27.334 -81 -74.001 -81c-47.333 0 -71 23 -71 69c0 16 4.66699 31.667 14 47c-23.333 -9.33301 -35 -31.666 -35 -66.999c0 -97.333 45 -146 135 -146h41v-49h-321z" />
    <glyph glyph-name="uniFE86" unicode="&#x624;" horiz-adv-x="905" arabic-form="final" 
d="M495 141v619c0 80.667 -21.667 121 -65 121c-50 0 -76 -64.333 -78 -193v-356c2 -127.333 29.333 -191 82 -191h61zM747 -47c0 -5.33301 -0.666992 -12.001 -2 -20.001c-1.33301 -11.333 -3.66602 -22.666 -6.99902 -33.999
c-9.33301 -33.333 -23.666 -63.333 -42.999 -90c-26.667 -36 -61.334 -64.333 -104.001 -85c-52.667 -24.667 -116 -37 -190 -37c0 -2 -11.333 -0.666992 -34 4c-26.667 5.33301 -49.334 14.333 -68.001 27v94c28 -14.667 59.333 -22 94 -22c68 0 102 38.667 102 116v94
h-106c-191.333 0 -287 161 -287 483c0 74.667 3.66699 139.667 11 195c9.33301 64.667 24 119 44 163c46.667 102.667 126 154 238 154h397c10 0 15 -4 15 -12v-76c0 -10.667 -5 -16 -15 -16h-33c-8 0 -12 -7 -12 -21v-729h168v-141h-168v-47zM202 1085l31.001 81.999h139
l-3 6c-2.66699 5.33301 -5.33398 11 -8.00098 17c-3.33301 8.66699 -6 18 -8 28c-2 12.667 -3 25.667 -3 39v103c0 169.333 62 254 186 254c117.333 0 176 -52 176 -156c-2 -90 -42.333 -135 -121 -135c-77.333 0 -116 39 -116 117c0 28.667 8 54 24 76
c-38 -16 -57 -53 -57 -111c0 -67.333 18.333 -122.666 55 -165.999c40.667 -48 96 -72 166 -72h68v-82h-529z" />
    <glyph glyph-name="uniFE88" unicode="&#x625;" horiz-adv-x="595" arabic-form="final" 
d="M605 0h-422v1350c0 9.33301 5 14 15 14h285c9.33301 0 14 -4 14 -12v-76c0 -10.667 -4.66699 -16 -14 -16h-33c-8.66699 0 -13 -7 -13 -21v-1098h168v-141zM77 -377l18 49h86l-7 14c-2 5.33301 -3.66699 11 -5 17c-1.33301 7.33301 -2 15.333 -2 24v64
c0 102 37.667 153 113 153c72 0 108 -31.333 108 -94c-2 -54.667 -26.333 -82 -73 -82c-48 0 -72 23.333 -72 70c0 16 4.66699 31.667 14 47c-23.333 -9.33301 -35 -32 -35 -68c0 -96.667 45.333 -145 136 -145h41v-49h-322z" />
    <glyph glyph-name="uniFE8A" unicode="&#x626;" horiz-adv-x="1386" arabic-form="final" 
d="M1397 141l-0.000976562 -141.002h-424v791c0 68 -27.333 102 -82 102h-254c-54.667 0 -82 -28.667 -82 -86s60.333 -129 181 -215c56 -41.333 93 -95.666 111 -162.999c6.66699 -26.667 11.334 -58 14.001 -94c0.666992 -14 1 -30 1 -48l3 -327
c0 -90.667 -40.667 -163.334 -122 -218.001c-72 -48.667 -158.333 -73 -259 -73s-187.334 24.333 -260.001 73c-80.667 54.667 -121 127.334 -121 218.001v357h252v-392c0 -56 14.667 -97.333 44 -124c22.667 -20 51 -30 85 -30c33.333 0 61 10 83 30
c29.333 26.667 44 68 44 124v225c0 66 -4.66699 119.333 -14 160c-11.333 49.333 -31.333 89.333 -60 120l-67 74c-23.333 26.667 -42.333 50 -57 70c-34.667 50.667 -52 99.667 -52 147c0 78.667 24.333 144.334 73 197.001c48.667 51.333 108.334 77 179.001 77h284
c220 0 330 -91.333 330 -274v-580h170zM-98.001 419.998l21 57h100l-3 4c-2 3.33301 -3.66699 7.33301 -5 12c-2.66699 6 -4.66699 12.667 -6 20c-2 8.66699 -3 18 -3 28v73c0 118 43 177 129 177c83.333 0 125 -36.333 125 -109c-2 -62.667 -30 -94 -84 -94
c-56 0 -84 26.667 -84 80c0 14.667 5.66699 33 17 55c-26 -12 -39 -38 -39 -78c0 -112 52 -168 156 -168h47v-57h-371z" />
    <glyph glyph-name="uniFE8B" unicode="&#x626;" horiz-adv-x="677" arabic-form="initial" 
d="M-10 141h328c31.333 0 47 28.667 47 86v754c0 9.33301 4.66699 14 14 14h285c9.33301 0 14 -4 14 -12v-76c0 -10.667 -4.66699 -16 -14 -16h-33c-8 0 -12 -7 -12 -21v-643c0 -151.333 -68.333 -227 -205 -227h-424v141zM92 1085l31.001 81.999h139l-3 6
c-2.66699 5.33301 -5.33398 11 -8.00098 17c-3.33301 8.66699 -6 18 -8 28c-2 12.667 -3 25.667 -3 39v103c0 169.333 62 254 186 254c117.333 0 176 -52 176 -156c-2 -90 -42 -135 -120 -135s-117 39 -117 117c0 28.667 8 54 24 76c-38 -16 -57 -53 -57 -111
c0 -67.333 18.333 -122.666 55 -165.999c40.667 -48 96 -72 166 -72h68v-82h-529z" />
    <glyph glyph-name="uniFE8C" unicode="&#x626;" horiz-adv-x="796" arabic-form="medial" 
d="M598 219c0 -52 26.666 -78 79.999 -78h129v-141h-37c-73.333 0 -130.666 30.667 -171.999 92l-16 -92h-592v141h356l-2 840c0 9.33301 5 14 15 14h284c10 0 15 -4 15 -12v-76c0 -10.667 -5 -16 -15 -16h-32c-8.66699 0 -13 -7 -13 -21v-651zM91.999 1085l31.001 81.999
h139l-3 6c-2.66699 5.33301 -5.33398 11 -8.00098 17c-3.33301 8.66699 -6 18 -8 28c-2 12.667 -3 25.667 -3 39v103c0 169.333 62 254 186 254c117.333 0 176 -52 176 -156c-2 -90 -42 -135 -120 -135s-117 39 -117 117c0 28.667 8 54 24 76c-38 -16 -57 -53 -57 -111
c0 -67.333 18.333 -122.666 55 -165.999c40.667 -48 96 -72 166 -72h68v-82h-529z" />
    <glyph glyph-name="uniFE8E" unicode="&#x627;" horiz-adv-x="595" arabic-form="final" 
d="M606 0h-422v1350c0 9.33301 4.66699 14 14 14h285c9.33301 0 14 -4 14 -12v-76c0 -10.667 -4.66699 -16 -14 -16h-33c-8 0 -12 -7 -12 -21v-1098h168v-141z" />
    <glyph glyph-name="uniFE90" unicode="&#x628;" horiz-adv-x="1576" arabic-form="final" 
d="M476 649c-42 -13.333 -68.333 -40.666 -79 -81.999c-4.66699 -20 -8 -47.667 -10 -83c-0.666992 -14.667 -1.33398 -33.334 -2.00098 -56.001l-3 -201c0 -57.333 24 -86 72 -86h741v840c0 9.33301 4.66699 14 14 14h285c9.33301 0 14 -4 14 -12v-76
c0 -10.667 -4.66699 -16 -14 -16h-33c-8 0 -12 -7 -12 -21v-729h162v-141h-1278c-59.333 0 -108.333 23.667 -147 71s-58 107 -58 179c-17.333 293.333 97.334 455 344.001 485zM826 -366c-96.667 0 -145 46.333 -145 139c0 94 48.333 141 145 141c96 0 144 -47 144 -141
c0 -92.667 -48 -139 -144 -139z" />
    <glyph glyph-name="uniFE91" unicode="&#x628;" horiz-adv-x="677" arabic-form="initial" 
d="M-10 141h328c31.333 0 47 28.667 47 86v754c0 9.33301 4.66699 14 14 14h285c9.33301 0 14 -4 14 -12v-76c0 -10.667 -4.66699 -16 -14 -16h-33c-8 0 -12 -7 -12 -21v-643c0 -151.333 -68.333 -227 -205 -227h-424v141zM427 -366c-96.667 0 -145 46.333 -145 139
c0 94 48.333 141 145 141c96 0 144 -47 144 -141c0 -92.667 -48 -139 -144 -139z" />
    <glyph glyph-name="uniFE92" unicode="&#x628;" horiz-adv-x="796" arabic-form="medial" 
d="M598 219c0 -52 26.666 -78 79.999 -78h129v-141h-37c-73.333 0 -130.666 30.667 -171.999 92l-16 -92h-592v141h356l-2 840c0 9.33301 5 14 15 14h284c10 0 15 -4 15 -12v-76c0 -10.667 -5 -16 -15 -16h-32c-8.66699 0 -13 -7 -13 -21v-651zM413.999 -366
c-96.667 0 -145 46.333 -145 139c0 94 48.333 141 145 141c95.333 0 143 -47 143 -141c0 -92.667 -47.667 -139 -143 -139z" />
    <glyph glyph-name="uniFE96" unicode="&#x62a;" horiz-adv-x="1576" arabic-form="final" 
d="M949 829c-96.667 0 -145 46.667 -145 140c0 94 48.333 141 145 141c96 0 144 -47 144 -141c0 -93.333 -48 -140 -144 -140zM577 829c-97.333 0 -146 46.667 -146 140c0 94 48.667 141 146 141c95.333 0 143 -47 143 -141c0 -93.333 -47.667 -140 -143 -140zM476 649
c-42 -13.333 -68.333 -40.666 -79 -81.999c-4.66699 -20 -8 -47.667 -10 -83c-0.666992 -14.667 -1.33398 -33.334 -2.00098 -56.001l-3 -201c0 -57.333 24 -86 72 -86h741v840c0 9.33301 4.66699 14 14 14h285c9.33301 0 14 -4 14 -12v-76c0 -10.667 -4.66699 -16 -14 -16
h-33c-8 0 -12 -7 -12 -21v-729h162v-141h-1278c-59.333 0 -108.333 23.667 -147 71s-58 107 -58 179c-17.333 293.333 97.334 455 344.001 485z" />
    <glyph glyph-name="uniFE97" unicode="&#x62a;" horiz-adv-x="679" arabic-form="initial" 
d="M-10 141h328c31.333 0 47 28.667 47 86v754c0 9.33301 4.66699 14 14 14h285c9.33301 0 14 -4 14 -12v-76c0 -10.667 -4.66699 -16 -14 -16h-33c-8 0 -12 -7 -12 -21v-643c0 -151.333 -68.333 -227 -205 -227h-424v141zM537 1083c-97.333 0 -146 46.667 -146 140
c0 94 48.667 141 146 141c95.333 0 143 -47 143 -141c0 -93.333 -47.667 -140 -143 -140zM195 1083c-97.333 0 -146 46.667 -146 140c0 94 48.667 141 146 141c95.333 0 143 -47 143 -141c0 -93.333 -47.667 -140 -143 -140z" />
    <glyph glyph-name="uniFE98" unicode="&#x62a;" horiz-adv-x="796" arabic-form="medial" 
d="M599 219c0 -52 26.333 -78 79 -78h129v-141h-36c-74 0 -131.333 30.667 -172 92l-17 -92h-591v141h356l-2 840c0 9.33301 4.66699 14 14 14h285c9.33301 0 14 -4 14 -12v-76c0 -10.667 -4.66699 -16 -14 -16h-33c-8 0 -12 -7 -12 -21v-651zM453 1083
c-96.667 0 -145 46.667 -145 140c0 94 48.333 141 145 141c96 0 144 -47 144 -141c0 -93.333 -48 -140 -144 -140zM80 1083c-96.667 0 -145 46.667 -145 140c0 94 48.333 141 145 141c96 0 144 -47 144 -141c0 -93.333 -48 -140 -144 -140z" />
    <glyph glyph-name="uniFE9A" unicode="&#x62b;" horiz-adv-x="1576" arabic-form="final" 
d="M763 1118c-84.667 0 -127 41 -127 123s42.333 123 127 123s127 -41 127 -123s-42.333 -123 -127 -123zM939 829c-96.667 0 -145 46.667 -145 140c0 94 48.333 141 145 141c95.333 0 143 -47 143 -141c0 -93.333 -47.667 -140 -143 -140zM597 829
c-96.667 0 -145 46.667 -145 140c0 94 48.333 141 145 141c95.333 0 143 -47 143 -141c0 -93.333 -47.667 -140 -143 -140zM476 649c-42 -13.333 -68.333 -40.666 -79 -81.999c-4.66699 -20 -8 -47.667 -10 -83c-0.666992 -14.667 -1.33398 -33.334 -2.00098 -56.001
l-3 -201c0 -57.333 24 -86 72 -86h741v840c0 9.33301 4.66699 14 14 14h285c9.33301 0 14 -4 14 -12v-76c0 -10.667 -4.66699 -16 -14 -16h-33c-8 0 -12 -7 -12 -21v-729h162v-141h-1278c-59.333 0 -108.333 23.667 -147 71s-58 107 -58 179
c-17.333 293.333 97.334 455 344.001 485z" />
    <glyph glyph-name="uniFE9B" unicode="&#x62b;" horiz-adv-x="679" arabic-form="initial" 
d="M-10 141h328c31.333 0 47 28.667 47 86v754c0 9.33301 4.66699 14 14 14h285c9.33301 0 14 -4 14 -12v-76c0 -10.667 -4.66699 -16 -14 -16h-33c-8 0 -12 -7 -12 -21v-643c0 -151.333 -68.333 -227 -205 -227h-424v141zM361 1372c-84.667 0 -127 41 -127 123
s42.333 123 127 123s127 -41 127 -123s-42.333 -123 -127 -123zM537 1083c-97.333 0 -146 46.667 -146 140c0 94 48.667 141 146 141c95.333 0 143 -47 143 -141c0 -93.333 -47.667 -140 -143 -140zM195 1083c-97.333 0 -146 46.667 -146 140c0 94 48.667 141 146 141
c95.333 0 143 -47 143 -141c0 -93.333 -47.667 -140 -143 -140z" />
    <glyph glyph-name="uniFE9C" unicode="&#x62b;" horiz-adv-x="796" arabic-form="medial" 
d="M599 219c0 -52 26.667 -78 80 -78h129v-141h-37c-74 0 -131.333 30.667 -172 92l-17 -92h-591v141h356l-2 840c0 9.33301 4.66699 14 14 14h285c9.33301 0 14 -4 14 -12v-76c0 -10.667 -4.66699 -16 -14 -16h-33c-8 0 -12 -7 -12 -21v-651zM279 1372
c-84.667 0 -127 41 -127 123s42.333 123 127 123s127 -41 127 -123s-42.333 -123 -127 -123zM455 1083c-96.667 0 -145 46.667 -145 140c0 94 48.333 141 145 141c96 0 144 -47 144 -141c0 -93.333 -48 -140 -144 -140zM113 1083c-96.667 0 -145 46.667 -145 140
c0 94 48.333 141 145 141c96 0 144 -47 144 -141c0 -93.333 -48 -140 -144 -140z" />
    <glyph glyph-name="uniFE9E" unicode="&#x62c;" horiz-adv-x="1187" arabic-form="final" 
d="M587 -327c-138 0 -252.999 46 -344.999 138c-90 89.333 -136.667 199.333 -140 330h633v670c0 68 -33.667 102 -101 102c-61.333 0 -92 -10 -92 -30c0 -4.66699 7.66699 -11.667 23 -21c26 -18.667 39 -49.334 39 -92.001c0 -87.333 -42.333 -131 -127 -131
c-91.333 0 -137 53.333 -137 160c0 60.667 24.667 110.334 74 149.001c55.333 44 133.666 66 234.999 66c226.667 0 340 -91 340 -273v-600h209v-141h-842c8 -62 35.667 -111.667 83 -149c42.667 -34 92 -51 148 -51v-127zM821.001 -366c-97.333 0 -146 46.333 -146 139
c0 94 48.667 141 146 141c95.333 0 143 -47 143 -141c0 -92.667 -47.667 -139 -143 -139z" />
    <glyph glyph-name="uniFE9F" unicode="&#x62c;" horiz-adv-x="798" arabic-form="initial" 
d="M449 -366c-97.333 0 -146 46.333 -146 139c0 94 48.667 141 146 141c95.333 0 143 -47 143 -141c0 -92.667 -47.667 -139 -143 -139zM545 141l0.000976562 670c0 68 -33.333 102 -100 102c-62 0 -93 -10 -93 -30c0 -4.66699 7.66699 -11.667 23 -21
c26 -18.667 39 -49.334 39 -92.001c0 -87.333 -42.333 -131 -127 -131c-91.333 0 -137 53.333 -137 160c0 60.667 24.667 110.334 74 149.001c55.333 44 133.666 66 234.999 66c226.667 0 340 -91 340 -273v-741h-809v141h555z" />
    <glyph glyph-name="uniFEA0" unicode="&#x62c;" horiz-adv-x="997" arabic-form="medial" 
d="M545 141l0.000976562 670c0 68 -33.333 102 -100 102c-62 0 -93 -10 -93 -30c0 -4.66699 7.66699 -11.667 23 -21c26 -18.667 39 -49.334 39 -92.001c0 -87.333 -42.333 -131 -127 -131c-91.333 0 -137 53.333 -137 160c0 60.667 24.667 110.334 74 149.001
c55.333 44 133.666 66 234.999 66c226.667 0 340 -91 340 -273v-522c0 -52 26.667 -78 80 -78h129v-141h-37c-74 0 -131.333 30.667 -172 92v-92h-809v141h555zM449.001 -366c-97.333 0 -146 46.333 -146 139c0 94 48.667 141 146 141c95.333 0 143 -47 143 -141
c0 -92.667 -47.667 -139 -143 -139z" />
    <glyph glyph-name="uniFEA2" unicode="&#x62d;" horiz-adv-x="1187" arabic-form="final" 
d="M356 0c8 -62 35.6689 -111.667 83.002 -149c42.667 -34 92 -51 148 -51c40.667 0 74 3.33301 100 10c35.333 8 71.666 24.333 108.999 49l86 -67c-60.667 -79.333 -159 -119 -295 -119c-138 0 -253 46 -345 138c-90 89.333 -136.667 199.333 -140 330h633v670
c0 68 -33.667 102 -101 102c-61.333 0 -92 -10 -92 -30c0 -4.66699 7.66699 -11.667 23 -21c26 -18.667 39 -49.334 39 -92.001c0 -87.333 -42.333 -131 -127 -131c-91.333 0 -137 53.333 -137 160c0 60.667 24.667 110.334 74 149.001c55.333 44 133.666 66 234.999 66
c226.667 0 340 -91 340 -273v-600h209v-141h-842z" />
    <glyph glyph-name="uniFEA3" unicode="&#x62d;" horiz-adv-x="798" arabic-form="initial" 
d="M545 141l0.000976562 670c0 68 -33.333 102 -100 102c-62 0 -93 -10 -93 -30c0 -4.66699 7.66699 -11.667 23 -21c26 -18.667 39 -49.334 39 -92.001c0 -87.333 -42.333 -131 -127 -131c-91.333 0 -137 53.333 -137 160c0 60.667 24.667 110.334 74 149.001
c55.333 44 133.666 66 234.999 66c226.667 0 340 -91 340 -273v-741h-809v141h555z" />
    <glyph glyph-name="uniFEA4" unicode="&#x62d;" horiz-adv-x="997" arabic-form="medial" 
d="M545 141l0.000976562 670c0 68 -33.333 102 -100 102c-62 0 -93 -10 -93 -30c0 -4.66699 7.66699 -11.667 23 -21c26 -18.667 39 -49.334 39 -92.001c0 -87.333 -42.333 -131 -127 -131c-91.333 0 -137 53.333 -137 160c0 60.667 24.667 110.334 74 149.001
c55.333 44 133.666 66 234.999 66c226.667 0 340 -91 340 -273v-522c0 -52 26.667 -78 80 -78h129v-141h-37c-74 0 -131.333 30.667 -172 92v-92h-809v141h555z" />
    <glyph glyph-name="uniFEA6" unicode="&#x62e;" horiz-adv-x="1187" arabic-form="final" 
d="M651 1104c-97.333 0 -146 46.333 -146 139c0 94 48.667 141 146 141c95.333 0 143 -47 143 -141c0 -92.667 -47.667 -139 -143 -139zM356 0c8 -62 35.6689 -111.667 83.002 -149c42.667 -34 92 -51 148 -51c40.667 0 74 3.33301 100 10
c35.333 8 71.666 24.333 108.999 49l86 -67c-60.667 -79.333 -159 -119 -295 -119c-138 0 -253 46 -345 138c-90 89.333 -136.667 199.333 -140 330h633v670c0 68 -33.667 102 -101 102c-61.333 0 -92 -10 -92 -30c0 -4.66699 7.66699 -11.667 23 -21
c26 -18.667 39 -49.334 39 -92.001c0 -87.333 -42.333 -131 -127 -131c-91.333 0 -137 53.333 -137 160c0 60.667 24.667 110.334 74 149.001c55.333 44 133.666 66 234.999 66c226.667 0 340 -91 340 -273v-600h209v-141h-842z" />
    <glyph glyph-name="uniFEA7" unicode="&#x62e;" horiz-adv-x="798" arabic-form="initial" 
d="M545 141l0.000976562 670c0 68 -33.333 102 -100 102c-62 0 -93 -10 -93 -30c0 -4.66699 7.66699 -11.667 23 -21c26 -18.667 39 -49.334 39 -92.001c0 -87.333 -42.333 -131 -127 -131c-91.333 0 -137 53.333 -137 160c0 60.667 24.667 110.334 74 149.001
c55.333 44 133.666 66 234.999 66c226.667 0 340 -91 340 -273v-741h-809v141h555zM461.001 1104c-96.667 0 -145 46.333 -145 139c0 94 48.333 141 145 141c95.333 0 143 -47 143 -141c0 -92.667 -47.667 -139 -143 -139z" />
    <glyph glyph-name="uniFEA8" unicode="&#x62e;" horiz-adv-x="997" arabic-form="medial" 
d="M545 141l0.000976562 670c0 68 -33.333 102 -100 102c-62 0 -93 -10 -93 -30c0 -4.66699 7.66699 -11.667 23 -21c26 -18.667 39 -49.334 39 -92.001c0 -87.333 -42.333 -131 -127 -131c-91.333 0 -137 53.333 -137 160c0 60.667 24.667 110.334 74 149.001
c55.333 44 133.666 66 234.999 66c226.667 0 340 -91 340 -273v-522c0 -52 26.667 -78 80 -78h129v-141h-37c-74 0 -131.333 30.667 -172 92v-92h-809v141h555zM461.001 1104c-96.667 0 -145 46.333 -145 139c0 94 48.333 141 145 141c95.333 0 143 -47 143 -141
c0 -92.667 -47.667 -139 -143 -139z" />
    <glyph glyph-name="uniFEAA" unicode="&#x62f;" horiz-adv-x="911" arabic-form="final" 
d="M696 0h-594.001l20 141h336v650c0 68 -27.333 102 -82 102h-172v102h179c219.333 0 329 -91.333 329 -274v-508c5.33301 -48 32 -72 80 -72h129v-141h-37c-73.333 0 -130.666 30.667 -171.999 92z" />
    <glyph glyph-name="uniFEAC" unicode="&#x630;" horiz-adv-x="911" arabic-form="final" 
d="M696 0h-594.001l20 141h336v650c0 68 -27.333 102 -82 102h-172v102h179c219.333 0 329 -91.333 329 -274v-508c5.33301 -48 32 -72 80 -72h129v-141h-37c-73.333 0 -130.666 30.667 -171.999 92zM412.999 1104c-96.667 0 -145 46.333 -145 139c0 94 48.333 141 145 141
c96 0 144 -47 144 -141c0 -92.667 -48 -139 -144 -139z" />
    <glyph glyph-name="uniFEAE" unicode="&#x631;" horiz-adv-x="700" arabic-form="final" 
d="M248 981c0 9.33301 4.66797 13.999 14.001 13.999h285c9.33301 0 14 -4 14 -12v-76c0 -10.667 -4.66699 -16 -14 -16h-33c-8 0 -12 -7 -12 -21v-729h208v-141h-208l-2 -67c-2 -11.333 -4.66699 -22.666 -8 -33.999c-9.33301 -33.333 -24 -63.333 -44 -90
c-26.667 -36 -61.667 -64.333 -105 -85c-52 -24.667 -115.333 -37 -190 -37c0 -2 -11.333 -0.666992 -34 4c-26.667 5.33301 -49.334 14.333 -68.001 27v94c28 -14.667 59.333 -22 94 -22c68.667 0 103 38.667 103 116v1075z" />
    <glyph glyph-name="uniFEB0" unicode="&#x632;" horiz-adv-x="700" arabic-form="final" 
d="M248 981c0 9.33301 4.66797 13.999 14.001 13.999h285c9.33301 0 14 -4 14 -12v-76c0 -10.667 -4.66699 -16 -14 -16h-33c-8 0 -12 -7 -12 -21v-729h208v-141h-208l-2 -67c-2 -11.333 -4.66699 -22.666 -8 -33.999c-9.33301 -33.333 -24 -63.333 -44 -90
c-26.667 -36 -61.667 -64.333 -105 -85c-52 -24.667 -115.333 -37 -190 -37c0 -2 -11.333 -0.666992 -34 4c-26.667 5.33301 -49.334 14.333 -68.001 27v94c28 -14.667 59.333 -22 94 -22c68.667 0 103 38.667 103 116v1075zM360.001 1083c-96.667 0 -145 46.667 -145 140
c0 94 48.333 141 145 141c96 0 144 -47 144 -141c0 -93.333 -48 -140 -144 -140z" />
    <glyph glyph-name="uniFEB2" unicode="&#x633;" horiz-adv-x="1810" arabic-form="final" 
d="M610 981c0 9.33301 4.66895 14 14.002 14h285c9.33301 0 14 -4 14 -12v-76c0 -10.667 -4.66699 -16 -14 -16h-33c-8 0 -12 -7 -12 -21v-682c9.33301 -40.667 34 -61 74 -61c31.333 0 47 27.333 47 82v772c0 9.33301 4.66699 14 14 14h285c9.33301 0 14 -4 14 -12v-76
c0 -10.667 -4.66699 -16 -14 -16h-33c-8 0 -12 -7 -12 -21v-661c0 -54.667 25 -82 75 -82c32 0 48 27.333 48 82v772c0 9.33301 4.66699 14 14 14h285c9.33301 0 14 -4 14 -12v-76c0 -10.667 -4.66699 -16 -14 -16h-33c-8.66699 0 -13 -7 -13 -21v-657
c5.33301 -48 32 -72 80 -72h129v-141h-36c-84.667 0 -147.667 39 -189 117c-30.667 -87.333 -94 -131 -190 -131c-59.333 0 -119 27.333 -179 82l-20 20c-42 -69.333 -102 -104 -180 -104c-54 0 -109.333 24.333 -166 73v-79c0 -90.667 -40.333 -163.334 -121 -218.001
c-72.667 -48.667 -159.334 -73 -260.001 -73s-187.334 24.333 -260.001 73c-80.667 54.667 -121 127.334 -121 218.001v624h252v-659c0 -56 14.667 -97 44 -123c22.667 -20 51 -30 85 -30c33.333 0 61 10 83 30c29.333 26 44 67 44 123v1038z" />
    <glyph glyph-name="uniFEB3" unicode="&#x633;" horiz-adv-x="1316" arabic-form="initial" 
d="M250 141v840c0 9.33301 4.66699 14 14 14h285c9.33301 0 14 -4 14 -12v-76c0 -10.667 -4.66699 -16 -14 -16h-33c-8 0 -12 -7 -12 -21v-661c0 -54.667 25.333 -82 76 -82c31.333 0 47 27.333 47 82v772c0 9.33301 4.66699 14 14 14h285c9.33301 0 14 -4 14 -12v-76
c0 -10.667 -4.66699 -16 -14 -16h-33c-8 0 -12 -7 -12 -21v-661c0 -54.667 25.333 -82 76 -82c31.333 0 47 27.333 47 82v772c0 9.33301 4.66699 14 14 14h285c9.33301 0 14 -4 14 -12v-76c0 -10.667 -4.66699 -16 -14 -16h-33c-8 0 -12 -7 -12 -21v-653
c0 -154 -69 -231 -207 -231c-58.667 0 -118 27.333 -178 82l-21 20c-42 -69.333 -102 -104 -180 -104c-56 0 -114.667 28 -176 84l-12 -68h-494v141h260z" />
    <glyph glyph-name="uniFEB4" unicode="&#x633;" horiz-adv-x="1456" arabic-form="medial" 
d="M1258 213c4.66699 -48 31.333 -72 80 -72h129v-141h-37c-84.667 0 -147.667 39 -189 117c-30.667 -87.333 -94 -131 -190 -131c-58.667 0 -118 27.333 -178 82l-21 20c-42 -69.333 -102 -104 -180 -104c-56 0 -114.667 28 -176 84l-12 -68h-494v141h260v840
c0 9.33301 4.66699 14 14 14h285c9.33301 0 14 -4 14 -12v-76c0 -10.667 -4.66699 -16 -14 -16h-33c-8 0 -12 -7 -12 -21v-661c0 -54.667 25.333 -82 76 -82c31.333 0 47 27.333 47 82v772c0 9.33301 4.66699 14 14 14h285c9.33301 0 14 -4 14 -12v-76
c0 -10.667 -4.66699 -16 -14 -16h-33c-8 0 -12 -7 -12 -21v-661c0 -54.667 25.333 -82 76 -82c31.333 0 47 27.333 47 82v772c0 9.33301 4.66699 14 14 14h285c9.33301 0 14 -4 14 -12v-76c0 -10.667 -4.66699 -16 -14 -16h-33c-8 0 -12 -7 -12 -21v-657z" />
    <glyph glyph-name="uniFEB6" unicode="&#x634;" horiz-adv-x="1810" arabic-form="final" 
d="M610 981c0 9.33301 4.66895 14 14.002 14h285c9.33301 0 14 -4 14 -12v-76c0 -10.667 -4.66699 -16 -14 -16h-33c-8 0 -12 -7 -12 -21v-682c9.33301 -40.667 34 -61 74 -61c31.333 0 47 27.333 47 82v772c0 9.33301 4.66699 14 14 14h285c9.33301 0 14 -4 14 -12v-76
c0 -10.667 -4.66699 -16 -14 -16h-33c-8 0 -12 -7 -12 -21v-661c0 -54.667 25 -82 75 -82c32 0 48 27.333 48 82v772c0 9.33301 4.66699 14 14 14h285c9.33301 0 14 -4 14 -12v-76c0 -10.667 -4.66699 -16 -14 -16h-33c-8.66699 0 -13 -7 -13 -21v-657
c5.33301 -48 32 -72 80 -72h129v-141h-36c-84.667 0 -147.667 39 -189 117c-30.667 -87.333 -94 -131 -190 -131c-59.333 0 -119 27.333 -179 82l-20 20c-42 -69.333 -102 -104 -180 -104c-54 0 -109.333 24.333 -166 73v-79c0 -90.667 -40.333 -163.334 -121 -218.001
c-72.667 -48.667 -159.334 -73 -260.001 -73s-187.334 24.333 -260.001 73c-80.667 54.667 -121 127.334 -121 218.001v624h252v-659c0 -56 14.667 -97 44 -123c22.667 -20 51 -30 85 -30c33.333 0 61 10 83 30c29.333 26 44 67 44 123v1038zM1286 1083
c-97.333 0 -146 46.667 -146 140c0 94 48.667 141 146 141c95.333 0 143 -47 143 -141c0 -93.333 -47.667 -140 -143 -140zM944.002 1083c-97.333 0 -146 46.667 -146 140c0 94 48.667 141 146 141c95.333 0 143 -47 143 -141c0 -93.333 -47.667 -140 -143 -140zM1110 1372
c-84.667 0 -127 41 -127 123s42.333 123 127 123s127 -41 127 -123s-42.333 -123 -127 -123z" />
    <glyph glyph-name="uniFEB7" unicode="&#x634;" horiz-adv-x="1316" arabic-form="initial" 
d="M250 141v840c0 9.33301 4.66699 14 14 14h285c9.33301 0 14 -4 14 -12v-76c0 -10.667 -4.66699 -16 -14 -16h-33c-8 0 -12 -7 -12 -21v-661c0 -54.667 25.333 -82 76 -82c31.333 0 47 27.333 47 82v772c0 9.33301 4.66699 14 14 14h285c9.33301 0 14 -4 14 -12v-76
c0 -10.667 -4.66699 -16 -14 -16h-33c-8 0 -12 -7 -12 -21v-661c0 -54.667 25.333 -82 76 -82c31.333 0 47 27.333 47 82v772c0 9.33301 4.66699 14 14 14h285c9.33301 0 14 -4 14 -12v-76c0 -10.667 -4.66699 -16 -14 -16h-33c-8 0 -12 -7 -12 -21v-653
c0 -154 -69 -231 -207 -231c-58.667 0 -118 27.333 -178 82l-21 20c-42 -69.333 -102 -104 -180 -104c-56 0 -114.667 28 -176 84l-12 -68h-494v141h260zM752 1372c-84.667 0 -127 41 -127 123s42.333 123 127 123s127 -41 127 -123s-42.333 -123 -127 -123zM928 1083
c-96.667 0 -145 46.667 -145 140c0 94 48.333 141 145 141c95.333 0 143 -47 143 -141c0 -93.333 -47.667 -140 -143 -140zM586 1083c-96.667 0 -145 46.667 -145 140c0 94 48.333 141 145 141c95.333 0 143 -47 143 -141c0 -93.333 -47.667 -140 -143 -140z" />
    <glyph glyph-name="uniFEB8" unicode="&#x634;" horiz-adv-x="1456" arabic-form="medial" 
d="M1258 213c4.66699 -48 31.333 -72 80 -72h129v-141h-37c-84.667 0 -147.667 39 -189 117c-30.667 -87.333 -94 -131 -190 -131c-58.667 0 -118 27.333 -178 82l-21 20c-42 -69.333 -102 -104 -180 -104c-56 0 -114.667 28 -176 84l-12 -68h-494v141h260v840
c0 9.33301 4.66699 14 14 14h285c9.33301 0 14 -4 14 -12v-76c0 -10.667 -4.66699 -16 -14 -16h-33c-8 0 -12 -7 -12 -21v-661c0 -54.667 25.333 -82 76 -82c31.333 0 47 27.333 47 82v772c0 9.33301 4.66699 14 14 14h285c9.33301 0 14 -4 14 -12v-76
c0 -10.667 -4.66699 -16 -14 -16h-33c-8 0 -12 -7 -12 -21v-661c0 -54.667 25.333 -82 76 -82c31.333 0 47 27.333 47 82v772c0 9.33301 4.66699 14 14 14h285c9.33301 0 14 -4 14 -12v-76c0 -10.667 -4.66699 -16 -14 -16h-33c-8 0 -12 -7 -12 -21v-657zM585.999 1083
c-96.667 0 -145 46.667 -145 140c0 94 48.333 141 145 141c95.333 0 143 -47 143 -141c0 -93.333 -47.667 -140 -143 -140zM927.999 1083c-96.667 0 -145 46.667 -145 140c0 94 48.333 141 145 141c95.333 0 143 -47 143 -141c0 -93.333 -47.667 -140 -143 -140z
M751.999 1372c-84.667 0 -127 41 -127 123s42.333 123 127 123s127 -41 127 -123s-42.333 -123 -127 -123z" />
    <glyph glyph-name="uniFEBA" unicode="&#x635;" horiz-adv-x="1589" arabic-form="final" 
d="M608 0l0.00195312 904.998c0 34 14.333 51 43 51h242c-14 -16.667 -23 -45.667 -27 -87c-2.66699 -26 -4 -74 -4 -144c25.333 116 71 196.333 137 241c26 18 55.667 30.333 89 37c24.667 6 53.667 9 87 9c92.667 0 158 -30.333 196 -91
c14.667 -23.333 25 -50.666 31 -81.999c4.66699 -23.333 7 -49.666 7 -78.999v-619h209v-141h-754v-22c0 -90.667 -40.333 -163.334 -121 -218.001c-72.667 -48.667 -159.334 -73 -260.001 -73s-187.334 24.333 -260.001 73c-80.667 54.667 -121 127.334 -121 218.001v624
h252v-659c0 -56 14.667 -97 44 -123c22.667 -20 51 -30 85 -30c33.333 0 61 10 83 30c29.333 26 44 67 44 123v57h-2zM1157 140.998l0.000976562 613c0 20.667 -0.666992 38 -2 52c-2 18.667 -5.33301 34.667 -10 48c-11.333 31.333 -32.666 47 -63.999 47
c-62.667 0 -114.334 -70 -155.001 -210c-34.667 -121.333 -55.334 -270.333 -62.001 -447v-103h293z" />
    <glyph glyph-name="uniFEBB" unicode="&#x635;" horiz-adv-x="983" arabic-form="initial" 
d="M731 141l-0.000976562 613c0 20.667 -0.666992 38 -2 52c-1.33301 18.667 -4.33301 34.667 -9 48c-12 31.333 -33.333 47 -64 47c-69.333 0 -124.666 -84.333 -165.999 -253c-36 -146 -54 -315 -54 -507h295zM-10.001 141l193.001 -0.00195312v764c0 34 14.333 51 43 51
h241c-14 -16.667 -23 -45.667 -27 -87c-2.66699 -26 -4 -74 -4 -144c26 116 71.667 196.333 137 241c26 18 55.667 30.333 89 37c25.333 6 54.666 9 87.999 9c92.667 0 158 -30.333 196 -91c14 -23.333 24 -50.666 30 -81.999c4.66699 -23.333 7 -49.666 7 -78.999v-760
h-993v141z" />
    <glyph glyph-name="uniFEBC" unicode="&#x635;" horiz-adv-x="1181" arabic-form="medial" 
d="M-10 0l0.000976562 140.998h193v764c0 34 14.333 51 43 51h241c-14 -16.667 -23 -45.667 -27 -87c-2.66699 -26 -4 -74 -4 -144c26 116 71.667 196.333 137 241c26 18 55.667 30.333 89 37c25.333 6 54.666 9 87.999 9c92.667 0 158 -30.333 196 -91
c14 -23.333 24 -50.666 30 -81.999c4.66699 -23.333 7 -49.666 7 -78.999v-619h209v-141h-1202zM731.001 140.998l-0.000976562 613c0 20.667 -0.666992 38 -2 52c-1.33301 18.667 -4.33301 34.667 -9 48c-12 31.333 -33.333 47 -64 47
c-69.333 0 -124.666 -84.333 -165.999 -253c-36 -146 -54 -315 -54 -507h295z" />
    <glyph glyph-name="uniFEBE" unicode="&#x636;" horiz-adv-x="1589" arabic-form="final" 
d="M608 0l0.00195312 904.998c0 34 14.333 51 43 51h242c-14 -16.667 -23 -45.667 -27 -87c-2.66699 -26 -4 -74 -4 -144c25.333 116 71 196.333 137 241c26 18 55.667 30.333 89 37c24.667 6 53.667 9 87 9c92.667 0 158 -30.333 196 -91
c14.667 -23.333 25 -50.666 31 -81.999c4.66699 -23.333 7 -49.666 7 -78.999v-619h209v-141h-754v-22c0 -90.667 -40.333 -163.334 -121 -218.001c-72.667 -48.667 -159.334 -73 -260.001 -73s-187.334 24.333 -260.001 73c-80.667 54.667 -121 127.334 -121 218.001v624
h252v-659c0 -56 14.667 -97 44 -123c22.667 -20 51 -30 85 -30c33.333 0 61 10 83 30c29.333 26 44 67 44 123v57h-2zM1157 140.998l0.000976562 613c0 20.667 -0.666992 38 -2 52c-2 18.667 -5.33301 34.667 -10 48c-11.333 31.333 -32.666 47 -63.999 47
c-62.667 0 -114.334 -70 -155.001 -210c-34.667 -121.333 -55.334 -270.333 -62.001 -447v-103h293zM1167 1100c-96.667 0 -145 46.333 -145 139c0 94 48.333 141 145 141c95.333 0 143 -47 143 -141c0 -92.667 -47.667 -139 -143 -139z" />
    <glyph glyph-name="uniFEBF" unicode="&#x636;" horiz-adv-x="983" arabic-form="initial" 
d="M731 141l-0.000976562 613c0 20.667 -0.666992 38 -2 52c-1.33301 18.667 -4.33301 34.667 -9 48c-12 31.333 -33.333 47 -64 47c-69.333 0 -124.666 -84.333 -165.999 -253c-36 -146 -54 -315 -54 -507h295zM-10.001 141l193.001 -0.00195312v764c0 34 14.333 51 43 51
h241c-14 -16.667 -23 -45.667 -27 -87c-2.66699 -26 -4 -74 -4 -144c26 116 71.667 196.333 137 241c26 18 55.667 30.333 89 37c25.333 6 54.666 9 87.999 9c92.667 0 158 -30.333 196 -91c14 -23.333 24 -50.666 30 -81.999c4.66699 -23.333 7 -49.666 7 -78.999v-760
h-993v141zM742 1100c-97.333 0 -146 46.333 -146 139c0 94 48.667 141 146 141c95.333 0 143 -47 143 -141c0 -92.667 -47.667 -139 -143 -139z" />
    <glyph glyph-name="uniFEC0" unicode="&#x636;" horiz-adv-x="1181" arabic-form="medial" 
d="M-10 0l0.000976562 140.998h193v764c0 34 14.333 51 43 51h241c-14 -16.667 -23 -45.667 -27 -87c-2.66699 -26 -4 -74 -4 -144c26 116 71.667 196.333 137 241c26 18 55.667 30.333 89 37c25.333 6 54.666 9 87.999 9c92.667 0 158 -30.333 196 -91
c14 -23.333 24 -50.666 30 -81.999c4.66699 -23.333 7 -49.666 7 -78.999v-619h209v-141h-1202zM731.001 140.998l-0.000976562 613c0 20.667 -0.666992 38 -2 52c-1.33301 18.667 -4.33301 34.667 -9 48c-12 31.333 -33.333 47 -64 47
c-69.333 0 -124.666 -84.333 -165.999 -253c-36 -146 -54 -315 -54 -507h295zM742 1100c-97.333 0 -146 46.333 -146 139c0 94 48.667 141 146 141c95.333 0 143 -47 143 -141c0 -92.667 -47.667 -139 -143 -139z" />
    <glyph glyph-name="uniFEC2" unicode="&#x637;" horiz-adv-x="1181" arabic-form="final" 
d="M731 141l-0.00195312 613c0 20.667 -0.666992 38 -2 52c-2 18.667 -5.33301 34.667 -10 48c-11.333 31.333 -32.666 47 -63.999 47c-69.333 0 -124.666 -84.333 -165.999 -253c-35.333 -146 -53 -315 -53 -507h295zM982.998 141l209.001 -0.00292969v-141h-1090
c34.667 23.333 58 60 70 110c4 18.667 7 39.667 9 63c0 8.66699 0.333008 18.334 1 29.001v1148c0 9.33301 4.66699 14 14 14h285c9.33301 0 14 -4 14 -12v-76c0 -10.667 -4.66699 -16 -14 -16h-33c-8 0 -12 -7 -12 -21v-471c32 100.667 79.333 169.334 142 206.001
c25.333 15.333 54 25.666 86 30.999c23.333 4.66699 51.666 7 84.999 7c92.667 0 158 -30.333 196 -91c14.667 -23.333 25 -50.666 31 -81.999c4.66699 -23.333 7 -49.666 7 -78.999v-619z" />
    <glyph glyph-name="uniFEC3" unicode="&#x637;" horiz-adv-x="983" arabic-form="initial" 
d="M731 141l-0.000976562 613c0 20.667 -0.666992 38 -2 52c-1.33301 18.667 -4.33301 34.667 -9 48c-12 31.333 -33.333 47 -64 47c-69.333 0 -124.666 -84.333 -165.999 -253c-36 -146 -54 -315 -54 -507h295zM-10.001 141l193 -0.00195312v1209
c0 9.33301 4.66699 14 14 14h285c9.33301 0 14 -4 14 -12v-76c0 -10.667 -4.66699 -16 -14 -16h-33c-8.66699 0 -13 -7 -13 -21v-471c32 100.667 79.667 169.334 143 206.001c24.667 15.333 53 25.666 85 30.999c24 4.66699 52.667 7 86 7c92.667 0 158 -30.333 196 -91
c14 -23.333 24 -50.666 30 -81.999c4.66699 -23.333 7 -49.666 7 -78.999v-760h-993v141z" />
    <glyph glyph-name="uniFEC4" unicode="&#x637;" horiz-adv-x="1181" arabic-form="medial" 
d="M731 141l-0.000976562 613c0 20.667 -0.666992 38 -2 52c-1.33301 18.667 -4.33301 34.667 -9 48c-12 31.333 -33.333 47 -64 47c-69.333 0 -124.666 -84.333 -165.999 -253c-36 -146 -54 -315 -54 -507h295zM-10.001 141l193 -0.00195312v1209
c0 9.33301 4.66699 14 14 14h285c9.33301 0 14 -4 14 -12v-76c0 -10.667 -4.66699 -16 -14 -16h-33c-8.66699 0 -13 -7 -13 -21v-471c32 100.667 79.667 169.334 143 206.001c24.667 15.333 53 25.666 85 30.999c24 4.66699 52.667 7 86 7c92.667 0 158 -30.333 196 -91
c14 -23.333 24 -50.666 30 -81.999c4.66699 -23.333 7 -49.666 7 -78.999v-619h209v-141h-1202v141z" />
    <glyph glyph-name="uniFEC6" unicode="&#x638;" horiz-adv-x="1181" arabic-form="final" 
d="M731 141l-0.00195312 613c0 20.667 -0.666992 38 -2 52c-2 18.667 -5.33301 34.667 -10 48c-11.333 31.333 -32.666 47 -63.999 47c-69.333 0 -124.666 -84.333 -165.999 -253c-35.333 -146 -53 -315 -53 -507h295zM740.998 1100c-96.667 0 -145 46.333 -145 139
c0 94 48.333 141 145 141c95.333 0 143 -47 143 -141c0 -92.667 -47.667 -139 -143 -139zM982.998 141l209.001 -0.00292969v-141h-1090c34.667 23.333 58 60 70 110c4 18.667 7 39.667 9 63c0 8.66699 0.333008 18.334 1 29.001v1148c0 9.33301 4.66699 14 14 14h285
c9.33301 0 14 -4 14 -12v-76c0 -10.667 -4.66699 -16 -14 -16h-33c-8 0 -12 -7 -12 -21v-471c32 100.667 79.333 169.334 142 206.001c25.333 15.333 54 25.666 86 30.999c23.333 4.66699 51.666 7 84.999 7c92.667 0 158 -30.333 196 -91
c14.667 -23.333 25 -50.666 31 -81.999c4.66699 -23.333 7 -49.666 7 -78.999v-619z" />
    <glyph glyph-name="uniFEC7" unicode="&#x638;" horiz-adv-x="983" arabic-form="initial" 
d="M731 141l-0.000976562 613c0 20.667 -0.666992 38 -2 52c-1.33301 18.667 -4.33301 34.667 -9 48c-12 31.333 -33.333 47 -64 47c-69.333 0 -124.666 -84.333 -165.999 -253c-36 -146 -54 -315 -54 -507h295zM-10.001 141l193 -0.00195312v1209
c0 9.33301 4.66699 14 14 14h285c9.33301 0 14 -4 14 -12v-76c0 -10.667 -4.66699 -16 -14 -16h-33c-8.66699 0 -13 -7 -13 -21v-471c32 100.667 79.667 169.334 143 206.001c24.667 15.333 53 25.666 85 30.999c24 4.66699 52.667 7 86 7c92.667 0 158 -30.333 196 -91
c14 -23.333 24 -50.666 30 -81.999c4.66699 -23.333 7 -49.666 7 -78.999v-760h-993v141zM741.999 1100c-97.333 0 -146 46.333 -146 139c0 94 48.667 141 146 141c95.333 0 143 -47 143 -141c0 -92.667 -47.667 -139 -143 -139z" />
    <glyph glyph-name="uniFEC8" unicode="&#x638;" horiz-adv-x="1181" arabic-form="medial" 
d="M731 141l-0.000976562 613c0 20.667 -0.666992 38 -2 52c-1.33301 18.667 -4.33301 34.667 -9 48c-12 31.333 -33.333 47 -64 47c-69.333 0 -124.666 -84.333 -165.999 -253c-36 -146 -54 -315 -54 -507h295zM741.999 1100c-97.333 0 -146 46.333 -146 139
c0 94 48.667 141 146 141c95.333 0 143 -47 143 -141c0 -92.667 -47.667 -139 -143 -139zM-10.001 141l193 -0.00195312v1209c0 9.33301 4.66699 14 14 14h285c9.33301 0 14 -4 14 -12v-76c0 -10.667 -4.66699 -16 -14 -16h-33c-8.66699 0 -13 -7 -13 -21v-471
c32 100.667 79.667 169.334 143 206.001c24.667 15.333 53 25.666 85 30.999c24 4.66699 52.667 7 86 7c92.667 0 158 -30.333 196 -91c14 -23.333 24 -50.666 30 -81.999c4.66699 -23.333 7 -49.666 7 -78.999v-619h209v-141h-1202v141z" />
    <glyph glyph-name="uniFECA" unicode="&#x639;" horiz-adv-x="1177" arabic-form="final" 
d="M356 0c8 -62 35.6689 -111.667 83.002 -149c42.667 -34 92 -51 148 -51c40.667 0 74 3.33301 100 10c35.333 8 71.666 24.333 108.999 49l86 -67c-60.667 -79.333 -159 -119 -295 -119c-138 0 -253 46 -345 138c-90 89.333 -136.667 199.333 -140 330h373
c0 -0.666992 5.33301 -0.333984 16 0.999023l18 4l21 8c39.333 22 64.666 65 75.999 129l-135 587c-4 14 -10.333 21 -19 21h-26c-10 0 -15 5.33301 -15 16v76c0 8 5 12 15 12h651c9.33301 0 14 -4 14 -12v-76c0 -10.667 -4.66699 -16 -14 -16h-27
c-8 0 -14.667 -9.66699 -20 -29l-191 -653c-4 -14 -11.333 -33 -22 -57c11.333 -5.33301 24 -8.66602 38 -9.99902l332 -1v-141h-307c-62.667 -0 -113.667 14.333 -153 43c-46.667 -28.667 -104 -43 -172 -43h-199zM587.002 879l82 -373l103 377c0 10.667 -30.667 16 -92 16
c-65.333 0 -96.333 -6.66699 -93 -20z" />
    <glyph glyph-name="uniFECB" unicode="&#x639;" horiz-adv-x="864" arabic-form="initial" 
d="M-10 0l-0.000976562 141h328c-10 16 -18.333 32.333 -25 49c-8.66699 21.333 -16 44.666 -22 69.999c-15.333 61.333 -23 137 -23 227c0 63.333 5.66699 123 17 179c12.667 62.667 31.667 117.334 57 164.001c60.667 111.333 152 167 274 167
c76.667 0 140.667 -25.333 192 -76c50.667 -51.333 76 -115.333 76 -192c0 -117.333 -47.667 -176 -143 -176c-83.333 0 -125 47 -125 141c0 26.667 5.66699 49.667 17 69c8.66699 15.333 20.667 28 36 38c12 8 24.333 13.667 37 17c11.333 2.66699 17 3 17 1
c0 52 -25.333 78 -76 78c-42 0 -70 -17.667 -84 -53c-14.667 -36 -23 -109 -25 -219v-246c4 -158.667 39.667 -238 107 -238c46.667 0 79.334 15 98.001 45l101 -36c-35.333 -100 -117.333 -150 -246 -150h-588z" />
    <glyph glyph-name="uniFECC" unicode="&#x639;" horiz-adv-x="995" arabic-form="medial" 
d="M1006 141l-0.000976562 -141.001h-307c-62.667 0 -114 14.333 -154 43c-46 -28.667 -103.333 -43 -172 -43h-383v141h303l15 1c12 2 23.333 5.33301 34 10c34.667 14 57.334 39.667 68.001 77l14 54l-135 587c-4 14 -10 21 -18 21h-27c-9.33301 0 -14 5.33301 -14 16v76
c0 8 4.66699 12 14 12h651c10 0 15 -4 15 -12v-76c0 -10.667 -5 -16 -15 -16h-26c-8 0 -15 -9.66699 -21 -29l-190 -653c-4 -14 -11.667 -33 -23 -57c11.333 -5.33301 24.333 -8.66602 39 -9.99902zM405.999 878.999l82.001 -373l102 377c0 10.667 -30.667 16 -92 16
c-64.667 0 -95.334 -6.66699 -92.001 -20z" />
    <glyph glyph-name="uniFECE" unicode="&#x63a;" horiz-adv-x="1177" arabic-form="final" 
d="M737 1083c-97.333 0 -146 46.667 -146 140c0 94 48.667 141 146 141c95.333 0 143 -47 143 -141c0 -93.333 -47.667 -140 -143 -140zM356 0c8 -62 35.6689 -111.667 83.002 -149c42.667 -34 92 -51 148 -51c40.667 0 74 3.33301 100 10
c35.333 8 71.666 24.333 108.999 49l86 -67c-60.667 -79.333 -159 -119 -295 -119c-138 0 -253 46 -345 138c-90 89.333 -136.667 199.333 -140 330h373c0 -0.666992 5.33301 -0.333984 16 0.999023l18 4l21 8c39.333 22 64.666 65 75.999 129l-135 587
c-4 14 -10.333 21 -19 21h-26c-10 0 -15 5.33301 -15 16v76c0 8 5 12 15 12h651c9.33301 0 14 -4 14 -12v-76c0 -10.667 -4.66699 -16 -14 -16h-27c-8 0 -14.667 -9.66699 -20 -29l-191 -653c-4 -14 -11.333 -33 -22 -57c11.333 -5.33301 24 -8.66602 38 -9.99902l332 -1
v-141h-307c-62.667 -0 -113.667 14.333 -153 43c-46.667 -28.667 -104 -43 -172 -43h-199zM587.002 879l82 -373l103 377c0 10.667 -30.667 16 -92 16c-65.333 0 -96.333 -6.66699 -93 -20z" />
    <glyph glyph-name="uniFECF" unicode="&#x63a;" horiz-adv-x="864" arabic-form="initial" 
d="M-10 0l-0.000976562 141h328c-10 16 -18.333 32.333 -25 49c-8.66699 21.333 -16 44.666 -22 69.999c-15.333 61.333 -23 137 -23 227c0 63.333 5.66699 123 17 179c12.667 62.667 31.667 117.334 57 164.001c60.667 111.333 152 167 274 167
c76.667 0 140.667 -25.333 192 -76c50.667 -51.333 76 -115.333 76 -192c0 -117.333 -47.667 -176 -143 -176c-83.333 0 -125 47 -125 141c0 26.667 5.66699 49.667 17 69c8.66699 15.333 20.667 28 36 38c12 8 24.333 13.667 37 17c11.333 2.66699 17 3 17 1
c0 52 -25.333 78 -76 78c-42 0 -70 -17.667 -84 -53c-14.667 -36 -23 -109 -25 -219v-246c4 -158.667 39.667 -238 107 -238c46.667 0 79.334 15 98.001 45l101 -36c-35.333 -100 -117.333 -150 -246 -150h-588zM597.999 1100c-96.667 0 -145 46.333 -145 139
c0 94 48.333 141 145 141c96 0 144 -47 144 -141c0 -92.667 -48 -139 -144 -139z" />
    <glyph glyph-name="uniFED0" unicode="&#x63a;" horiz-adv-x="995" arabic-form="medial" 
d="M1006 141l-0.000976562 -141.001h-307c-62.667 0 -114 14.333 -154 43c-46 -28.667 -103.333 -43 -172 -43h-383v141h303l15 1c12 2 23.333 5.33301 34 10c34.667 14 57.334 39.667 68.001 77l14 54l-135 587c-4 14 -10 21 -18 21h-27c-9.33301 0 -14 5.33301 -14 16v76
c0 8 4.66699 12 14 12h651c10 0 15 -4 15 -12v-76c0 -10.667 -5 -16 -15 -16h-26c-8 0 -15 -9.66699 -21 -29l-190 -653c-4 -14 -11.667 -33 -23 -57c11.333 -5.33301 24.333 -8.66602 39 -9.99902zM554.999 1083c-96.667 0 -145 46.667 -145 140c0 94 48.333 141 145 141
c96 0 144 -47 144 -141c0 -93.333 -48 -140 -144 -140zM405.999 878.999l82.001 -373l102 377c0 10.667 -30.667 16 -92 16c-64.667 0 -95.334 -6.66699 -92.001 -20z" />
    <glyph glyph-name="uniFED2" unicode="&#x641;" horiz-adv-x="1695" arabic-form="final" 
d="M1173 1100c-97.333 0 -146 46.333 -146 139c0 94 48.667 141 146 141c95.333 0 143 -47 143 -141c0 -92.667 -47.667 -139 -143 -139zM333 0c-59.333 0 -108.333 23.6689 -147 71.002s-58 107 -58 179c-17.333 293.333 97.334 455 344.001 485l4 -86
c-42 -13.333 -68.333 -40.666 -79 -81.999c-4.66699 -20 -8 -47.667 -10 -83c-0.666992 -14.667 -1.33398 -33.334 -2.00098 -56.001l-3 -201c0 -57.333 24 -86 72 -86h528c-43.333 48.667 -78.666 105.667 -105.999 171c-24.667 58 -39.667 114.333 -45 169
c-19.333 168 3.66699 301.667 69 401c62.667 94.667 153 142 271 142c116.667 0 205.334 -46.333 266.001 -139c63.333 -96.667 88 -231.334 74 -404.001c-4.66699 -55.333 -19 -112 -43 -170c-26.667 -64.667 -62.334 -121.334 -107.001 -170.001h369v-141h-428
c-46.667 0 -90.334 6 -131.001 18c-39.333 -12 -83.333 -18 -132 -18h-706zM1240 829.002c0 76.667 -23 115 -69 115c-46.667 0 -70 -38.333 -70 -115l-2 -491c0 -72 24 -124.667 72 -158c47.333 33.333 71 86 71 158z" />
    <glyph glyph-name="uniFED3" unicode="&#x641;" horiz-adv-x="808" arabic-form="initial" 
d="M557 780c0 70 -21 105 -63 105c-22 0 -39.667 -22.333 -53 -67c-11.333 -39.333 -17 -88 -17 -146c0 -139.333 28.667 -209 86 -209l47 4v313zM557 330c0 23.333 -0.999023 35.332 -2.99902 35.999l-62 -4c-102.667 0 -183.334 32.333 -242.001 97
c-53.333 59.333 -80 135 -80 227c0 94.667 23.667 171.334 71 230.001c55.333 69.333 138.333 104 249 104l43 -1c17.333 -0.666992 34 -2.33398 50 -5.00098c40 -5.33301 75 -15.666 105 -30.999c80.667 -40 121 -113 121 -219v-537c0 -151.333 -68.333 -227 -205 -227
h-614v141h518c28 0 43.667 28.667 47 86zM502.001 1100c-96.667 0 -145 46.333 -145 139c0 94 48.333 141 145 141c95.333 0 143 -47 143 -141c0 -92.667 -47.667 -139 -143 -139z" />
    <glyph glyph-name="uniFED4" unicode="&#x641;" horiz-adv-x="1212" arabic-form="medial" 
d="M666 1100c-97.333 0 -146 46.333 -146 139c0 94 48.667 141 146 141c95.333 0 143 -47 143 -141c0 -92.667 -47.667 -139 -143 -139zM931 885c62.667 -96.667 87.001 -231.332 73.001 -403.999c-4.66699 -55.333 -19 -112 -43 -170
c-26.667 -64.667 -62.334 -121.334 -107.001 -170.001h369v-141h-428c-46.667 0 -90.334 6 -131.001 18c-39.333 -12 -83 -18 -131 -18h-543v141h485c-43.333 48.667 -78.666 105.667 -105.999 171c-24.667 58 -39.667 114.333 -45 169c-19.333 168 3.66699 301.667 69 401
c62.667 94.667 153 142 271 142c117.333 0 206.333 -46.333 267 -139zM733.001 829.002c0 76.667 -23 115 -69 115c-46.667 0 -70 -38.333 -70 -115l-2 -491c0 -72 24 -124.667 72 -158c47.333 33.333 71 86 71 158z" />
    <glyph glyph-name="uniFED6" unicode="&#x642;" horiz-adv-x="1257" arabic-form="final" 
d="M983 1100c-97.333 0 -146 46.333 -146 139c0 94 48.667 141 146 141c95.333 0 143 -47 143 -141c0 -92.667 -47.667 -139 -143 -139zM641 1100c-97.333 0 -146 46.333 -146 139c0 94 48.667 141 146 141c95.333 0 143 -47 143 -141c0 -92.667 -47.667 -139 -143 -139z
M741 0c-191.333 0 -286.999 160.998 -286.999 482.998c0 74.667 4 139.667 12 195c8.66699 64.667 23 119 43 163c46.667 102.667 126 154 238 154h397c10 0 15 -4 15 -12v-76c0 -10.667 -5 -16 -15 -16h-32c-8.66699 0 -13 -7 -13 -21v-729h168v-141h-174
c-17.333 -89.333 -67.333 -162.666 -150 -219.999c-90 -62 -203 -93 -339 -93c-144.667 0 -265.334 37.667 -362.001 113c-93.333 72.667 -140 158.334 -140 257.001v359h252v-393c0 -64 23.333 -118.667 70 -164c48 -46 108 -69 180 -69c146 0 225.667 70 239 210h-102z
M847.001 140.998v619c0 80.667 -21.667 121 -65 121c-50 0 -76 -64.333 -78 -193v-356c2 -127.333 29.333 -191 82 -191h61z" />
    </font>
</defs>
</svg>
