<?xml version="1.0" standalone="no"?>
<!DOCTYPE svg PUBLIC "-//W3C//DTD SVG 1.1//EN" "http://www.w3.org/Graphics/SVG/1.1/DTD/svg11.dtd" >
<svg>
<metadata>
Created by FontForge 20090914 at Wed Oct 19 01:05:32 2011
 By www-data
(c) by Abolfazl Seilsepour - +98 912 591 3420  -  seilsepor@yahoo.com
</metadata>
<defs>
<font id="FarDigitalArabia-Bold" horiz-adv-x="1131" >
  <font-face 
    font-family="Far.Digital Arabia"
    font-weight="700"
    font-stretch="normal"
    units-per-em="2048"
    panose-1="0 0 7 0 0 0 0 0 0 0"
    ascent="1638"
    descent="-410"
    bbox="-115.002 -1422 2513 2405"
    underline-thickness="100"
    underline-position="-670"
    unicode-range="U+0020-U+FEFC"
  />
<missing-glyph horiz-adv-x="1298" 
d="M100 -330v1661h998v-1661h-998zM266 -163h666v1328h-666v-1328z" />
    <glyph glyph-name="uniE818" unicode="&#x651;&#x64b;" horiz-adv-x="769" 
d="M640 1730l-33 -41l-34 -44h-153l-50 71l-54 -129h-241v208l56 118l78 -40l-32 -85v-78h104l20 65l10 37l-3 79l31 17l70 36v-176h123l-3 53l-1 29l-44 71l79 59l33 -43l24 -64l20 -55v-88zM616 2098l-495 -122l-27 101l497 127zM611 2285l-496 -123l-28 102l498 126z" />
    <glyph glyph-name="uniFC5E" unicode="&#x651;&#x64c;" horiz-adv-x="785" arabic-form="isolated" 
d="M575 2264h-105l-46 -35v-55l46 -42l30 1l75 6v125zM655 1701l-32 -40l-33 -44h-151l-48 70l-54 -127h-235v204l54 116l78 -40l-33 -83v-76h103l19 63l10 36l-2 79l29 16l68 35v-172h123l-4 52l-1 29l-16 24l-7 13l-21 31l78 58l32 -41l24 -64l19 -54v-85zM671 2071
l-168 -40l-355 -84l-33 90l33 16l53 25v78h-40l-32 -23l-39 58l47 65l56 -2l91 -2v-140l-29 -42l97 36l-27 45v123l60 49l54 43h119l54 -44l59 -47v-204z" />
    <glyph glyph-name="uniFC5F" unicode="&#x651;&#x64d;" horiz-adv-x="769" arabic-form="isolated" 
d="M600 1921l-495 -123l-27 102l498 126zM618 1718l-495 -123l-27 102l497 125zM619 2154l-33 -41l-34 -44h-153l-50 71l-54 -129h-241v208l56 118l79 -40l-33 -86v-77h106l18 65l10 34l-1 82l29 17l70 35v-175h125l-3 53l-2 32l-45 68l79 60l77 -103v-148z" />
    <glyph glyph-name="uniFC60" unicode="&#x651;&#x64e;" horiz-adv-x="763" arabic-form="isolated" 
d="M662 1715l-32 -41l-34 -44h-150l-49 69l-53 -126h-236v204l55 116l78 -40l-33 -83v-76h103l18 63l10 36l-1 79l29 15l68 36v-173h122l-3 53l-2 30l-15 24l-7 12l-21 32l78 57l31 -41l24 -64l20 -54v-84zM616 2104l-485 -121l-28 100l488 124z" />
    <glyph glyph-name="uniFC61" unicode="&#x651;&#x64f;" horiz-adv-x="769" arabic-form="isolated" 
d="M498 2212h-108l-23 -18l-26 -19v-57l51 -39l29 2l77 5v126zM612 1738l-32 -41l-35 -44h-152l-51 71l-54 -129h-241v208l56 118l79 -39l-33 -86v-78h106l19 66l9 34l-1 81l29 17l70 36v-176h125l-3 53l-2 33l-45 68l80 59l34 -45l23 -63l19 -53v-90zM271 2056l-28 45v119
l61 51l54 45h123l56 -44l59 -46v-211l-172 -40l-352 -81l-25 95l86 24z" />
    <glyph glyph-name="uniFC62" unicode="&#x651;&#x650;" horiz-adv-x="769" arabic-form="isolated" 
d="M642 1845l-495 -123l-27 102l498 126zM661 2078l-33 -41l-34 -44h-153l-50 71l-54 -129h-241v208l56 118l79 -40l-33 -86v-77h106l18 64l10 35l-1 81l29 18l70 35v-176h125l-3 54l-2 32l-45 68l79 60l77 -103v-148z" />
    <glyph glyph-name="uniFDF2" unicode="&#xfedf;&#xfee0;&#xfeea;" horiz-adv-x="2137" arabic-form="isolated" 
d="M1188 1052l213.99 18.0029l64 -703c6.66699 -24 20.834 -48.833 42.501 -74.5s49.5 -47 83.5 -64s73.167 -26.667 117.5 -29s92.5 8.16699 144.5 31.5l-19 222l-14.5 169l-11.5 127.5c-3.33301 36.333 -6.16602 68.833 -8.49902 97.5s-4.66602 54.834 -6.99902 78.501
l-7 71l-7 74.5c-2.33301 26 -5.16602 55.667 -8.49902 89l214 18l11 -118.5l10 -103.5l10.5 -112l13 -143l17.5 -197l23 -275c4 -41.333 -4.33301 -77 -25 -107s-48 -55.667 -82 -77c-12.667 -8 -31.167 -16.833 -55.5 -26.5s-53 -17.834 -86 -24.501
s-68.833 -10.334 -107.5 -11.001s-78.167 4.16602 -118.5 14.499s-80.666 27.333 -120.999 51s-78.166 56.834 -113.499 99.501c-29.333 -50 -65.166 -90.667 -107.499 -122s-89.5 -51.166 -141.5 -59.499s-107.833 -4 -167.5 13s-121.5 49.167 -185.5 96.5l-66.5 -36.5
c-26.333 -14.333 -55.166 -28.666 -86.499 -42.999s-64.166 -28 -98.499 -41s-68.5 -23.5 -102.5 -31.5c-28 -6.66699 -56.667 -12.167 -86 -16.5s-57.666 -6.5 -84.999 -6.5s-52.833 2.83301 -76.5 8.5s-44.167 15.5 -61.5 29.5s-30.333 32.667 -39 56
s-11.667 52.666 -9 87.999c4.66699 52 17 103 37 153s48.167 98 84.5 144s81.833 89.833 136.5 131.5s119 80.167 193 115.5l-11 62.5c-4 23.667 -8.33301 43.5 -13 59.5l207 55c7.33301 -25.333 13.833 -50.833 19.5 -76.5l16.5 -76.5l24.5 -109
c8.33301 -36.667 18.166 -71.834 29.499 -105.501s25.166 -65.334 41.499 -95.001s36.333 -55.334 60 -77.001s51.834 -38.834 84.501 -51.501s71.334 -19 116.001 -19c16 2 33.5 7.83301 52.5 17.5s37 22.834 54 39.501s31.833 36 44.5 58s21 46.667 25 74zM1273.99 1428
c2 -25.333 7.99609 -46.3311 17.9961 -62.998s21 -28.667 33 -36s23.5 -10.166 34.5 -8.49902s18.5 8.16699 22.5 19.5s3.33301 27.166 -2 47.499s-18.666 45.5 -39.999 75.5l103 47c18 -23.333 30.833 -49.5 38.5 -78.5s10.334 -57.5 8.00098 -85.5
s-9.16602 -53.833 -20.499 -77.5s-26.666 -42.334 -45.999 -56.001s-42.166 -20.667 -68.499 -21s-55.5 9.5 -87.5 29.5c-21.333 -39.333 -45 -67.333 -71 -84s-52 -25 -78 -25c-23.333 0 -45.5 6.16699 -66.5 18.5s-39.167 29.333 -54.5 51s-27.333 46.834 -36 75.501
s-12 59.334 -10 92.001l122 34c-8 -34.667 -9.16699 -62.334 -3.5 -83.001s14.5 -35.334 26.5 -44.001s25.167 -11.834 39.5 -9.50098s26.333 9.33301 36 21s15.167 27.167 16.5 46.5s-5.33398 42 -20.001 68zM549.986 429.005l-85.9971 -46.5
c-30 -16.333 -58.833 -35.333 -86.5 -57s-52.834 -47 -75.501 -76s-40 -62.833 -52 -101.5c2 -7.33301 6.16699 -12.833 12.5 -16.5s14.166 -5.83398 23.499 -6.50098s20.166 -0.166992 32.499 1.5s25.166 4.16699 38.499 7.5c22.667 4.66699 45.834 11.334 69.501 20.001
s47 18 70 28s44.833 20.333 65.5 31l57 30c-14.667 28.667 -27.5 58.5 -38.5 89.5s-21.167 63.167 -30.5 96.5z" />
    <glyph glyph-name="uniFEF5" unicode="&#xfedf;&#xfe82;" horiz-adv-x="1110" arabic-form="isolated" 
d="M782 1160l214.998 18.001l51 -569c6 -67.333 5.16699 -128.5 -2.5 -183.5s-23.167 -105.833 -46.5 -152.5s-55.166 -89.667 -95.499 -129s-90.166 -77 -149.499 -113c-40 -24 -81.667 -45.667 -125 -65s-87 -35.833 -131 -49.5s-87 -24 -129 -31
s-81.333 -10.5 -118 -10.5v214c43.333 3.33301 87 9.5 131 18.5s86.5 21 127.5 36s79.667 33 116 54s68.833 45.167 97.5 72.5l-695 720l155 148l650 -673c2 13.333 3.5 26.666 4.5 39.999s1.16699 27 0.5 41zM12.998 1175c-1.33301 54 15.832 105.332 51.499 153.999
s102.5 50.834 200.5 6.50098s173 -28.5 225 47.5c-25.333 -160 -97.166 -213 -215.499 -159s-205.5 37.667 -261.5 -49z" />
    <glyph glyph-name="uniFEF6" unicode="&#xfee0;&#xfe82;" horiz-adv-x="1215" arabic-form="final" 
d="M1189 0h-81.9971c-27.333 0 -54.833 3.66699 -82.5 11s-55.667 20 -84 38s-56.833 44.667 -85.5 80l-27.5 -27.5c-8.33301 -8.33301 -17 -16.166 -26 -23.499s-18.833 -14.833 -29.5 -22.5s-23.334 -15.834 -38.001 -24.501c-40 -24 -81.667 -45.667 -125 -65
s-87 -35.833 -131 -49.5s-87 -24 -129 -31s-81.333 -10.5 -118 -10.5v214c43.333 3.33301 87 9.5 131 18.5s86.5 21 127.5 36s79.667 33 116 54s68.833 45.167 97.5 72.5l-695 720l155 148l650 -673c0.666992 4 1.16699 9.16699 1.5 15.5s0.333008 17.5 0 33.5
s-1.5 38.5 -3.5 67.5l-8.5 118.5c-3.66699 50 -8.5 112.5 -14.5 187.5l-22 272.5l214 18l55 -841c2 -26.667 8 -47.667 18 -63s22.167 -27 36.5 -35s30.166 -13.5 47.499 -16.5s34.666 -5.5 51.999 -7.5h35v-215h-35zM13.0029 1175
c-1.33301 54 15.832 105.332 51.499 153.999s102.5 50.834 200.5 6.50098s173 -28.5 225 47.5c-25.333 -160 -97.166 -213 -215.499 -159s-205.5 37.667 -261.5 -49z" />
    <glyph glyph-name="uniFEF7" unicode="&#xfedf;&#xfe84;" horiz-adv-x="1110" arabic-form="isolated" 
d="M782 1160l214.998 18.001l51 -569c6 -67.333 5.16699 -128.5 -2.5 -183.5s-23.167 -105.833 -46.5 -152.5s-55.166 -89.667 -95.499 -129s-90.166 -77 -149.499 -113c-40 -24 -81.667 -45.667 -125 -65s-87 -35.833 -131 -49.5s-87 -24 -129 -31
s-81.333 -10.5 -118 -10.5v214c43.333 3.33301 87 9.5 131 18.5s86.5 21 127.5 36s79.667 33 116 54s68.833 45.167 97.5 72.5l-695 720l155 148l650 -673c2 13.333 3.5 26.666 4.5 39.999s1.16699 27 0.5 41zM36.998 1212c5.33301 8 10.9971 14.3359 16.9971 19.0029
s12.167 9 18.5 13s12.833 7.83301 19.5 11.5s14 8.16699 22 13.5c-7.33301 0.666992 -15.166 3 -23.499 7s-16.166 9 -23.499 15s-13.333 12.667 -18 20s-7 15.333 -7 24c0 17.333 3.5 38 10.5 62s17 46.833 30 68.5s28.5 40 46.5 55s37.667 22.5 59 22.5
c15.333 -0.666992 29.5 -4 42.5 -10s21.5 -14.333 25.5 -25l-32 -73c-7.33301 1.33301 -14.833 3.16602 -22.5 5.49902s-15.5 3.5 -23.5 3.5c-7.33301 0 -14.333 -1.66699 -21 -5s-12.334 -10.333 -17.001 -21c-5.33301 -12.667 -6 -22.5 -2 -29.5s10.833 -12 20.5 -15
s21.5 -4.5 35.5 -4.5s28.333 0.333008 43 1s28.834 1.5 42.501 2.5s24.834 0.833008 33.501 -0.5l-40 -124c-18 -4 -37.333 -8.66699 -58 -14s-41 -11.833 -61 -19.5s-39 -16.334 -57 -26.001s-33.667 -20.834 -47 -33.501z" />
    <glyph glyph-name="uniFEF8" unicode="&#xfee0;&#xfe84;" horiz-adv-x="1215" arabic-form="final" 
d="M1189 0h-81.9971c-27.333 0 -54.833 3.66699 -82.5 11s-55.667 20 -84 38s-56.833 44.667 -85.5 80l-27.5 -27.5c-8.33301 -8.33301 -17 -16.166 -26 -23.499s-18.833 -14.833 -29.5 -22.5s-23.334 -15.834 -38.001 -24.501c-40 -24 -81.667 -45.667 -125 -65
s-87 -35.833 -131 -49.5s-87 -24 -129 -31s-81.333 -10.5 -118 -10.5v214c43.333 3.33301 87 9.5 131 18.5s86.5 21 127.5 36s79.667 33 116 54s68.833 45.167 97.5 72.5l-695 720l155 148l650 -673c0.666992 4 1.16699 9.16699 1.5 15.5s0.333008 17.5 0 33.5
s-1.5 38.5 -3.5 67.5l-8.5 118.5c-3.66699 50 -8.5 112.5 -14.5 187.5l-22 272.5l214 18l55 -841c2 -26.667 8 -47.667 18 -63s22.167 -27 36.5 -35s30.166 -13.5 47.499 -16.5s34.666 -5.5 51.999 -7.5h35v-215h-35zM37.0029 1212
c5.33301 8 10.9971 14.3359 16.9971 19.0029s12.167 9 18.5 13s12.833 7.83301 19.5 11.5s14 8.16699 22 13.5c-7.33301 0.666992 -15.166 3 -23.499 7s-16.166 9 -23.499 15s-13.333 12.667 -18 20s-7 15.333 -7 24c0 17.333 3.5 38 10.5 62s17 46.833 30 68.5
s28.5 40 46.5 55s37.667 22.5 59 22.5c15.333 -0.666992 29.5 -4 42.5 -10s21.5 -14.333 25.5 -25l-32 -73c-7.33301 1.33301 -14.833 3.16602 -22.5 5.49902s-15.5 3.5 -23.5 3.5c-7.33301 0 -14.333 -1.66699 -21 -5s-12.334 -10.333 -17.001 -21
c-5.33301 -12.667 -6 -22.5 -2 -29.5s10.833 -12 20.5 -15s21.5 -4.5 35.5 -4.5s28.333 0.333008 43 1s28.834 1.5 42.501 2.5s24.834 0.833008 33.501 -0.5l-40 -124c-18 -4 -37.333 -8.66699 -58 -14s-41 -11.833 -61 -19.5s-39 -16.334 -57 -26.001
s-33.667 -20.834 -47 -33.501z" />
    <glyph glyph-name="uniFEF9" unicode="&#xfedf;&#xfe88;" horiz-adv-x="1116" arabic-form="isolated" 
d="M782 1160l214.998 18.001l51 -569c6 -67.333 5.16699 -128.5 -2.5 -183.5s-23.167 -105.833 -46.5 -152.5s-55.166 -89.667 -95.499 -129s-90.166 -77 -149.499 -113c-40 -24 -81.667 -45.667 -125 -65s-87 -35.833 -131 -49.5s-87 -24 -129 -31
s-81.333 -10.5 -118 -10.5v214c43.333 3.33301 87 9.5 131 18.5s86.5 21 127.5 36s79.667 33 116 54s68.833 45.167 97.5 72.5l-695 720l155 148l650 -673c2 13.333 3.5 26.666 4.5 39.999s1.16699 27 0.5 41zM156.998 -575.999c5.33301 8 10.9971 14.3359 16.9971 19.0029
s12.167 9 18.5 13s12.833 7.83301 19.5 11.5s14 8.16699 22 13.5c-7.33301 0.666992 -15.166 3 -23.499 7s-16.166 9 -23.499 15s-13.333 12.667 -18 20s-7 15.333 -7 24c0 17.333 3.5 38 10.5 62s17 46.833 30 68.5s28.5 40 46.5 55s37.667 22.5 59 22.5
c15.333 -0.666992 29.5 -4 42.5 -10s21.5 -14.333 25.5 -25l-32 -73c-7.33301 1.33301 -14.833 3.16602 -22.5 5.49902s-15.5 3.5 -23.5 3.5c-7.33301 0 -14.333 -1.66699 -21 -5s-12.334 -10.333 -17.001 -21c-5.33301 -12.667 -6 -22.5 -2 -29.5s10.833 -12 20.5 -15
s21.5 -4.5 35.5 -4.5s28.333 0.333008 43 1s28.834 1.5 42.501 2.5s24.834 0.833008 33.501 -0.5l-40 -124c-18 -4 -37.333 -8.66699 -58 -14s-41 -11.833 -61 -19.5s-39 -16.334 -57 -26.001s-33.667 -20.834 -47 -33.501z" />
    <glyph glyph-name="uniFEFA" unicode="&#xfee0;&#xfe88;" horiz-adv-x="1215" arabic-form="final" 
d="M1189 0h-81.9971c-27.333 0 -54.833 3.66699 -82.5 11s-55.667 20 -84 38s-56.833 44.667 -85.5 80l-27.5 -27.5c-8.33301 -8.33301 -17 -16.166 -26 -23.499s-18.833 -14.833 -29.5 -22.5s-23.334 -15.834 -38.001 -24.501c-40 -24 -81.667 -45.667 -125 -65
s-87 -35.833 -131 -49.5s-87 -24 -129 -31s-81.333 -10.5 -118 -10.5v214c43.333 3.33301 87 9.5 131 18.5s86.5 21 127.5 36s79.667 33 116 54s68.833 45.167 97.5 72.5l-695 720l155 148l650 -673c0.666992 4 1.16699 9.16699 1.5 15.5s0.333008 17.5 0 33.5
s-1.5 38.5 -3.5 67.5l-8.5 118.5c-3.66699 50 -8.5 112.5 -14.5 187.5l-22 272.5l214 18l55 -841c2 -26.667 8 -47.667 18 -63s22.167 -27 36.5 -35s30.166 -13.5 47.499 -16.5s34.666 -5.5 51.999 -7.5h35v-215h-35zM157.003 -576
c5.33301 8 10.9971 14.3359 16.9971 19.0029s12.167 9 18.5 13s12.833 7.83301 19.5 11.5s14 8.16699 22 13.5c-7.33301 0.666992 -15.166 3 -23.499 7s-16.166 9 -23.499 15s-13.333 12.667 -18 20s-7 15.333 -7 24c0 17.333 3.5 38 10.5 62s17 46.833 30 68.5
s28.5 40 46.5 55s37.667 22.5 59 22.5c15.333 -0.666992 29.5 -4 42.5 -10s21.5 -14.333 25.5 -25l-32 -73c-7.33301 1.33301 -14.833 3.16602 -22.5 5.49902s-15.5 3.5 -23.5 3.5c-7.33301 0 -14.333 -1.66699 -21 -5s-12.334 -10.333 -17.001 -21
c-5.33301 -12.667 -6 -22.5 -2 -29.5s10.833 -12 20.5 -15s21.5 -4.5 35.5 -4.5s28.333 0.333008 43 1s28.834 1.5 42.501 2.5s24.834 0.833008 33.501 -0.5l-40 -124c-18 -4 -37.333 -8.66699 -58 -14s-41 -11.833 -61 -19.5s-39 -16.334 -57 -26.001
s-33.667 -20.834 -47 -33.501z" />
    <glyph glyph-name="uniFEFB" unicode="&#xfedf;&#xfe8e;" horiz-adv-x="1126" arabic-form="isolated" 
d="M782 1160l214.998 18.001l51 -569c6 -67.333 5.16699 -128.5 -2.5 -183.5s-23.167 -105.833 -46.5 -152.5s-55.166 -89.667 -95.499 -129s-90.166 -77 -149.499 -113c-40 -24 -81.667 -45.667 -125 -65s-87 -35.833 -131 -49.5s-87 -24 -129 -31
s-81.333 -10.5 -118 -10.5v214c43.333 3.33301 87 9.5 131 18.5s86.5 21 127.5 36s79.667 33 116 54s68.833 45.167 97.5 72.5l-695 720l155 148l650 -673c2 13.333 3.5 26.666 4.5 39.999s1.16699 27 0.5 41z" />
    <glyph glyph-name="uniFEFC" unicode="&#xfee0;&#xfe8e;" horiz-adv-x="1215" arabic-form="final" 
d="M1189 0h-81.9971c-27.333 0 -54.833 3.66699 -82.5 11s-55.667 20 -84 38s-56.833 44.667 -85.5 80l-27.5 -27.5c-8.33301 -8.33301 -17 -16.166 -26 -23.499s-18.833 -14.833 -29.5 -22.5s-23.334 -15.834 -38.001 -24.501c-40 -24 -81.667 -45.667 -125 -65
s-87 -35.833 -131 -49.5s-87 -24 -129 -31s-81.333 -10.5 -118 -10.5v214c43.333 3.33301 87 9.5 131 18.5s86.5 21 127.5 36s79.667 33 116 54s68.833 45.167 97.5 72.5l-695 720l155 148l650 -673c0.666992 4 1.16699 9.16699 1.5 15.5s0.333008 17.5 0 33.5
s-1.5 38.5 -3.5 67.5l-8.5 118.5c-3.66699 50 -8.5 112.5 -14.5 187.5l-22 272.5l214 18l55 -841c2 -26.667 8 -47.667 18 -63s22.167 -27 36.5 -35s30.166 -13.5 47.499 -16.5s34.666 -5.5 51.999 -7.5h35v-215h-35z" />
    <glyph glyph-name="afii57458_afii57454.liga" unicode="&#x652;&#x64e;" horiz-adv-x="407" 
d="M207 1438v-390l-106 -1l-1 392z" />
    <glyph glyph-name="afii57458_afii57451.liga" unicode="&#x652;&#x64b;" horiz-adv-x="945" 
d="M745 1160h-274v277h274v-277zM374 1160h-274v277h274v-277z" />
    <glyph glyph-name="afii57458_afii57453.liga" unicode="&#x652;&#x64d;" horiz-adv-x="945" 
d="M745 -1422h-274v277h274v-277zM374 -1422h-274v277h274v-277z" />
    <glyph glyph-name="afii57410" unicode="&#x622;" horiz-adv-x="454" arabic-form="isolated" 
d="M80 1160l214.999 17.998l74 -822c3.33301 -43.333 6 -86.166 8 -128.499s-2.33301 -85.166 -13 -128.499c-3.33301 -12 -7.33301 -24 -12 -36s-10.667 -24.833 -18 -38.5s-16.166 -28.5 -26.499 -44.5s-22.833 -34 -37.5 -54l-149 86c6 14.667 11.667 30 17 46
s10 33.167 14 51.5s7 38.5 9 60.5s3 46.667 3 74zM-42.001 1260c-1.33301 54 15.832 105.332 51.499 153.999s102.5 50.834 200.5 6.50098s173 -28.5 225 47.5c-25.333 -160 -97.166 -213 -215.499 -159s-205.5 37.667 -261.5 -49z" />
    <glyph glyph-name="afii57411" unicode="&#x623;" horiz-adv-x="454" arabic-form="isolated" 
d="M80 1160l214.999 17.998l74 -822c3.33301 -43.333 6 -86.166 8 -128.499s-2.33301 -85.166 -13 -128.499c-3.33301 -12 -7.33301 -24 -12 -36s-10.667 -24.833 -18 -38.5s-16.166 -28.5 -26.499 -44.5s-22.833 -34 -37.5 -54l-149 86c6 14.667 11.667 30 17 46
s10 33.167 14 51.5s7 38.5 9 60.5s3 46.667 3 74zM72.999 1290c5.33301 8 10.9971 14.3359 16.9971 19.0029s12.167 9 18.5 13s12.833 7.83301 19.5 11.5s14 8.16699 22 13.5c-7.33301 0.666992 -15.166 3 -23.499 7s-16.166 9 -23.499 15s-13.333 12.667 -18 20
s-7 15.333 -7 24c0 17.333 3.5 38 10.5 62s17 46.833 30 68.5s28.5 40 46.5 55s37.667 22.5 59 22.5c15.333 -0.666992 29.5 -4 42.5 -10s21.5 -14.333 25.5 -25l-32 -73c-7.33301 1.33301 -14.833 3.16602 -22.5 5.49902s-15.5 3.5 -23.5 3.5
c-7.33301 0 -14.333 -1.66699 -21 -5s-12.334 -10.333 -17.001 -21c-5.33301 -12.667 -6 -22.5 -2 -29.5s10.833 -12 20.5 -15s21.5 -4.5 35.5 -4.5s28.333 0.333008 43 1s28.834 1.5 42.501 2.5s24.834 0.833008 33.501 -0.5l-40 -124c-18 -4 -37.333 -8.66699 -58 -14
s-41 -11.833 -61 -19.5s-39 -16.334 -57 -26.001s-33.667 -20.834 -47 -33.501z" />
    <glyph glyph-name="afii57412" unicode="&#x624;" horiz-adv-x="1079" arabic-form="isolated" 
d="M817 87c-29.333 -10 -60.833 -18.668 -94.5 -26.001s-67.834 -12.833 -102.501 -16.5s-69.5 -5 -104.5 -4s-68.5 5.33301 -100.5 13s-62 19 -90 34s-52.333 34.167 -73 57.5c-19.333 26 -31.666 59.667 -36.999 101s-4.66602 85 2.00098 131s19 92 37 138
s41 87.333 69 124s60.667 66.334 98 89.001s78.333 33 123 31c27.333 0 55.666 -4.5 84.999 -13.5s59 -24 89 -45s60.5 -48.167 91.5 -81.5s62.167 -74.333 93.5 -123c56 -102 92.167 -193.667 108.5 -275s17.166 -153.833 2.49902 -217.5s-42.5 -119.167 -83.5 -166.5
s-90.5 -88.333 -148.5 -123c-54.667 -32 -115.167 -59 -181.5 -81s-134.666 -40.167 -204.999 -54.5s-140.833 -25.333 -211.5 -33s-138 -13.5 -202 -17.5l-18 213c27.333 2.66699 60.166 5.33398 98.499 8.00098s79.333 6.16699 123 10.5s88.834 10 135.501 17
s92.667 16.167 138 27.5s88.5 25 129.5 41s77.667 35.333 110 58s59 49.167 80 79.5s33.833 65.166 38.5 104.499zM677 970.999l-394.001 -177.002l-37 80l110 55c-16.667 4 -32 9.5 -46 16.5s-25.833 15.667 -35.5 26s-16.667 23 -21 38s-5.16602 33.167 -2.49902 54.5
c4 34 14.833 65.333 32.5 94s43.5 49.334 77.5 62.001s69 14.834 105 6.50098s68.333 -22.5 97 -42.5l-59 -86c-14.667 10 -31.667 18 -51 24s-38 5.66699 -56 -1c-14 -5.33301 -24.167 -15 -30.5 -29s-10.5 -28 -12.5 -42c-0.666992 -8 5.5 -14.5 18.5 -19.5
s28.333 -9.33301 46 -13s35 -6.5 52 -8.5s29.167 -3.66699 36.5 -5l127 63zM546.999 543.997c-13.333 -1.33301 -26.332 -8.00098 -38.999 -20.001s-24.334 -27 -35.001 -45s-20.167 -37.333 -28.5 -58s-15.166 -40.5 -20.499 -59.5s-8.83301 -35.5 -10.5 -49.5
s-1.16699 -23.333 1.5 -28c13.333 -15.333 34.5 -25 63.5 -29s60.833 -4.33301 95.5 -1s69.5 9 104.5 17s65.167 16.667 90.5 26c-6 14.667 -14.833 31.834 -26.5 51.501s-24.667 39.5 -39 59.5s-29.333 39.333 -45 58s-30.667 34.667 -45 48s-27.333 23 -39 29
s-20.834 6.33301 -27.501 1z" />
    <glyph glyph-name="afii57413" unicode="&#x625;" horiz-adv-x="454" arabic-form="isolated" 
d="M80 1160l214.999 17.998l74 -822c3.33301 -43.333 6 -86.166 8 -128.499s-2.33301 -85.166 -13 -128.499c-3.33301 -12 -7.33301 -24 -12 -36s-10.667 -24.833 -18 -38.5s-16.166 -28.5 -26.499 -44.5s-22.833 -34 -37.5 -54l-149 86c6 14.667 11.667 30 17 46
s10 33.167 14 51.5s7 38.5 9 60.5s3 46.667 3 74zM72.999 -491.002c5.33301 8 10.9971 14.3359 16.9971 19.0029s12.167 9 18.5 13s12.833 7.83301 19.5 11.5s14 8.16699 22 13.5c-7.33301 0.666992 -15.166 3 -23.499 7s-16.166 9 -23.499 15s-13.333 12.667 -18 20
s-7 15.333 -7 24c0 17.333 3.5 38 10.5 62s17 46.833 30 68.5s28.5 40 46.5 55s37.667 22.5 59 22.5c15.333 -0.666992 29.5 -4 42.5 -10s21.5 -14.333 25.5 -25l-32 -73c-7.33301 1.33301 -14.833 3.16602 -22.5 5.49902s-15.5 3.5 -23.5 3.5
c-7.33301 0 -14.333 -1.66699 -21 -5s-12.334 -10.333 -17.001 -21c-5.33301 -12.667 -6 -22.5 -2 -29.5s10.833 -12 20.5 -15s21.5 -4.5 35.5 -4.5s28.333 0.333008 43 1s28.834 1.5 42.501 2.5s24.834 0.833008 33.501 -0.5l-40 -124c-18 -4 -37.333 -8.66699 -58 -14
s-41 -11.833 -61 -19.5s-39 -16.334 -57 -26.001s-33.667 -20.834 -47 -33.501z" />
    <glyph glyph-name="afii57414" unicode="&#x626;" horiz-adv-x="1303" arabic-form="isolated" 
d="M1240 0c-6 -48 -25.332 -94.4941 -57.999 -139.494s-74.667 -87.5 -126 -127.5c-50 -38 -106.667 -72.167 -170 -102.5s-129 -54.166 -197 -71.499c-70.667 -18 -141 -27.5 -211 -28.5s-135.333 9.5 -196 31.5c-58 20.667 -107 52.667 -147 96s-65.833 96.5 -77.5 159.5
s-6.83398 135.333 14.499 217s64 171.5 128 269.5l97 -5c-30.667 -84.667 -50.667 -158.167 -60 -220.5s-10.333 -115 -3 -158s21.666 -77.333 42.999 -103s47.333 -43.834 78 -54.501c38 -14 81.333 -20.167 130 -18.5s99 9.16699 151 22.5
c54 13.333 106.167 31.833 156.5 55.5s94.5 50.5 132.5 80.5c70.667 54 101.667 94.167 93 120.5s-54.667 43.166 -138 50.499c-40 3.33301 -78.833 7.66602 -116.5 12.999s-71 15.666 -100 30.999s-52.333 37.666 -70 66.999s-26.5 69.666 -26.5 120.999
c0 47.333 10.5 90.833 31.5 130.5s49 75.167 84 106.5s75 58.666 120 81.999s91.333 42.833 139 58.5s95 27.334 142 35.001s89.833 11.5 128.5 11.5l-18 -215c-17.333 0 -39.666 -1.83301 -66.999 -5.5s-56.166 -9 -86.499 -16s-60.833 -16.167 -91.5 -27.5
s-58.5 -24.833 -83.5 -40.5s-45.167 -33.334 -60.5 -53.001s-23 -41.834 -23 -66.501c0 -2 3.16699 -3.83301 9.5 -5.5s14.833 -3.16699 25.5 -4.5s23 -2.66602 37 -3.99902l43 -4c52 -4.66699 99.667 -13.167 143 -25.5s80.166 -29.833 110.499 -52.5
s53.5 -51.167 69.5 -85.5s22.667 -75.833 20 -124.5zM516.001 564.006l-394.001 -177.002l-37 80l110 55c-16.667 4 -32 9.5 -46 16.5s-25.833 15.667 -35.5 26s-16.667 23 -21 38s-5.16602 33.167 -2.49902 54.5c4 34 14.833 65.333 32.5 94s43.5 49.334 77.5 62.001
s69 14.834 105 6.50098s68.333 -22.5 97 -42.5l-59 -86c-14.667 10 -31.667 18 -51 24s-38 5.66699 -56 -1c-14 -5.33301 -24.167 -15 -30.5 -29s-10.5 -28 -12.5 -42c-0.666992 -8 5.5 -14.5 18.5 -19.5s28.333 -9.33301 46 -13s35 -6.5 52 -8.5s29.167 -3.66699 36.5 -5
l127 63z" />
    <glyph glyph-name="afii57415" unicode="&#x627;" horiz-adv-x="454" arabic-form="isolated" 
d="M80 1160l214.999 17.998l74 -822c3.33301 -43.333 6 -86.166 8 -128.499s-2.33301 -85.166 -13 -128.499c-3.33301 -12 -7.33301 -24 -12 -36s-10.667 -24.833 -18 -38.5s-16.166 -28.5 -26.499 -44.5s-22.833 -34 -37.5 -54l-149 86c6 14.667 11.667 30 17 46
s10 33.167 14 51.5s7 38.5 9 60.5s3 46.667 3 74z" />
    <glyph glyph-name="afii57416" unicode="&#x628;" horiz-adv-x="1470" arabic-form="isolated" 
d="M1402 2c-34.667 -4.66699 -76.832 -10.833 -126.499 -18.5s-104.167 -15.667 -163.5 -24s-121.5 -15.833 -186.5 -22.5s-130.333 -11.5 -196 -14.5s-129.834 -3.16699 -192.501 -0.5s-120.834 9.5 -174.501 20.5s-101.667 27 -144 48s-75.5 48.167 -99.5 81.5
c-44.667 62 -62.667 137.333 -54 226s47.334 189.667 116.001 303l158 -5c-22 -52.667 -39 -100.167 -51 -142.5s-19.667 -79.833 -23 -112.5s-2.5 -60.834 2.5 -84.501s13.5 -43.5 25.5 -59.5c13.333 -18 38.5 -31.667 75.5 -41s81.5 -15.166 133.5 -17.499
s108.833 -2.16602 170.5 0.500977s123.667 6.66699 186 12s122.5 11.5 180.5 18.5s109.333 13.5 154 19.5c-3.33301 58 -19.5 110.667 -48.5 158s-69.833 84.666 -122.5 111.999l108 186c66.667 -36 118.5 -77.5 155.5 -124.5s64.333 -98 82 -153s28 -113.333 31 -175
s4.16699 -125.167 3.5 -190.5zM829.002 -217.999l156 -155l-156 -156l-156 156z" />
    <glyph glyph-name="afii57417" unicode="&#x629;" horiz-adv-x="881" arabic-form="isolated" 
d="M641 750c25.333 -10 47.5029 -25.3311 66.5029 -45.998s35.333 -45.167 49 -73.5s25 -59.166 34 -92.499s16.5 -67.333 22.5 -102c13.333 -67.333 18.5 -129 15.5 -185s-15.667 -105.833 -38 -149.5s-54.666 -81 -96.999 -112s-95.833 -54.833 -160.5 -71.5
c-33.333 -8.66699 -68.333 -14.334 -105 -17.001s-72.667 -1.5 -108 3.5s-69.333 14.333 -102 28s-62 32.167 -88 55.5c-49.333 47.333 -76.333 102.166 -81 164.499s8.66602 127.166 39.999 194.499c13.333 34.667 30.166 71 50.499 109s43.833 74.667 70.5 110
s56.167 68 88.5 98s66.666 54.167 102.999 72.5s74.666 29.333 114.999 33s81.833 -2.83301 124.5 -19.5zM602.003 403.002c-5.33301 21.333 -9.50098 41.5 -12.501 60.5s-6.5 35.5 -10.5 49.5s-9.16699 24.833 -15.5 32.5s-15.833 11.167 -28.5 10.5
c-28 -5.33301 -54.833 -18.833 -80.5 -40.5s-49.167 -46.667 -70.5 -75s-40.166 -58 -56.499 -89s-29.5 -58.833 -39.5 -83.5c-5.33301 -16 -10.166 -29.5 -14.499 -40.5s-7.5 -21 -9.5 -30s-2.16699 -17.5 -0.5 -25.5s5.83398 -17 12.501 -27
c12.667 -9.33301 27.5 -16.5 44.5 -21.5s34.5 -8 52.5 -9s36.167 -0.333008 54.5 2s35.5 5.5 51.5 9.5c40 10 69.833 22.5 89.5 37.5s32.667 33.5 39 55.5s8.16602 48 5.49902 78s-6.33398 65.333 -11.001 106zM201.002 1049c5.33301 8 10.9971 14.3359 16.9971 19.0029
s12.167 9 18.5 13s12.833 7.83301 19.5 11.5s14 8.16699 22 13.5c-7.33301 0.666992 -15.166 3 -23.499 7s-16.166 9 -23.499 15s-13.333 12.667 -18 20s-7 15.333 -7 24c0 17.333 3.5 38 10.5 62s17 46.833 30 68.5s28.5 40 46.5 55s37.667 22.5 59 22.5
c15.333 -0.666992 29.5 -4 42.5 -10s21.5 -14.333 25.5 -25l-32 -73c-7.33301 1.33301 -14.833 3.16602 -22.5 5.49902s-15.5 3.5 -23.5 3.5c-7.33301 0 -14.333 -1.66699 -21 -5s-12.334 -10.333 -17.001 -21c-5.33301 -12.667 -6 -22.5 -2 -29.5s10.833 -12 20.5 -15
s21.5 -4.5 35.5 -4.5s28.333 0.333008 43 1s28.834 1.5 42.501 2.5s24.834 0.833008 33.501 -0.5l-40 -124c-18 -4 -37.333 -8.66699 -58 -14s-41 -11.833 -61 -19.5s-39 -16.334 -57 -26.001s-33.667 -20.834 -47 -33.501z" />
    <glyph glyph-name="afii57418" unicode="&#x62a;" horiz-adv-x="1470" arabic-form="isolated" 
d="M1402 2c-34.667 -4.66699 -76.832 -10.833 -126.499 -18.5s-104.167 -15.667 -163.5 -24s-121.5 -15.833 -186.5 -22.5s-130.333 -11.5 -196 -14.5s-129.834 -3.16699 -192.501 -0.5s-120.834 9.5 -174.501 20.5s-101.667 27 -144 48s-75.5 48.167 -99.5 81.5
c-44.667 62 -62.667 137.333 -54 226s47.334 189.667 116.001 303l158 -5c-22 -52.667 -39 -100.167 -51 -142.5s-19.667 -79.833 -23 -112.5s-2.5 -60.834 2.5 -84.501s13.5 -43.5 25.5 -59.5c13.333 -18 38.5 -31.667 75.5 -41s81.5 -15.166 133.5 -17.499
s108.833 -2.16602 170.5 0.500977s123.667 6.66699 186 12s122.5 11.5 180.5 18.5s109.333 13.5 154 19.5c-3.33301 58 -19.5 110.667 -48.5 158s-69.833 84.666 -122.5 111.999l108 186c66.667 -36 118.5 -77.5 155.5 -124.5s64.333 -98 82 -153s28 -113.333 31 -175
s4.16699 -125.167 3.5 -190.5zM851.002 964.001l150 -150l-150 -149l-144 143l-143 -143l-150 149l150 150l143 -143z" />
    <glyph glyph-name="afii57419" unicode="&#x62b;" horiz-adv-x="1470" arabic-form="isolated" 
d="M1402 2c-34.667 -4.66699 -76.832 -10.833 -126.499 -18.5s-104.167 -15.667 -163.5 -24s-121.5 -15.833 -186.5 -22.5s-130.333 -11.5 -196 -14.5s-129.834 -3.16699 -192.501 -0.5s-120.834 9.5 -174.501 20.5s-101.667 27 -144 48s-75.5 48.167 -99.5 81.5
c-44.667 62 -62.667 137.333 -54 226s47.334 189.667 116.001 303l158 -5c-22 -52.667 -39 -100.167 -51 -142.5s-19.667 -79.833 -23 -112.5s-2.5 -60.834 2.5 -84.501s13.5 -43.5 25.5 -59.5c13.333 -18 38.5 -31.667 75.5 -41s81.5 -15.166 133.5 -17.499
s108.833 -2.16602 170.5 0.500977s123.667 6.66699 186 12s122.5 11.5 180.5 18.5s109.333 13.5 154 19.5c-3.33301 58 -19.5 110.667 -48.5 158s-69.833 84.666 -122.5 111.999l108 186c66.667 -36 118.5 -77.5 155.5 -124.5s64.333 -98 82 -153s28 -113.333 31 -175
s4.16699 -125.167 3.5 -190.5zM849.002 909.001l150 -150l-150 -149l-144 143l-143 -143l-150 149l150 150l143 -143zM704.002 1195l156 -155l-156 -156l-156 156z" />
    <glyph glyph-name="afii57420" unicode="&#x62c;" horiz-adv-x="1272" arabic-form="isolated" 
d="M125 692c56.667 57.333 110.831 100.83 162.498 130.497s101.167 48.667 148.5 57s93 7.66602 137 -2.00098s86.833 -25 128.5 -46s82.334 -46 122.001 -75l118.5 -89.5l74 -56.5c24.667 -18.333 49 -34.833 73 -49.5s47.833 -26.834 71.5 -36.501
s47.167 -15.5 70.5 -17.5l-16 -214c-51.333 -1.33301 -102.666 -1.66602 -153.999 -0.999023s-102.166 0.166992 -152.499 -1.5s-100 -5.5 -149 -11.5s-96.833 -16.167 -143.5 -30.5s-92 -34 -136 -59s-86 -57.167 -126 -96.5c-46 -57.333 -75.5 -111.833 -88.5 -163.5
s-10.5 -97.834 7.5 -138.501s51.167 -74.5 99.5 -101.5s111.5 -44.5 189.5 -52.5c62.667 -6.66699 130.667 -10.667 204 -12s151 -2.33301 233 -3v-214c-86 0 -167.5 0.833008 -244.5 2.5s-148.5 5.83398 -214.5 12.501c-81.333 8.66699 -153 26.167 -215 52.5
s-114 59.333 -156 99s-73.667 84.834 -95 135.501s-31.5 104.334 -30.5 161.001s13.167 115.334 36.5 176.001s58.666 120.667 105.999 180c36 45.333 78.333 83.333 127 114s100.667 56 156 76s112.5 35.833 171.5 47.5s117.167 21.5 174.5 29.5l-5 4l-80.5 61.5
c-27 20.333 -54.5 37.833 -82.5 52.5s-56.5 25.834 -85.5 33.501s-58.833 9.5 -89.5 5.5s-62.167 -14.667 -94.5 -32s-65.833 -43.333 -100.5 -78zM682.997 84.9971l156 -155l-156 -156l-156 156z" />
    <glyph glyph-name="afii57421" unicode="&#x62d;" horiz-adv-x="1272" arabic-form="isolated" 
d="M125 692c56.667 57.333 110.831 100.83 162.498 130.497s101.167 48.667 148.5 57s93 7.66602 137 -2.00098s86.833 -25 128.5 -46s82.334 -46 122.001 -75l118.5 -89.5l74 -56.5c24.667 -18.333 49 -34.833 73 -49.5s47.833 -26.834 71.5 -36.501
s47.167 -15.5 70.5 -17.5l-16 -214c-51.333 -1.33301 -102.666 -1.66602 -153.999 -0.999023s-102.166 0.166992 -152.499 -1.5s-100 -5.5 -149 -11.5s-96.833 -16.167 -143.5 -30.5s-92 -34 -136 -59s-86 -57.167 -126 -96.5c-46 -57.333 -75.5 -111.833 -88.5 -163.5
s-10.5 -97.834 7.5 -138.501s51.167 -74.5 99.5 -101.5s111.5 -44.5 189.5 -52.5c62.667 -6.66699 130.667 -10.667 204 -12s151 -2.33301 233 -3v-214c-86 0 -167.5 0.833008 -244.5 2.5s-148.5 5.83398 -214.5 12.501c-81.333 8.66699 -153 26.167 -215 52.5
s-114 59.333 -156 99s-73.667 84.834 -95 135.501s-31.5 104.334 -30.5 161.001s13.167 115.334 36.5 176.001s58.666 120.667 105.999 180c36 45.333 78.333 83.333 127 114s100.667 56 156 76s112.5 35.833 171.5 47.5s117.167 21.5 174.5 29.5l-5 4l-80.5 61.5
c-27 20.333 -54.5 37.833 -82.5 52.5s-56.5 25.834 -85.5 33.501s-58.833 9.5 -89.5 5.5s-62.167 -14.667 -94.5 -32s-65.833 -43.333 -100.5 -78z" />
    <glyph glyph-name="afii57422" unicode="&#x62e;" horiz-adv-x="1272" arabic-form="isolated" 
d="M125 692c56.667 57.333 110.831 100.83 162.498 130.497s101.167 48.667 148.5 57s93 7.66602 137 -2.00098s86.833 -25 128.5 -46s82.334 -46 122.001 -75l118.5 -89.5l74 -56.5c24.667 -18.333 49 -34.833 73 -49.5s47.833 -26.834 71.5 -36.501
s47.167 -15.5 70.5 -17.5l-16 -214c-51.333 -1.33301 -102.666 -1.66602 -153.999 -0.999023s-102.166 0.166992 -152.499 -1.5s-100 -5.5 -149 -11.5s-96.833 -16.167 -143.5 -30.5s-92 -34 -136 -59s-86 -57.167 -126 -96.5c-46 -57.333 -75.5 -111.833 -88.5 -163.5
s-10.5 -97.834 7.5 -138.501s51.167 -74.5 99.5 -101.5s111.5 -44.5 189.5 -52.5c62.667 -6.66699 130.667 -10.667 204 -12s151 -2.33301 233 -3v-214c-86 0 -167.5 0.833008 -244.5 2.5s-148.5 5.83398 -214.5 12.501c-81.333 8.66699 -153 26.167 -215 52.5
s-114 59.333 -156 99s-73.667 84.834 -95 135.501s-31.5 104.334 -30.5 161.001s13.167 115.334 36.5 176.001s58.666 120.667 105.999 180c36 45.333 78.333 83.333 127 114s100.667 56 156 76s112.5 35.833 171.5 47.5s117.167 21.5 174.5 29.5l-5 4l-80.5 61.5
c-27 20.333 -54.5 37.833 -82.5 52.5s-56.5 25.834 -85.5 33.501s-58.833 9.5 -89.5 5.5s-62.167 -14.667 -94.5 -32s-65.833 -43.333 -100.5 -78zM515.997 1313l156 -155l-156 -156l-156 156z" />
    <glyph glyph-name="afii57423" unicode="&#x62f;" horiz-adv-x="1011" arabic-form="isolated" 
d="M217 733c28 0 58.1641 -0.667969 90.4971 -2.00098s65.666 -4.5 99.999 -9.5s69.333 -12 105 -21s70.834 -20.833 105.501 -35.5c46.667 -20 88.834 -45.333 126.501 -76s70 -65.167 97 -103.5s48.5 -80.333 64.5 -126s25.667 -93.834 29 -144.501v-215h-846v215h633
c-8 58 -28.167 108.833 -60.5 152.5s-75.166 77.167 -128.499 100.5c-25.333 10.667 -51.666 19.334 -78.999 26.001s-54.833 11.834 -82.5 15.501s-54.667 6 -81 7s-50.833 1.5 -73.5 1.5v215z" />
    <glyph glyph-name="afii57424" unicode="&#x630;" horiz-adv-x="1011" arabic-form="isolated" 
d="M217 733c28 0 58.1641 -0.667969 90.4971 -2.00098s65.666 -4.5 99.999 -9.5s69.333 -12 105 -21s70.834 -20.833 105.501 -35.5c46.667 -20 88.834 -45.333 126.501 -76s70 -65.167 97 -103.5s48.5 -80.333 64.5 -126s25.667 -93.834 29 -144.501v-215h-846v215h633
c-8 58 -28.167 108.833 -60.5 152.5s-75.166 77.167 -128.499 100.5c-25.333 10.667 -51.666 19.334 -78.999 26.001s-54.833 11.834 -82.5 15.501s-54.667 6 -81 7s-50.833 1.5 -73.5 1.5v215zM421.997 1190l156 -155l-156 -156l-156 156z" />
    <glyph glyph-name="afii57425" unicode="&#x631;" horiz-adv-x="698" arabic-form="isolated" 
d="M407 688c42 -42 80.832 -88.834 116.499 -140.501s64.667 -106 87 -163s36.666 -116 42.999 -177s1.16602 -121.5 -15.501 -181.5c-11.333 -40 -29.5 -79.167 -54.5 -117.5s-54.667 -75.166 -89 -110.499s-72.166 -68.5 -113.499 -99.5s-83.833 -59.333 -127.5 -85
s-87.167 -48 -130.5 -67s-84.333 -34.167 -123 -45.5l-115 187c70 26.667 134.5 53.834 193.5 81.501s111.833 57.334 158.5 89.001s86.334 65.667 119.001 102s57.667 77.166 75 122.499h1c10.667 40.667 12.834 82 6.50098 124s-18.5 82.667 -36.5 122
s-39.833 76.666 -65.5 111.999s-52.5 67 -80.5 95z" />
    <glyph glyph-name="afii57426" unicode="&#x632;" horiz-adv-x="698" arabic-form="isolated" 
d="M407 688c42 -42 80.832 -88.834 116.499 -140.501s64.667 -106 87 -163s36.666 -116 42.999 -177s1.16602 -121.5 -15.501 -181.5c-11.333 -40 -29.5 -79.167 -54.5 -117.5s-54.667 -75.166 -89 -110.499s-72.166 -68.5 -113.499 -99.5s-83.833 -59.333 -127.5 -85
s-87.167 -48 -130.5 -67s-84.333 -34.167 -123 -45.5l-115 187c70 26.667 134.5 53.834 193.5 81.501s111.833 57.334 158.5 89.001s86.334 65.667 119.001 102s57.667 77.166 75 122.499h1c10.667 40.667 12.834 82 6.50098 124s-18.5 82.667 -36.5 122
s-39.833 76.666 -65.5 111.999s-52.5 67 -80.5 95zM400.999 1106l156 -155l-156 -156l-156 156z" />
    <glyph glyph-name="afii57427" unicode="&#x633;" horiz-adv-x="2408" arabic-form="isolated" 
d="M1010 498l48.5 -76.5029l42.5 -69l30.5 -48.5c7.66699 -12 11.5 -17.333 11.5 -16c16 -28.667 37.667 -48.834 65 -60.501s55.833 -16.334 85.5 -14.001s58 11 85 26s48.5 35.167 64.5 60.5c13.333 21.333 25.333 43.333 36 66s20.334 45.667 29.001 69l243 66
c-6.66699 -31.333 -10.667 -62.666 -12 -93.999s2 -60.166 10 -86.499s22 -48.833 42 -67.5s48 -31.334 84 -38.001h262c-7.33301 54 -25.5 102 -54.5 144s-67.5 75.333 -115.5 100l108 186c81.333 -44 146 -103 194 -177s75 -158.333 81 -253v-215h-462v-1
c-75.333 -1.33301 -136.166 14.5 -182.499 47.5s-82.166 78.5 -107.499 136.5c-25.333 -35.333 -55 -66.333 -89 -93s-70.333 -47.667 -109 -63s-78.167 -24.666 -118.5 -27.999s-79.166 0.666992 -116.499 12c-2 -13.333 -4.66699 -26.333 -8 -39s-7 -25 -11 -37
c-18 -53.333 -44.667 -100.5 -80 -141.5s-76.5 -76.167 -123.5 -105.5s-97.833 -52.833 -152.5 -70.5s-110.334 -29.167 -167.001 -34.5s-112.667 -4.83301 -168 1.5s-107 18.833 -155 37.5c-46.667 18.667 -88.5 43 -125.5 73s-66.5 66.333 -88.5 109
c-16.667 32 -28.167 66.833 -34.5 104.5s-6 78.334 1 122.001s21 90 42 139s50.167 100.833 87.5 155.5l177 -122c-24.667 -35.333 -44.334 -68 -59.001 -98s-25 -57.5 -31 -82.5s-8.33301 -47.5 -7 -67.5s6 -37.667 14 -53c9.33301 -17.333 22.666 -32.666 39.999 -45.999
s37.666 -24.666 60.999 -33.999c29.333 -11.333 62 -19.333 98 -24s73.167 -5.83398 111.5 -3.50098s76.166 8.33301 113.499 18s72.166 23.167 104.499 40.5s60.5 38.5 84.5 63.5s41.667 53.833 53 86.5c10.667 32 16.334 63.667 17.001 95s-2.66602 61.833 -9.99902 91.5
s-18 58.334 -32 86.001s-30 54.5 -48 80.5z" />
    <glyph glyph-name="afii57428" unicode="&#x634;" horiz-adv-x="2408" arabic-form="isolated" 
d="M1010 498l48.5 -76.5029l42.5 -69l30.5 -48.5c7.66699 -12 11.5 -17.333 11.5 -16c16 -28.667 37.667 -48.834 65 -60.501s55.833 -16.334 85.5 -14.001s58 11 85 26s48.5 35.167 64.5 60.5c13.333 21.333 25.333 43.333 36 66s20.334 45.667 29.001 69l243 66
c-6.66699 -31.333 -10.667 -62.666 -12 -93.999s2 -60.166 10 -86.499s22 -48.833 42 -67.5s48 -31.334 84 -38.001h262c-7.33301 54 -25.5 102 -54.5 144s-67.5 75.333 -115.5 100l108 186c81.333 -44 146 -103 194 -177s75 -158.333 81 -253v-215h-462v-1
c-75.333 -1.33301 -136.166 14.5 -182.499 47.5s-82.166 78.5 -107.499 136.5c-25.333 -35.333 -55 -66.333 -89 -93s-70.333 -47.667 -109 -63s-78.167 -24.666 -118.5 -27.999s-79.166 0.666992 -116.499 12c-2 -13.333 -4.66699 -26.333 -8 -39s-7 -25 -11 -37
c-18 -53.333 -44.667 -100.5 -80 -141.5s-76.5 -76.167 -123.5 -105.5s-97.833 -52.833 -152.5 -70.5s-110.334 -29.167 -167.001 -34.5s-112.667 -4.83301 -168 1.5s-107 18.833 -155 37.5c-46.667 18.667 -88.5 43 -125.5 73s-66.5 66.333 -88.5 109
c-16.667 32 -28.167 66.833 -34.5 104.5s-6 78.334 1 122.001s21 90 42 139s50.167 100.833 87.5 155.5l177 -122c-24.667 -35.333 -44.334 -68 -59.001 -98s-25 -57.5 -31 -82.5s-8.33301 -47.5 -7 -67.5s6 -37.667 14 -53c9.33301 -17.333 22.666 -32.666 39.999 -45.999
s37.666 -24.666 60.999 -33.999c29.333 -11.333 62 -19.333 98 -24s73.167 -5.83398 111.5 -3.50098s76.166 8.33301 113.499 18s72.166 23.167 104.499 40.5s60.5 38.5 84.5 63.5s41.667 53.833 53 86.5c10.667 32 16.334 63.667 17.001 95s-2.66602 61.833 -9.99902 91.5
s-18 58.334 -32 86.001s-30 54.5 -48 80.5zM1750 1007l150 -150l-150 -149l-144 143l-143 -143l-150 149l150 150l143 -143zM1605 1293l156 -155l-156 -156l-156 156z" />
    <glyph glyph-name="afii57429" unicode="&#x635;" horiz-adv-x="2445" arabic-form="isolated" 
d="M1145 280l47.0059 40.4961l46 40.5l132.5 115.5c43 37 86 71 129 102s86.5 58.333 130.5 82s90 42.667 138 57s98.5 23.5 151.5 27.5s109.833 1.33301 170.5 -8c37.333 -4 72.166 -13.667 104.5 -29c32.333 -15.333 61.333 -34.666 87 -57.999s47 -50.166 64 -80.499
s28.667 -62.333 35 -96s6.66602 -68.167 0.999023 -103.5s-18.5 -70 -38.5 -104c-23.333 -44.667 -57.5 -89.167 -102.5 -133.5s-103.833 -88.5 -176.5 -132.5h-899c-4 -20.667 -9.66699 -42.334 -17 -65.001c-18 -53.333 -44.667 -100.5 -80 -141.5
s-76.5 -76.167 -123.5 -105.5s-97.833 -52.833 -152.5 -70.5s-110.334 -29.167 -167.001 -34.5s-112.667 -4.83301 -168 1.5s-107 18.833 -155 37.5c-47.333 18.667 -89.333 43 -126 73s-66.334 66.333 -89.001 109c-16.667 32 -28 66.833 -34 104.5
s-5.5 78.334 1.5 122.001s21 90 42 139s50.167 100.833 87.5 155.5l177 -122c-24.667 -35.333 -44.334 -68 -59.001 -98s-25 -57.5 -31 -82.5s-8.16699 -47.5 -6.5 -67.5s6.5 -37.667 14.5 -53c8.66699 -17.333 21.667 -32.666 39 -45.999s37.666 -24.666 60.999 -33.999
c32 -12.667 68.333 -21.167 109 -25.5s81.834 -4.33301 123.501 0s82.667 13 123 26s76.666 30.667 108.999 53s58.833 49.333 79.5 81s32.667 68.167 36 109.5v81c-4 32 -12 63 -24 93s-26.833 58.833 -44.5 86.5s-37 54.167 -58 79.5s-42.5 49 -64.5 71l136 165
c27.333 -22 53.166 -46.667 77.499 -74s46.833 -56.5 67.5 -87.5s39.167 -63.333 55.5 -97s29.833 -68.167 40.5 -103.5zM2008.01 214.996c37.333 26.667 67.667 52.332 91 76.999s41 48.667 53 72c12.667 20 18.834 39.167 18.501 57.5s-5.5 34.833 -15.5 49.5
s-23.5 26.834 -40.5 36.501s-35.833 15.5 -56.5 17.5c-64.667 10 -125 8.66699 -181 -4s-110.333 -33.5 -163 -62.5s-104.834 -64.5 -156.501 -106.5l-161.5 -137h612z" />
    <glyph glyph-name="afii57430" unicode="&#x636;" horiz-adv-x="2445" arabic-form="isolated" 
d="M1145 280l47.0059 40.4961l46 40.5l132.5 115.5c43 37 86 71 129 102s86.5 58.333 130.5 82s90 42.667 138 57s98.5 23.5 151.5 27.5s109.833 1.33301 170.5 -8c37.333 -4 72.166 -13.667 104.5 -29c32.333 -15.333 61.333 -34.666 87 -57.999s47 -50.166 64 -80.499
s28.667 -62.333 35 -96s6.66602 -68.167 0.999023 -103.5s-18.5 -70 -38.5 -104c-23.333 -44.667 -57.5 -89.167 -102.5 -133.5s-103.833 -88.5 -176.5 -132.5h-899c-4 -20.667 -9.66699 -42.334 -17 -65.001c-18 -53.333 -44.667 -100.5 -80 -141.5
s-76.5 -76.167 -123.5 -105.5s-97.833 -52.833 -152.5 -70.5s-110.334 -29.167 -167.001 -34.5s-112.667 -4.83301 -168 1.5s-107 18.833 -155 37.5c-47.333 18.667 -89.333 43 -126 73s-66.334 66.333 -89.001 109c-16.667 32 -28 66.833 -34 104.5
s-5.5 78.334 1.5 122.001s21 90 42 139s50.167 100.833 87.5 155.5l177 -122c-24.667 -35.333 -44.334 -68 -59.001 -98s-25 -57.5 -31 -82.5s-8.16699 -47.5 -6.5 -67.5s6.5 -37.667 14.5 -53c8.66699 -17.333 21.667 -32.666 39 -45.999s37.666 -24.666 60.999 -33.999
c32 -12.667 68.333 -21.167 109 -25.5s81.834 -4.33301 123.501 0s82.667 13 123 26s76.666 30.667 108.999 53s58.833 49.333 79.5 81s32.667 68.167 36 109.5v81c-4 32 -12 63 -24 93s-26.833 58.833 -44.5 86.5s-37 54.167 -58 79.5s-42.5 49 -64.5 71l136 165
c27.333 -22 53.166 -46.667 77.499 -74s46.833 -56.5 67.5 -87.5s39.167 -63.333 55.5 -97s29.833 -68.167 40.5 -103.5zM2008.01 214.996c37.333 26.667 67.667 52.332 91 76.999s41 48.667 53 72c12.667 20 18.834 39.167 18.501 57.5s-5.5 34.833 -15.5 49.5
s-23.5 26.834 -40.5 36.501s-35.833 15.5 -56.5 17.5c-64.667 10 -125 8.66699 -181 -4s-110.333 -33.5 -163 -62.5s-104.834 -64.5 -156.501 -106.5l-161.5 -137h612zM1335.01 1047.99l156 -155l-156 -156l-156 156z" />
    <glyph glyph-name="afii57431" unicode="&#x637;" horiz-adv-x="1887" arabic-form="isolated" 
d="M728 398c63.333 56 124.996 107.497 184.996 154.497s121.833 86.333 185.5 118s131.167 53.834 202.5 66.501s150 12.667 236 0c37.333 -3.33301 72.333 -12.666 105 -27.999s61.834 -34.666 87.501 -57.999s47 -50.166 64 -80.499s28.667 -62.333 35 -96
s6.66602 -68.334 0.999023 -104.001s-18.5 -70.5 -38.5 -104.5c-23.333 -44.667 -57.5 -89.167 -102.5 -133.5s-103.833 -88.5 -176.5 -132.5h-1085c-34.667 -0 -68.667 2.83301 -102 8.5s-64.666 15.167 -93.999 28.5s-56 31.333 -80 54s-43.667 50.667 -59 84
c-21.333 47.333 -31.333 97.666 -30 150.999s8.33301 106.333 21 159l209 -49c-8 -33.333 -13.167 -65.166 -15.5 -95.499s1.16699 -55.5 10.5 -75.5c8 -17.333 22.167 -29.833 42.5 -37.5s42.666 -12 66.999 -13s48.333 0.166992 72 3.5s42.834 7.66602 57.501 12.999
l-19 222l-14.5 169l-11.5 127.5c-3.33301 36.333 -6.16602 68.833 -8.49902 97.5s-4.66602 54.834 -6.99902 78.501l-7 71l-7 74.5c-2.33301 26 -5.16602 55.667 -8.49902 89l214 18c3.33301 -41.333 6.5 -77.333 9.5 -108l9 -90c3 -29.333 6 -60.333 9 -93l10.5 -115
l14 -156.5zM1456 214.997c37.333 26.667 67.667 52.332 91 76.999s41 48.667 53 72c12.667 20 18.834 39.167 18.501 57.5s-5.33301 34.833 -15 49.5s-23.167 26.834 -40.5 36.501s-36.333 15.5 -57 17.5c-64.667 10 -125 8.66699 -181 -4s-110.333 -33.5 -163 -62.5
s-104.834 -64.5 -156.501 -106.5l-161.5 -137h612z" />
    <glyph glyph-name="afii57432" unicode="&#x638;" horiz-adv-x="1887" arabic-form="isolated" 
d="M728 398c63.333 56 124.996 107.497 184.996 154.497s121.833 86.333 185.5 118s131.167 53.834 202.5 66.501s150 12.667 236 0c37.333 -3.33301 72.333 -12.666 105 -27.999s61.834 -34.666 87.501 -57.999s47 -50.166 64 -80.499s28.667 -62.333 35 -96
s6.66602 -68.334 0.999023 -104.001s-18.5 -70.5 -38.5 -104.5c-23.333 -44.667 -57.5 -89.167 -102.5 -133.5s-103.833 -88.5 -176.5 -132.5h-1085c-34.667 -0 -68.667 2.83301 -102 8.5s-64.666 15.167 -93.999 28.5s-56 31.333 -80 54s-43.667 50.667 -59 84
c-21.333 47.333 -31.333 97.666 -30 150.999s8.33301 106.333 21 159l209 -49c-8 -33.333 -13.167 -65.166 -15.5 -95.499s1.16699 -55.5 10.5 -75.5c8 -17.333 22.167 -29.833 42.5 -37.5s42.666 -12 66.999 -13s48.333 0.166992 72 3.5s42.834 7.66602 57.501 12.999
l-19 222l-14.5 169l-11.5 127.5c-3.33301 36.333 -6.16602 68.833 -8.49902 97.5s-4.66602 54.834 -6.99902 78.501l-7 71l-7 74.5c-2.33301 26 -5.16602 55.667 -8.49902 89l214 18c3.33301 -41.333 6.5 -77.333 9.5 -108l9 -90c3 -29.333 6 -60.333 9 -93l10.5 -115
l14 -156.5zM1456 214.997c37.333 26.667 67.667 52.332 91 76.999s41 48.667 53 72c12.667 20 18.834 39.167 18.501 57.5s-5.33301 34.833 -15 49.5s-23.167 26.834 -40.5 36.501s-36.333 15.5 -57 17.5c-64.667 10 -125 8.66699 -181 -4s-110.333 -33.5 -163 -62.5
s-104.834 -64.5 -156.501 -106.5l-161.5 -137h612zM1038 1126l156 -155l-156 -156l-156 156z" />
    <glyph glyph-name="afii57433" unicode="&#x639;" horiz-adv-x="1048" arabic-form="isolated" 
d="M281 306l-35.4961 31.499l-38 34l-33.5 30c-10 9 -17.333 15.833 -22 20.5c-27.333 34 -49.5 70.833 -66.5 110.5s-25.5 80.5 -25.5 122.5s10.333 84.167 31 126.5s55 83.166 103 122.499c44 34 86.333 59.5 127 76.5s80.167 27.667 118.5 32
s75.833 3.16602 112.5 -3.50098s72.5 -16.667 107.5 -30s69.833 -29.333 104.5 -48l103 -57l-110 -184c-33.333 20 -67.5 39.333 -102.5 58s-70.5 32.167 -106.5 40.5s-72.333 9.5 -109 3.5s-73.334 -24 -110.001 -54c-21.333 -17.333 -34.333 -35.333 -39 -54
s-3.33398 -37.334 3.99902 -56.001s19.166 -37.334 35.499 -56.001s34.833 -36.667 55.5 -54s42.167 -33.833 64.5 -49.5l61.5 -43.5c64.667 22 131 38.667 199 50s133.667 21.333 197 30l-22 -220c-32 -2.66699 -62.333 -4.66699 -91 -6s-56.334 -3.66602 -83.001 -6.99902
s-53.167 -8.5 -79.5 -15.5s-53.166 -17.167 -80.499 -30.5s-55.833 -30.666 -85.5 -51.999s-61.167 -48.333 -94.5 -81c-46 -57.333 -75.5 -111.833 -88.5 -163.5s-10.5 -97.834 7.5 -138.501s51.167 -74.5 99.5 -101.5s111.166 -44.5 188.499 -52.5
c62.667 -6.66699 130.834 -10.667 204.501 -12s151.5 -2.33301 233.5 -3l-1 -214c-86 0 -167.333 0.833008 -244 2.5s-148 5.83398 -214 12.501c-81.333 8.66699 -153 26.167 -215 52.5s-114 59.333 -156 99s-73.667 84.834 -95 135.501s-31.5 104.334 -30.5 161.001
s13.167 115.334 36.5 176.001s58.666 120.667 105.999 180c22.667 28.667 48.667 55 78 79z" />
    <glyph glyph-name="afii57434" unicode="&#x63a;" horiz-adv-x="1048" arabic-form="isolated" 
d="M281 306l-35.4961 31.499l-38 34l-33.5 30c-10 9 -17.333 15.833 -22 20.5c-27.333 34 -49.5 70.833 -66.5 110.5s-25.5 80.5 -25.5 122.5s10.333 84.167 31 126.5s55 83.166 103 122.499c44 34 86.333 59.5 127 76.5s80.167 27.667 118.5 32
s75.833 3.16602 112.5 -3.50098s72.5 -16.667 107.5 -30s69.833 -29.333 104.5 -48l103 -57l-110 -184c-33.333 20 -67.5 39.333 -102.5 58s-70.5 32.167 -106.5 40.5s-72.333 9.5 -109 3.5s-73.334 -24 -110.001 -54c-21.333 -17.333 -34.333 -35.333 -39 -54
s-3.33398 -37.334 3.99902 -56.001s19.166 -37.334 35.499 -56.001s34.833 -36.667 55.5 -54s42.167 -33.833 64.5 -49.5l61.5 -43.5c64.667 22 131 38.667 199 50s133.667 21.333 197 30l-22 -220c-32 -2.66699 -62.333 -4.66699 -91 -6s-56.334 -3.66602 -83.001 -6.99902
s-53.167 -8.5 -79.5 -15.5s-53.166 -17.167 -80.499 -30.5s-55.833 -30.666 -85.5 -51.999s-61.167 -48.333 -94.5 -81c-46 -57.333 -75.5 -111.833 -88.5 -163.5s-10.5 -97.834 7.5 -138.501s51.167 -74.5 99.5 -101.5s111.166 -44.5 188.499 -52.5
c62.667 -6.66699 130.834 -10.667 204.501 -12s151.5 -2.33301 233.5 -3l-1 -214c-86 0 -167.333 0.833008 -244 2.5s-148 5.83398 -214 12.501c-81.333 8.66699 -153 26.167 -215 52.5s-114 59.333 -156 99s-73.667 84.834 -95 135.501s-31.5 104.334 -30.5 161.001
s13.167 115.334 36.5 176.001s58.666 120.667 105.999 180c22.667 28.667 48.667 55 78 79zM417.004 1419l156 -155l-156 -156l-156 156z" />
    <glyph glyph-name="afii57441" unicode="&#x641;" horiz-adv-x="1585" arabic-form="isolated" 
d="M1183 244c-22 10 -45.1689 19.999 -69.502 29.999l-73 30.5l-71 31.5c-23 10.667 -44.167 21.667 -63.5 33c-48 30 -81.667 61.833 -101 95.5s-27.833 67.667 -25.5 102s13.833 68 34.5 101s47.167 63.333 79.5 91s68.666 52 108.999 73s81.666 36.333 123.999 46
s83.5 13.167 123.5 10.5s76 -13.334 108 -32.001c28.667 -16 53.334 -36.333 74.001 -61s37.834 -52.167 51.501 -82.5s24 -62.5 31 -96.5s11.5 -68.333 13.5 -103c1.33301 -26 1.5 -53.667 0.5 -83s-4.16699 -58.666 -9.5 -87.999s-12.833 -57.666 -22.5 -84.999
s-22.167 -52 -37.5 -74c-32 -31.333 -73.5 -59 -124.5 -83s-107.667 -44.333 -170 -61s-128.833 -29.334 -199.5 -38.001s-141.667 -13.167 -213 -13.5s-141 3.66699 -209 12s-130.833 21.166 -188.5 38.499s-108.334 39.333 -152.001 66s-76.5 58.334 -98.5 95.001
c-20.667 28 -35.667 57.333 -45 88c-12 37.333 -14.833 73.333 -8.5 108s18.5 68.167 36.5 100.5s39.833 63.333 65.5 93s51.5 57.834 77.5 84.501l115 -90c-10 -10 -20.167 -22.667 -30.5 -38s-19.666 -32 -27.999 -50s-15.166 -36.833 -20.499 -56.5
s-7.66602 -38.834 -6.99902 -57.501c5.33301 -32.667 20.833 -60 46.5 -82s57.667 -40 96 -54s81.666 -24.333 129.999 -31s98.333 -10.667 150 -12s103.334 -0.666016 155.001 2.00098s100 6.16699 145 10.5s85.167 9.33301 120.5 15s62.333 10.5 81 14.5zM1312 419.999
c1.33301 12.667 2.16797 25.832 2.50098 39.499s0.166016 27.834 -0.500977 42.501c-2 36 -7.33301 69.167 -16 99.5s-22 51.833 -40 64.5l-1 1c-0.666992 0.666992 -1.33398 1 -2.00098 1l-1 1c-20.667 12 -44 17.5 -70 16.5s-52 -5.66699 -78 -14
s-50.833 -19.5 -74.5 -33.5s-43.5 -28.333 -59.5 -43c-4 -4 -2.66699 -9.16699 4 -15.5s16.667 -13.333 30 -21s28.5 -15.5 45.5 -23.5l49 -22.5c15.667 -7 29.834 -13 42.501 -18s21 -8.5 25 -10.5zM1037 1315l156 -155l-156 -156l-156 156z" />
    <glyph glyph-name="afii57442" unicode="&#x642;" horiz-adv-x="1423" arabic-form="isolated" 
d="M1092 189c-25.333 0 -53.001 0.837891 -83.001 2.50488s-60.667 4.5 -92 8.5s-62.166 9.83301 -92.499 17.5s-58.166 17.5 -83.499 29.5c-30 14.667 -56 31.667 -78 51s-38.333 41.666 -49 66.999s-14.834 53.666 -12.501 84.999s13.166 66.666 32.499 105.999
c20 41.333 44.833 80 74.5 116s63.167 67.167 100.5 93.5s77.833 47 121.5 62s89.5 22.5 137.5 22.5c34 0 64.333 -5.66699 91 -17s50.5 -26.833 71.5 -46.5s39 -42.667 54 -69s27.833 -54.5 38.5 -84.5c19.333 -58 32 -113 38 -165s8 -100.667 6 -146
c-4 -52 -15 -99.833 -33 -143.5s-41.5 -83.667 -70.5 -120s-62.5 -68.833 -100.5 -97.5s-79 -54 -123 -76c-40.667 -20.667 -86 -39.5 -136 -56.5s-102.167 -30.833 -156.5 -41.5s-109.5 -17.667 -165.5 -21s-110 -1.83301 -162 4.5s-101 18 -147 35s-86.333 40.5 -121 70.5
c-34 35.333 -58.833 72.5 -74.5 111.5s-24.667 78.5 -27 118.5s1.16699 79.833 10.5 119.5s21.833 77.5 37.5 113.5s33.334 69.5 53.001 100.5s39.167 58.167 58.5 81.5l135 -75c-24.667 -40 -45 -81.5 -61 -124.5s-25.667 -84.833 -29 -125.5
c-2.66699 -33.333 0.5 -65.666 9.5 -96.999s28.167 -56.333 57.5 -75c26 -16.667 56.333 -28.334 91 -35.001s71.334 -10 110.001 -10s78 3 118 9s78.667 13.833 116 23.5s72.166 20.167 104.499 31.5s59.833 22.666 82.5 33.999c30 15.333 57.5 32.166 82.5 50.499
s46.833 38.833 65.5 61.5zM756.999 1199l150 -150l-150 -149l-144 143l-143 -143l-150 149l150 150l143 -143zM1152 403.005c-1.33301 16 -3.50391 35.498 -6.50391 58.498s-7.66699 46 -14 69s-14.666 44.167 -24.999 63.5s-23.166 33 -38.499 41
c-27.333 0 -53.166 -4.66699 -77.499 -14s-46.666 -22 -66.999 -38s-38.833 -34.333 -55.5 -55s-30.334 -42.667 -41.001 -66c-4.66699 -9.33301 -2.5 -17.166 6.5 -23.499s22.333 -11.666 40 -15.999s38.334 -7.83301 62.001 -10.5s47.5 -4.66699 71.5 -6z" />
    <glyph glyph-name="afii57443" unicode="&#x643;" horiz-adv-x="1439" arabic-form="isolated" 
d="M1346 269c2 -4 2.33105 -8.99609 0.998047 -14.9961c-0.666992 -2 -1 -3.66699 -1 -5c-2 -66 -32.667 -136 -92 -210v1c-1.33301 -2 -2.66602 -3.66699 -3.99902 -5c-46 -6 -101.667 -15.5 -167 -28.5s-135 -25.667 -209 -38s-149.5 -22.333 -226.5 -30
s-150.333 -9 -220 -4s-132.667 18 -189 39s-100.833 53.833 -133.5 98.5c-44 62 -61.833 137.333 -53.5 226s46.833 189.667 115.5 303l158 -5c-22 -52.667 -39 -100.167 -51 -142.5s-19.5 -79.833 -22.5 -112.5s-2 -60.834 3 -84.501s13.167 -43.5 24.5 -59.5
c12 -16.667 32 -29 60 -37s61 -13 99 -15s80 -1.33301 126 2s92.833 8 140.5 14s95.167 13 142.5 21s91.5 15.833 132.5 23.5l109.5 20.5c19.333 3.33301 36 6.33301 50 9l-17 28c-8.66699 51.333 -25 96.333 -49 135s-52.5 72 -85.5 100s-68.333 51.167 -106 69.5
s-74.167 33.166 -109.5 44.499s-67.666 20 -96.999 26s-52 10.333 -68 13l-47 196c65.333 44 134.166 85.5 206.499 124.5s146.833 73.5 223.5 103.5s154.5 54.667 233.5 74s157.5 31.666 235.5 36.999l13 -214c-42.667 -2 -87.5 -7 -134.5 -15s-95 -19.333 -144 -34
s-98.167 -32.5 -147.5 -53.5s-97.666 -45.167 -144.999 -72.5c76 -28.667 145.667 -68.334 209 -119.001s115.166 -109 155.499 -175s66.5 -137.667 78.5 -215c0.666992 -6 1.33398 -12.333 2.00098 -19z" />
    <glyph glyph-name="afii57444" unicode="&#x644;" arabic-form="isolated" 
d="M1050 225c0 -35.333 0.999023 -71.1699 2.99902 -107.503s2 -72.333 0 -108s-7.5 -70.5 -16.5 -104.5s-24.5 -66.333 -46.5 -97c-23.333 -32.667 -51.333 -61.167 -84 -85.5s-67.667 -44.833 -105 -61.5s-76.166 -29.667 -116.499 -39s-79.833 -15.666 -118.5 -18.999
c-38 -3.33301 -77 -3.66602 -117 -0.999023s-79.333 9.33398 -118 20.001s-75 25.834 -109 45.501s-64 44.5 -90 74.5c-26.667 31.333 -45.667 64.833 -57 100.5s-17.166 72 -17.499 109s3.83398 74 12.501 111s19.834 73.167 33.501 108.5s28.667 69 45 101
s32.166 61 47.499 87l141 -20c-6 -20.667 -13.167 -43.667 -21.5 -69s-16.666 -52 -24.999 -80s-15.5 -56.5 -21.5 -85.5s-9.5 -57 -10.5 -84s1.16699 -52.5 6.5 -76.5s15.666 -45 30.999 -63c14 -17.333 31.333 -30.666 52 -39.999s42.5 -16 65.5 -20
s46.167 -6.16699 69.5 -6.5s45 0.5 65 2.5c22 2 45.833 5.5 71.5 10.5s50.667 12 75 21s47.166 20.5 68.499 34.5s39 30.667 53 50c12 16.667 19.833 37.667 23.5 63s5.16699 51.666 4.5 78.999s-2.33398 54.166 -5.00098 80.499s-4 49.5 -4 69.5l-85 935l214 18z" />
    <glyph glyph-name="afii57445" unicode="&#x645;" horiz-adv-x="1152" arabic-form="isolated" 
d="M302 315c28 112 59.5 203.336 94.5 274.003s72.167 125 111.5 163s80.166 61.833 122.499 71.5s84.5 9.5 126.5 -0.5c38 -9.33301 74.333 -25.833 109 -49.5s66.667 -51.167 96 -82.5s56.166 -64.833 80.499 -100.5s45.5 -69.834 63.5 -102.501l-63 -235
c-28 -8 -62.667 -16.167 -104 -24.5l-133.5 -26l-146 -26.5c-49.667 -8.66699 -97 -17.834 -142 -27.501s-85.667 -19.334 -122 -29.001s-64.833 -19.5 -85.5 -29.5c-17.333 -8.66699 -28.666 -21.167 -33.999 -37.5s-6.16602 -35.666 -2.49902 -57.999
s11.167 -47.333 22.5 -75s25 -57.167 41 -88.5c14.667 -28.667 31 -58.667 49 -90l55 -95.5l56 -96.5l53 -93l-189 -102l-108.5 190c-37 62 -72.5 125.333 -106.5 190c-30 58.667 -54.167 114.834 -72.5 168.501s-26.5 103.667 -24.5 150s15.667 88.666 41 126.999
s66.333 72.166 123 101.499c12 6 25.5 11.833 40.5 17.5s31.167 11.167 48.5 16.5zM707 615.003c-12 2.66699 -24.6689 0.999023 -38.002 -5.00098s-27.166 -18.333 -41.499 -37s-28.833 -44.5 -43.5 -77.5s-29.667 -74.5 -45 -124.5c56 11.333 115 22.333 177 33
s119.667 21.334 173 32.001c-10 16 -22.167 33.5 -36.5 52.5s-29.666 37.333 -45.999 55s-33 33 -50 46s-33.5 21.5 -49.5 25.5z" />
    <glyph glyph-name="afii57446" unicode="&#x646;" horiz-adv-x="1225" arabic-form="isolated" 
d="M902 642c48.667 -40 92.8408 -87.834 132.508 -143.501s71.167 -114.834 94.5 -177.501s37.166 -127.167 41.499 -193.5s-4.16699 -130.5 -25.5 -192.5c-18 -53.333 -44.667 -100.5 -80 -141.5s-76.333 -76.167 -123 -105.5s-97.334 -52.833 -152.001 -70.5
s-110.334 -29.167 -167.001 -34.5s-112.667 -4.83301 -168 1.5s-107 18.833 -155 37.5c-47.333 18.667 -89.5 43 -126.5 73s-66.5 66.333 -88.5 109c-16.667 32 -28 66.833 -34 104.5s-5.66699 78.334 1 122.001s20.5 90 41.5 139s50.5 100.833 88.5 155.5l176 -122
c-24.667 -35.333 -44.334 -68 -59.001 -98s-25 -57.5 -31 -82.5s-8.16699 -47.5 -6.5 -67.5s6.5 -37.667 14.5 -53c9.33301 -17.333 22.666 -32.666 39.999 -45.999s37.666 -24.666 60.999 -33.999c29.333 -11.333 62 -19.333 98 -24s73.167 -5.83398 111.5 -3.50098
s76.166 8.33301 113.499 18s72.166 23.167 104.499 40.5s60.5 38.5 84.5 63.5s41.667 53.833 53 86.5c15.333 46 20.5 90.833 15.5 134.5s-16.667 85.667 -35 126s-41.5 78.5 -69.5 114.5s-57.333 69 -88 99zM543.007 895.999l156 -155l-156 -156l-156 156z" />
    <glyph glyph-name="afii57470" unicode="&#x647;" horiz-adv-x="881" arabic-form="isolated" 
d="M641 750c25.333 -10 47.5029 -25.3311 66.5029 -45.998s35.333 -45.167 49 -73.5s25 -59.166 34 -92.499s16.5 -67.333 22.5 -102c13.333 -67.333 18.5 -129 15.5 -185s-15.667 -105.833 -38 -149.5s-54.666 -81 -96.999 -112s-95.833 -54.833 -160.5 -71.5
c-33.333 -8.66699 -68.333 -14.334 -105 -17.001s-72.667 -1.5 -108 3.5s-69.333 14.333 -102 28s-62 32.167 -88 55.5c-49.333 47.333 -76.333 102.166 -81 164.499s8.66602 127.166 39.999 194.499c13.333 34.667 30.166 71 50.499 109s43.833 74.667 70.5 110
s56.167 68 88.5 98s66.666 54.167 102.999 72.5s74.666 29.333 114.999 33s81.833 -2.83301 124.5 -19.5zM602.003 403.002c-5.33301 21.333 -9.50098 41.5 -12.501 60.5s-6.5 35.5 -10.5 49.5s-9.16699 24.833 -15.5 32.5s-15.833 11.167 -28.5 10.5
c-28 -5.33301 -54.833 -18.833 -80.5 -40.5s-49.167 -46.667 -70.5 -75s-40.166 -58 -56.499 -89s-29.5 -58.833 -39.5 -83.5c-5.33301 -16 -10.166 -29.5 -14.499 -40.5s-7.5 -21 -9.5 -30s-2.16699 -17.5 -0.5 -25.5s5.83398 -17 12.501 -27
c12.667 -9.33301 27.5 -16.5 44.5 -21.5s34.5 -8 52.5 -9s36.167 -0.333008 54.5 2s35.5 5.5 51.5 9.5c40 10 69.833 22.5 89.5 37.5s32.667 33.5 39 55.5s8.16602 48 5.49902 78s-6.33398 65.333 -11.001 106z" />
    <glyph glyph-name="afii57448" unicode="&#x648;" horiz-adv-x="1079" arabic-form="isolated" 
d="M817 87c-29.333 -10 -60.833 -18.668 -94.5 -26.001s-67.834 -12.833 -102.501 -16.5s-69.5 -5 -104.5 -4s-68.5 5.33301 -100.5 13s-62 19 -90 34s-52.333 34.167 -73 57.5c-19.333 26 -31.666 59.667 -36.999 101s-4.66602 85 2.00098 131s19 92 37 138
s41 87.333 69 124s60.667 66.334 98 89.001s78.333 33 123 31c27.333 0 55.666 -4.5 84.999 -13.5s59 -24 89 -45s60.5 -48.167 91.5 -81.5s62.167 -74.333 93.5 -123c56 -102 92.167 -193.667 108.5 -275s17.166 -153.833 2.49902 -217.5s-42.5 -119.167 -83.5 -166.5
s-90.5 -88.333 -148.5 -123c-54.667 -32 -115.167 -59 -181.5 -81s-134.666 -40.167 -204.999 -54.5s-140.833 -25.333 -211.5 -33s-138 -13.5 -202 -17.5l-18 213c27.333 2.66699 60.166 5.33398 98.499 8.00098s79.333 6.16699 123 10.5s88.834 10 135.501 17
s92.667 16.167 138 27.5s88.5 25 129.5 41s77.667 35.333 110 58s59 49.167 80 79.5s33.833 65.166 38.5 104.499zM547 543.999c-13.333 -1.33301 -26.332 -8.00098 -38.999 -20.001s-24.334 -27 -35.001 -45s-20.167 -37.333 -28.5 -58s-15.166 -40.5 -20.499 -59.5
s-8.83301 -35.5 -10.5 -49.5s-1.16699 -23.333 1.5 -28c13.333 -15.333 34.5 -25 63.5 -29s60.833 -4.33301 95.5 -1s69.5 9 104.5 17s65.167 16.667 90.5 26c-6 14.667 -14.833 31.834 -26.5 51.501s-24.667 39.5 -39 59.5s-29.333 39.333 -45 58s-30.667 34.667 -45 48
s-27.333 23 -39 29s-20.834 6.33301 -27.501 1z" />
    <glyph glyph-name="afii57449" unicode="&#x649;" horiz-adv-x="1303" arabic-form="isolated" 
d="M1240 0c-6 -48 -25.332 -94.4941 -57.999 -139.494s-74.667 -87.5 -126 -127.5c-50 -38 -106.667 -72.167 -170 -102.5s-129 -54.166 -197 -71.499c-70.667 -18 -141 -27.5 -211 -28.5s-135.333 9.5 -196 31.5c-58 20.667 -107 52.667 -147 96s-65.833 96.5 -77.5 159.5
s-6.83398 135.333 14.499 217s64 171.5 128 269.5l97 -5c-30.667 -84.667 -50.667 -158.167 -60 -220.5s-10.333 -115 -3 -158s21.666 -77.333 42.999 -103s47.333 -43.834 78 -54.501c38 -14 81.333 -20.167 130 -18.5s99 9.16699 151 22.5
c54 13.333 106.167 31.833 156.5 55.5s94.5 50.5 132.5 80.5c70.667 54 101.667 94.167 93 120.5s-54.667 43.166 -138 50.499c-40 3.33301 -78.833 7.66602 -116.5 12.999s-71 15.666 -100 30.999s-52.333 37.666 -70 66.999s-26.5 69.666 -26.5 120.999
c0 47.333 10.5 90.833 31.5 130.5s49 75.167 84 106.5s75 58.666 120 81.999s91.333 42.833 139 58.5s95 27.334 142 35.001s89.833 11.5 128.5 11.5l-18 -215c-17.333 0 -39.666 -1.83301 -66.999 -5.5s-56.166 -9 -86.499 -16s-60.833 -16.167 -91.5 -27.5
s-58.5 -24.833 -83.5 -40.5s-45.167 -33.334 -60.5 -53.001s-23 -41.834 -23 -66.501c0 -2 3.16699 -3.83301 9.5 -5.5s14.833 -3.16699 25.5 -4.5s23 -2.66602 37 -3.99902l43 -4c52 -4.66699 99.667 -13.167 143 -25.5s80.166 -29.833 110.499 -52.5
s53.5 -51.167 69.5 -85.5s22.667 -75.833 20 -124.5z" />
    <glyph glyph-name="afii57450" unicode="&#x64a;" horiz-adv-x="1303" arabic-form="isolated" 
d="M1240 0c-6 -48 -25.332 -94.4941 -57.999 -139.494s-74.667 -87.5 -126 -127.5c-50 -38 -106.667 -72.167 -170 -102.5s-129 -54.166 -197 -71.499c-70.667 -18 -141 -27.5 -211 -28.5s-135.333 9.5 -196 31.5c-58 20.667 -107 52.667 -147 96s-65.833 96.5 -77.5 159.5
s-6.83398 135.333 14.499 217s64 171.5 128 269.5l97 -5c-30.667 -84.667 -50.667 -158.167 -60 -220.5s-10.333 -115 -3 -158s21.666 -77.333 42.999 -103s47.333 -43.834 78 -54.501c38 -14 81.333 -20.167 130 -18.5s99 9.16699 151 22.5
c54 13.333 106.167 31.833 156.5 55.5s94.5 50.5 132.5 80.5c70.667 54 101.667 94.167 93 120.5s-54.667 43.166 -138 50.499c-40 3.33301 -78.833 7.66602 -116.5 12.999s-71 15.666 -100 30.999s-52.333 37.666 -70 66.999s-26.5 69.666 -26.5 120.999
c0 47.333 10.5 90.833 31.5 130.5s49 75.167 84 106.5s75 58.666 120 81.999s91.333 42.833 139 58.5s95 27.334 142 35.001s89.833 11.5 128.5 11.5l-18 -215c-17.333 0 -39.666 -1.83301 -66.999 -5.5s-56.166 -9 -86.499 -16s-60.833 -16.167 -91.5 -27.5
s-58.5 -24.833 -83.5 -40.5s-45.167 -33.334 -60.5 -53.001s-23 -41.834 -23 -66.501c0 -2 3.16699 -3.83301 9.5 -5.5s14.833 -3.16699 25.5 -4.5s23 -2.66602 37 -3.99902l43 -4c52 -4.66699 99.667 -13.167 143 -25.5s80.166 -29.833 110.499 -52.5
s53.5 -51.167 69.5 -85.5s22.667 -75.833 20 -124.5z" />
    <glyph glyph-name="afii57506" unicode="&#x67e;" horiz-adv-x="1470" arabic-form="isolated" 
d="M1402 2c-34.667 -4.66699 -76.832 -10.833 -126.499 -18.5s-104.167 -15.667 -163.5 -24s-121.5 -15.833 -186.5 -22.5s-130.333 -11.5 -196 -14.5s-129.834 -3.16699 -192.501 -0.5s-120.834 9.5 -174.501 20.5s-101.667 27 -144 48s-75.5 48.167 -99.5 81.5
c-44.667 62 -62.667 137.333 -54 226s47.334 189.667 116.001 303l158 -5c-22 -52.667 -39 -100.167 -51 -142.5s-19.667 -79.833 -23 -112.5s-2.5 -60.834 2.5 -84.501s13.5 -43.5 25.5 -59.5c13.333 -18 38.5 -31.667 75.5 -41s81.5 -15.166 133.5 -17.499
s108.833 -2.16602 170.5 0.500977s123.667 6.66699 186 12s122.5 11.5 180.5 18.5s109.333 13.5 154 19.5c-3.33301 58 -19.5 110.667 -48.5 158s-69.833 84.666 -122.5 111.999l108 186c66.667 -36 118.5 -77.5 155.5 -124.5s64.333 -98 82 -153s28 -113.333 31 -175
s4.16699 -125.167 3.5 -190.5zM741.002 -375.999l-143 -143l-150 150l150 149l143 -143l144 143l150 -149l-150 -150zM584.002 -649.999l156 156l156 -156l-156 -155z" />
    <glyph glyph-name="afii57507" unicode="&#x686;" horiz-adv-x="1272" arabic-form="isolated" 
d="M125 692c56.667 57.333 110.831 100.83 162.498 130.497s101.167 48.667 148.5 57s93 7.66602 137 -2.00098s86.833 -25 128.5 -46s82.334 -46 122.001 -75l118.5 -89.5l74 -56.5c24.667 -18.333 49 -34.833 73 -49.5s47.833 -26.834 71.5 -36.501
s47.167 -15.5 70.5 -17.5l-16 -214c-51.333 -1.33301 -102.666 -1.66602 -153.999 -0.999023s-102.166 0.166992 -152.499 -1.5s-100 -5.5 -149 -11.5s-96.833 -16.167 -143.5 -30.5s-92 -34 -136 -59s-86 -57.167 -126 -96.5c-46 -57.333 -75.5 -111.833 -88.5 -163.5
s-10.5 -97.834 7.5 -138.501s51.167 -74.5 99.5 -101.5s111.5 -44.5 189.5 -52.5c62.667 -6.66699 130.667 -10.667 204 -12s151 -2.33301 233 -3v-214c-86 0 -167.5 0.833008 -244.5 2.5s-148.5 5.83398 -214.5 12.501c-81.333 8.66699 -153 26.167 -215 52.5
s-114 59.333 -156 99s-73.667 84.834 -95 135.501s-31.5 104.334 -30.5 161.001s13.167 115.334 36.5 176.001s58.666 120.667 105.999 180c36 45.333 78.333 83.333 127 114s100.667 56 156 76s112.5 35.833 171.5 47.5s117.167 21.5 174.5 29.5l-5 4l-80.5 61.5
c-27 20.333 -54.5 37.833 -82.5 52.5s-56.5 25.834 -85.5 33.501s-58.833 9.5 -89.5 5.5s-62.167 -14.667 -94.5 -32s-65.833 -43.333 -100.5 -78zM862.997 62.9971l-143 -143l-150 150l150 149l143 -143l144 143l150 -149l-150 -150zM705.997 -210.003l156 155l156 -155
l-156 -155z" />
    <glyph glyph-name="afii57508" unicode="&#x698;" horiz-adv-x="698" arabic-form="isolated" 
d="M407 688c42 -42 80.832 -88.834 116.499 -140.501s64.667 -106 87 -163s36.666 -116 42.999 -177s1.16602 -121.5 -15.501 -181.5c-11.333 -40 -29.5 -79.167 -54.5 -117.5s-54.667 -75.166 -89 -110.499s-72.166 -68.5 -113.499 -99.5s-83.833 -59.333 -127.5 -85
s-87.167 -48 -130.5 -67s-84.333 -34.167 -123 -45.5l-115 187c70 26.667 134.5 53.834 193.5 81.501s111.833 57.334 158.5 89.001s86.334 65.667 119.001 102s57.667 77.166 75 122.499h1c10.667 40.667 12.834 82 6.50098 124s-18.5 82.667 -36.5 122
s-39.833 76.666 -65.5 111.999s-52.5 67 -80.5 95zM494.999 1102l150 -150l-150 -149l-144 143l-143 -143l-150 149l150 150l143 -143zM349.999 1388l156 -155l-156 -156l-156 156z" />
    <glyph glyph-name="afii57509" unicode="&#x6af;" horiz-adv-x="1439" arabic-form="isolated" 
d="M1346 269c2 -4 2.33105 -8.99609 0.998047 -14.9961c-0.666992 -2 -1 -3.66699 -1 -5c-2 -66 -32.667 -136 -92 -210v1c-1.33301 -2 -2.66602 -3.66699 -3.99902 -5c-46 -6 -101.667 -15.5 -167 -28.5s-135 -25.667 -209 -38s-149.5 -22.333 -226.5 -30
s-150.333 -9 -220 -4s-132.667 18 -189 39s-100.833 53.833 -133.5 98.5c-44 62 -61.833 137.333 -53.5 226s46.833 189.667 115.5 303l158 -5c-22 -52.667 -39 -100.167 -51 -142.5s-19.5 -79.833 -22.5 -112.5s-2 -60.834 3 -84.501s13.167 -43.5 24.5 -59.5
c12 -16.667 32 -29 60 -37s61 -13 99 -15s80 -1.33301 126 2s92.833 8 140.5 14s95.167 13 142.5 21s91.5 15.833 132.5 23.5l109.5 20.5c19.333 3.33301 36 6.33301 50 9l-17 28c-8.66699 51.333 -25 96.333 -49 135s-52.5 72 -85.5 100s-68.333 51.167 -106 69.5
s-74.167 33.166 -109.5 44.499s-67.666 20 -96.999 26s-52 10.333 -68 13l-47 196c65.333 44 134.166 85.5 206.499 124.5s146.833 73.5 223.5 103.5s154.5 54.667 233.5 74s157.5 31.666 235.5 36.999l13 -214c-42.667 -2 -87.5 -7 -134.5 -15s-95 -19.333 -144 -34
s-98.167 -32.5 -147.5 -53.5s-97.666 -45.167 -144.999 -72.5c76 -28.667 145.667 -68.334 209 -119.001s115.166 -109 155.499 -175s66.5 -137.667 78.5 -215c0.666992 -6 1.33398 -12.333 2.00098 -19zM723.998 1049l-28 114c52 34.667 107 67.667 165 99
s117.667 59 179 83s123.666 43.667 186.999 59s126 25.333 188 30l1 -128c-34.667 -2 -70.667 -6.16699 -108 -12.5s-75.666 -15.333 -114.999 -27s-88.833 -27.5 -148.5 -47.5s-122 -49.167 -187 -87.5s-109.5 -65.833 -133.5 -82.5z" />
    <glyph glyph-name="uniFB57" unicode="&#x67e;" horiz-adv-x="1678" arabic-form="final" 
d="M1745 0h-121.001v-1c-75.333 -1.33301 -136.166 14.5 -182.499 47.5s-82.166 78.5 -107.499 136.5c-25.333 -36 -59.833 -68.167 -103.5 -96.5s-93 -52.833 -148 -73.5s-114 -37.334 -177 -50.001s-126.667 -21 -191 -25s-127.833 -3.5 -190.5 1.5
s-121.167 14.5 -175.5 28.5s-102.833 32.833 -145.5 56.5s-76.334 52.5 -101.001 86.5c-44.667 62 -62.5 137.167 -53.5 225.5s47.833 189.5 116.5 303.5l158 -5c-22.667 -52.667 -40 -100.167 -52 -142.5s-19.667 -79.833 -23 -112.5s-2.5 -60.834 2.5 -84.501
s13.5 -43.5 25.5 -59.5c12.667 -16.667 33.5 -31 62.5 -43s63.167 -21.5 102.5 -28.5s82.5 -11.5 129.5 -13.5s95 -1.66699 144 1s97.5 7.83398 145.5 15.501s92.833 17.667 134.5 30s78.5 27 110.5 44s56.667 36.5 74 58.5s32 46 44 72s22.333 52.833 31 80.5
s16.5 55.667 23.5 84l21.5 83.5l239 62l-24 -76c-9.33301 -29.333 -17.5 -60.166 -24.5 -92.499s-11.667 -64.833 -14 -97.5s0.166992 -62.667 7.5 -90s21 -51 41 -71s48.667 -33.333 86 -40h135v-215zM704.999 -378l-143 -143l-150 150l150 149l143 -143l144 143l150 -149
l-150 -150zM547.999 -652l156 156l156 -156l-156 -155z" />
    <glyph glyph-name="uniFB58" unicode="&#x67e;" horiz-adv-x="747" arabic-form="initial" 
d="M414 645c81.333 -44 146 -103 194 -177s75 -158.333 81 -253v-215h-742v215h529c-7.33301 54 -25.5 102 -54.5 144s-67.167 75.333 -114.5 100zM378 -378l-143 -143l-150 150l150 149l143 -143l144 143l150 -149l-150 -150zM221 -652l156 156l156 -156l-156 -155z" />
    <glyph glyph-name="uniFB59" unicode="&#x67e;" horiz-adv-x="714" arabic-form="medial" 
d="M-13 215l99 -1c24 -0.666992 46.167 6.5 66.5 21.5s39.166 36.5 56.499 64.5c30.667 48 54.667 99.667 72 155s33.666 110.333 48.999 165l238 62l-24 -76c-9.33301 -29.333 -17.5 -60.166 -24.5 -92.499s-11.667 -64.833 -14 -97.5s0.333984 -62.667 8.00098 -90
s21.5 -51 41.5 -71s48.667 -33.333 86 -40h78v-215h-65v-1c-75.333 -1.33301 -136.166 14.5 -182.499 47.5s-82.166 78.5 -107.499 136.5c-42.667 -60 -91.834 -105.833 -147.501 -137.5s-120.5 -46.834 -194.5 -45.501h-35v215zM357 -378l-143 -143l-150 150l150 149
l143 -143l144 143l150 -149l-150 -150zM200 -652l156 156l156 -156l-156 -155z" />
    <glyph glyph-name="uniFB7B" unicode="&#x686;" horiz-adv-x="1345" arabic-form="final" 
d="M1225 1l-214.998 -0.000976562c-38.667 19.333 -65.167 46 -79.5 80s-21.5 72.667 -21.5 116c0 24.667 3 56 9 94c-51.333 -1.33301 -101.833 -5 -151.5 -11s-98.334 -16.167 -146.001 -30.5s-93.834 -34 -138.501 -59s-87.334 -57.5 -128.001 -97.5
c-46 -57.333 -75.5 -111.833 -88.5 -163.5s-10.5 -97.834 7.5 -138.501s51.167 -74.5 99.5 -101.5s111.5 -44.5 189.5 -52.5c62.667 -6.66699 130.667 -10.667 204 -12s151 -2.33301 233 -3v-214c-86 0 -167.5 0.833008 -244.5 2.5s-148.5 5.83398 -214.5 12.501
c-81.333 8.66699 -153 26.167 -215 52.5s-114 59.333 -156 99s-73.667 84.834 -95 135.501s-31.5 104.334 -30.5 161.001s13.167 115.334 36.5 176.001s58.666 120.667 105.999 180c36 45.333 78.333 83.333 127 114s100.667 56 156 76s112.5 35.833 171.5 47.5
s117.167 21.5 174.5 29.5l-5 4l-80.5 61.5c-27 20.333 -54.5 37.833 -82.5 52.5s-56.5 25.834 -85.5 33.501s-58.833 9.5 -89.5 5.5s-62.167 -14.667 -94.5 -32s-65.833 -43.333 -100.5 -78l-152 151c56.667 57.333 110.834 100.833 162.501 130.5s101.167 48.667 148.5 57
s93 7.66602 137 -2.00098s86.833 -25 128.5 -46s82.334 -46 122.001 -75l118.5 -89.5l74 -56.5c24.667 -18.333 49 -34.833 73 -49.5s47.833 -26.834 71.5 -36.501s47.167 -15.5 70.5 -17.5l-16 -214c-26 -0.666992 -52 -1 -78 -1h-76
c6.66699 -18.667 15.667 -34.834 27 -48.501s25 -23.167 41 -28.5h226v-215h-130v1zM530.002 -205.001l125 124l124 -124l-124 -124zM655.002 13.999l-114 -115l-120 120l120 119l114 -114l116 114l120 -119l-120 -120z" />
    <glyph glyph-name="uniFB7C" unicode="&#x686;" horiz-adv-x="1381" arabic-form="initial" 
d="M-9 215h819.999l-70 88l-64 79c-21.333 26 -43.666 49.667 -66.999 71s-48.166 39.166 -74.499 53.499s-54.666 23.333 -84.999 27s-63.333 1 -99 -8s-74.5 -26.167 -116.5 -51.5l-111 183c69.333 42 132.666 71.167 189.999 87.5s110 22.833 158 19.5s92 -15 132 -35
s77.667 -45.167 113 -75.5s68.666 -64.5 99.999 -102.5l93 -116l54 -69c18 -22.667 36.167 -43.667 54.5 -63s37 -36.666 56 -51.999s38.5 -27.333 58.5 -36h128v-215h-1270v215zM542.999 -377l-143 -143l-150 150l150 149l143 -143l144 143l150 -149l-150 -150z
M385.999 -651l156 156l156 -156l-156 -155z" />
    <glyph glyph-name="uniFB7D" unicode="&#x686;" horiz-adv-x="1251" arabic-form="medial" 
d="M-9 215h819.999l-70 88l-64 79c-21.333 26 -43.666 49.667 -66.999 71s-48.166 39.166 -74.499 53.499s-54.666 23.333 -84.999 27s-63.333 1 -99 -8s-74.5 -26.167 -116.5 -51.5l-111 183c69.333 42 132.666 71.167 189.999 87.5s110 22.833 158 19.5s92 -15 132 -35
s77.667 -45.167 113 -75.5s68.666 -64.5 99.999 -102.5l93 -116l54 -69c18 -22.667 36.167 -43.667 54.5 -63s37 -36.666 56 -51.999s38.5 -27.333 58.5 -36h128v-215h-1270v215zM542.999 -377l-143 -143l-150 150l150 149l143 -143l144 143l150 -149l-150 -150z
M385.999 -651l156 156l156 -156l-156 -155z" />
    <glyph glyph-name="uniFB8B" unicode="&#x698;" horiz-adv-x="803" arabic-form="final" 
d="M407 688c30.667 -31.333 59.9961 -65.1709 87.9961 -101.504s52.833 -74.666 74.5 -114.999s39.834 -82 54.501 -125s24.334 -86.833 29.001 -131.5h160v-215h-184c-14 -38 -34 -75.333 -60 -112s-56.167 -71.667 -90.5 -105s-71.5 -64.666 -111.5 -93.999
s-81 -56.166 -123 -80.499s-83.833 -45.666 -125.5 -63.999s-81.167 -32.833 -118.5 -43.5l-115 187c70 26.667 134.5 53.834 193.5 81.501s111.833 57.334 158.5 89.001s86.334 65.667 119.001 102s57.667 77.166 75 122.499h1c10.667 40.667 12.834 82 6.50098 124
s-18.5 82.667 -36.5 122s-39.833 76.666 -65.5 111.999s-52.5 67 -80.5 95zM494.996 1102l150 -150l-150 -149l-144 143l-143 -143l-150 149l150 150l143 -143zM349.996 1388l156 -155l-156 -156l-156 156z" />
    <glyph glyph-name="uniFB8F" unicode="&#x6a9;" horiz-adv-x="1510" arabic-form="final" 
d="M1103 336c-8 22 -18.0029 42.6689 -30.0029 62.002c-24 38.667 -52.5 72 -85.5 100s-68.333 51.167 -106 69.5s-74.167 33.166 -109.5 44.499s-67.666 20 -96.999 26s-52 10.333 -68 13l-47 196c65.333 44 134.166 85.5 206.499 124.5s146.833 73.5 223.5 103.5
s154.5 54.667 233.5 74s157.5 31.666 235.5 36.999l13 -214c-42.667 -2 -87.5 -7 -134.5 -15s-95 -19.333 -144 -34s-98.167 -32.5 -147.5 -53.5s-97.666 -45.167 -144.999 -72.5c76 -28.667 145.667 -68.334 209 -119.001s115.166 -109 155.499 -175
s66.5 -137.667 78.5 -215l2 -18c2.66699 -3.33301 5.66699 -6.33301 9 -9c24 -23.333 55 -38.666 93 -45.999h78v-215h-64v-1c-75.333 -1.33301 -136.166 14.5 -182.499 47.5s-82.5 78.5 -108.5 136.5l-3 6c13.333 -28.667 -3.5 -56.667 -50.5 -84s-97 -52.666 -150 -75.999
s-108 -43.833 -165 -61.5s-113.5 -30.834 -169.5 -39.501c-46 -7.33301 -94.167 -11.833 -144.5 -13.5s-99.5 2.16602 -147.5 11.499s-93.167 25.5 -135.5 48.5s-78.5 55.5 -108.5 97.5c-44.667 62 -62.667 137.333 -54 226s47.334 189.667 116.001 303l158 -5
c-22 -52.667 -39 -100.167 -51 -142.5s-19.667 -79.833 -23 -112.5s-2.5 -60.834 2.5 -84.501s13.5 -43.5 25.5 -59.5c16 -22 37.833 -38.167 65.5 -48.5s57.167 -16.666 88.5 -18.999s62.333 -2.16602 93 0.500977s57.667 5.66699 81 9c61.333 10 122.5 24.667 183.5 44
s117.167 40.833 168.5 64.5s95.333 48.167 132 73.5c6.66699 5.33301 13.334 10.333 20.001 15z" />
    <glyph glyph-name="uniFB90" unicode="&#x6a9;" horiz-adv-x="1032" arabic-form="initial" 
d="M676 215c-8.66699 51.333 -25 96.3359 -49 135.003s-52.5 72 -85.5 100s-68.333 51.167 -106 69.5s-74.167 33.166 -109.5 44.499s-67.666 20 -96.999 26s-52 10.333 -68 13l-47 196c65.333 44 134.166 85.5 206.499 124.5s146.833 73.5 223.5 103.5
s154.5 54.667 233.5 74s157.5 31.666 235.5 36.999l13 -214c-42.667 -2 -87.5 -7 -134.5 -15s-95 -19.333 -144 -34s-98.167 -32.5 -147.5 -53.5s-97.666 -45.167 -144.999 -72.5c76 -28.667 145.667 -68.334 209 -119.001s115.166 -109 155.499 -175
s66.333 -137.667 78 -215s4.16699 -157.333 -22.5 -240h-885v215h686z" />
    <glyph glyph-name="uniFB91" unicode="&#x6a9;" horiz-adv-x="1116" arabic-form="medial" 
d="M-10 215l685.999 0.00292969c-8.66699 51.333 -25 96.333 -49 135s-52.5 72 -85.5 100s-68.333 51.167 -106 69.5s-74.167 33.166 -109.5 44.499s-67.666 20 -96.999 26s-52 10.333 -68 13l-47 196c65.333 44 134.166 85.5 206.499 124.5s146.833 73.5 223.5 103.5
s154.5 54.667 233.5 74s157.5 31.666 235.5 36.999l13 -214c-42.667 -2 -87.5 -7 -134.5 -15s-95 -19.333 -144 -34s-98.167 -32.5 -147.5 -53.5s-97.666 -45.167 -144.999 -72.5c58.667 -22.667 114 -51.834 166 -87.501s97.667 -76.5 137 -122.5s71.5 -96.5 96.5 -151.5
s40.167 -112.5 45.5 -172.5h226v-215h-1136v215z" />
    <glyph glyph-name="uniFB93" unicode="&#x6af;" horiz-adv-x="1510" arabic-form="final" 
d="M1103 336c-8 22 -18.0029 42.6689 -30.0029 62.002c-24 38.667 -52.5 72 -85.5 100s-68.333 51.167 -106 69.5s-74.167 33.166 -109.5 44.499s-67.666 20 -96.999 26s-52 10.333 -68 13l-47 196c65.333 44 134.166 85.5 206.499 124.5s146.833 73.5 223.5 103.5
s154.5 54.667 233.5 74s157.5 31.666 235.5 36.999l13 -214c-42.667 -2 -87.5 -7 -134.5 -15s-95 -19.333 -144 -34s-98.167 -32.5 -147.5 -53.5s-97.666 -45.167 -144.999 -72.5c76 -28.667 145.667 -68.334 209 -119.001s115.166 -109 155.499 -175
s66.5 -137.667 78.5 -215l2 -18c2.66699 -3.33301 5.66699 -6.33301 9 -9c24 -23.333 55 -38.666 93 -45.999h78v-215h-64v-1c-75.333 -1.33301 -136.166 14.5 -182.499 47.5s-82.5 78.5 -108.5 136.5l-3 6c13.333 -28.667 -3.5 -56.667 -50.5 -84s-97 -52.666 -150 -75.999
s-108 -43.833 -165 -61.5s-113.5 -30.834 -169.5 -39.501c-46 -7.33301 -94.167 -11.833 -144.5 -13.5s-99.5 2.16602 -147.5 11.499s-93.167 25.5 -135.5 48.5s-78.5 55.5 -108.5 97.5c-44.667 62 -62.667 137.333 -54 226s47.334 189.667 116.001 303l158 -5
c-22 -52.667 -39 -100.167 -51 -142.5s-19.667 -79.833 -23 -112.5s-2.5 -60.834 2.5 -84.501s13.5 -43.5 25.5 -59.5c16 -22 37.833 -38.167 65.5 -48.5s57.167 -16.666 88.5 -18.999s62.333 -2.16602 93 0.500977s57.667 5.66699 81 9c61.333 10 122.5 24.667 183.5 44
s117.167 40.833 168.5 64.5s95.333 48.167 132 73.5c6.66699 5.33301 13.334 10.333 20.001 15zM723.997 1049l-28 114c52 34.667 107 67.667 165 99s117.667 59 179 83s123.666 43.667 186.999 59s126 25.333 188 30l1 -128c-34.667 -2 -70.667 -6.16699 -108 -12.5
s-75.666 -15.333 -114.999 -27s-88.833 -27.5 -148.5 -47.5s-122 -49.167 -187 -87.5s-109.5 -65.833 -133.5 -82.5z" />
    <glyph glyph-name="uniFB94" unicode="&#x6af;" horiz-adv-x="1032" arabic-form="initial" 
d="M676 215c-8.66699 51.333 -25 96.3359 -49 135.003s-52.5 72 -85.5 100s-68.333 51.167 -106 69.5s-74.167 33.166 -109.5 44.499s-67.666 20 -96.999 26s-52 10.333 -68 13l-47 196c65.333 44 134.166 85.5 206.499 124.5s146.833 73.5 223.5 103.5
s154.5 54.667 233.5 74s157.5 31.666 235.5 36.999l13 -214c-42.667 -2 -87.5 -7 -134.5 -15s-95 -19.333 -144 -34s-98.167 -32.5 -147.5 -53.5s-97.666 -45.167 -144.999 -72.5c76 -28.667 145.667 -68.334 209 -119.001s115.166 -109 155.499 -175
s66.333 -137.667 78 -215s4.16699 -157.333 -22.5 -240h-885v215h686zM289 999.003l-28 114c52 35.333 107 68.5 165 99.5s117.667 58.5 179 82.5s123.666 43.833 186.999 59.5s126 25.5 188 29.5l1 -128c-34.667 -2 -70.667 -6.16699 -108 -12.5
s-75.666 -15.333 -114.999 -27s-88.833 -27.5 -148.5 -47.5s-122 -49 -187 -87s-109.5 -65.667 -133.5 -83z" />
    <glyph glyph-name="uniFB95" unicode="&#x6af;" horiz-adv-x="1116" arabic-form="medial" 
d="M-10 215l685.999 0.00292969c-8.66699 51.333 -25 96.333 -49 135s-52.5 72 -85.5 100s-68.333 51.167 -106 69.5s-74.167 33.166 -109.5 44.499s-67.666 20 -96.999 26s-52 10.333 -68 13l-47 196c65.333 44 134.166 85.5 206.499 124.5s146.833 73.5 223.5 103.5
s154.5 54.667 233.5 74s157.5 31.666 235.5 36.999l13 -214c-42.667 -2 -87.5 -7 -134.5 -15s-95 -19.333 -144 -34s-98.167 -32.5 -147.5 -53.5s-97.666 -45.167 -144.999 -72.5c58.667 -22.667 114 -51.834 166 -87.501s97.667 -76.5 137 -122.5s71.5 -96.5 96.5 -151.5
s40.167 -112.5 45.5 -172.5h226v-215h-1136v215zM288.999 999.003l-28 114c52 35.333 107 68.5 165 99.5s117.667 58.5 179 82.5s123.666 43.833 186.999 59.5s126 25.5 188 29.5l1 -128c-34.667 -2 -70.667 -6.16699 -108 -12.5s-75.666 -15.333 -114.999 -27
s-88.833 -27.5 -148.5 -47.5s-122 -49 -187 -87s-109.5 -65.667 -133.5 -83z" />
    <glyph glyph-name="uniFBA5" unicode="&#x6c0;" horiz-adv-x="1089" arabic-form="final" 
d="M1102 215l-0.00292969 -215h-64c-60.667 0 -113.667 6.66699 -159 20s-85.333 32 -120 56l-66.5 -36.5c-26.333 -14.333 -55.166 -28.666 -86.499 -42.999s-64.166 -28 -98.499 -41s-68.5 -23.5 -102.5 -31.5c-28 -6.66699 -56.667 -12.167 -86 -16.5
s-57.666 -6.5 -84.999 -6.5s-52.833 2.83301 -76.5 8.5s-44.167 15.5 -61.5 29.5s-30.333 32.667 -39 56s-11.667 52.666 -9 87.999c4.66699 52 17 103 37 153s48.167 98 84.5 144s81.833 89.833 136.5 131.5s119 80.167 193 115.5l-11 62.5
c-4 23.667 -8.33301 43.5 -13 59.5l207 55c7.33301 -25.333 13.833 -50.833 19.5 -76.5l16.5 -76.5l25 -107.5c8.66699 -35.667 18.5 -69.5 29.5 -101.5s24.167 -62 39.5 -90s33.5 -52 54.5 -72s45.5 -35.833 73.5 -47.5s60.667 -17.5 98 -17.5h64zM549.997 429
l-85.9971 -46.5c-30 -16.333 -58.833 -35.333 -86.5 -57s-52.834 -47 -75.501 -76s-40 -62.833 -52 -101.5c2 -7.33301 6.16699 -12.833 12.5 -16.5s14.166 -5.83398 23.499 -6.50098s20.166 -0.166992 32.499 1.5s25.166 4.16699 38.499 7.5
c22.667 4.66699 45.834 11.334 69.501 20.001s47 18 70 28s44.833 20.333 65.5 31l57 30c-14.667 28.667 -27.5 58.5 -38.5 89.5s-21.167 63.167 -30.5 96.5zM201 1049c5.33301 8 10.9971 14.3359 16.9971 19.0029s12.167 9 18.5 13s12.833 7.83301 19.5 11.5
s14 8.16699 22 13.5c-7.33301 0.666992 -15.166 3 -23.499 7s-16.166 9 -23.499 15s-13.333 12.667 -18 20s-7 15.333 -7 24c0 17.333 3.5 38 10.5 62s17 46.833 30 68.5s28.5 40 46.5 55s37.667 22.5 59 22.5c15.333 -0.666992 29.5 -4 42.5 -10s21.5 -14.333 25.5 -25
l-32 -73c-7.33301 1.33301 -14.833 3.16602 -22.5 5.49902s-15.5 3.5 -23.5 3.5c-7.33301 0 -14.333 -1.66699 -21 -5s-12.334 -10.333 -17.001 -21c-5.33301 -12.667 -6 -22.5 -2 -29.5s10.833 -12 20.5 -15s21.5 -4.5 35.5 -4.5s28.333 0.333008 43 1
s28.834 1.5 42.501 2.5s24.834 0.833008 33.501 -0.5l-40 -124c-18 -4 -37.333 -8.66699 -58 -14s-41 -11.833 -61 -19.5s-39 -16.334 -57 -26.001s-33.667 -20.834 -47 -33.501z" />
    <glyph glyph-name="uniFBFD" unicode="&#x6cc;" horiz-adv-x="1397" arabic-form="final" 
d="M1226 0c-6 -48 -25.3311 -94.499 -57.998 -139.499s-74.667 -87.5 -126 -127.5c-50 -38 -106.667 -72.167 -170 -102.5s-129 -54.166 -197 -71.499c-70.667 -18 -141 -27.5 -211 -28.5s-135.333 9.5 -196 31.5c-58 20.667 -107 52.667 -147 96s-65.833 96.5 -77.5 159.5
s-6.83398 135.333 14.499 217s64 171.5 128 269.5l97 -5c-30.667 -84.667 -50.667 -158.167 -60 -220.5s-10.333 -115 -3 -158s21.666 -77.333 42.999 -103s47.333 -43.834 78 -54.501c38 -14 81.333 -20.167 130 -18.5s99 9.16699 151 22.5c54 13.333 106 31.833 156 55.5
s94 50.5 132 80.5c22 16.667 41 33.167 57 49.5s27.667 32.166 35 47.499h-243v215h656v-215h-189z" />
    <glyph glyph-name="uniFBFE" unicode="&#x6cc;" horiz-adv-x="662" arabic-form="initial" 
d="M329 645c81.333 -44 146 -103 194 -177s75 -158.333 81 -253v-215h-614v215h401c-7.33301 54 -25.5 102 -54.5 144s-67.167 75.333 -114.5 100zM464 -176l150 -150l-150 -149l-144 143l-143 -143l-150 149l150 150l143 -143z" />
    <glyph glyph-name="uniFBFF" unicode="&#x6cc;" horiz-adv-x="714" arabic-form="medial" 
d="M-13 215l99 -1c24 -0.666992 46.167 6.5 66.5 21.5s39.166 36.5 56.499 64.5c30.667 48 54.667 99.667 72 155s33.666 110.333 48.999 165l238 62l-24 -76c-9.33301 -29.333 -17.5 -60.166 -24.5 -92.499s-11.667 -64.833 -14 -97.5s0.333984 -62.667 8.00098 -90
s21.5 -51 41.5 -71s48.667 -33.333 86 -40h78v-215h-65v-1c-75.333 -1.33301 -136.166 14.5 -182.499 47.5s-82.166 78.5 -107.499 136.5c-42.667 -60 -91.834 -105.833 -147.501 -137.5s-120.5 -46.834 -194.5 -45.501h-35v215zM490 -176l150 -150l-150 -149l-144 143
l-143 -143l-150 149l150 150l143 -143z" />
    <glyph glyph-name="uniFE82" unicode="&#x622;" horiz-adv-x="589" arabic-form="final" 
d="M599 0l-126 0.00195312c-18 -0.666992 -37 -0.166992 -57 1.5s-40.167 4.16699 -60.5 7.5s-40.333 8 -60 14s-37.5 13.333 -53.5 22c-35.333 19.333 -61.833 44.666 -79.5 75.999s-27.167 67.333 -28.5 108l-84 931l215 18l77 -858c2 -26.667 6.66699 -46.834 14 -60.501
s16.833 -23.5 28.5 -29.5s25 -9.5 40 -10.5s31.167 -2.5 48.5 -4.5h126v-215zM25 1260c-1.33301 54 15.832 105.332 51.499 153.999s102.5 50.834 200.5 6.50098s173 -28.5 225 47.5c-25.333 -160 -97.166 -213 -215.499 -159s-205.5 37.667 -261.5 -49z" />
    <glyph glyph-name="uniFE84" unicode="&#x623;" horiz-adv-x="589" arabic-form="final" 
d="M599 0l-126 0.00195312c-18 -0.666992 -37 -0.166992 -57 1.5s-40.167 4.16699 -60.5 7.5s-40.333 8 -60 14s-37.5 13.333 -53.5 22c-35.333 19.333 -61.833 44.666 -79.5 75.999s-27.167 67.333 -28.5 108l-84 931l215 18l77 -858c2 -26.667 6.66699 -46.834 14 -60.501
s16.833 -23.5 28.5 -29.5s25 -9.5 40 -10.5s31.167 -2.5 48.5 -4.5h126v-215zM47 1290c5.33301 8 10.9971 14.3359 16.9971 19.0029s12.167 9 18.5 13s12.833 7.83301 19.5 11.5s14 8.16699 22 13.5c-7.33301 0.666992 -15.166 3 -23.499 7s-16.166 9 -23.499 15
s-13.333 12.667 -18 20s-7 15.333 -7 24c0 17.333 3.5 38 10.5 62s17 46.833 30 68.5s28.5 40 46.5 55s37.667 22.5 59 22.5c15.333 -0.666992 29.5 -4 42.5 -10s21.5 -14.333 25.5 -25l-32 -73c-7.33301 1.33301 -14.833 3.16602 -22.5 5.49902s-15.5 3.5 -23.5 3.5
c-7.33301 0 -14.333 -1.66699 -21 -5s-12.334 -10.333 -17.001 -21c-5.33301 -12.667 -6 -22.5 -2 -29.5s10.833 -12 20.5 -15s21.5 -4.5 35.5 -4.5s28.333 0.333008 43 1s28.834 1.5 42.501 2.5s24.834 0.833008 33.501 -0.5l-40 -124c-18 -4 -37.333 -8.66699 -58 -14
s-41 -11.833 -61 -19.5s-39 -16.334 -57 -26.001s-33.667 -20.834 -47 -33.501z" />
    <glyph glyph-name="uniFE86" unicode="&#x624;" horiz-adv-x="1142" arabic-form="final" 
d="M1031 215l120.999 -0.000976562v-215h-121c-15.333 -56.667 -41.833 -107.167 -79.5 -151.5s-83.167 -83.5 -136.5 -117.5c-42.667 -27.333 -89.167 -51 -139.5 -71s-101.666 -37.167 -153.999 -51.5s-104.666 -26.333 -156.999 -36s-102.166 -17.334 -149.499 -23.001
s-91 -10.167 -131 -13.5s-73.667 -6 -101 -8l-18 213l103 9.5c38.667 3.66699 79.834 8.33398 123.501 14.001s88.667 12.5 135 20.5s91.666 17.833 135.999 29.5s86.833 25.5 127.5 41.5s77 34.667 109 56c18.667 12 35.5 25.333 50.5 40s28.167 30.667 39.5 48
c-50.667 0.666992 -102.167 2.83398 -154.5 6.50098s-102.5 10.667 -150.5 21s-92 24.833 -132 43.5s-73 43.334 -99 74.001c-18.667 26 -30.834 59.5 -36.501 100.5s-5.16699 84.667 1.5 131s18.834 92.666 36.501 138.999s40.5 87.833 68.5 124.5s60.667 66.167 98 88.5
s78.666 32.5 123.999 30.5c27.333 0 55.666 -4.5 84.999 -13.5s59 -24 89 -45s60.5 -48.167 91.5 -81.5s62.167 -74.333 93.5 -123c34 -52 61.333 -101.333 82 -148s35.667 -91 45 -133zM676.999 970.999l-394.001 -177.002l-37 80l110 55c-16.667 4 -32 9.5 -46 16.5
s-25.833 15.667 -35.5 26s-16.667 23 -21 38s-5.16602 33.167 -2.49902 54.5c4 34 14.833 65.333 32.5 94s43.5 49.334 77.5 62.001s69 14.834 105 6.50098s68.333 -22.5 97 -42.5l-59 -86c-14.667 10 -31.667 18 -51 24s-38 5.66699 -56 -1
c-14 -5.33301 -24.167 -15 -30.5 -29s-10.5 -28 -12.5 -42c-0.666992 -8 5.5 -14.5 18.5 -19.5s28.333 -9.33301 46 -13s35 -6.5 52 -8.5s29.167 -3.66699 36.5 -5l127 63zM803.998 214.997c-15.333 48.667 -42.334 103.666 -81.001 164.999
c-39.333 60.667 -73.333 103.334 -102 128.001s-53 36.667 -73 36c-16.667 0.666992 -32 -4.33301 -46 -15s-26.667 -24.5 -38 -41.5s-21.166 -36 -29.499 -57s-14.666 -41.333 -18.999 -61s-6.5 -37.5 -6.5 -53.5c0 -15.333 2.33301 -26 7 -32
c12.667 -14.667 31.5 -26.5 56.5 -35.5s54.5 -16 88.5 -21s71.667 -8.33301 113 -10s84.666 -2.5 129.999 -2.5z" />
    <glyph glyph-name="uniFE88" unicode="&#x625;" horiz-adv-x="589" arabic-form="final" 
d="M599 0l-126 0.00195312c-18 -0.666992 -37 -0.166992 -57 1.5s-40.167 4.16699 -60.5 7.5s-40.333 8 -60 14s-37.5 13.333 -53.5 22c-35.333 19.333 -61.833 44.666 -79.5 75.999s-27.167 67.333 -28.5 108l-84 931l215 18l77 -858c2 -26.667 6.66699 -46.834 14 -60.501
s16.833 -23.5 28.5 -29.5s25 -9.5 40 -10.5s31.167 -2.5 48.5 -4.5h126v-215zM115 -429.998c5.33301 8 10.9971 14.3359 16.9971 19.0029s12.167 9 18.5 13s12.833 7.83301 19.5 11.5s14 8.16699 22 13.5c-7.33301 0.666992 -15.166 3 -23.499 7s-16.166 9 -23.499 15
s-13.333 12.667 -18 20s-7 15.333 -7 24c0 17.333 3.5 38 10.5 62s17 46.833 30 68.5s28.5 40 46.5 55s37.667 22.5 59 22.5c15.333 -0.666992 29.5 -4 42.5 -10s21.5 -14.333 25.5 -25l-32 -73c-7.33301 1.33301 -14.833 3.16602 -22.5 5.49902s-15.5 3.5 -23.5 3.5
c-7.33301 0 -14.333 -1.66699 -21 -5s-12.334 -10.333 -17.001 -21c-5.33301 -12.667 -6 -22.5 -2 -29.5s10.833 -12 20.5 -15s21.5 -4.5 35.5 -4.5s28.333 0.333008 43 1s28.834 1.5 42.501 2.5s24.834 0.833008 33.501 -0.5l-40 -124c-18 -4 -37.333 -8.66699 -58 -14
s-41 -11.833 -61 -19.5s-39 -16.334 -57 -26.001s-33.667 -20.834 -47 -33.501z" />
    <glyph glyph-name="uniFE8A" unicode="&#x626;" horiz-adv-x="1397" arabic-form="final" 
d="M1226 0c-6 -48 -25.3311 -94.499 -57.998 -139.499s-74.667 -87.5 -126 -127.5c-50 -38 -106.667 -72.167 -170 -102.5s-129 -54.166 -197 -71.499c-70.667 -18 -141 -27.5 -211 -28.5s-135.333 9.5 -196 31.5c-58 20.667 -107 52.667 -147 96s-65.833 96.5 -77.5 159.5
s-6.83398 135.333 14.499 217s64 171.5 128 269.5l97 -5c-30.667 -84.667 -50.667 -158.167 -60 -220.5s-10.333 -115 -3 -158s21.666 -77.333 42.999 -103s47.333 -43.834 78 -54.501c38 -14 81.333 -20.167 130 -18.5s99 9.16699 151 22.5c54 13.333 106 31.833 156 55.5
s94 50.5 132 80.5c22 16.667 41 33.167 57 49.5s27.667 32.166 35 47.499h-243v215h656v-215h-189zM516.002 564.001l-394.001 -177.002l-37 80l110 55c-16.667 4 -32 9.5 -46 16.5s-25.833 15.667 -35.5 26s-16.667 23 -21 38s-5.16602 33.167 -2.49902 54.5
c4 34 14.833 65.333 32.5 94s43.5 49.334 77.5 62.001s69 14.834 105 6.50098s68.333 -22.5 97 -42.5l-59 -86c-14.667 10 -31.667 18 -51 24s-38 5.66699 -56 -1c-14 -5.33301 -24.167 -15 -30.5 -29s-10.5 -28 -12.5 -42c-0.666992 -8 5.5 -14.5 18.5 -19.5
s28.333 -9.33301 46 -13s35 -6.5 52 -8.5s29.167 -3.66699 36.5 -5l127 63z" />
    <glyph glyph-name="uniFE8B" unicode="&#x626;" horiz-adv-x="662" arabic-form="initial" 
d="M329 645c81.333 -44 146 -103 194 -177s75 -158.333 81 -253v-215h-614v215h401c-7.33301 54 -25.5 102 -54.5 144s-67.167 75.333 -114.5 100zM543 860l-394.001 -177.002l-37 80l110 55c-16.667 4 -32 9.5 -46 16.5s-25.833 15.667 -35.5 26s-16.667 23 -21 38
s-5.16602 33.167 -2.49902 54.5c4 34 14.833 65.333 32.5 94s43.5 49.334 77.5 62.001s69 14.834 105 6.50098s68.333 -22.5 97 -42.5l-59 -86c-14.667 10 -31.667 18 -51 24s-38 5.66699 -56 -1c-14 -5.33301 -24.167 -15 -30.5 -29s-10.5 -28 -12.5 -42
c-0.666992 -8 5.5 -14.5 18.5 -19.5s28.333 -9.33301 46 -13s35 -6.5 52 -8.5s29.167 -3.66699 36.5 -5l127 63z" />
    <glyph glyph-name="uniFE8C" unicode="&#x626;" horiz-adv-x="714" arabic-form="medial" 
d="M-13 215l99 -1c24 -0.666992 46.167 6.5 66.5 21.5s39.166 36.5 56.499 64.5c30.667 48 54.667 99.667 72 155s33.666 110.333 48.999 165l238 62l-24 -76c-9.33301 -29.333 -17.5 -60.166 -24.5 -92.499s-11.667 -64.833 -14 -97.5s0.333984 -62.667 8.00098 -90
s21.5 -51 41.5 -71s48.667 -33.333 86 -40h78v-215h-65v-1c-75.333 -1.33301 -136.166 14.5 -182.499 47.5s-82.166 78.5 -107.499 136.5c-42.667 -60 -91.834 -105.833 -147.501 -137.5s-120.5 -46.834 -194.5 -45.501h-35v215zM574 860l-394.001 -177.002l-37 80l110 55
c-16.667 4 -32 9.5 -46 16.5s-25.833 15.667 -35.5 26s-16.667 23 -21 38s-5.16602 33.167 -2.49902 54.5c4 34 14.833 65.333 32.5 94s43.5 49.334 77.5 62.001s69 14.834 105 6.50098s68.333 -22.5 97 -42.5l-59 -86c-14.667 10 -31.667 18 -51 24s-38 5.66699 -56 -1
c-14 -5.33301 -24.167 -15 -30.5 -29s-10.5 -28 -12.5 -42c-0.666992 -8 5.5 -14.5 18.5 -19.5s28.333 -9.33301 46 -13s35 -6.5 52 -8.5s29.167 -3.66699 36.5 -5l127 63z" />
    <glyph glyph-name="uniFE8E" unicode="&#x627;" horiz-adv-x="589" arabic-form="final" 
d="M599 0l-126 0.00195312c-18 -0.666992 -37 -0.166992 -57 1.5s-40.167 4.16699 -60.5 7.5s-40.333 8 -60 14s-37.5 13.333 -53.5 22c-35.333 19.333 -61.833 44.666 -79.5 75.999s-27.167 67.333 -28.5 108l-84 931l215 18l77 -858c2 -26.667 6.66699 -46.834 14 -60.501
s16.833 -23.5 28.5 -29.5s25 -9.5 40 -10.5s31.167 -2.5 48.5 -4.5h126v-215z" />
    <glyph glyph-name="uniFE90" unicode="&#x628;" horiz-adv-x="1678" arabic-form="final" 
d="M1179 300c17.333 22 31.999 46 43.999 72s22.333 52.833 31 80.5s16.5 55.667 23.5 84l21.5 83.5l239 62l-24 -76c-9.33301 -29.333 -17.5 -60.166 -24.5 -92.499s-11.667 -64.833 -14 -97.5s0.166992 -62.667 7.5 -90s21 -51 41 -71s48.667 -33.333 86 -40h79v-215h-65
v-1c-75.333 -1.33301 -136.166 14.5 -182.499 47.5s-82.166 78.5 -107.499 136.5c-25.333 -36 -59.833 -68.167 -103.5 -96.5s-93 -52.833 -148 -73.5s-114 -37.334 -177 -50.001s-126.667 -21 -191 -25s-127.833 -3.5 -190.5 1.5s-121.167 14.5 -175.5 28.5
s-102.833 32.833 -145.5 56.5s-76.334 52.5 -101.001 86.5c-44.667 62 -62.5 137.167 -53.5 225.5s47.833 189.5 116.5 303.5l158 -5c-22.667 -52.667 -40 -100.167 -52 -142.5s-19.667 -79.833 -23 -112.5s-2.5 -60.834 2.5 -84.501s13.5 -43.5 25.5 -59.5
c12.667 -16.667 33.5 -31 62.5 -43s63.167 -21.5 102.5 -28.5s82.5 -11.5 129.5 -13.5s95 -1.66699 144 1s97.5 7.83398 145.5 15.501s92.833 17.667 134.5 30s78.5 27 110.5 44s56.667 36.5 74 58.5zM838.999 -207l156 -155l-156 -156l-156 156z" />
    <glyph glyph-name="uniFE91" unicode="&#x628;" horiz-adv-x="662" arabic-form="initial" 
d="M329 645c81.333 -44 146 -103 194 -177s75 -158.333 81 -253v-215h-614v215h401c-7.33301 54 -25.5 102 -54.5 144s-67.167 75.333 -114.5 100zM318 -176l156 -155l-156 -156l-156 156z" />
    <glyph glyph-name="uniFE92" unicode="&#x628;" horiz-adv-x="714" arabic-form="medial" 
d="M-13 215l99 -1c24 -0.666992 46.167 6.5 66.5 21.5s39.166 36.5 56.499 64.5c30.667 48 54.667 99.667 72 155s33.666 110.333 48.999 165l238 62l-24 -76c-9.33301 -29.333 -17.5 -60.166 -24.5 -92.499s-11.667 -64.833 -14 -97.5s0.333984 -62.667 8.00098 -90
s21.5 -51 41.5 -71s48.667 -33.333 86 -40h78v-215h-65v-1c-75.333 -1.33301 -136.166 14.5 -182.499 47.5s-82.166 78.5 -107.499 136.5c-42.667 -60 -91.834 -105.833 -147.501 -137.5s-120.5 -46.834 -194.5 -45.501h-35v215zM318 -176l156 -155l-156 -156l-156 156z" />
    <glyph glyph-name="uniFE96" unicode="&#x62a;" horiz-adv-x="1678" arabic-form="final" 
d="M1179 300c17.333 22 31.999 46 43.999 72s22.333 52.833 31 80.5s16.5 55.667 23.5 84l21.5 83.5l239 62l-24 -76c-9.33301 -29.333 -17.5 -60.166 -24.5 -92.499s-11.667 -64.833 -14 -97.5s0.166992 -62.667 7.5 -90s21 -51 41 -71s48.667 -33.333 86 -40h79v-215h-65
v-1c-75.333 -1.33301 -136.166 14.5 -182.499 47.5s-82.166 78.5 -107.499 136.5c-25.333 -36 -59.833 -68.167 -103.5 -96.5s-93 -52.833 -148 -73.5s-114 -37.334 -177 -50.001s-126.667 -21 -191 -25s-127.833 -3.5 -190.5 1.5s-121.167 14.5 -175.5 28.5
s-102.833 32.833 -145.5 56.5s-76.334 52.5 -101.001 86.5c-44.667 62 -62.5 137.167 -53.5 225.5s47.833 189.5 116.5 303.5l158 -5c-22.667 -52.667 -40 -100.167 -52 -142.5s-19.667 -79.833 -23 -112.5s-2.5 -60.834 2.5 -84.501s13.5 -43.5 25.5 -59.5
c12.667 -16.667 33.5 -31 62.5 -43s63.167 -21.5 102.5 -28.5s82.5 -11.5 129.5 -13.5s95 -1.66699 144 1s97.5 7.83398 145.5 15.501s92.833 17.667 134.5 30s78.5 27 110.5 44s56.667 36.5 74 58.5zM965.999 975l150 -150l-150 -149l-144 143l-143 -143l-150 149l150 150
l143 -143z" />
    <glyph glyph-name="uniFE97" unicode="&#x62a;" horiz-adv-x="662" arabic-form="initial" 
d="M329 645c81.333 -44 146 -103 194 -177s75 -158.333 81 -253v-215h-614v215h401c-7.33301 54 -25.5 102 -54.5 144s-67.167 75.333 -114.5 100zM469 1101l150 -150l-150 -149l-144 143l-143 -143l-150 149l150 150l143 -143z" />
    <glyph glyph-name="uniFE98" unicode="&#x62a;" horiz-adv-x="714" arabic-form="medial" 
d="M-13 215l99 -1c24 -0.666992 46.167 6.5 66.5 21.5s39.166 36.5 56.499 64.5c30.667 48 54.667 99.667 72 155s33.666 110.333 48.999 165l238 62l-24 -76c-9.33301 -29.333 -17.5 -60.166 -24.5 -92.499s-11.667 -64.833 -14 -97.5s0.333984 -62.667 8.00098 -90
s21.5 -51 41.5 -71s48.667 -33.333 86 -40h78v-215h-65v-1c-75.333 -1.33301 -136.166 14.5 -182.499 47.5s-82.166 78.5 -107.499 136.5c-42.667 -60 -91.834 -105.833 -147.501 -137.5s-120.5 -46.834 -194.5 -45.501h-35v215zM495 1101l150 -150l-150 -149l-144 143
l-143 -143l-150 149l150 150l143 -143z" />
    <glyph glyph-name="uniFE9A" unicode="&#x62b;" horiz-adv-x="1678" arabic-form="final" 
d="M1179 300c17.333 22 31.999 46 43.999 72s22.333 52.833 31 80.5s16.5 55.667 23.5 84l21.5 83.5l239 62l-24 -76c-9.33301 -29.333 -17.5 -60.166 -24.5 -92.499s-11.667 -64.833 -14 -97.5s0.166992 -62.667 7.5 -90s21 -51 41 -71s48.667 -33.333 86 -40h79v-215h-65
v-1c-75.333 -1.33301 -136.166 14.5 -182.499 47.5s-82.166 78.5 -107.499 136.5c-25.333 -36 -59.833 -68.167 -103.5 -96.5s-93 -52.833 -148 -73.5s-114 -37.334 -177 -50.001s-126.667 -21 -191 -25s-127.833 -3.5 -190.5 1.5s-121.167 14.5 -175.5 28.5
s-102.833 32.833 -145.5 56.5s-76.334 52.5 -101.001 86.5c-44.667 62 -62.5 137.167 -53.5 225.5s47.833 189.5 116.5 303.5l158 -5c-22.667 -52.667 -40 -100.167 -52 -142.5s-19.667 -79.833 -23 -112.5s-2.5 -60.834 2.5 -84.501s13.5 -43.5 25.5 -59.5
c12.667 -16.667 33.5 -31 62.5 -43s63.167 -21.5 102.5 -28.5s82.5 -11.5 129.5 -13.5s95 -1.66699 144 1s97.5 7.83398 145.5 15.501s92.833 17.667 134.5 30s78.5 27 110.5 44s56.667 36.5 74 58.5zM942.999 909l150 -150l-150 -149l-144 143l-143 -143l-150 149l150 150
l143 -143zM797.999 1195l156 -155l-156 -156l-156 156z" />
    <glyph glyph-name="uniFE9B" unicode="&#x62b;" horiz-adv-x="662" arabic-form="initial" 
d="M329 645c81.333 -44 146 -103 194 -177s75 -158.333 81 -253v-215h-614v215h401c-7.33301 54 -25.5 102 -54.5 144s-67.167 75.333 -114.5 100zM468 1029l150 -150l-150 -149l-144 143l-143 -143l-150 149l150 150l143 -143zM323 1315l156 -155l-156 -156l-156 156z" />
    <glyph glyph-name="uniFE9C" unicode="&#x62b;" horiz-adv-x="714" arabic-form="medial" 
d="M-13 215l99 -1c24 -0.666992 46.167 6.5 66.5 21.5s39.166 36.5 56.499 64.5c30.667 48 54.667 99.667 72 155s33.666 110.333 48.999 165l238 62l-24 -76c-9.33301 -29.333 -17.5 -60.166 -24.5 -92.499s-11.667 -64.833 -14 -97.5s0.333984 -62.667 8.00098 -90
s21.5 -51 41.5 -71s48.667 -33.333 86 -40h78v-215h-65v-1c-75.333 -1.33301 -136.166 14.5 -182.499 47.5s-82.166 78.5 -107.499 136.5c-42.667 -60 -91.834 -105.833 -147.501 -137.5s-120.5 -46.834 -194.5 -45.501h-35v215zM468 1074l150 -150l-150 -149l-144 143
l-143 -143l-150 149l150 150l143 -143zM323 1360l156 -155l-156 -156l-156 156z" />
    <glyph glyph-name="uniFE9E" unicode="&#x62c;" horiz-adv-x="1345" arabic-form="final" 
d="M1225 1l-214.998 -0.000976562c-38.667 19.333 -65.167 46 -79.5 80s-21.5 72.667 -21.5 116c0 24.667 3 56 9 94c-51.333 -1.33301 -101.833 -5 -151.5 -11s-98.334 -16.167 -146.001 -30.5s-93.834 -34 -138.501 -59s-87.334 -57.5 -128.001 -97.5
c-46 -57.333 -75.5 -111.833 -88.5 -163.5s-10.5 -97.834 7.5 -138.501s51.167 -74.5 99.5 -101.5s111.5 -44.5 189.5 -52.5c62.667 -6.66699 130.667 -10.667 204 -12s151 -2.33301 233 -3v-214c-86 0 -167.5 0.833008 -244.5 2.5s-148.5 5.83398 -214.5 12.501
c-81.333 8.66699 -153 26.167 -215 52.5s-114 59.333 -156 99s-73.667 84.834 -95 135.501s-31.5 104.334 -30.5 161.001s13.167 115.334 36.5 176.001s58.666 120.667 105.999 180c36 45.333 78.333 83.333 127 114s100.667 56 156 76s112.5 35.833 171.5 47.5
s117.167 21.5 174.5 29.5l-5 4l-80.5 61.5c-27 20.333 -54.5 37.833 -82.5 52.5s-56.5 25.834 -85.5 33.501s-58.833 9.5 -89.5 5.5s-62.167 -14.667 -94.5 -32s-65.833 -43.333 -100.5 -78l-152 151c56.667 57.333 110.834 100.833 162.501 130.5s101.167 48.667 148.5 57
s93 7.66602 137 -2.00098s86.833 -25 128.5 -46s82.334 -46 122.001 -75l118.5 -89.5l74 -56.5c24.667 -18.333 49 -34.833 73 -49.5s47.833 -26.834 71.5 -36.501s47.167 -15.5 70.5 -17.5l-16 -214c-26 -0.666992 -52 -1 -78 -1h-76
c6.66699 -18.667 15.667 -34.834 27 -48.501s25 -23.167 41 -28.5h226v-215h-130v1zM626.002 84.999l156 -155l-156 -156l-156 156z" />
    <glyph glyph-name="uniFE9F" unicode="&#x62c;" horiz-adv-x="1381" arabic-form="initial" 
d="M-9 215h819.999l-70 88l-64 79c-21.333 26 -43.666 49.667 -66.999 71s-48.166 39.166 -74.499 53.499s-54.666 23.333 -84.999 27s-63.333 1 -99 -8s-74.5 -26.167 -116.5 -51.5l-111 183c69.333 42 132.666 71.167 189.999 87.5s110 22.833 158 19.5s92 -15 132 -35
s77.667 -45.167 113 -75.5s68.666 -64.5 99.999 -102.5l93 -116l54 -69c18 -22.667 36.167 -43.667 54.5 -63s37 -36.666 56 -51.999s38.5 -27.333 58.5 -36h128v-215h-1270v215zM536.999 -172l156 -155l-156 -156l-156 156z" />
    <glyph glyph-name="uniFEA0" unicode="&#x62c;" horiz-adv-x="1251" arabic-form="medial" 
d="M-9 215h819.999l-70 88l-64 79c-21.333 26 -43.666 49.667 -66.999 71s-48.166 39.166 -74.499 53.499s-54.666 23.333 -84.999 27s-63.333 1 -99 -8s-74.5 -26.167 -116.5 -51.5l-111 183c69.333 42 132.666 71.167 189.999 87.5s110 22.833 158 19.5s92 -15 132 -35
s77.667 -45.167 113 -75.5s68.666 -64.5 99.999 -102.5l93 -116l54 -69c18 -22.667 36.167 -43.667 54.5 -63s37 -36.666 56 -51.999s38.5 -27.333 58.5 -36h128v-215h-1270v215zM536.999 -172l156 -155l-156 -156l-156 156z" />
    <glyph glyph-name="uniFEA2" unicode="&#x62d;" horiz-adv-x="1345" arabic-form="final" 
d="M1225 1l-214.998 -0.000976562c-38.667 19.333 -65.167 46 -79.5 80s-21.5 72.667 -21.5 116c0 24.667 3 56 9 94c-51.333 -1.33301 -101.833 -5 -151.5 -11s-98.334 -16.167 -146.001 -30.5s-93.834 -34 -138.501 -59s-87.334 -57.5 -128.001 -97.5
c-46 -57.333 -75.5 -111.833 -88.5 -163.5s-10.5 -97.834 7.5 -138.501s51.167 -74.5 99.5 -101.5s111.5 -44.5 189.5 -52.5c62.667 -6.66699 130.667 -10.667 204 -12s151 -2.33301 233 -3v-214c-86 0 -167.5 0.833008 -244.5 2.5s-148.5 5.83398 -214.5 12.501
c-81.333 8.66699 -153 26.167 -215 52.5s-114 59.333 -156 99s-73.667 84.834 -95 135.501s-31.5 104.334 -30.5 161.001s13.167 115.334 36.5 176.001s58.666 120.667 105.999 180c36 45.333 78.333 83.333 127 114s100.667 56 156 76s112.5 35.833 171.5 47.5
s117.167 21.5 174.5 29.5l-5 4l-80.5 61.5c-27 20.333 -54.5 37.833 -82.5 52.5s-56.5 25.834 -85.5 33.501s-58.833 9.5 -89.5 5.5s-62.167 -14.667 -94.5 -32s-65.833 -43.333 -100.5 -78l-152 151c56.667 57.333 110.834 100.833 162.501 130.5s101.167 48.667 148.5 57
s93 7.66602 137 -2.00098s86.833 -25 128.5 -46s82.334 -46 122.001 -75l118.5 -89.5l74 -56.5c24.667 -18.333 49 -34.833 73 -49.5s47.833 -26.834 71.5 -36.501s47.167 -15.5 70.5 -17.5l-16 -214c-26 -0.666992 -52 -1 -78 -1h-76
c6.66699 -18.667 15.667 -34.834 27 -48.501s25 -23.167 41 -28.5h226v-215h-130v1z" />
    <glyph glyph-name="uniFEA3" unicode="&#x62d;" horiz-adv-x="1381" arabic-form="initial" 
d="M-9 215h819.999l-70 88l-64 79c-21.333 26 -43.666 49.667 -66.999 71s-48.166 39.166 -74.499 53.499s-54.666 23.333 -84.999 27s-63.333 1 -99 -8s-74.5 -26.167 -116.5 -51.5l-111 183c69.333 42 132.666 71.167 189.999 87.5s110 22.833 158 19.5s92 -15 132 -35
s77.667 -45.167 113 -75.5s68.666 -64.5 99.999 -102.5l93 -116l54 -69c18 -22.667 36.167 -43.667 54.5 -63s37 -36.666 56 -51.999s38.5 -27.333 58.5 -36h128v-215h-1270v215z" />
    <glyph glyph-name="uniFEA4" unicode="&#x62d;" horiz-adv-x="1251" arabic-form="medial" 
d="M-9 215h819.999l-70 88l-64 79c-21.333 26 -43.666 49.667 -66.999 71s-48.166 39.166 -74.499 53.499s-54.666 23.333 -84.999 27s-63.333 1 -99 -8s-74.5 -26.167 -116.5 -51.5l-111 183c69.333 42 132.666 71.167 189.999 87.5s110 22.833 158 19.5s92 -15 132 -35
s77.667 -45.167 113 -75.5s68.666 -64.5 99.999 -102.5l93 -116l54 -69c18 -22.667 36.167 -43.667 54.5 -63s37 -36.666 56 -51.999s38.5 -27.333 58.5 -36h128v-215h-1270v215z" />
    <glyph glyph-name="uniFEA6" unicode="&#x62e;" horiz-adv-x="1345" arabic-form="final" 
d="M1225 1l-214.998 -0.000976562c-38.667 19.333 -65.167 46 -79.5 80s-21.5 72.667 -21.5 116c0 24.667 3 56 9 94c-51.333 -1.33301 -101.833 -5 -151.5 -11s-98.334 -16.167 -146.001 -30.5s-93.834 -34 -138.501 -59s-87.334 -57.5 -128.001 -97.5
c-46 -57.333 -75.5 -111.833 -88.5 -163.5s-10.5 -97.834 7.5 -138.501s51.167 -74.5 99.5 -101.5s111.5 -44.5 189.5 -52.5c62.667 -6.66699 130.667 -10.667 204 -12s151 -2.33301 233 -3v-214c-86 0 -167.5 0.833008 -244.5 2.5s-148.5 5.83398 -214.5 12.501
c-81.333 8.66699 -153 26.167 -215 52.5s-114 59.333 -156 99s-73.667 84.834 -95 135.501s-31.5 104.334 -30.5 161.001s13.167 115.334 36.5 176.001s58.666 120.667 105.999 180c36 45.333 78.333 83.333 127 114s100.667 56 156 76s112.5 35.833 171.5 47.5
s117.167 21.5 174.5 29.5l-5 4l-80.5 61.5c-27 20.333 -54.5 37.833 -82.5 52.5s-56.5 25.834 -85.5 33.501s-58.833 9.5 -89.5 5.5s-62.167 -14.667 -94.5 -32s-65.833 -43.333 -100.5 -78l-152 151c56.667 57.333 110.834 100.833 162.501 130.5s101.167 48.667 148.5 57
s93 7.66602 137 -2.00098s86.833 -25 128.5 -46s82.334 -46 122.001 -75l118.5 -89.5l74 -56.5c24.667 -18.333 49 -34.833 73 -49.5s47.833 -26.834 71.5 -36.501s47.167 -15.5 70.5 -17.5l-16 -214c-26 -0.666992 -52 -1 -78 -1h-76
c6.66699 -18.667 15.667 -34.834 27 -48.501s25 -23.167 41 -28.5h226v-215h-130v1zM516.002 1313l156 -155l-156 -156l-156 156z" />
    <glyph glyph-name="uniFEA7" unicode="&#x62e;" horiz-adv-x="1381" arabic-form="initial" 
d="M-9 215h819.999l-70 88l-64 79c-21.333 26 -43.666 49.667 -66.999 71s-48.166 39.166 -74.499 53.499s-54.666 23.333 -84.999 27s-63.333 1 -99 -8s-74.5 -26.167 -116.5 -51.5l-111 183c69.333 42 132.666 71.167 189.999 87.5s110 22.833 158 19.5s92 -15 132 -35
s77.667 -45.167 113 -75.5s68.666 -64.5 99.999 -102.5l93 -116l54 -69c18 -22.667 36.167 -43.667 54.5 -63s37 -36.666 56 -51.999s38.5 -27.333 58.5 -36h128v-215h-1270v215zM437.999 1211l156 -155l-156 -156l-156 156z" />
    </font>
</defs>
</svg>
