<?xml version="1.0" standalone="no"?>
<!DOCTYPE svg PUBLIC "-//W3C//DTD SVG 1.1//EN" "http://www.w3.org/Graphics/SVG/1.1/DTD/svg11.dtd" >
<svg>
<metadata>
Created by FontForge 20090914 at Wed Oct 19 01:08:27 2011
 By www-data
(c) by Abolfazl Seilsepour - +98 912 591 3420  -  seilsepor@yahoo.com
</metadata>
<defs>
<font id="FarDonia" horiz-adv-x="0" >
  <font-face 
    font-family="Far.Donia"
    font-weight="400"
    font-stretch="normal"
    units-per-em="2048"
    panose-1="0 0 4 0 0 0 0 0 0 0"
    ascent="1638"
    descent="-410"
    bbox="-236.777 -929 2351 1704"
    underline-thickness="100"
    underline-position="-700"
    unicode-range="U+0020-U+FEFC"
  />
<missing-glyph horiz-adv-x="819" 
d="M58 -42v1154h702v-1154h-702zM248 140h322v790h-322v-790z" />
    <glyph glyph-name=".notdef" unicode="&#x652;&#x64d;" horiz-adv-x="819" 
d="M58 -42v1154h702v-1154h-702zM248 140h322v790h-322v-790z" />
    <glyph glyph-name="copyright" unicode="&#x652;&#x64e;" horiz-adv-x="1816" 
d="M862 1495c125.333 0 247.5 -32 366.5 -96s211.833 -155.5 278.5 -274.5s100 -243.167 100 -372.5s-32.833 -253.333 -98.5 -372s-157.667 -210.5 -276 -275.5s-241.833 -97.5 -370.5 -97.5c-129.333 0 -252.833 32.5 -370.5 97.5s-209.5 156.833 -275.5 275.5
s-99 242.667 -99 372s33.5 253.5 100.5 372.5s160 210.5 279 274.5s240.833 96 365.5 96zM862 1431c-114 0 -225.169 -29.333 -333.502 -88s-193.166 -142.334 -254.499 -251.001s-92 -222 -92 -340s30 -230.833 90 -338.5s144 -191.667 252 -252s220.667 -90.5 338 -90.5
s230 30.167 338 90.5s192.167 144.333 252.5 252s90.5 220.5 90.5 338.5s-30.667 231.333 -92 340s-146.166 192.334 -254.499 251.001s-219.833 88 -334.5 88zM1230 1230l22 -293.999h-41c-26 83.333 -66.167 145.5 -120.5 186.5s-120.166 61.5 -197.499 61.5
c-58 0 -109.333 -12 -154 -36s-81.334 -55.667 -110.001 -95c-21.333 -30.667 -39 -71 -53 -121s-21 -102 -21 -156c0 -148.667 32 -258.167 96 -328.5s148 -105.5 252 -105.5c136 0 245 56.667 327 170l39 -20c-97.333 -142 -231 -213 -401 -213
c-140.667 0 -257 45.333 -349 136s-138 200.667 -138 330c0 134 49 248.333 147 343s223 142 375 142c33.333 0 60.333 -2 81 -6s59 -15 115 -33c16.667 -6 29 -9 37 -9c11.333 0 21 3.16699 29 9.5s16 19.166 24 38.499h41z" />
    <glyph glyph-name="uniE818" unicode="&#x651;&#x64b;" 
d="M457 1538l-2 -88l-360 3v85h362zM461 1668l2 -87l-368 2v90zM477 1406l-0.000976562 -87c0 -28 -8.33301 -52.333 -25 -73c-22 -26 -53 -39 -93 -39c-42.667 2 -69 12.667 -79 32c-9.33301 -17.333 -37.333 -26 -84 -26c-41.333 -3.33301 -72.666 8.33398 -93.999 35.001
c-16.667 20 -25 43.667 -25 71v87h98v-70c4 -30.667 14.667 -45.667 32 -45c12.667 1.33301 19 25.666 19 72.999v42h99v-42c5.33301 -48.667 18 -73 38 -73c14.667 0 19.667 15.667 15 47l2 68h97z" />
    <glyph glyph-name="uniFC5E" unicode="&#x651;&#x64c;" arabic-form="isolated" 
d="M534 1289v-88c0 -28.667 -8 -53 -24 -73c-22.667 -26 -53.667 -39 -93 -39c-43.333 1.33301 -70 12.333 -80 33c-9.33301 -18 -37 -27 -83 -27c-42 -3.33301 -73.667 8.33398 -95 35.001c-16 20 -24 43.667 -24 71v88h97v-71c4.66699 -30.667 15.667 -45.334 33 -44.001
c12 0.666992 18 24.667 18 72v43h100v-43c4.66699 -48 17 -72 37 -72c14.667 0 19.667 15.333 15 46l3 69h96zM440 1607c-30.667 0 -46 -18 -46 -54c0 -37.333 15.333 -56 46 -56c31.333 0 47 18.667 47 56c0 36 -15.667 54 -47 54zM257 1607c-30.667 0 -46 -18 -46 -54
c0 -37.333 15.333 -56 46 -56s46 18.667 46 56c0 36 -15.333 54 -46 54zM351 1454c2.66699 6 2.66602 8 -0.000976562 6l-7 -7l-3 -7l-174 -124l-32 63l65 46c-8.66699 1.33301 -22.667 12 -42 32c-24.667 24.667 -37 54 -37 88c0 83.333 44.667 125 134 125
c42.667 0 73.334 -7.66699 92.001 -23c18.667 15.333 49.334 23 92.001 23c90.667 0 136 -41.667 136 -125c0 -34 -12.667 -63.333 -38 -88l-187 -141l-31 63l64 46c-8 1.33301 -21 11 -39 29c-0.666992 1.33301 1.66602 -0.666992 6.99902 -6z" />
    <glyph glyph-name="uniFC5F" unicode="&#x651;&#x64d;" arabic-form="isolated" 
d="M487 1665l-0.00195312 -89c0 -28 -8.33301 -52 -25 -72c-21.333 -26.667 -52.666 -40 -93.999 -40c-42 2.66699 -68 13.667 -78 33c-9.33301 -18 -37.333 -27 -84 -27c-41.333 -3.33301 -72.666 8.66699 -93.999 36c-16.667 20.667 -25 44 -25 70v89h98v-71
c4 -31.333 14.667 -46 32 -44c12.667 0 19 24 19 72v43h99v-43c5.33301 -48 18 -72 38 -72c14.667 0 19.667 15.333 15 46l2 69h97zM458.998 1314l2 -88l-364 3v85h362zM457.998 1438v-88l-357 -2l-6 90h363z" />
    <glyph glyph-name="uniFC60" unicode="&#x651;&#x64e;" horiz-adv-x="1" arabic-form="isolated" 
d="M476 1501l-0.00195312 -87c0 -29.333 -8.33301 -54 -25 -74c-21.333 -26.667 -52.666 -40 -93.999 -40c-42 2.66699 -68 14 -78 34c-9.33301 -18 -37.333 -27 -84 -27c-41.333 -3.33301 -72.666 8.33398 -93.999 35.001c-16.667 21.333 -25 45.333 -25 72v87h98v-71
c4 -30.667 14.667 -45.334 32 -44.001c12.667 0.666992 19 24.667 19 72v43h99v-43c5.33301 -48 18 -72 38 -72c14.667 0 19.667 15.333 15 46l2 69h97zM459.998 1620l2 -77h-366l2 77h362z" />
    <glyph glyph-name="uniFC61" unicode="&#x651;&#x64f;" arabic-form="isolated" 
d="M266 1578c0 -38 15.667 -57 47 -57c30 0 45 19 45 57c0 36.667 -15 55 -45 55c-31.333 0 -47 -18.333 -47 -55zM401 1479l-4 -8l-174 -123l-34 62l66 46c-8 1.33301 -21 11 -39 29c-26.667 26.667 -40 57 -40 91c0 84 45 126 135 126s135 -42 135 -126
c0 -34 -12 -63 -36 -87zM495 1322l-0.000976562 -88c0 -28.667 -8.33301 -53.334 -25 -74.001c-22 -25.333 -53 -38 -93 -38c-42.667 1.33301 -69 12 -79 32c-9.33301 -17.333 -37.333 -26 -84 -26c-41.333 -3.33301 -72.666 8.33398 -93.999 35.001
c-16.667 20.667 -25 44.334 -25 71.001v88h98v-71c4 -30.667 14.667 -45.667 32 -45c12.667 1.33301 19 25.666 19 72.999v43h99v-44c5.33301 -48 18 -72 38 -72c14.667 0 19.667 15.667 15 47l2 69h97z" />
    <glyph glyph-name="uniFC62" unicode="&#x651;&#x650;" horiz-adv-x="1" arabic-form="isolated" 
d="M494 1630l-0.00195312 -88.999c0 -28.667 -8.33301 -53 -25 -73c-21.333 -26.667 -52.666 -40 -93.999 -40c-42 2.66699 -68 14 -78 34c-9.33301 -18 -37.333 -27 -84 -27c-41.333 -3.33301 -72.666 8.66699 -93.999 36c-16.667 20.667 -25 44 -25 70v89h98v-72
c4 -30.667 14.667 -45.334 32 -44.001c12.667 0.666992 19 24.667 19 72v44h99v-44c5.33301 -48 18 -72 38 -72c14.667 0 19.667 15.333 15 46l2 70h97zM478.998 1401l2 -77h-365l3 77h360z" />
    <glyph glyph-name="uniFD3F" unicode="&#x652;&#x64b;" horiz-adv-x="758" 
d="M689 244c-45.333 61.333 -88.665 111.665 -129.998 150.998c-11.333 10.667 -25.333 22 -42 34c-6.66699 -8.66699 -15.667 -17.334 -27 -26.001c10 -14 21.667 -28.333 35 -43c40.667 -42.667 90.667 -86 150 -130c-68.667 12 -132 18 -190 18
c-28.667 -114.667 -79 -216.667 -151 -306l-202 -250c7.33301 60 14.666 128.667 21.999 206c0.666992 27.333 -1.66602 48.333 -6.99902 63c-8.66699 24.667 -28.667 55 -60 91c70.667 0 120.667 10.333 150 31c36 24.667 69.333 79.667 100 165
c-51.333 0 -111.333 -6 -180 -18c60.667 45.333 110.667 88.666 150 129.999c12.667 14 24.334 28.333 35.001 43c-10.667 7.33301 -19.667 16 -27 26c-16.667 -11.333 -31 -22.666 -43 -33.999c-42 -39.333 -85.667 -89.666 -131 -150.999c12.667 69.333 19 135.333 19 198
v123c0 63.333 -6.33301 129.333 -19 198c46.667 -62.667 90.334 -113 131.001 -151c10 -9.33301 24.333 -20.666 43 -33.999c8 10 17 19 27 27c-10.667 14.667 -22.334 29 -35.001 43c-39.333 41.333 -89.333 84.666 -150 129.999c71.333 -12.667 131.333 -19 180 -19
c-30.667 85.333 -64 140.333 -100 165c-29.333 20.667 -79.333 31 -150 31c31.333 36.667 51.333 67.334 60 92.001c5.33301 14 7.66602 35 6.99902 63c-2 16 -9.33301 84.667 -22 206l202 -251c72 -88.667 122.333 -190.667 151 -306c55.333 0 118.666 6.33301 189.999 19
c-59.333 -44 -109.333 -87.333 -150 -130c-13.333 -13.333 -25.333 -27.666 -36 -42.999c10.667 -8 20 -17 28 -27c16.667 12 30.667 23.333 42 34c41.333 40 84.666 90.333 129.999 151c-12.667 -71.333 -19 -137.333 -19 -198v-123c0 -60 6.33301 -126 19 -198z
M507.001 503.999c0 24.667 -9 46 -27 64s-39.333 27 -64 27s-46 -9 -64 -27s-27 -39.333 -27 -64s8.83301 -46 26.5 -64s39.167 -27 64.5 -27c24.667 0 46 9 64 27s27 39.333 27 64z" />
    <glyph glyph-name="uniFDF2" unicode="&#xfedf;&#xfee0;&#xfeea;" horiz-adv-x="1626" arabic-form="isolated" 
d="M403 381c-16.667 -20.667 -53.667 -51.333 -111 -92l-119 -90v-23h148l67 35c18 13.333 27 34.333 27 63c0 48 -4 83.667 -12 107zM710 0.000976562c-82 0 -141.996 19.002 -179.996 57.002c-18 18 -48 68 -90 150c-15.333 -35.333 -30.333 -71.666 -45 -108.999
c-34.667 -54.667 -93.334 -82 -176.001 -82c-100 0 -150 16.667 -150 50c0 77.333 28 148.333 84 213c35.333 40.667 88 83.667 158 129c56 35.333 84 57.666 84 66.999c-19.333 65.333 -29 111.666 -29 138.999c0 37.333 17 90 51 158c4 -19.333 18.333 -131.333 43 -336
c14 -100.667 37.333 -169 70 -205c40.667 -46 115 -69 223 -69c61.333 0 99.666 6 114.999 18c23.333 18 39.666 65.333 48.999 142l-57 718c0 8.66699 8.83301 32.667 26.5 72s35.834 72.666 54.501 99.999c3.33301 -80 6.33301 -172.667 9 -278
c6.66699 -210.667 14 -348.667 22 -414c18 -128 52.833 -218 104.5 -270s88.5 -79.333 110.5 -82c32.667 -4 62 -6 88 -6c87.333 0 145.333 24.667 174 74c-34 224.667 -80.333 486.667 -139 786c-5.33301 14.667 0.166992 40.167 16.5 76.5l49.5 105.5
c12 -42 22.667 -71.333 32 -88c18 -26 55.667 -62.667 113 -110c-10.667 -18 -19.834 -42.333 -27.501 -73s-14.834 -51 -21.501 -61c-1.33301 -2.66699 -6.16602 -1.83398 -14.499 2.49902s-13.833 6.5 -16.5 6.5c-5.33301 0 -8 -5 -8 -15c0 -5.33301 0.666992 -12 2 -20
c6.66699 -35.333 18.5 -136.333 35.5 -303s25.5 -263 25.5 -289c0 -106.667 -21.667 -177 -65 -211c-24.667 -19.333 -77.334 -32.333 -158.001 -39c-46 -4 -80 -4 -102 0c-60 10.667 -105 33.334 -135 68.001c-19.333 21.333 -51 76.666 -95 165.999
c-44.667 -101.333 -84 -167.666 -118 -198.999c-27.333 -26 -65 -39 -113 -39zM663.004 1331c0 26 6.50098 55.3311 19.501 87.998s26.833 51.334 41.5 56.001c6 -1.33301 9 -7 9 -17c0 -2.66699 -3.16699 -13.5 -9.5 -32.5s-9.5 -30.5 -9.5 -34.5
c0 -24.667 9.66699 -37 29 -37c32.667 0 53 21 61 63c2.66699 37.333 15.667 56 39 56c6.66699 -2 10 -5 10 -9c0 -5.33301 -1 -12.333 -3 -21s-3 -14.667 -3 -18c0 -26 17 -39 51 -39c11.333 0 17 5 17 15c0 8 -0.666992 16.167 -2 24.5s-2 13.833 -2 16.5
c0 28.667 20.333 59.334 61 92.001c-2.66699 -32.667 -4 -62 -4 -88c0 -34 -8.33301 -67.333 -25 -100c-18.667 -37.333 -40.334 -56 -65.001 -56c-16.667 0 -35.667 5.66699 -57 17c-34.667 -34.667 -67 -52 -97 -52c-40.667 0 -61 25.333 -61 76z" />
    <glyph glyph-name="uniFEF5" unicode="&#xfedf;&#xfe82;" horiz-adv-x="1056" arabic-form="isolated" 
d="M868 1180c0 -62 37 -102.335 111 -121.002c-13.333 -11.333 -25 -38.666 -35 -81.999c-6.66699 -34 -10 -60 -10 -78c-32.667 19.333 -57.334 22 -74.001 8c-12 -77.333 -23.667 -147 -35 -209c-27.333 -146 -49.666 -238.667 -66.999 -278
c-1.33301 -4 -2 -8.66699 -2 -14c0 -7.33301 15 -33.5 45 -78.5s45 -93.5 45 -145.5c0 -92.667 -6.5 -146.167 -19.5 -160.5s-54.167 -21.5 -123.5 -21.5c-46.667 0 -100.334 4.5 -161.001 13.5s-102 13.5 -124 13.5c-28.667 0 -56 -4.33301 -82 -13v88
c2.66699 24.667 10 59 22 103c54.667 10.667 110.667 32.334 168 65.001s95 65 113 97c6.66699 9.33301 -39.166 69.333 -137.499 180s-168.5 176.667 -210.5 198c-18 -31.333 -27 -55 -27 -71c0 -10 2 -21 6 -33c-18.667 0 -58 32.667 -118 98
c-75.333 80.667 -113 162.667 -113 246c0 58.667 7.66699 105.667 23 141c126.667 -52.667 343.667 -269 651 -649c39.333 53.333 62.333 145 69 275c3.33301 117.333 6.33301 234.666 9 351.999c17.333 44.667 48 101.334 92 170.001c-10 -34 -15 -65.333 -15 -94z
M606 175.998h151.999c-9.33301 44 -27.666 80.333 -54.999 109zM-7.00098 1346c-36.667 -1.33301 -61.3301 -3.33301 -73.9971 -6c-28 -4.66699 -50.667 -15.334 -68 -32.001c-8.66699 -5.33301 -22.334 -21.166 -41.001 -47.499s-25.334 -43.5 -20.001 -51.5
c4 -2 21.5 2.66699 52.5 14s50.833 20 59.5 26c4 2.66699 23.667 2.66699 59 0c46.667 -2.66699 73 -4 79 -4c77.333 0 125.333 1.33301 144 4c76 6.66699 131.667 25.667 167 57l73 93c-6.66699 -1.33301 -19.334 -7 -38.001 -17c-34.667 -30 -100 -45 -196 -45
c-30 0 -67.833 1.5 -113.5 4.5s-73.5 4.5 -83.5 4.5z" />
    <glyph glyph-name="uniFEF6" unicode="&#xfee0;&#xfe82;" horiz-adv-x="1169" arabic-form="final" 
d="M1219 0l-51.001 0.00488281c-124.667 0 -206.667 10.333 -246 31c-32.667 16 -51.667 52 -57 108c-12.667 122 -21 193 -25 213c-6.66699 -10.667 -28.667 -62.334 -66 -155.001c-32.667 -83.333 -60.667 -135.333 -84 -156c-65.333 -56 -130 -92.667 -194 -110
c-36.667 -11.333 -103.667 -20.333 -201 -27c-28.667 -2.66699 -73.667 -2.66699 -135 0c9.33301 11.333 96 55.666 260 132.999c156 75.333 234 119.666 234 132.999c-38.667 87.333 -79 167.333 -121 240c-100 170.667 -199 286.667 -297 348
c-4 -11.333 -11.667 -30.666 -23 -57.999c-47.333 26 -78.666 46 -93.999 60c-30 26 -45 55.333 -45 88c0 68 6.66699 122 20 162c101.333 -16.667 221 -120 359 -310c143.333 -196 215 -365 215 -507c35.333 18.667 66.666 50.667 93.999 96
c35.333 61.333 53 133.666 53 216.999c0 52 -4 139.667 -12 263s-12 211.666 -12 264.999c14.667 46.667 32.334 96.667 53.001 150c9.33301 -54.667 20.333 -163.334 33 -326.001l12 -528c1.33301 -83.333 43 -135.333 125 -156c28.667 -8 97 -12 205 -12v-162z
M41.999 1210c-36.667 -1.33301 -61.3301 -3.33301 -73.9971 -6c-28 -4.66699 -50.667 -15.334 -68 -32.001c-8.66699 -5.33301 -22.334 -21.166 -41.001 -47.499s-25.334 -43.5 -20.001 -51.5c4 -2 21.5 2.66699 52.5 14s50.833 20 59.5 26c4 2.66699 23.333 2.66699 58 0
c47.333 -2.66699 74 -4 80 -4c77.333 0 125.333 1.33301 144 4c76 6.66699 131.667 25.667 167 57l73 93c-6.66699 -1.33301 -19.334 -7 -38.001 -17c-34.667 -30 -100 -45 -196 -45c-30 0 -67.833 1.5 -113.5 4.5s-73.5 4.5 -83.5 4.5z" />
    <glyph glyph-name="uniFEF7" unicode="&#xfedf;&#xfe84;" horiz-adv-x="1056" arabic-form="isolated" 
d="M867 1180c0 -62 37 -102.335 111 -121.002c-13.333 -11.333 -25 -38.666 -35 -81.999c-6.66699 -34 -10 -60 -10 -78c-32.667 19.333 -57.334 22 -74.001 8c-12 -77.333 -23.667 -147 -35 -209c-27.333 -146 -49.666 -238.667 -66.999 -278
c-1.33301 -4 -2 -8.66699 -2 -14c0 -7.33301 15 -33.5 45 -78.5s45 -93.5 45 -145.5c0 -92.667 -6.5 -146.167 -19.5 -160.5s-54.167 -21.5 -123.5 -21.5c-46.667 0 -100.334 4.5 -161.001 13.5s-102 13.5 -124 13.5c-28.667 0 -56 -4.33301 -82 -13v88
c2.66699 24.667 10 59 22 103c54.667 10.667 110.667 32.334 168 65.001s95 65 113 97c6.66699 9.33301 -39.166 69.333 -137.499 180s-168.5 176.667 -210.5 198c-18 -31.333 -27 -55 -27 -71c0 -10 2 -21 6 -33c-18.667 0 -58 32.667 -118 98
c-75.333 80.667 -113 162.667 -113 246c0 58.667 7.66699 105.667 23 141c126.667 -52.667 343.667 -269 651 -649c39.333 53.333 62.333 145 69 275c3.33301 117.333 6.33301 234.666 9 351.999c17.333 44.667 48 101.334 92 170.001c-10 -34 -15 -65.333 -15 -94z
M605 175.998h151.999c-9.33301 44 -27.666 80.333 -54.999 109zM134.999 1503c22.667 0 42.498 -6.49707 59.498 -19.4971s25.5 -28.833 25.5 -47.5c0 -6.66699 -9.83301 -18.834 -29.5 -36.501s-34.5 -26.5 -44.5 -26.5l-11 30c-5.33301 16.667 -30.333 25 -75 25
c-13.333 0 -20 -3 -20 -9c0 -28 18.667 -49.667 56 -65c26 -11.333 52 -17 78 -17c10 0 19.333 0.666992 28 2h18c6.66699 0 16.667 2.33301 30 7s21 7 23 7c3.33301 0 5 -1 5 -3c0 -7.33301 -6.33301 -20 -19 -38c-17.333 -25.333 -29.666 -40 -36.999 -44
c-12.667 -6.66699 -38.667 -10.667 -78 -12c-34 -0.666992 -65 -13.334 -93 -38.001l-46 -43c12 44.667 26.333 77.667 43 99c0 -2 -14 4.5 -42 19.5s-42 39.833 -42 74.5c0 7.33301 12.333 26.666 37 57.999c40.667 51.333 85.334 77 134.001 77z" />
    <glyph glyph-name="uniFEF8" unicode="&#xfee0;&#xfe84;" horiz-adv-x="1169" arabic-form="final" 
d="M1218 0l-51.001 0.00488281c-124.667 0 -206.667 10.333 -246 31c-32.667 16 -51.667 52 -57 108c-12.667 122 -21 193 -25 213c-6.66699 -10.667 -28.667 -62.334 -66 -155.001c-32.667 -83.333 -60.667 -135.333 -84 -156c-65.333 -56 -130 -92.667 -194 -110
c-36.667 -11.333 -103.667 -20.333 -201 -27c-28.667 -2.66699 -73.667 -2.66699 -135 0c9.33301 11.333 96 55.666 260 132.999c156 75.333 234 119.666 234 132.999c-38.667 87.333 -79 167.333 -121 240c-100 170.667 -199 286.667 -297 348
c-4 -11.333 -11.667 -30.666 -23 -57.999c-47.333 26 -78.666 46 -93.999 60c-30 26 -45 55.333 -45 88c0 68 6.66699 122 20 162c101.333 -16.667 221 -120 359 -310c143.333 -196 215 -365 215 -507c35.333 18.667 66.666 50.667 93.999 96
c35.333 61.333 53 133.666 53 216.999c0 52 -4 139.667 -12 263s-12 211.666 -12 264.999c14.667 46.667 32.334 96.667 53.001 150c9.33301 -54.667 20.333 -163.334 33 -326.001l12 -528c1.33301 -83.333 43 -135.333 125 -156c28.667 -8 97 -12 205 -12v-162z
M159.999 1367c22.667 0 42.498 -6.49707 59.498 -19.4971s25.5 -28.833 25.5 -47.5c0 -6.66699 -9.83301 -18.834 -29.5 -36.501s-34.5 -26.5 -44.5 -26.5l-11 30c-5.33301 16.667 -30.333 25 -75 25c-13.333 0 -20 -3 -20 -9c0 -28 18.667 -49.667 56 -65
c26 -11.333 52 -17 78 -17c10 0 19.333 0.666992 28 2h18c6.66699 0 16.667 2.33301 30 7s21 7 23 7c3.33301 0 5 -1 5 -3c0 -7.33301 -6.33301 -20 -19 -38c-17.333 -25.333 -29.666 -40 -36.999 -44c-12.667 -6.66699 -38.667 -10.667 -78 -12
c-34 -0.666992 -65 -13.334 -93 -38.001l-46 -43c12 44.667 26.333 77.667 43 99c0 -2 -14 4.5 -42 19.5s-42 39.833 -42 74.5c0 7.33301 12.333 26.666 37 57.999c40.667 51.333 85.334 77 134.001 77z" />
    <glyph glyph-name="uniFEF9" unicode="&#xfedf;&#xfe88;" horiz-adv-x="1056" arabic-form="isolated" 
d="M867 1180c0 -62 37 -102.335 111 -121.002c-13.333 -11.333 -25 -38.666 -35 -81.999c-6.66699 -34 -10 -60 -10 -78c-32.667 19.333 -57.334 22 -74.001 8c-12 -77.333 -23.667 -147 -35 -209c-27.333 -146 -49.666 -238.667 -66.999 -278
c-1.33301 -4 -2 -8.66699 -2 -14c0 -7.33301 15 -33.5 45 -78.5s45 -93.5 45 -145.5c0 -92.667 -6.5 -146.167 -19.5 -160.5s-54.167 -21.5 -123.5 -21.5c-46.667 0 -100.334 4.5 -161.001 13.5s-102 13.5 -124 13.5c-28.667 0 -56 -4.33301 -82 -13v88
c2.66699 24.667 10 59 22 103c54.667 10.667 110.667 32.334 168 65.001s95 65 113 97c6.66699 9.33301 -39.166 69.333 -137.499 180s-168.5 176.667 -210.5 198c-18 -31.333 -27 -55 -27 -71c0 -10 2 -21 6 -33c-18.667 0 -58 32.667 -118 98
c-75.333 80.667 -113 162.667 -113 246c0 58.667 7.66699 105.667 23 141c126.667 -52.667 343.667 -269 651 -649c39.333 53.333 62.333 145 69 275c3.33301 117.333 6.33301 234.666 9 351.999c17.333 44.667 48 101.334 92 170.001c-10 -34 -15 -65.333 -15 -94z
M605 175.998h151.999c-9.33301 44 -27.666 80.333 -54.999 109zM413.999 -49.002c22.667 0 42.498 -6.33301 59.498 -19s25.5 -28.667 25.5 -48c0 -6 -9.83301 -18 -29.5 -36s-34.5 -27 -44.5 -27l-11 30c-5.33301 16.667 -30.333 25 -75 25c-13.333 0 -20 -3 -20 -9
c0 -27.333 18.667 -48.666 56 -63.999c26 -11.333 52 -17 78 -17c10 0 19.333 0.333008 28 1h18c6.66699 0 16.667 2.33301 30 7s21 7 23 7c3.33301 0 5 -1 5 -3c0 -7.33301 -6.33301 -20 -19 -38c-17.333 -24.667 -29.666 -39 -36.999 -43
c-12.667 -7.33301 -38.667 -11.333 -78 -12c-34 -1.33301 -65 -14 -93 -38l-46 -44c12 45.333 26.333 78.666 43 99.999c0 -2 -14 4.5 -42 19.5s-42 39.5 -42 73.5c0 7.33301 12.333 27 37 59c40.667 50.667 85.334 76 134.001 76z" />
    <glyph glyph-name="uniFEFA" unicode="&#xfee0;&#xfe88;" horiz-adv-x="1169" arabic-form="final" 
d="M1218 0l-51.001 0.00488281c-124.667 0 -206.667 10.333 -246 31c-32.667 16 -51.667 52 -57 108c-12.667 122 -21 193 -25 213c-6.66699 -10.667 -28.667 -62.334 -66 -155.001c-32.667 -83.333 -60.667 -135.333 -84 -156c-65.333 -56 -130 -92.667 -194 -110
c-36.667 -11.333 -103.667 -20.333 -201 -27c-28.667 -2.66699 -73.667 -2.66699 -135 0c9.33301 11.333 96 55.666 260 132.999c156 75.333 234 119.666 234 132.999c-38.667 87.333 -79 167.333 -121 240c-100 170.667 -199 286.667 -297 348
c-4 -11.333 -11.667 -30.666 -23 -57.999c-47.333 26 -78.666 46 -93.999 60c-30 26 -45 55.333 -45 88c0 68 6.66699 122 20 162c101.333 -16.667 221 -120 359 -310c143.333 -196 215 -365 215 -507c35.333 18.667 66.666 50.667 93.999 96
c35.333 61.333 53 133.666 53 216.999c0 52 -4 139.667 -12 263s-12 211.666 -12 264.999c14.667 46.667 32.334 96.667 53.001 150c9.33301 -54.667 20.333 -163.334 33 -326.001l12 -528c1.33301 -83.333 43 -135.333 125 -156c28.667 -8 97 -12 205 -12v-162z
M364.999 -141.995c22.667 0 42.498 -6.33301 59.498 -19s25.5 -28.667 25.5 -48c0 -6 -9.83301 -18 -29.5 -36s-34.5 -27 -44.5 -27l-11 30c-5.33301 16.667 -30.333 25 -75 25c-13.333 0 -20 -3 -20 -9c0 -27.333 18.667 -48.666 56 -63.999c26 -11.333 52 -17 78 -17
c10 0 19.333 0.333008 28 1h18c6.66699 0 16.667 2.33301 30 7s21 7 23 7c3.33301 0 5 -1 5 -3c0 -7.33301 -6.33301 -20 -19 -38c-17.333 -24.667 -29.666 -39 -36.999 -43c-12.667 -7.33301 -38.667 -11.333 -78 -12c-34 -1.33301 -65 -14 -93 -38l-46 -44
c12 45.333 26.333 78.666 43 99.999c0 -2 -14 4.5 -42 19.5s-42 39.5 -42 73.5c0 7.33301 12.333 27 37 59c40.667 50.667 85.334 76 134.001 76z" />
    <glyph glyph-name="uniFEFB" unicode="&#xfedf;&#xfe8e;" horiz-adv-x="1056" arabic-form="isolated" 
d="M867 1180c0 -62 37 -102.335 111 -121.002c-13.333 -11.333 -25 -38.666 -35 -81.999c-6.66699 -34 -10 -60 -10 -78c-32.667 19.333 -57.334 22 -74.001 8c-12 -77.333 -23.667 -147 -35 -209c-27.333 -146 -49.666 -238.667 -66.999 -278
c-1.33301 -4 -2 -8.66699 -2 -14c0 -7.33301 15 -33.5 45 -78.5s45 -93.5 45 -145.5c0 -92.667 -6.5 -146.167 -19.5 -160.5s-54.167 -21.5 -123.5 -21.5c-46.667 0 -100.334 4.5 -161.001 13.5s-102 13.5 -124 13.5c-28.667 0 -56 -4.33301 -82 -13v88
c2.66699 24.667 10 59 22 103c54.667 10.667 110.667 32.334 168 65.001s95 65 113 97c6.66699 9.33301 -39.166 69.333 -137.499 180s-168.5 176.667 -210.5 198c-18 -31.333 -27 -55 -27 -71c0 -10 2 -21 6 -33c-18.667 0 -58 32.667 -118 98
c-75.333 80.667 -113 162.667 -113 246c0 58.667 7.66699 105.667 23 141c126.667 -52.667 343.667 -269 651 -649c39.333 53.333 62.333 145 69 275c3.33301 117.333 6.33301 234.666 9 351.999c17.333 44.667 48 101.334 92 170.001c-10 -34 -15 -65.333 -15 -94z
M605 175.998h151.999c-9.33301 44 -27.666 80.333 -54.999 109z" />
    <glyph glyph-name="uniFEFC" unicode="&#xfee0;&#xfe8e;" horiz-adv-x="1169" arabic-form="final" 
d="M1218 0l-51.001 0.00488281c-124.667 0 -206.667 10.333 -246 31c-32.667 16 -51.667 52 -57 108c-12.667 122 -21 193 -25 213c-6.66699 -10.667 -28.667 -62.334 -66 -155.001c-32.667 -83.333 -60.667 -135.333 -84 -156c-65.333 -56 -130 -92.667 -194 -110
c-36.667 -11.333 -103.667 -20.333 -201 -27c-28.667 -2.66699 -73.667 -2.66699 -135 0c9.33301 11.333 96 55.666 260 132.999c156 75.333 234 119.666 234 132.999c-38.667 87.333 -79 167.333 -121 240c-100 170.667 -199 286.667 -297 348
c-4 -11.333 -11.667 -30.666 -23 -57.999c-47.333 26 -78.666 46 -93.999 60c-30 26 -45 55.333 -45 88c0 68 6.66699 122 20 162c101.333 -16.667 221 -120 359 -310c143.333 -196 215 -365 215 -507c35.333 18.667 66.666 50.667 93.999 96
c35.333 61.333 53 133.666 53 216.999c0 52 -4 139.667 -12 263s-12 211.666 -12 264.999c14.667 46.667 32.334 96.667 53.001 150c9.33301 -54.667 20.333 -163.334 33 -326.001l12 -528c1.33301 -83.333 43 -135.333 125 -156c28.667 -8 97 -12 205 -12v-162z" />
    <glyph glyph-name="afii57410" unicode="&#x622;" horiz-adv-x="403" arabic-form="isolated" 
d="M138 1200l68 -992.999c-11.333 -102.667 -38 -173 -80 -211c0 8 -1.66699 32.167 -5 72.5s-5 68.166 -5 83.499c0 129.333 -11.667 298.833 -35 508.5s-35 330.834 -35 363.501c0 35.333 12.333 73.666 37 114.999c20.667 32.667 39 53 55 61zM-32 1396
c-36.667 -1.33301 -61.3301 -3.33301 -73.9971 -6c-28 -4.66699 -50.667 -15.334 -68 -32.001c-8.66699 -5.33301 -22.334 -21.166 -41.001 -47.499s-25.334 -43.5 -20.001 -51.5c4 -2 21.5 2.66699 52.5 14s50.833 20 59.5 26c4 2.66699 23.667 2.66699 59 0
c46.667 -2.66699 73 -4 79 -4c77.333 0 125.333 1.33301 144 4c76 6.66699 131.667 25.667 167 57l73 93c-6.66699 -1.33301 -19.334 -7 -38.001 -17c-34.667 -30 -100 -45 -196 -45c-30 0 -67.833 1.5 -113.5 4.5s-73.5 4.5 -83.5 4.5z" />
    <glyph glyph-name="afii57411" unicode="&#x623;" horiz-adv-x="403" arabic-form="isolated" 
d="M137 1200l68 -992.999c-11.333 -102.667 -38 -173 -80 -211c0 8 -1.66699 32.167 -5 72.5s-5 68.166 -5 83.499c0 129.333 -11.667 298.833 -35 508.5s-35 330.834 -35 363.501c0 35.333 12.333 73.666 37 114.999c20.667 32.667 39 53 55 61zM98 1559
c22.667 0 42.499 -6.49707 59.499 -19.4971s25.5 -28.833 25.5 -47.5c0 -6.66699 -9.83301 -18.834 -29.5 -36.501s-34.5 -26.5 -44.5 -26.5l-11 30c-5.33301 16.667 -30.333 25 -75 25c-13.333 0 -20 -3 -20 -9c0 -28 18.667 -49.667 56 -65c26 -11.333 52 -17 78 -17
c10 0 19.333 0.666992 28 2h18c6.66699 0 16.667 2.33301 30 7s21 7 23 7c3.33301 0 5 -1 5 -3c0 -7.33301 -6.33301 -20 -19 -38c-17.333 -25.333 -29.666 -40 -36.999 -44c-12.667 -6.66699 -38.667 -10.667 -78 -12c-34 -0.666992 -65 -13.334 -93 -38.001l-46 -43
c12 44.667 26.333 77.667 43 99c0 -2 -14 4.5 -42 19.5s-42 39.833 -42 74.5c0 7.33301 12.667 26.666 38 57.999c40 51.333 84.333 77 133 77z" />
    <glyph glyph-name="afii57412" unicode="&#x624;" horiz-adv-x="753" arabic-form="isolated" 
d="M549 0c-1.33301 -52.667 -36.666 -131.666 -105.999 -236.999c-88 -131.333 -181 -197 -279 -197c-140 0 -239.667 -2 -299 -6c109.333 40 205 81 287 123c195.333 104 305.666 209.667 330.999 317c-114.667 0 -194.334 6 -239.001 18c-83.333 22 -125 68 -125 138
c46.667 214 114.334 321 203.001 321c46 0 94 -33.833 144 -101.5s79.667 -138.834 89 -213.501c5.33301 -38.667 3.33301 -92.667 -6 -162zM187 272.001c6.66699 -36.667 27.001 -63.001 61.001 -79.001c19.333 -10 53.333 -18.333 102 -25
c19.333 -2.66699 48.666 -2.66699 87.999 0c-28.667 42 -49 70 -61 84c-26 23.333 -60 40.333 -102 51c-30 6.66699 -59.333 -3.66602 -88 -30.999zM160.001 903c22.667 0 42.498 -6.49707 59.498 -19.4971s25.5 -28.833 25.5 -47.5
c0 -6.66699 -9.83301 -18.834 -29.5 -36.501s-34.5 -26.5 -44.5 -26.5l-11 30c-5.33301 16.667 -30.333 25 -75 25c-13.333 0 -20 -3 -20 -9c0 -28 18.667 -49.667 56 -65c26 -11.333 52 -17 78 -17c10 0 19.333 0.666992 28 2h18c6.66699 0 16.667 2.33301 30 7s21 7 23 7
c3.33301 0 5 -1 5 -3c0 -7.33301 -6.33301 -20 -19 -38c-17.333 -25.333 -29.666 -40 -36.999 -44c-12.667 -6.66699 -38.667 -10.667 -78 -12c-34 -0.666992 -65 -13.334 -93 -38.001l-46 -43c12 44.667 26.333 77.667 43 99c0 -2 -14 4.5 -42 19.5s-42 39.833 -42 74.5
c0 7.33301 12.333 26.666 37 57.999c40.667 51.333 85.334 77 134.001 77z" />
    <glyph glyph-name="afii57413" unicode="&#x625;" horiz-adv-x="403" arabic-form="isolated" 
d="M137 1200l68 -992.999c-11.333 -102.667 -38 -173 -80 -211c0 8 -1.66699 32.167 -5 72.5s-5 68.166 -5 83.499c0 129.333 -11.667 298.833 -35 508.5s-35 330.834 -35 363.501c0 35.333 12.333 73.666 37 114.999c20.667 32.667 39 53 55 61zM160 -30.999
c22.667 0 42.498 -6.33301 59.498 -19s25.5 -28.667 25.5 -48c0 -6 -9.83301 -18 -29.5 -36s-34.5 -27 -44.5 -27l-11 30c-5.33301 16.667 -30.333 25 -75 25c-13.333 0 -20 -3 -20 -9c0 -27.333 18.667 -48.666 56 -63.999c26 -11.333 52 -17 78 -17
c10 0 19.333 0.333008 28 1h18c6.66699 0 16.667 2.33301 30 7s21 7 23 7c3.33301 0 5 -1 5 -3c0 -7.33301 -6.33301 -20 -19 -38c-17.333 -24.667 -29.666 -39 -36.999 -43c-12.667 -7.33301 -38.667 -11.333 -78 -12c-34 -1.33301 -65 -14 -93 -38l-46 -44
c12 45.333 26.333 78.666 43 99.999c0 -2 -14 4.5 -42 19.5s-42 39.5 -42 73.5c0 7.33301 12.333 27 37 59c40.667 50.667 85.334 76 134.001 76z" />
    <glyph glyph-name="afii57414" unicode="&#x626;" horiz-adv-x="1556" arabic-form="isolated" 
d="M143 84c1.33301 22 3.99805 46 7.99805 72c12 61.333 34.333 130 67 206c38.667 92 79.667 140.667 123 146c-4 -24.667 -25.167 -67.334 -63.5 -128.001s-62.166 -121.667 -71.499 -183c-2.66699 -20.667 -4 -40.667 -4 -60c0 -125.333 70.333 -220.666 211 -285.999
c109.333 -49.333 235 -74 377 -74c104.667 0 216 27.333 334 82c104.667 49.333 164.667 91.666 180 126.999c-40 26 -107.667 43 -203 51c-108 10.667 -177.667 22.334 -209 35.001c-64 26 -96 75.667 -96 149c0 72.667 39 156 117 250c86 105.333 178 158 276 158
c52 0 78 -7.66699 78 -23c0 -65.333 -24.667 -120 -74 -164c-26 30 -49.667 45 -71 45c-37.333 0 -85.333 -17 -144 -51c-68 -36.667 -102 -74 -102 -112c0 -56 45.667 -93.667 137 -113l252 -33c91.333 -17.333 137 -52 137 -104c0 -82 -29.333 -151.667 -88 -209
c-84.667 -83.333 -167.334 -141.333 -248.001 -174c-95.333 -40.667 -216.666 -59.667 -363.999 -57s-269.666 36 -366.999 100c-117.333 78 -181.333 194.667 -192 350zM246.998 1008c28.667 0 53.665 -8.66797 74.998 -26.001s32 -38.666 32 -63.999
c0 -8.66699 -12.333 -24.834 -37 -48.501s-43.334 -35.5 -56.001 -35.5l-14 40c-6.66699 22 -38 33 -94 33c-16.667 0 -25 -4 -25 -12c0 -36.667 23.333 -65.334 70 -86.001c32.667 -15.333 65.334 -23 98.001 -23c12.667 0 24.334 0.666992 35.001 2h23
c8 0 20.5 3.16699 37.5 9.5s26.833 9.5 29.5 9.5c4 0 6 -1.33301 6 -4c0 -10 -8 -27 -24 -51c-22 -33.333 -37.667 -52.666 -47 -57.999c-15.333 -9.33301 -47.666 -14.666 -96.999 -15.999c-43.333 -1.33301 -82.666 -18.333 -117.999 -51l-58 -58
c15.333 60 33.666 104.333 54.999 133c0 -2.66699 -17.667 6 -53 26s-53 53 -53 99c0 10 15.667 36 47 78c50.667 68.667 106.667 103 168 103z" />
    <glyph glyph-name="afii57415" unicode="&#x627;" horiz-adv-x="403" arabic-form="isolated" 
d="M137 1200l68 -992.999c-11.333 -102.667 -38 -173 -80 -211c0 8 -1.66699 32.167 -5 72.5s-5 68.166 -5 83.499c0 129.333 -11.667 298.833 -35 508.5s-35 330.834 -35 363.501c0 35.333 12.333 73.666 37 114.999c20.667 32.667 39 53 55 61z" />
    <glyph glyph-name="afii57416" unicode="&#x628;" horiz-adv-x="1748" arabic-form="isolated" 
d="M81 381c0 -170.667 184.333 -256 553 -256c62.667 0 195.334 11 398.001 33c259.333 27.333 410.666 57.333 453.999 90c-13.333 34 -32.333 71.333 -57 112c-20.667 33.333 -31 51.333 -31 54c0 5.33301 6.16699 28.833 18.5 70.5s21.833 68.5 28.5 80.5
c71.333 -116 107 -203.333 107 -262c0 -10.667 -4.83301 -42.334 -14.5 -95.001s-15.834 -83.667 -18.501 -93c-5.33301 -18 -79 -42.667 -221 -74c-152 -34 -303 -57 -453 -69c-57.333 -4 -120 -5.33301 -188 -4c-117.333 2.66699 -180.333 4 -189 4
c-95.333 0 -182.666 18.333 -261.999 55c-120 56 -180 144.667 -180 266c0 46 15 101.833 45 167.5s67 120.5 111 164.5c0 -53.333 -16.833 -100.166 -50.5 -140.499s-50.5 -74.833 -50.5 -103.5zM1537 -200c1.33301 -6.66699 -10.167 -28.165 -34.5 -64.498
s-39.166 -54.5 -44.499 -54.5c-4.66699 -2.66699 -28.5 7.66602 -71.5 30.999s-64.5 39 -64.5 47c-5.33301 10.667 5.66699 34.5 33 71.5s48 55.5 62 55.5c13.333 5.33301 36.666 -6.33398 69.999 -35.001s50 -45.667 50 -51z" />
    <glyph glyph-name="afii57417" unicode="&#x629;" horiz-adv-x="747" arabic-form="isolated" 
d="M207 557c30 -34 78.333 -64.6631 145 -91.9961c79.333 -32.667 127.666 -55.334 144.999 -68.001c45.333 -32.667 68 -78.334 68 -137.001c0 -98 -36 -171.667 -108 -221c-62 -40.667 -144.667 -61 -248 -61c-48 0 -86.333 11.5 -115 34.5s-43 50.167 -43 81.5
c0 49.333 33.333 141 100 275c2.66699 5.33301 1.33398 10.666 -3.99902 15.999s-8 10.666 -8 15.999c0 45.333 22.667 97.333 68 156zM127 217.004c0 -19.333 16.335 -36.332 49.002 -50.999c28.667 -14 56.667 -21 84 -21c83.333 0 155.666 18.667 216.999 56
c-54.667 46 -116 81.333 -184 106c-34.667 11.333 -68.334 23 -101.001 35c-23.333 -16.667 -45 -58.334 -65 -125.001zM271.002 1008c22.667 0 42.498 -6.49707 59.498 -19.4971s25.5 -28.833 25.5 -47.5c0 -6.66699 -9.83301 -18.834 -29.5 -36.501
s-34.5 -26.5 -44.5 -26.5l-11 30c-5.33301 16.667 -30.333 25 -75 25c-13.333 0 -20 -3 -20 -9c0 -28 18.667 -49.667 56 -65c26 -11.333 52 -17 78 -17c10 0 19.333 0.666992 28 2h18c6.66699 0 16.667 2.33301 30 7s21 7 23 7c3.33301 0 5 -1 5 -3
c0 -7.33301 -6.33301 -20 -19 -38c-17.333 -25.333 -29.666 -40 -36.999 -44c-12.667 -6.66699 -38.667 -10.667 -78 -12c-34 -0.666992 -65 -13.334 -93 -38.001l-46 -43c12 44.667 26.333 77.667 43 99c0 -2 -14 4.5 -42 19.5s-42 39.833 -42 74.5
c0 7.33301 12.333 26.666 37 57.999c40.667 51.333 85.334 77 134.001 77z" />
    <glyph glyph-name="afii57418" unicode="&#x62a;" horiz-adv-x="1748" arabic-form="isolated" 
d="M81 381c0 -170.667 184.333 -256 553 -256c62.667 0 195.334 11 398.001 33c259.333 27.333 410.666 57.333 453.999 90c-13.333 34 -32.333 71.333 -57 112c-20.667 33.333 -31 51.333 -31 54c0 5.33301 6.16699 28.833 18.5 70.5s21.833 68.5 28.5 80.5
c71.333 -116 107 -203.333 107 -262c0 -10.667 -4.83301 -42.334 -14.5 -95.001s-15.834 -83.667 -18.501 -93c-5.33301 -18 -79 -42.667 -221 -74c-152 -34 -303 -57 -453 -69c-57.333 -4 -120 -5.33301 -188 -4c-117.333 2.66699 -180.333 4 -189 4
c-95.333 0 -182.666 18.333 -261.999 55c-120 56 -180 144.667 -180 266c0 46 15 101.833 45 167.5s67 120.5 111 164.5c0 -53.333 -16.833 -100.166 -50.5 -140.499s-50.5 -74.833 -50.5 -103.5zM1150 836c10 5.33301 33.999 -4.33301 71.999 -29s57 -42.334 57 -53.001
c0 -8.66699 -10.167 -32.334 -30.5 -71.001s-31.833 -58 -34.5 -58c-15.333 0 -59.666 18.333 -132.999 55c-12.667 -24.667 -29 -52 -49 -82c-4.66699 -2.66699 -28.834 5.5 -72.501 24.5s-67.5 32.167 -71.5 39.5c-5.33301 10.667 4.33398 35.834 29.001 75.501
s42.334 60.834 53.001 63.501c11.333 5.33301 33.666 -3.66699 66.999 -27s51.333 -35 54 -35l24.5 45c16.333 30 27.833 47.333 34.5 52z" />
    <glyph glyph-name="afii57419" unicode="&#x62b;" horiz-adv-x="1748" arabic-form="isolated" 
d="M81 381c0 -170.667 184.333 -256 553 -256c62.667 0 195.334 11 398.001 33c259.333 27.333 410.666 57.333 453.999 90c-13.333 34 -32.333 71.333 -57 112c-20.667 33.333 -31 51.333 -31 54c0 5.33301 6.16699 28.833 18.5 70.5s21.833 68.5 28.5 80.5
c71.333 -116 107 -203.333 107 -262c0 -10.667 -4.83301 -42.334 -14.5 -95.001s-15.834 -83.667 -18.501 -93c-5.33301 -18 -79 -42.667 -221 -74c-152 -34 -303 -57 -453 -69c-57.333 -4 -120 -5.33301 -188 -4c-117.333 2.66699 -180.333 4 -189 4
c-95.333 0 -182.666 18.333 -261.999 55c-120 56 -180 144.667 -180 266c0 46 15 101.833 45 167.5s67 120.5 111 164.5c0 -53.333 -16.833 -100.166 -50.5 -140.499s-50.5 -74.833 -50.5 -103.5zM1150 836c10 5.33301 33.999 -4.33301 71.999 -29s57 -42.334 57 -53.001
c0 -8.66699 -10.167 -32.334 -30.5 -71.001s-31.833 -58 -34.5 -58c-15.333 0 -59.666 18.333 -132.999 55c-12.667 -24.667 -29 -52 -49 -82c-4.66699 -2.66699 -28.834 5.5 -72.501 24.5s-67.5 32.167 -71.5 39.5c-5.33301 10.667 4.33398 35.834 29.001 75.501
s42.334 60.834 53.001 63.501c11.333 5.33301 33.666 -3.66699 66.999 -27s51.333 -35 54 -35l24.5 45c16.333 30 27.833 47.333 34.5 52zM1156 907.001c2 -6.66699 -9.33203 -28.166 -33.999 -64.499s-39.667 -54.5 -45 -54.5c-6 -2.66699 -30.167 8 -72.5 32
s-63.5 40 -63.5 48c-5.33301 10 5.66699 33.333 33 70s48 55 62 55c13.333 5.33301 36.666 -6.33398 69.999 -35.001s50 -45.667 50 -51z" />
    <glyph glyph-name="afii57420" unicode="&#x62c;" horiz-adv-x="1069" arabic-form="isolated" 
d="M491 111c24.667 -20.667 72.666 -53.667 143.999 -99c-19.333 -58 -45.333 -106.333 -78 -145c-31.333 16.667 -82.666 49.667 -153.999 99c16.667 36 46 84.333 88 145zM292.999 713c32.667 0 85.167 -4.50098 157.5 -13.501s131.833 -13.5 178.5 -13.5
c66.667 0 134.667 7.66699 204 23c-21.333 -97.333 -32 -152.666 -32 -165.999c-153.333 0 -294 -45 -422 -135c-188.667 -131.333 -283 -331.333 -283 -600c0 -186 117.333 -324.667 352 -416c157.333 -60 322.666 -90 495.999 -90h277c-32 -23.333 -99 -52 -201 -86
c-109.333 -35.333 -190 -53 -242 -53c-155.333 0 -300.666 35.333 -435.999 106c-198 102.667 -297 261 -297 475c0 344 100.333 606 301 786c-32.667 10 -69.667 15 -111 15c-47.333 0 -82 -7.66699 -104 -23c-12 -8 -24.167 -24.333 -36.5 -49s-26.833 -43 -43.5 -55
c-1.33301 26 -2 45.667 -2 59c1.33301 67.333 23.5 123.5 66.5 168.5s102.167 67.5 177.5 67.5z" />
    <glyph glyph-name="afii57421" unicode="&#x62d;" horiz-adv-x="1069" arabic-form="isolated" 
d="M293 713c32.667 0 85.167 -4.50098 157.5 -13.501s131.833 -13.5 178.5 -13.5c66.667 0 134.667 7.66699 204 23c-21.333 -97.333 -32 -152.666 -32 -165.999c-153.333 0 -294 -45 -422 -135c-188.667 -131.333 -283 -331.333 -283 -600
c0 -186 117.333 -324.667 352 -416c157.333 -60 322.666 -90 495.999 -90h277c-32 -23.333 -99 -52 -201 -86c-109.333 -35.333 -190 -53 -242 -53c-155.333 0 -300.666 35.333 -435.999 106c-198 102.667 -297 261 -297 475c0 344 100.333 606 301 786
c-32.667 10 -69.667 15 -111 15c-47.333 0 -82 -7.66699 -104 -23c-12 -8 -24.167 -24.333 -36.5 -49s-26.833 -43 -43.5 -55c-1.33301 26 -2 45.667 -2 59c1.33301 67.333 23.5 123.5 66.5 168.5s102.167 67.5 177.5 67.5z" />
    <glyph glyph-name="afii57422" unicode="&#x62e;" horiz-adv-x="1069" arabic-form="isolated" 
d="M360 1141c30 -20.667 61 -40.667 93 -60c27.333 -20 41 -44.333 41 -73c0 -8.66699 -31 -47.667 -93 -117c-34 30 -72.667 61.333 -116 94c12 32.667 37 84.667 75 156zM293 713c32.667 0 85.167 -4.50098 157.5 -13.501s131.833 -13.5 178.5 -13.5
c66.667 0 134.667 7.66699 204 23c-21.333 -97.333 -32 -152.666 -32 -165.999c-153.333 0 -294 -45 -422 -135c-188.667 -131.333 -283 -331.333 -283 -600c0 -186 117.333 -324.667 352 -416c157.333 -60 322.666 -90 495.999 -90h277c-32 -23.333 -99 -52 -201 -86
c-109.333 -35.333 -190 -53 -242 -53c-155.333 0 -300.666 35.333 -435.999 106c-198 102.667 -297 261 -297 475c0 344 100.333 606 301 786c-32.667 10 -69.667 15 -111 15c-47.333 0 -82 -7.66699 -104 -23c-12 -8 -24.167 -24.333 -36.5 -49s-26.833 -43 -43.5 -55
c-1.33301 26 -2 45.667 -2 59c1.33301 67.333 23.5 123.5 66.5 168.5s102.167 67.5 177.5 67.5z" />
    <glyph glyph-name="afii57423" unicode="&#x62f;" horiz-adv-x="839" arabic-form="isolated" 
d="M323 692c101.333 -47.333 181.333 -117.666 240 -210.999c52.667 -86 79 -173.333 79 -262c0 -160.667 -116.667 -241 -350 -241c-70.667 0 -130.667 12.667 -180 38c-58.667 30 -88 73.667 -88 131c0 12.667 4 36 12 70c10 44 21 75.333 33 94
c0 -58.667 9.66699 -98 29 -118c28.667 -30.667 90 -46 184 -46c60 0 116.667 5 170 15c86 13.333 129 35.666 129 66.999c0 49.333 -40.333 111.666 -121 186.999c-58.667 54.667 -107 91.334 -145 110.001c-11.333 6 -17 19 -17 39c0 12.667 8.33301 55 25 127z" />
    <glyph glyph-name="afii57424" unicode="&#x630;" horiz-adv-x="839" arabic-form="isolated" 
d="M323 692c101.333 -47.333 181.333 -117.666 240 -210.999c52.667 -86 79 -173.333 79 -262c0 -160.667 -116.667 -241 -350 -241c-70.667 0 -130.667 12.667 -180 38c-58.667 30 -88 73.667 -88 131c0 12.667 4 36 12 70c10 44 21 75.333 33 94
c0 -58.667 9.66699 -98 29 -118c28.667 -30.667 90 -46 184 -46c60 0 116.667 5 170 15c86 13.333 129 35.666 129 66.999c0 49.333 -40.333 111.666 -121 186.999c-58.667 54.667 -107 91.334 -145 110.001c-11.333 6 -17 19 -17 39c0 12.667 8.33301 55 25 127zM151 999
l82 -53c22 -16 33 -38.333 33 -67c0 -8.66699 -9 -21 -27 -37l-59 -62c-8.66699 7.33301 -29.667 21.5 -63 42.5s-53.333 32.167 -60 33.5z" />
    <glyph glyph-name="afii57425" unicode="&#x631;" horiz-adv-x="786" arabic-form="isolated" 
d="M623 111c0 -181.333 -51.1689 -340.667 -153.502 -478s-225.833 -206 -370.5 -206c-31.333 0 -79.666 11 -144.999 33c-83.333 27.333 -137.333 60 -162 98c59.333 -19.333 101 -29 125 -29c144.667 0 293.334 62.333 446.001 187c139.333 112 214 210 224 294
c4 37.333 -20.667 81.833 -74 133.5s-80 85.167 -80 100.5c0 8 9 54.333 27 139c35.333 -12 71.333 -50.5 108 -115.5s55 -117.167 55 -156.5z" />
    <glyph glyph-name="afii57426" unicode="&#x632;" horiz-adv-x="786" arabic-form="isolated" 
d="M623 111c0 -181.333 -51.1689 -340.667 -153.502 -478s-225.833 -206 -370.5 -206c-31.333 0 -79.666 11 -144.999 33c-83.333 27.333 -137.333 60 -162 98c59.333 -19.333 101 -29 125 -29c144.667 0 293.334 62.333 446.001 187c139.333 112 214 210 224 294
c4 37.333 -20.667 81.833 -74 133.5s-80 85.167 -80 100.5c0 8 9 54.333 27 139c35.333 -12 71.333 -50.5 108 -115.5s55 -117.167 55 -156.5zM397.998 652.999c4 -13.333 0.666992 -35.666 -10 -66.999c-14 -37.333 -32.333 -59.333 -55 -66
c-18 -5.33301 -46.833 6.66699 -86.5 36s-59.5 50 -59.5 62c0 6 11 29.833 33 71.5s37.667 62.5 47 62.5l64 -37c42 -28.667 64.333 -49.334 67 -62.001z" />
    <glyph glyph-name="afii57427" unicode="&#x633;" horiz-adv-x="1796" arabic-form="isolated" 
d="M1100 -11c5.33301 -140 -12.001 -229.67 -52.001 -269.003c-64 -64 -150.167 -114.5 -258.5 -151.5s-221.5 -55.5 -339.5 -55.5c-102 0 -197.333 23.333 -286 70c-106.667 57.333 -160 130.333 -160 219c0 60 24.667 152 74 276c50.667 130.667 97 209.667 139 237
c-4 -17.333 -26.667 -74 -68 -170c-38 -86 -57 -149.333 -57 -190c0 -95.333 44.333 -167.666 133 -216.999c72.667 -39.333 163 -59 271 -59c68 0 155.333 13.667 262 41c160.667 42 264.334 101.333 311.001 178l-115 331c22 70 38.333 116.667 49 140
c22 -74 44.667 -124.667 68 -152c34 -38 84.667 -57 152 -57c101.333 -2.66699 178.333 17 231 59c30 23.333 59.333 65 88 125c2.66699 4 8.66699 0.666992 18 -10c-9.33301 -40 -12 -66.667 -8 -80c1.33301 -36.667 10.333 -62.667 27 -78c12 -12 42 -25 90 -39
c0 18 -4 40.667 -12 68c-5.33301 18.667 20 66.334 76 143.001c18.667 -62.667 24 -122 16 -178c0 -30 -9 -66.333 -27 -109c-20 -48.667 -42.333 -73 -67 -73c-50.667 -1.33301 -94.334 17.667 -131.001 57c-23.333 24.667 -40.666 51.334 -51.999 80.001
c-73.333 -70 -169.333 -112.333 -288 -127c-26 -3.33301 -54 -6.33301 -84 -9z" />
    <glyph glyph-name="afii57428" unicode="&#x634;" horiz-adv-x="1796" arabic-form="isolated" 
d="M1384 825c1.33301 -6.66699 -10.501 -28 -35.501 -64s-40.5 -54 -46.5 -54c-5.33301 -3.33301 -29.166 7 -71.499 31s-63.5 40 -63.5 48c-5.33301 10 6 33.333 34 70s49 55 63 55c12 6 35 -5.33301 69 -34s51 -46 51 -52zM1100 -11
c5.33301 -140 -12.001 -229.67 -52.001 -269.003c-64 -64 -150.167 -114.5 -258.5 -151.5s-221.5 -55.5 -339.5 -55.5c-102 0 -197.333 23.333 -286 70c-106.667 57.333 -160 130.333 -160 219c0 60 24.667 152 74 276c50.667 130.667 97 209.667 139 237
c-4 -17.333 -26.667 -74 -68 -170c-38 -86 -57 -149.333 -57 -190c0 -95.333 44.333 -167.666 133 -216.999c72.667 -39.333 163 -59 271 -59c68 0 155.333 13.667 262 41c160.667 42 264.334 101.333 311.001 178l-115 331c22 70 38.333 116.667 49 140
c22 -74 44.667 -124.667 68 -152c34 -38 84.667 -57 152 -57c101.333 -2.66699 178.333 17 231 59c30 23.333 59.333 65 88 125c2.66699 4 8.66699 0.666992 18 -10c-9.33301 -40 -12 -66.667 -8 -80c1.33301 -36.667 10.333 -62.667 27 -78c12 -12 42 -25 90 -39
c0 18 -4 40.667 -12 68c-5.33301 18.667 20 66.334 76 143.001c18.667 -62.667 24 -122 16 -178c0 -30 -9 -66.333 -27 -109c-20 -48.667 -42.333 -73 -67 -73c-50.667 -1.33301 -94.334 17.667 -131.001 57c-23.333 24.667 -40.666 51.334 -51.999 80.001
c-73.333 -70 -169.333 -112.333 -288 -127c-26 -3.33301 -54 -6.33301 -84 -9zM1507 671.997c0 -10 -10.165 -33.998 -30.498 -71.998s-32.5 -57 -36.5 -57c-15.333 0 -59.666 18.333 -132.999 55c-12.667 -24.667 -29.334 -52 -50.001 -82
c-2.66699 -2.66699 -26.167 5.5 -70.5 24.5s-67.833 32.167 -70.5 39.5c-5.33301 10.667 4 35.5 28 74.5s41.333 60.5 52 64.5c12 4 34.833 -5.33301 68.5 -28s51.167 -34 52.5 -34s10.166 15.167 26.499 45.5s27.166 47.5 32.499 51.5
c9.33301 5.33301 33.5 -4.33398 72.5 -29.001s58.5 -42.334 58.5 -53.001z" />
    <glyph glyph-name="afii57429" unicode="&#x635;" horiz-adv-x="2058" arabic-form="isolated" 
d="M1929 244c-75.333 77.333 -143.666 114.668 -204.999 112.001c-65.333 -2.66699 -147 -32.667 -245 -90c-84.667 -48.667 -135.334 -87.334 -152.001 -116.001c31.333 -3.33301 78.333 -4.33301 141 -3c216 6 369.667 38.333 461 97zM1170 0.00195312
c-32.667 -6.66699 -56.001 -9.99805 -70.001 -9.99805c5.33301 -140.667 -12 -230.667 -52 -270c-64 -64 -150.167 -114.5 -258.5 -151.5s-221.5 -55.5 -339.5 -55.5c-102 0 -197.333 23.333 -286 70c-106.667 57.333 -160 130.333 -160 219c0 60 24.667 152 74 276
c50.667 130.667 97 209.667 139 237c-4 -17.333 -26.667 -74 -68 -170c-38 -86 -57 -149.333 -57 -190c0 -95.333 44.333 -167.666 133 -216.999c72.667 -39.333 163 -59 271 -59c68 0 155.333 13.667 262 41c160.667 42 264.334 101.333 311.001 178l-115 331
c22 70 38.333 116.667 49 140c22 -74 44.667 -124.667 68 -152c28 -31.333 67.667 -50 119 -56l6 1l207 168c143.333 113.333 264 171.333 362 174c60 1.33301 114 -17.834 162 -57.501s72 -82.834 72 -129.501c0 -130.667 -61.667 -223.334 -185 -278.001
c-86 -36.667 -215 -57.667 -387 -63c-112 -3.33301 -197.667 4.66699 -257 24z" />
    <glyph glyph-name="afii57430" unicode="&#x636;" horiz-adv-x="2058" arabic-form="isolated" 
d="M1929 244c-75.333 77.333 -143.666 114.668 -204.999 112.001c-65.333 -2.66699 -147 -32.667 -245 -90c-84.667 -48.667 -135.334 -87.334 -152.001 -116.001c31.333 -3.33301 78.333 -4.33301 141 -3c216 6 369.667 38.333 461 97zM1517 735.002
c2 -6.66699 -9.66797 -28.166 -35.001 -64.499s-40.666 -54.5 -45.999 -54.5c-4.66699 -2.66699 -28.5 8 -71.5 32s-64.5 40 -64.5 48c-5.33301 10 6 33.333 34 70s49 55 63 55c12 5.33301 35 -6.33398 69 -35.001s51 -45.667 51 -51zM1170 0.00292969
c-32.667 -6.66699 -56.001 -9.99805 -70.001 -9.99805c5.33301 -140.667 -12 -230.667 -52 -270c-64 -64 -150.167 -114.5 -258.5 -151.5s-221.5 -55.5 -339.5 -55.5c-102 0 -197.333 23.333 -286 70c-106.667 57.333 -160 130.333 -160 219c0 60 24.667 152 74 276
c50.667 130.667 97 209.667 139 237c-4 -17.333 -26.667 -74 -68 -170c-38 -86 -57 -149.333 -57 -190c0 -95.333 44.333 -167.666 133 -216.999c72.667 -39.333 163 -59 271 -59c68 0 155.333 13.667 262 41c160.667 42 264.334 101.333 311.001 178l-115 331
c22 70 38.333 116.667 49 140c22 -74 44.667 -124.667 68 -152c28 -31.333 67.667 -50 119 -56l6 1l207 168c143.333 113.333 264 171.333 362 174c60 1.33301 114 -17.834 162 -57.501s72 -82.834 72 -129.501c0 -130.667 -61.667 -223.334 -185 -278.001
c-86 -36.667 -215 -57.667 -387 -63c-112 -3.33301 -197.667 4.66699 -257 24z" />
    <glyph glyph-name="afii57431" unicode="&#x637;" horiz-adv-x="1779" arabic-form="isolated" 
d="M747 1356c1.33301 -66 11.665 -107.668 30.998 -125.001l117 -72c-23.333 -46 -36.333 -72.667 -39 -80c-12.667 -26 -19.667 -48.333 -21 -67c-4 0 -10.333 2.33301 -19 7s-14.667 7 -18 7c-4 0 -6.66699 -2 -8 -6c24.667 -238.667 37 -403.334 37 -494.001
c0 1.33301 -1.33301 -13.667 -4 -45s-4 -72.333 -4 -123c62.667 49.333 144 95.333 244 138c108.667 46 198 69 268 69c72 0 134.333 -27.333 187 -82s74.334 -106.334 65.001 -155.001c-26 -142 -137.333 -238.333 -334 -289c-139.333 -36.667 -356.333 -55 -651 -55h-142
c-88.667 0 -177.334 18.333 -266.001 55c-96.667 39.333 -156 87 -178 143c117.333 -13.333 281.333 -20 492 -20c10.667 0 47.334 19.833 110.001 59.5s112 75.834 148 108.501c8 14.667 12 40.667 12 78c0 172 -15 334.333 -45 487
c-24.667 122.667 -46 192.334 -64 209.001c10 40.667 19.667 77.334 29 110.001c20.667 76.667 38.334 124 53.001 142zM750.999 171.999l83.999 -0.000976562c117.333 0 196 2 236 6c114.667 12.667 248.334 44 401.001 94c-18.667 34.667 -51 63.834 -97 87.501
s-92 35.5 -138 35.5c-100 0 -208.667 -32.667 -326 -98c-98 -56 -151.333 -97.667 -160 -125z" />
    <glyph glyph-name="afii57432" unicode="&#x638;" horiz-adv-x="1779" arabic-form="isolated" 
d="M747 1356c1.33301 -66 11.665 -107.668 30.998 -125.001l117 -72c-23.333 -46 -36.333 -72.667 -39 -80c-12.667 -26 -19.667 -48.333 -21 -67c-4 0 -10.333 2.33301 -19 7s-14.667 7 -18 7c-4 0 -6.66699 -2 -8 -6c24.667 -238.667 37 -403.334 37 -494.001
c0 1.33301 -1.33301 -13.667 -4 -45s-4 -72.333 -4 -123c62.667 49.333 144 95.333 244 138c108.667 46 198 69 268 69c72 0 134.333 -27.333 187 -82s74.334 -106.334 65.001 -155.001c-26 -142 -137.333 -238.333 -334 -289c-139.333 -36.667 -356.333 -55 -651 -55h-142
c-88.667 0 -177.334 18.333 -266.001 55c-96.667 39.333 -156 87 -178 143c117.333 -13.333 281.333 -20 492 -20c10.667 0 47.334 19.833 110.001 59.5s112 75.834 148 108.501c8 14.667 12 40.667 12 78c0 172 -15 334.333 -45 487
c-24.667 122.667 -46 192.334 -64 209.001c10 40.667 19.667 77.334 29 110.001c20.667 76.667 38.334 124 53.001 142zM750.999 171.999l83.999 -0.000976562c117.333 0 196 2 236 6c114.667 12.667 248.334 44 401.001 94c-18.667 34.667 -51 63.834 -97 87.501
s-92 35.5 -138 35.5c-100 0 -208.667 -32.667 -326 -98c-98 -56 -151.333 -97.667 -160 -125zM1269 833.998c4.66699 -14 1.33203 -36.667 -10.001 -68c-13.333 -36.667 -31.666 -58.667 -54.999 -66c-18 -5.33301 -46.667 6.66699 -86 36s-59 50.333 -59 63
c0 6.66699 10.833 30.5 32.5 71.5s37.167 61.5 46.5 61.5l64 -37c42 -28.667 64.333 -49 67 -61z" />
    <glyph glyph-name="afii57433" unicode="&#x639;" horiz-adv-x="909" arabic-form="isolated" 
d="M270 815c28.667 0 66.668 -12.333 114.001 -37c56 -28.667 84 -59.334 84 -92.001c-12 8 -31.333 15.833 -58 23.5s-47.667 10.167 -63 7.5c-40.667 0 -86.334 -9.66699 -137.001 -29c-72 -27.333 -108 -64 -108 -110c0 -16.667 26.667 -51 80 -103
c60 -60 116.667 -90 170 -90c21.333 0 58.666 16.333 111.999 49l248 164c15.333 -86 -29.334 -164.167 -134.001 -234.5l-312 -209.5c-120.667 -104 -185.667 -233 -195 -387c-10.667 -172 62.333 -297.667 219 -377c118.667 -60 271.667 -90 459 -90h379
c-149.333 -92.667 -299 -139 -449 -139c-151.333 0 -284.333 36 -399 108c-126 79.333 -203.333 188.666 -232 327.999c-12 58.667 -12 138.667 0 240c18 148 80.333 291.667 187 431c-57.333 23.333 -103.666 63 -138.999 119c-33.333 48 -50 94.333 -50 139
c0 50.667 18 107.334 54 170.001c44.667 80.667 101.334 120.334 170.001 119.001z" />
    <glyph glyph-name="afii57434" unicode="&#x63a;" horiz-adv-x="909" arabic-form="isolated" 
d="M270 815c28.667 0 66.668 -12.333 114.001 -37c56 -28.667 84 -59.334 84 -92.001c-12 8 -31.333 15.833 -58 23.5s-47.667 10.167 -63 7.5c-40.667 0 -86.334 -9.66699 -137.001 -29c-72 -27.333 -108 -64 -108 -110c0 -16.667 26.667 -51 80 -103
c60 -60 116.667 -90 170 -90c21.333 0 58.666 16.333 111.999 49l248 164c15.333 -86 -29.334 -164.167 -134.001 -234.5l-312 -209.5c-120.667 -104 -185.667 -233 -195 -387c-10.667 -172 62.333 -297.667 219 -377c118.667 -60 271.667 -90 459 -90h379
c-149.333 -92.667 -299 -139 -449 -139c-151.333 0 -284.333 36 -399 108c-126 79.333 -203.333 188.666 -232 327.999c-12 58.667 -12 138.667 0 240c18 148 80.333 291.667 187 431c-57.333 23.333 -103.666 63 -138.999 119c-33.333 48 -50 94.333 -50 139
c0 50.667 18 107.334 54 170.001c44.667 80.667 101.334 120.334 170.001 119.001zM311.001 1059c1.33301 -5.33301 -9.99902 -26.166 -33.999 -62.499s-39.333 -54.5 -46 -54.5c-4 -2.66699 -27.5 7.66602 -70.5 30.999s-64.5 39 -64.5 47
c-6 10.667 4.66699 34.167 32 70.5s48.666 54.5 63.999 54.5c12 5.33301 34.833 -6 68.5 -34s50.5 -45.333 50.5 -52z" />
    <glyph glyph-name="afii57441" unicode="&#x641;" horiz-adv-x="1597" arabic-form="isolated" 
d="M1163 428c4 -6.66699 31.333 -10 82 -10c13.333 0 23.333 2.66699 30 8c20.667 19.333 31.667 29.666 33 30.999c-16 38 -25.667 59.667 -29 65c-10.667 15.333 -25 23 -43 23c-6.66699 0 -18.5 -12.667 -35.5 -38s-29.5 -51.666 -37.5 -78.999zM1265 973
c1.33301 -6.66699 -10.332 -29.167 -34.999 -67.5s-39.667 -57.5 -45 -57.5c-4 -2.66699 -27.5 7.5 -70.5 30.5s-64.5 38.833 -64.5 47.5c-5.33301 10.667 5.66699 34.5 33 71.5s47.666 55.5 60.999 55.5c14 5.33301 37.667 -5 71 -31s50 -42.333 50 -49zM688.002 -4
c-440 0 -661.334 110.668 -664.001 332.001c0 61.333 26.667 129.5 80 204.5s99 115.167 137 120.5l-88 -102c-31.333 -42.667 -47 -83.667 -47 -123c0 -161.333 188.333 -252 565 -272c56 -2.66699 119 -2.66699 189 0c62.667 2.66699 115.667 4 159 4
c90 0 167.333 7.33301 232 22c83.333 19.333 125 48 125 86c0 34 -7.66699 66.333 -23 97c-31.333 -53.333 -79 -80 -143 -80c-67.333 0 -105 41 -113 123c-5.33301 48.667 10.834 111 48.501 187s77.5 114 119.5 114c44 0 82.667 -30.5 116 -91.5s50 -130.833 50 -209.5
c0 -84.667 -21.333 -167.334 -64 -248.001c-34 -61.333 -57.667 -94.333 -71 -99c-68.667 -40.667 -206 -61 -412 -61c-5.33301 -0 -30.5 -0.666992 -75.5 -2s-85.167 -2 -120.5 -2z" />
    <glyph glyph-name="afii57442" unicode="&#x642;" horiz-adv-x="1583" arabic-form="isolated" 
d="M1120 463c125.333 0 213.335 -100.335 264.002 -301.002c8 -58.667 12 -112.667 12 -162c0 -66.667 -1.33301 -111 -4 -133c-6.66699 -38 -23 -88.333 -49 -151c-202 -184.667 -436.333 -277 -703 -277c-156.667 0 -288.334 29.333 -395.001 88
c-126.667 70 -195.667 171.333 -207 304c-5.33301 68 18.667 172 72 312c53.333 136.667 99.666 219.334 138.999 248.001c-38 -92.667 -89 -235 -153 -427c-3.33301 -12.667 -5 -25 -5 -37c0 -86 63 -162.667 189 -230c117.333 -62.667 241 -94 371 -94
c64 0 180.667 24 350 72c210 57.333 317 117.333 321 180c7.33301 96.667 2 145 -16 145c-106.667 0 -177 3.33301 -211 10c-95.333 20.667 -150 68 -164 142c-8 44.667 6.33301 105.334 43 182.001c41.333 86 90 129 146 129zM1001 245.998c0 -34 38 -61.333 114 -82h129
c-17.333 22 -35 43 -53 63c-26 30 -58.667 52 -98 66c-19.333 6.66699 -39.5 5.5 -60.5 -3.5s-31.5 -23.5 -31.5 -43.5zM1093 835.998c9.33301 5.33301 33.501 -4.33203 72.501 -28.999s58.5 -42.334 58.5 -53.001c0 -10 -10.167 -34 -30.5 -72s-32.833 -57 -37.5 -57
c-14.667 0 -59 18.333 -133 55c-12 -24.667 -28.333 -52 -49 -82c-2.66699 -2.66699 -26.167 5.5 -70.5 24.5s-67.833 32.167 -70.5 39.5c-5.33301 10.667 3.83398 35.5 27.501 74.5s41.167 60.5 52.5 64.5c12 4 34.667 -5.33301 68 -28s51 -34 53 -34
c1.33301 0 10.166 15 26.499 45s27.166 47.333 32.499 52z" />
    <glyph glyph-name="afii57443" unicode="&#x643;" horiz-adv-x="2013" arabic-form="isolated" 
d="M508 0c-159.333 -5.33301 -278.331 26.6689 -356.998 96.002c-75.333 66 -113 144.667 -113 236c0 34 11 88 33 162c31.333 113.333 76.333 191 135 233c-10.667 -39.333 -32 -91.333 -64 -156c-22.667 -50 -34.667 -91.667 -36 -125c-4.66699 -90 39 -162.667 131 -218
c63.333 -38.667 152.666 -61.334 267.999 -68.001h1253l20 37c10.667 22.667 12.334 45.667 5.00098 69l-78 60c-48.667 27.333 -118.167 42.666 -208.5 45.999s-241.166 11 -452.499 23c-220 16.667 -362.667 34.667 -428 54c-26 6.66699 -52 12.667 -78 18
c-49.333 18 -74 39 -74 63c4 24.667 12.333 50 25 76c30 58.667 79 112 147 160c64 45.333 139 83.666 225 114.999c97.333 35.333 185.666 53 264.999 53c57.333 0 86 -16.333 86 -49c0 -19.333 -12.333 -50.666 -37 -93.999c-28.667 -50.667 -56.667 -81 -84 -91
c14.667 11.333 22 29.333 22 54c-47.333 22.667 -73.666 34 -78.999 34c-60.667 0 -140.667 -15 -240 -45c-109.333 -32.667 -181 -67.334 -215 -104.001c31.333 -36.667 92.666 -60 183.999 -70c54.667 -6.66699 175.667 -19.667 363 -39
c60 -5.33301 150.667 -8.66602 272 -9.99902c117.333 -1.33301 196.666 -4 237.999 -8c135.333 -14 214.666 -69.333 237.999 -166c8.66699 -67.333 -1 -136.333 -29 -207c-12 -22.667 -23 -39.667 -33 -51c-53.333 -58.667 -86.333 -88 -99 -88h-1205z" />
    <glyph glyph-name="afii57444" unicode="&#x644;" horiz-adv-x="1105" arabic-form="isolated" 
d="M794 1194c0 -69.333 4.33398 -115 13.001 -137c13.333 -35.333 46.666 -64.666 99.999 -87.999c-16.667 -48 -35 -88.333 -55 -121c-16.667 -27.333 -26.334 -48 -29.001 -62c-2.66699 -24 -2.66699 -56 0 -96l37 -616c1.33301 -26 2 -50.667 2 -74
c0 -184 -48 -313.667 -144 -389c-74.667 -58.667 -187 -88 -337 -88c-93.333 0 -176 29.333 -248 88c-78 63.333 -117 140.666 -117 231.999c6.66699 68 19 130 37 186c39.333 134.667 98 230 176 286c-13.333 -35.333 -44.666 -101.333 -93.999 -198
c-31.333 -58.667 -47 -108.334 -47 -149.001c0 -79.333 32.667 -144.333 98 -195s146 -76 242 -76c70.667 0 146.334 15.667 227.001 47c104 42.667 155.333 96 154 160c-1.33301 70.667 -20 328.667 -56 774c-1.33301 44.667 -6 101.334 -14 170.001
c-6.66699 19.333 -18.5 32.333 -35.5 39s-25.5 11.334 -25.5 14.001c14.667 50.667 29 95 43 133c31.333 91.333 55.666 144.666 72.999 159.999z" />
    <glyph glyph-name="afii57445" unicode="&#x645;" horiz-adv-x="811" arabic-form="isolated" 
d="M319 616c36.667 0 91.833 -40.167 165.5 -120.5s118.167 -152.5 133.5 -216.5c6.66699 -27.333 -10.333 -72 -51 -134c-44 28.667 -88.333 47.334 -133 56.001c-20.667 2.66699 -59 4 -115 4c-60 0 -112.667 -9 -158 -27c-57.333 -20.667 -86 -50.667 -86 -90
c0 15.333 14.667 -51 44 -199s44 -289.667 44 -425c0 -108 -19 -181.667 -57 -221c0 20 2.33301 47.833 7 83.5s6.33398 64.5 5.00098 86.5c-6.66699 129.333 -24.334 248 -53.001 356c-24.667 96.667 -37 182 -37 256c0 155.333 32 255.666 96 300.999
c41.333 30 132.333 48.333 273 55c-60 50.667 -101 76 -123 76c-18 0 -43.333 -13.667 -76 -41c-38 -32.667 -57.667 -49 -59 -49c5.33301 64 21 118.333 47 163c32.667 57.333 77 86 133 86z" />
    <glyph glyph-name="afii57446" unicode="&#x646;" horiz-adv-x="1155" arabic-form="isolated" 
d="M923 309c26 -61.333 39 -140.999 39 -238.999c0 -156.667 -30.333 -269.5 -91 -338.5s-120.334 -117.167 -179.001 -144.5c-74 -34 -170.333 -51 -289 -51c-82 0 -158 24.333 -228 73c-80 58.667 -125 137.334 -135 236.001c-6.66699 64 6.33301 143 39 237
c40 116 96 195 168 237l-88 -180c-32.667 -70.667 -49 -129 -49 -175c0 -68.667 27.333 -127.334 82 -176.001c61.333 -56 143.333 -84 246 -84c92.667 0 176.334 12.667 251.001 38c92 33.333 153.667 82 185 146c10.667 16 14.667 57.333 12 124
c-4 97.333 -25 159.666 -63 186.999zM882 725.001c1.33301 -6.66699 -10.668 -28.167 -36.001 -64.5s-40.666 -54.5 -45.999 -54.5c-4 -2.66699 -27.5 8 -70.5 32s-64.5 40 -64.5 48c-5.33301 10.667 6 34.167 34 70.5s48.667 54.5 62 54.5c12.667 5.33301 36 -6 70 -34
s51 -45.333 51 -52z" />
    <glyph glyph-name="afii57470" unicode="&#x647;" horiz-adv-x="747" arabic-form="isolated" 
d="M207 557c30 -34 78.333 -64.6631 145 -91.9961c79.333 -32.667 127.666 -55.334 144.999 -68.001c45.333 -32.667 68 -78.334 68 -137.001c0 -98 -36 -171.667 -108 -221c-62 -40.667 -144.667 -61 -248 -61c-48 0 -86.333 11.5 -115 34.5s-43 50.167 -43 81.5
c0 49.333 33.333 141 100 275c2.66699 5.33301 1.33398 10.666 -3.99902 15.999s-8 10.666 -8 15.999c0 45.333 22.667 97.333 68 156zM127 217.004c0 -19.333 16.335 -36.332 49.002 -50.999c28.667 -14 56.667 -21 84 -21c83.333 0 155.666 18.667 216.999 56
c-54.667 46 -116 81.333 -184 106c-34.667 11.333 -68.334 23 -101.001 35c-23.333 -16.667 -45 -58.334 -65 -125.001z" />
    <glyph glyph-name="afii57448" unicode="&#x648;" horiz-adv-x="753" arabic-form="isolated" 
d="M549 0c-1.33301 -52.667 -36.666 -131.666 -105.999 -236.999c-88 -131.333 -181 -197 -279 -197c-140 0 -239.667 -2 -299 -6c109.333 40 205 81 287 123c195.333 104 305.666 209.667 330.999 317c-114.667 0 -194.334 6 -239.001 18c-83.333 22 -125 68 -125 138
c46.667 214 114.334 321 203.001 321c46 0 94 -33.833 144 -101.5s79.667 -138.834 89 -213.501c5.33301 -38.667 3.33301 -92.667 -6 -162zM187 272.001c6.66699 -36.667 27.001 -63.001 61.001 -79.001c19.333 -10 53.333 -18.333 102 -25
c19.333 -2.66699 48.666 -2.66699 87.999 0c-28.667 42 -49 70 -61 84c-26 23.333 -60 40.333 -102 51c-30 6.66699 -59.333 -3.66602 -88 -30.999z" />
    <glyph glyph-name="afii57449" unicode="&#x649;" horiz-adv-x="1556" arabic-form="isolated" 
d="M143 84c1.33301 22 4 46 8 72c12.667 61.333 35.334 130 68.001 206c38 92 79 140.667 123 146c-4 -24.667 -25.167 -67.334 -63.5 -128.001s-62.5 -121.667 -72.5 -183c-2.66699 -20.667 -4 -40.667 -4 -60c0 -125.333 70.333 -220.666 211 -285.999
c109.333 -49.333 235 -74 377 -74c105.333 0 216.666 27.333 333.999 82c105.333 49.333 165.333 91.666 180 126.999c-39.333 26 -107 43 -203 51c-107.333 10.667 -176.666 22.334 -207.999 35.001c-64.667 26 -97 75.667 -97 149c0 72.667 39 156 117 250
c86 105.333 178.333 158 277 158c51.333 0 77 -7.66699 77 -23c0 -65.333 -24.333 -120 -73 -164c-26 30 -50 45 -72 45c-36.667 0 -84.334 -17 -143.001 -51c-68.667 -36.667 -103 -74 -103 -112c0 -56 45.667 -93.667 137 -113l252 -33c92 -17.333 138 -52 138 -104
c0 -82 -29.667 -151.667 -89 -209c-84.667 -83.333 -167 -141.333 -247 -174c-96 -40.667 -217.667 -59.667 -365 -57s-269.333 36 -366 100c-118 78 -182.333 194.667 -193 350z" />
    <glyph glyph-name="afii57450" unicode="&#x64a;" horiz-adv-x="1556" arabic-form="isolated" 
d="M143 84c1.33301 22 4 46 8 72c12.667 61.333 35.334 130 68.001 206c38 92 79 140.667 123 146c-4 -24.667 -25.167 -67.334 -63.5 -128.001s-62.5 -121.667 -72.5 -183c-2.66699 -20.667 -4 -40.667 -4 -60c0 -125.333 70.333 -220.666 211 -285.999
c109.333 -49.333 235 -74 377 -74c105.333 0 216.666 27.333 333.999 82c105.333 49.333 165.333 91.666 180 126.999c-39.333 26 -107 43 -203 51c-107.333 10.667 -176.666 22.334 -207.999 35.001c-64.667 26 -97 75.667 -97 149c0 72.667 39 156 117 250
c86 105.333 178.333 158 277 158c51.333 0 77 -7.66699 77 -23c0 -65.333 -24.333 -120 -73 -164c-26 30 -50 45 -72 45c-36.667 0 -84.334 -17 -143.001 -51c-68.667 -36.667 -103 -74 -103 -112c0 -56 45.667 -93.667 137 -113l252 -33c92 -17.333 138 -52 138 -104
c0 -82 -29.667 -151.667 -89 -209c-84.667 -83.333 -167 -141.333 -247 -174c-96 -40.667 -217.667 -59.667 -365 -57s-269.333 36 -366 100c-118 78 -182.333 194.667 -193 350z" />
    <glyph glyph-name="afii57506" unicode="&#x67e;" horiz-adv-x="1748" arabic-form="isolated" 
d="M81 381c0 -170.667 184.333 -256 553 -256c62.667 0 195.334 11 398.001 33c259.333 27.333 410.666 57.333 453.999 90c-13.333 34 -32.333 71.333 -57 112c-20.667 33.333 -31 51.333 -31 54c0 5.33301 6.16699 28.833 18.5 70.5s21.833 68.5 28.5 80.5
c71.333 -116 107 -203.333 107 -262c0 -10.667 -4.83301 -42.334 -14.5 -95.001s-15.834 -83.667 -18.501 -93c-5.33301 -18 -79 -42.667 -221 -74c-152 -34 -303 -57 -453 -69c-57.333 -4 -120 -5.33301 -188 -4c-117.333 2.66699 -180.333 4 -189 4
c-95.333 0 -182.666 18.333 -261.999 55c-120 56 -180 144.667 -180 266c0 46 15 101.833 45 167.5s67 120.5 111 164.5c0 -53.333 -16.833 -100.166 -50.5 -140.499s-50.5 -74.833 -50.5 -103.5zM1245 -540c-14 -2.66699 -37.999 11.333 -71.999 42s-48.333 52 -43 64
c-1.33301 8.66699 17.167 28.334 55.5 59.001s59.5 44.667 63.5 42c5.33301 1.33301 23.333 -13.334 54 -44.001s46 -49.667 46 -57c1.33301 -6.66699 -12.334 -27 -41.001 -61s-49.667 -49 -63 -45zM1255 -268c-2.66699 0 -18.3359 -14.0029 -47.0029 -42.0029
s-49.334 -40.667 -62.001 -38c-10.667 1.33301 -31.667 19.166 -63 53.499s-45 57.5 -41 69.5c2.66699 6.66699 23.834 23.334 63.501 50.001s61.5 39.334 65.5 38.001c12 -16 33.667 -40.333 65 -73c62 48.667 101.667 74.334 119 77.001c4 0 19.333 -17 46 -51
s41.334 -55.667 44.001 -65c1.33301 -11.333 -15 -32 -49 -62s-56.333 -43.667 -67 -41c-7.33301 2.66699 -21.166 17.334 -41.499 44.001s-31.166 40 -32.499 40z" />
    <glyph glyph-name="afii57507" unicode="&#x686;" horiz-adv-x="1067" arabic-form="isolated" 
d="M293 713c32.667 0 85.167 -4.50098 157.5 -13.501s131.833 -13.5 178.5 -13.5c66.667 0 134.667 7.66699 204 23c-21.333 -97.333 -32 -152.666 -32 -165.999c-153.333 0 -294 -45 -422 -135c-188.667 -131.333 -283 -331.333 -283 -600
c0 -186 117.333 -324.667 352 -416c157.333 -60 322.666 -90 495.999 -90h277c-32 -23.333 -99 -52 -201 -86c-109.333 -35.333 -190 -53 -242 -53c-155.333 0 -300.666 35.333 -435.999 106c-198 102.667 -297 261 -297 475c0 344 100.333 606 301 786
c-32.667 10 -69.667 15 -111 15c-47.333 0 -82 -7.66699 -104 -23c-12 -8 -24.167 -24.333 -36.5 -49s-26.833 -43 -43.5 -55c-1.33301 26 -2 45.667 -2 59c1.33301 67.333 23.5 123.5 66.5 168.5s102.167 67.5 177.5 67.5zM545 -305.001
c-14 -2.66699 -37.999 11.335 -71.999 42.002s-48.333 52.334 -43 65.001c-1.33301 8 17.167 27.333 55.5 58s59.5 44.667 63.5 42c5.33301 1.33301 23.333 -13.334 54 -44.001s46 -49.334 46 -56.001c1.33301 -6.66699 -12.334 -26.834 -41.001 -60.501
s-49.667 -49.167 -63 -46.5zM555.001 -31.999c-2.66699 0 -18.335 -14.0029 -47.002 -42.0029s-49.334 -40.667 -62.001 -38c-10.667 1.33301 -31.667 19 -63 53s-45 57 -41 69c2.66699 6.66699 23.834 23.334 63.501 50.001s61.5 39.334 65.5 38.001
c12 -16 34 -40.333 66 -73c61.333 48.667 100.666 74.334 117.999 77.001c4 0 19.333 -17 46 -51s41.334 -55.667 44.001 -65c1.33301 -10.667 -15 -31 -49 -61s-56.333 -43 -67 -39c-7.33301 2.66699 -21.166 17 -41.499 43s-31.166 39 -32.499 39z" />
    <glyph glyph-name="afii57508" unicode="&#x698;" horiz-adv-x="786" arabic-form="isolated" 
d="M623 111c0 -181.333 -51.1689 -340.667 -153.502 -478s-225.833 -206 -370.5 -206c-31.333 0 -79.666 11 -144.999 33c-83.333 27.333 -137.333 60 -162 98c59.333 -19.333 101 -29 125 -29c144.667 0 293.334 62.333 446.001 187c139.333 112 214 210 224 294
c4 37.333 -20.667 81.833 -74 133.5s-80 85.167 -80 100.5c0 8 9 54.333 27 139c35.333 -12 71.333 -50.5 108 -115.5s55 -117.167 55 -156.5zM494.998 824.999c1.33301 -6.66699 -10.6689 -28 -36.002 -64s-40.666 -54 -45.999 -54c-5.33301 -3.33301 -29.166 7 -71.499 31
s-63.5 40 -63.5 48c-5.33301 10 6 33.333 34 70s48.667 55 62 55c12 6 35.167 -5.33301 69.5 -34s51.5 -46 51.5 -52zM617.996 671.999c0 -10 -10.3311 -33.998 -30.998 -71.998s-33 -57 -37 -57c-14.667 0 -59 18.333 -133 55c-12 -24.667 -28.333 -52 -49 -82
c-2.66699 -2.66699 -26.167 5.5 -70.5 24.5s-67.833 32.167 -70.5 39.5c-6 10.667 3.33301 35.5 28 74.5s41.667 60.5 51 64.5c12.667 5.33301 35.667 -3.66699 69 -27s50.666 -35 51.999 -35s10.166 15.167 26.499 45.5s27.5 47.5 33.5 51.5
c9.33301 5.33301 33.5 -4.33398 72.5 -29.001s58.5 -42.334 58.5 -53.001z" />
    <glyph glyph-name="afii57509" unicode="&#x6af;" horiz-adv-x="2013" arabic-form="isolated" 
d="M508 0c-159.333 -5.33301 -278.331 26.6689 -356.998 96.002c-75.333 66 -113 144.667 -113 236c0 34 11 88 33 162c31.333 113.333 76.333 191 135 233c-10.667 -39.333 -32 -91.333 -64 -156c-22.667 -50 -34.667 -91.667 -36 -125c-4.66699 -90 39 -162.667 131 -218
c63.333 -38.667 152.666 -61.334 267.999 -68.001h1253l20 37c10.667 22.667 12.334 45.667 5.00098 69l-78 60c-48.667 27.333 -118.167 42.666 -208.5 45.999s-241.166 11 -452.499 23c-220 16.667 -362.667 34.667 -428 54c-26 6.66699 -52 12.667 -78 18
c-49.333 18 -74 39 -74 63c4 24.667 12.333 50 25 76c30 58.667 79 112 147 160c64 45.333 139 83.666 225 114.999c97.333 35.333 185.666 53 264.999 53c57.333 0 86 -16.333 86 -49c0 -19.333 -12.333 -50.666 -37 -93.999c-28.667 -50.667 -56.667 -81 -84 -91
c14.667 11.333 22 29.333 22 54c-47.333 22.667 -73.666 34 -78.999 34c-60.667 0 -140.667 -15 -240 -45c-109.333 -32.667 -181 -67.334 -215 -104.001c31.333 -36.667 92.666 -60 183.999 -70c54.667 -6.66699 175.667 -19.667 363 -39
c60 -5.33301 150.667 -8.66602 272 -9.99902c117.333 -1.33301 196.666 -4 237.999 -8c135.333 -14 214.666 -69.333 237.999 -166c8.66699 -67.333 -1 -136.333 -29 -207c-12 -22.667 -23 -39.667 -33 -51c-53.333 -58.667 -86.333 -88 -99 -88h-1205zM1185 1107
c64 0 96.001 -18 96.001 -54c0 -19.333 -13.167 -46.666 -39.5 -81.999s-39.5 -31.666 -39.5 11.001c-2 28 -24.667 37.667 -68 29c-60 0 -139 -14.667 -237 -44c-108 -32.667 -202.667 -74.334 -284 -125.001l-38 -23c5.33301 29.333 42.666 68.666 111.999 117.999
c65.333 46 141.333 84.667 228 116c98.667 36 188.667 54 270 54z" />
    <glyph glyph-name="uniFB57" unicode="&#x67e;" horiz-adv-x="1646" arabic-form="final" 
d="M125 410c-4 -161.333 159.669 -254.336 491.002 -279.003c114.667 -8 211 -10.667 289 -8c127.333 4 222.333 20.333 285 49c87.333 36.667 159 106.334 215 209.001c0 -5.33301 -1.33301 -20.666 -4 -45.999s-4 -39.333 -4 -42c0 -87.333 60 -131 180 -131h119v-162
h-183c-82 0 -145.333 42.333 -190 127l-57 -51c-42.667 -31.333 -100.334 -56.666 -173.001 -75.999c-100.667 -25.333 -231 -38 -391 -38c-151.333 0 -286.333 22.333 -405 67c-165.333 61.333 -248 153.333 -248 276c0 65.333 24.667 141 74 227
c43.333 75.333 80.666 120 111.999 134l-72 -132.5c-24 -44.333 -36.667 -85.5 -38 -123.5zM1046 -540.003c-13.333 -2.66699 -37.166 11.3359 -71.499 42.0029s-48.5 52 -42.5 64c-2.66699 7.33301 15 26.666 53 57.999s59 45.666 63 42.999
c6 1.33301 24.667 -13.334 56 -44.001s47 -49.667 47 -57c1.33301 -6.66699 -12.334 -27 -41.001 -61s-50 -49 -64 -45zM1057 -268c-2.66699 0 -18.332 -14.0029 -46.999 -42.0029s-49.334 -40.667 -62.001 -38c-12 1.33301 -33.5 19.166 -64.5 53.499
s-44.167 57.5 -39.5 69.5c2.66699 6.66699 23.834 23.334 63.501 50.001s61.5 39.334 65.5 38.001c12 -16 33 -40.333 63 -73c65.333 48.667 105.666 74.334 120.999 77.001c4 0 19.333 -17 46 -51s40.667 -55.667 42 -65c2.66699 -11.333 -13 -32 -47 -62
s-56.667 -43.667 -68 -41c-8 2.66699 -22.167 17.334 -42.5 44.001z" />
    <glyph glyph-name="uniFB58" unicode="&#x67e;" horiz-adv-x="516" arabic-form="initial" 
d="M324 225c0 -83.333 -16.5 -141.667 -49.5 -175s-92.5 -50 -178.5 -50h-145v162h307c-1.33301 34 -14 69.833 -38 107.5s-36 65.167 -36 82.5c0 28.667 15.333 80.667 46 156c18.667 -24.667 39 -67 61 -127c22 -64 33 -116 33 -156zM236 -475.001
c-14 -2.66699 -37.9971 11.335 -71.9971 42.002s-48.333 52.334 -43 65.001c-2.66699 8 15.166 27.667 53.499 59s59.5 45 63.5 41c5.33301 1.33301 23.666 -13.334 54.999 -44.001s47 -49.334 47 -56.001c1.33301 -6.66699 -12.334 -26.834 -41.001 -60.501
s-49.667 -49.167 -63 -46.5zM246.003 -199.999c-1.33301 0 -16.667 -14.335 -46 -43.002s-50.333 -41.667 -63 -39c-12 1.33301 -33.333 19 -64 53s-44 57.333 -40 70c2.66699 6.66699 23.834 23.334 63.501 50.001s61.5 39.334 65.5 38.001
c12 -16.667 33 -41.334 63 -74.001c63.333 48 103.666 74.667 120.999 80c4 0 19.333 -17.333 46 -52s40.667 -57 42 -67c2.66699 -10.667 -13 -31 -47 -61s-56.333 -43 -67 -39c-8.66699 2.66699 -23.167 17.334 -43.5 44.001z" />
    <glyph glyph-name="uniFB59" unicode="&#x67e;" horiz-adv-x="733" arabic-form="medial" 
d="M782 0h-128.999c-46 0 -89.833 12.667 -131.5 38s-70.834 58.333 -87.501 99l-57 -61c-31.333 -26 -72.333 -46 -123 -60c-65.333 -16 -150 -21.333 -254 -16h-49v162h82c80.667 0 128.334 0.666992 143.001 2c42.667 4 100 16.333 172 37c56 16 94.667 56.167 116 120.5
s51.666 103.833 90.999 118.5l-41 -159c-1.33301 -28.667 18 -54.667 58 -78c43.333 -27.333 98.333 -41 165 -41h45v-162zM475.001 -102c10 4 33.9961 -5.83301 71.9961 -29.5s57 -41.167 57 -52.5c0 -9.33301 -9.83301 -33.5 -29.5 -72.5s-31.5 -58.5 -35.5 -58.5
c-20.667 0 -65 19 -133 57c-12.667 -25.333 -29 -53.333 -49 -84c-4.66699 -2.66699 -28.834 5.66602 -72.501 24.999s-67.5 32.333 -71.5 39c-5.33301 10.667 4.33398 35.834 29.001 75.501s42.334 61.5 53.001 65.5s32.834 -5.16699 66.501 -27.5
s51.834 -33.5 54.501 -33.5c1.33301 0 9.83301 15 25.5 45s26.834 47 33.501 51zM466.997 -530c-12 -5.33301 -37.499 3.99707 -76.499 27.9971s-57.167 42.667 -54.5 56c-2.66699 6.66699 12 28.834 44 66.501s50 55.167 54 52.5c6 2.66699 26.667 -8.66602 62 -33.999
s53.666 -41.333 54.999 -48c2.66699 -5.33301 -6.83301 -27.166 -28.5 -65.499s-40.167 -56.833 -55.5 -55.5z" />
    <glyph glyph-name="uniFB7B" unicode="&#x686;" horiz-adv-x="1155" arabic-form="final" 
d="M327 588c58.667 -11.333 154.333 -22.998 287 -34.998h346c-14 -49.333 -30.667 -101.333 -50 -156c-31.333 -10.667 -76.333 -17.334 -135 -20.001s-96.667 -7.66699 -114 -15c-31.333 -12 -47 -37 -47 -75c0 -44 28 -77 84 -99c40.667 -17.333 86.334 -26 137.001 -26
h368v-162h-479c-49.333 0 -88.333 16.667 -117 50s-43 72.666 -43 117.999c0 27.333 7.66699 77 23 149c-113.333 0 -224 -69.833 -332 -209.5s-162 -275.167 -162 -406.5c0 -95.333 37.667 -179.666 113 -252.999c78 -79.333 188 -135.333 330 -168
c216.667 -52 405 -78 565 -78c57.333 0 106.333 4 147 12c-30 -20.667 -103 -49.334 -219 -86.001c-124 -38 -214.667 -57 -272 -57c-147.333 0 -286 35.333 -416 106c-186.667 104 -280 260.333 -280 469c0 328.667 128.333 579 385 751c-50.667 14 -106.667 21 -168 21
c-75.333 0 -127.333 -9 -156 -27c-23.333 -14.667 -51.333 -52 -84 -112c-1.33301 21.333 -1.33301 39 0 53c9.33301 170.667 105.666 256 288.999 256zM537.999 -494.998c-14 -2.66699 -38 11.001 -72 41.001s-49 51 -45 63c-1.33301 8.66699 17.167 28.667 55.5 60
s59.5 45 63.5 41c5.33301 1.33301 23.333 -13.334 54 -44.001s46 -49.667 46 -57c1.33301 -5.33301 -12 -25 -40 -59s-48.667 -49 -62 -45zM547.999 -222.997c-4 0 -20.333 -14.333 -49 -43s-48.667 -41.667 -60 -39c-12 1.33301 -33.333 19.5 -64 54.5
s-44.667 57.833 -42 68.5c2.66699 8.66699 24.167 26.167 64.5 52.5s62.5 38.166 66.5 35.499c12 -16 33.333 -40.333 64 -73c68 50 108 76.333 120 79c4 0 19.333 -17.333 46 -52s40.667 -56.667 42 -66c1.33301 -11.333 -15 -32 -49 -62s-55.667 -43 -65 -39
c-8.66699 2.66699 -23.167 17.334 -43.5 44.001z" />
    <glyph glyph-name="uniFB7C" unicode="&#x686;" horiz-adv-x="1400" arabic-form="initial" 
d="M381 580c15.333 0 74.001 -24 176.001 -72c126 -58.667 230 -101.667 312 -129c132 -44 244.333 -62.333 337 -55c-1.33301 -38.667 -6 -68 -14 -88c-10.667 -27.333 -22.334 -54 -35.001 -80c-58.667 16 -103.667 24 -135 24c-70.667 0 -248.667 -40.333 -534 -121
c-169.333 -38 -323 -57.667 -461 -59h-76v162h76c266 1.33301 483 34.666 651 99.999c-6.66699 6.66699 -59.334 33.334 -158.001 80.001c-107.333 52 -174.666 78 -201.999 78c-33.333 0 -60.833 -8.5 -82.5 -25.5l-65.5 -52.5c11.333 62.667 34 116.667 68 162
c39.333 50.667 87 76 143 76zM686.001 -452c-13.333 -2.66699 -37.167 11.332 -71.5 41.999s-49.5 52 -45.5 64c-1.33301 8.66699 17.167 28.334 55.5 59.001s59.5 44.667 63.5 42c5.33301 1.33301 23.5 -13.334 54.5 -44.001s46.5 -49.667 46.5 -57
c1.33301 -6.66699 -12 -26.667 -40 -60s-49 -48.666 -63 -45.999zM696 -194.001c-2.66699 0 -18.6641 -13.998 -47.9971 -41.998s-49.333 -40.667 -60 -38c-12.667 1.33301 -34.334 19.166 -65.001 53.499s-44.667 57.5 -42 69.5c3.33301 8 25 25 65 51s62.333 38.333 67 37
c12 -16.667 33 -41.334 63 -74.001c65.333 49.333 105.666 75.333 120.999 78c2.66699 0 17.667 -17.333 45 -52s41.666 -56.334 42.999 -65.001c1.33301 -10.667 -15 -31 -49 -61s-56 -43.667 -66 -41c-8 2.66699 -22.333 17.334 -43 44.001z" />
    <glyph glyph-name="uniFB7D" unicode="&#x686;" horiz-adv-x="1179" arabic-form="medial" 
d="M-49 162h136.999c242 0 414 48.333 516 145c-151.333 68.667 -266.666 105.667 -345.999 111c-35.333 2.66699 -83.666 -31 -144.999 -101c5.33301 49.333 25.666 101.333 60.999 156c45.333 66.667 95.333 100 150 100c38 0 96 -15 174 -45l190 -77
c42.667 -15.333 102 -25 178 -29c97.333 -5.33301 161 -10.666 191 -15.999c-12.667 -24.667 -29 -63 -49 -115c-8.66699 -19.333 -19.667 -33 -33 -41c-23.333 4 -50 6 -80 6c-69.333 0 -130.666 -14.333 -183.999 -43c47.333 -34 106 -51 176 -51h342v-162h-395
c-78 0 -125.333 19 -142 57l-20 125c-68.667 -36.667 -177.334 -82.334 -326.001 -137.001c-152.667 -35.333 -251 -50.333 -295 -45h-100v162zM507.999 -526c-13.333 -2.66699 -37.166 11.332 -71.499 41.999s-48.833 52.334 -43.5 65.001
c-1.33301 8 17.167 27.333 55.5 58s59.5 44.667 63.5 42c5.33301 1.33301 23.5 -13.334 54.5 -44.001s46.5 -49.334 46.5 -56.001c1.33301 -7.33301 -12.334 -27.666 -41.001 -60.999s-50 -48.666 -64 -45.999zM517.999 -237.001
c-1.33301 0 -16.6689 -14.3359 -46.002 -43.0029s-50 -41.667 -62 -39c-11.333 1.33301 -32.666 19 -63.999 53s-45 57.333 -41 70c2.66699 6.66699 23.834 23.334 63.501 50.001s61.5 39.334 65.5 38.001c12.667 -16.667 34.667 -41.334 66 -74.001
c57.333 46.667 97 73.334 119 80.001c4 0 19.333 -17.333 46 -52s41.334 -57 44.001 -67c1.33301 -10.667 -15.167 -31 -49.5 -61s-56.833 -43 -67.5 -39c-6.66699 2.66699 -20.334 17.334 -41.001 44.001s-31.667 40 -33 40z" />
    <glyph glyph-name="uniFB8B" unicode="&#x698;" horiz-adv-x="1011" arabic-form="final" 
d="M1061 162l0.000976562 -166.001c16.667 2.66699 -15 4 -95 4s-151.333 7.66699 -214 23c8 -94 -4.33301 -167.667 -37 -221c-53.333 -87.333 -117 -163 -191 -227c-100.667 -89.333 -204.334 -139.333 -311.001 -150c-50.667 8 -97 19 -139 33
c-100.667 30 -169.667 68 -207 114c56 -36.667 117.333 -53.667 184 -51c27.333 1.33301 74.666 13 141.999 35c84.667 28.667 160.334 65 227.001 109c75.333 47.333 143 101 203 161c65.333 64.667 100 115.334 104 152.001c4 28 -26.667 82 -92 162s-98 124 -98 132
c8 52 17.333 108 28 168c93.333 -138 161.833 -219.167 205.5 -243.5s140.5 -35.833 290.5 -34.5zM615.001 824.999c1.33301 -6.66699 -10.6689 -28 -36.002 -64s-40.666 -54 -45.999 -54c-5.33301 -3.33301 -29.166 7 -71.499 31s-63.5 40 -63.5 48
c-5.33301 10 6 33.333 34 70s48.667 55 62 55c12 6 35.167 -5.33301 69.5 -34s51.5 -46 51.5 -52zM737.999 671.999c0 -10 -10.3311 -33.998 -30.998 -71.998s-33 -57 -37 -57c-14.667 0 -59 18.333 -133 55c-12 -24.667 -28.333 -52 -49 -82
c-2.66699 -2.66699 -26.167 5.5 -70.5 24.5s-67.833 32.167 -70.5 39.5c-6 10.667 3.33301 35.5 28 74.5s41.667 60.5 51 64.5c12.667 5.33301 35.667 -3.66699 69 -27s50.666 -35 51.999 -35s10.166 15.167 26.499 45.5s27.5 47.5 33.5 51.5
c9.33301 5.33301 33.5 -4.33398 72.5 -29.001s58.5 -42.334 58.5 -53.001z" />
    <glyph glyph-name="uniFB8F" unicode="&#x6a9;" horiz-adv-x="2150" arabic-form="final" 
d="M508 0c-159.333 -5.33301 -278.33 26.668 -356.997 96.001c-75.333 66 -113 144.667 -113 236c0 34 11 88 33 162c31.333 113.333 76.333 191 135 233c-10.667 -39.333 -32 -91.333 -64 -156c-22.667 -50 -34.667 -91.667 -36 -125c-4.66699 -90 39 -162.667 131 -218
c63.333 -38.667 152.666 -61.334 267.999 -68.001h1253l20 37c3.33301 16.667 5 39.667 5 69l-78 60c-48.667 27.333 -118.167 42.666 -208.5 45.999s-241.166 11 -452.499 23c-220 16.667 -362.667 34.667 -428 54c-26 6.66699 -52 12.667 -78 18c-49.333 18 -74 39 -74 63
c4 24.667 12.333 50 25 76c30 58.667 79 112 147 160c64 45.333 139 83.666 225 114.999c97.333 35.333 185.666 53 264.999 53c57.333 0 86 -16.333 86 -49c0 -19.333 -12.333 -50.666 -37 -93.999c-28.667 -50.667 -56.667 -81 -84 -91c14.667 11.333 22 29.333 22 54
c-47.333 22.667 -73.666 34 -78.999 34c-60.667 0 -140.667 -15 -240 -45c-109.333 -32.667 -181 -67.334 -215 -104.001c31.333 -36.667 92.666 -60 183.999 -70c54.667 -6.66699 175.667 -19.667 363 -39c60 -5.33301 150.667 -8.66602 272 -9.99902
c117.333 -1.33301 196.666 -4 237.999 -8c135.333 -14 214.666 -69.333 237.999 -166c60 -99.333 120 -158.666 180 -177.999c18 -5.33301 66.667 -7.33301 146 -6v-162h-80c-75.333 0 -119 2.66699 -131 8c-50 11.333 -98 55 -144 131c-12 -22.667 -23 -39.667 -33 -51
c-53.333 -58.667 -86.333 -88 -99 -88h-1205z" />
    <glyph glyph-name="uniFB90" unicode="&#x6a9;" horiz-adv-x="1597" arabic-form="initial" 
d="M716 934c57.333 0 86.001 -16.332 86.001 -48.999c0 -19.333 -12.333 -50.666 -37 -93.999c-28.667 -50.667 -56.667 -81 -84 -91c14.667 11.333 22 29.333 22 54c-47.333 22.667 -73.666 34 -78.999 34c-60.667 0 -140.667 -15 -240 -45
c-109.333 -32.667 -181 -67.334 -215 -104.001c31.333 -36.667 92.666 -60 183.999 -70c54.667 -6.66699 175.667 -19.667 363 -39c60 -5.33301 150.667 -8.66602 272 -9.99902c117.333 -1.33301 196.666 -4 237.999 -8c163.333 -16.667 245 -93.667 245 -231
c0 -76.667 -23 -141 -69 -193c-53.333 -58.667 -86.333 -88 -99 -88h-1341v160h1382c19.333 0 29 35.333 29 106l-78 60c-48.667 27.333 -118.167 42.666 -208.5 45.999s-241.166 11 -452.499 23c-220 16.667 -362.667 34.667 -428 54c-26 6.66699 -52 12.667 -78 18
c-49.333 18 -74 39 -74 63c4 24.667 12.333 50 25 76c30 58.667 79 112 147 160c64 45.333 139 83.666 225 114.999c97.333 35.333 185.666 53 264.999 53z" />
    <glyph glyph-name="uniFB91" unicode="&#x6a9;" horiz-adv-x="1740" arabic-form="medial" 
d="M1368 197c3.33301 16.667 5.00195 39.667 5.00195 69l-78 60c-48.667 27.333 -118.167 42.666 -208.5 45.999s-241.166 11 -452.499 23c-220 16.667 -362.667 34.667 -428 54c-26 6.66699 -52 12.667 -78 18c-49.333 18 -74 39 -74 63c4 24.667 12.333 50 25 76
c30 58.667 79 112 147 160c64 45.333 139 83.666 225 114.999c97.333 35.333 185.666 53 264.999 53c57.333 0 86 -16.333 86 -49c0 -19.333 -12.333 -50.666 -37 -93.999c-28.667 -50.667 -56.667 -81 -84 -91c14.667 11.333 22 29.333 22 54
c-47.333 22.667 -73.666 34 -78.999 34c-60.667 0 -140.667 -15 -240 -45c-109.333 -32.667 -181 -67.334 -215 -104.001c31.333 -36.667 92.666 -60 183.999 -70c54.667 -6.66699 175.667 -19.667 363 -39c60 -5.33301 150.667 -8.66602 272 -9.99902
c117.333 -1.33301 196.666 -4 237.999 -8c135.333 -14 214.666 -69.333 237.999 -166c60 -99.333 120 -158.666 180 -177.999c18 -5.33301 66.667 -7.33301 146 -6v-162h-80c-75.333 0 -119 2.66699 -131 8c-50 11.333 -98 55 -144 131c-12 -22.667 -23 -39.667 -33 -51
c-53.333 -58.667 -86.333 -88 -99 -88h-1341v160h1386z" />
    <glyph glyph-name="uniFB93" unicode="&#x6af;" horiz-adv-x="2150" arabic-form="final" 
d="M508 0c-159.333 -5.33301 -278.33 26.668 -356.997 96.001c-75.333 66 -113 144.667 -113 236c0 34 11 88 33 162c31.333 113.333 76.333 191 135 233c-10.667 -39.333 -32 -91.333 -64 -156c-22.667 -50 -34.667 -91.667 -36 -125c-4.66699 -90 39 -162.667 131 -218
c63.333 -38.667 152.666 -61.334 267.999 -68.001h1253l20 37c3.33301 16.667 5 39.667 5 69l-78 60c-48.667 27.333 -118.167 42.666 -208.5 45.999s-241.166 11 -452.499 23c-220 16.667 -362.667 34.667 -428 54c-26 6.66699 -52 12.667 -78 18c-49.333 18 -74 39 -74 63
c4 24.667 12.333 50 25 76c30 58.667 79 112 147 160c64 45.333 139 83.666 225 114.999c97.333 35.333 185.666 53 264.999 53c57.333 0 86 -16.333 86 -49c0 -19.333 -12.333 -50.666 -37 -93.999c-28.667 -50.667 -56.667 -81 -84 -91c14.667 11.333 22 29.333 22 54
c-47.333 22.667 -73.666 34 -78.999 34c-60.667 0 -140.667 -15 -240 -45c-109.333 -32.667 -181 -67.334 -215 -104.001c31.333 -36.667 92.666 -60 183.999 -70c54.667 -6.66699 175.667 -19.667 363 -39c60 -5.33301 150.667 -8.66602 272 -9.99902
c117.333 -1.33301 196.666 -4 237.999 -8c135.333 -14 214.666 -69.333 237.999 -166c60 -99.333 120 -158.666 180 -177.999c18 -5.33301 66.667 -7.33301 146 -6v-162h-80c-75.333 0 -119 2.66699 -131 8c-50 11.333 -98 55 -144 131c-12 -22.667 -23 -39.667 -33 -51
c-53.333 -58.667 -86.333 -88 -99 -88h-1205zM1185 1107c64 0 96.001 -18 96.001 -54c0 -19.333 -13.167 -46.666 -39.5 -81.999s-39.5 -31.666 -39.5 11.001c-2 28 -24.667 37.667 -68 29c-60 0 -139 -14.667 -237 -44c-108 -32.667 -202.667 -74.334 -284 -125.001
l-38 -23c5.33301 29.333 42.666 68.666 111.999 117.999c65.333 46 141.333 84.667 228 116c98.667 36 188.667 54 270 54z" />
    <glyph glyph-name="uniFB94" unicode="&#x6af;" horiz-adv-x="1597" arabic-form="initial" 
d="M775 1107c64 0 96.001 -18 96.001 -54c0 -19.333 -13.167 -46.666 -39.5 -81.999s-39.5 -31.666 -39.5 11.001c-2 28 -24.667 37.667 -68 29c-60 0 -139 -14.667 -237 -44c-108 -32.667 -202.667 -74.334 -284 -125.001l-38 -23
c5.33301 29.333 42.666 68.666 111.999 117.999c65.333 46 141.333 84.667 228 116c98.667 36 188.667 54 270 54zM451.001 881c-86 -31.333 -161.001 -69.667 -225.001 -115c-68 -48 -117 -101.333 -147 -160c-12.667 -26 -21 -51.333 -25 -76c0 -24 24.667 -45 74 -63
c26 -5.33301 52 -11.333 78 -18c65.333 -19.333 208 -37.333 428 -54c211.333 -12 362.166 -19.667 452.499 -23s159.833 -18.666 208.5 -45.999l78 -60c0 -70.667 -9.66699 -106 -29 -106h-1382v-160h1341c12.667 0 45.667 29.333 99 88c46 52 69 116.333 69 193
c0 137.333 -81.667 214.333 -245 231c-41.333 4 -120.666 6.66699 -237.999 8c-121.333 1.33301 -212 4.66602 -272 9.99902c-187.333 19.333 -308.333 32.333 -363 39c-91.333 10 -152.666 33.333 -183.999 70c34 36.667 105.667 71.334 215 104.001
c99.333 30 179.333 45 240 45c5.33301 0 31.666 -11.333 78.999 -34c0 -24.667 -7.33301 -42.667 -22 -54c27.333 10 55.333 40.333 84 91c24.667 43.333 37 74.666 37 93.999c0 32.667 -28.667 49 -86 49c-79.333 0 -167.666 -17.667 -264.999 -53z" />
    <glyph glyph-name="uniFB95" unicode="&#x6af;" horiz-adv-x="1740" arabic-form="medial" 
d="M1368 197c3.33301 16.667 5.00195 39.667 5.00195 69l-78 60c-48.667 27.333 -118.167 42.666 -208.5 45.999s-241.166 11 -452.499 23c-220 16.667 -362.667 34.667 -428 54c-26 6.66699 -52 12.667 -78 18c-49.333 18 -74 39 -74 63c4 24.667 12.333 50 25 76
c30 58.667 79 112 147 160c64 45.333 139 83.666 225 114.999c97.333 35.333 185.666 53 264.999 53c57.333 0 86 -16.333 86 -49c0 -19.333 -12.333 -50.666 -37 -93.999c-28.667 -50.667 -56.667 -81 -84 -91c14.667 11.333 22 29.333 22 54
c-47.333 22.667 -73.666 34 -78.999 34c-60.667 0 -140.667 -15 -240 -45c-109.333 -32.667 -181 -67.334 -215 -104.001c31.333 -36.667 92.666 -60 183.999 -70c54.667 -6.66699 175.667 -19.667 363 -39c60 -5.33301 150.667 -8.66602 272 -9.99902
c117.333 -1.33301 196.666 -4 237.999 -8c135.333 -14 214.666 -69.333 237.999 -166c60 -99.333 120 -158.666 180 -177.999c18 -5.33301 66.667 -7.33301 146 -6v-162h-80c-75.333 0 -119 2.66699 -131 8c-50 11.333 -98 55 -144 131c-12 -22.667 -23 -39.667 -33 -51
c-53.333 -58.667 -86.333 -88 -99 -88h-1341v160h1386zM775.002 1107c64 0 96.001 -18 96.001 -54c0 -19.333 -13.167 -46.666 -39.5 -81.999s-39.5 -31.666 -39.5 11.001c-2 28 -24.667 37.667 -68 29c-60 0 -139 -14.667 -237 -44
c-108 -32.667 -202.667 -74.334 -284 -125.001l-38 -23c5.33301 29.333 42.666 68.666 111.999 117.999c65.333 46 141.333 84.667 228 116c98.667 36 188.667 54 270 54z" />
    <glyph glyph-name="uniFBA5" unicode="&#x6c0;" horiz-adv-x="894" arabic-form="final" 
d="M827 162h116.002v-162h-159c-105.333 -0 -182 10.333 -230 31c-34 14.667 -62 41.334 -84 80.001c-30 50 -53 83.333 -69 100l-45 -107c-34.667 -54 -93.334 -81 -176.001 -81c-101.333 0 -152 16.333 -152 49c0 76 28 146.333 84 211
c35.333 40.667 88.666 83.667 159.999 129c56 35.333 84 57.666 84 66.999c-19.333 67.333 -29 113.666 -29 138.999c0 37.333 17 90 51 158c14 -233.333 40.667 -385.666 80 -456.999c58.667 -104.667 181.667 -157 369 -157zM364.002 385
c-16.667 -20.667 -53.667 -51.333 -111 -92l-119 -88v-23h148l68 35c17.333 12.667 26 34 26 64c0 47.333 -4 82 -12 104zM252.002 1157c22.667 0 42.498 -6.49707 59.498 -19.4971s25.5 -28.833 25.5 -47.5c0 -6.66699 -9.83301 -18.834 -29.5 -36.501
s-34.5 -26.5 -44.5 -26.5l-11 30c-5.33301 16.667 -30.333 25 -75 25c-13.333 0 -20 -3 -20 -9c0 -28 18.667 -49.667 56 -65c26 -11.333 52 -17 78 -17c10 0 19.333 0.666992 28 2h18c6.66699 0 16.667 2.33301 30 7s21 7 23 7c3.33301 0 5 -1 5 -3
c0 -7.33301 -6.33301 -20 -19 -38c-17.333 -25.333 -29.666 -40 -36.999 -44c-12.667 -6.66699 -38.667 -10.667 -78 -12c-34 -0.666992 -65 -13.334 -93 -38.001l-46 -43c12 44.667 26.333 77.667 43 99c0 -2 -14 4.5 -42 19.5s-42 39.833 -42 74.5
c0 7.33301 12.333 26.666 37 57.999c40.667 51.333 85.334 77 134.001 77z" />
    <glyph glyph-name="uniFBFD" unicode="&#x6cc;" horiz-adv-x="1126" arabic-form="final" 
d="M243 121l21 -21.001c-78 -107.333 -117 -192.333 -117 -255c0 -75.333 28.667 -137.666 86 -186.999c64 -54 153.667 -81 269 -81c134.667 0 280.667 47.667 438 143v12l-211 53c-57.333 18 -86 48.333 -86 91c0 69.333 45 135 135 197s193.667 93 311 93
c10 0 23.5 -0.666992 40.5 -2s29.5 -2 37.5 -2v-162c-98 0 -165 -3.33301 -201 -10c-44.667 -6.66699 -99.667 -25.667 -165 -57v-12l196 -50c49.333 -16 74 -43.667 74 -83c0 -98.667 -82 -186.334 -246 -263.001c-142 -65.333 -273 -98 -393 -98
c-121.333 0 -214.833 29.333 -280.5 88s-98.5 139.334 -98.5 242.001c0 61.333 11.667 117.333 35 168c22 46 63 104.333 123 175c8 10 18.667 17 32 21z" />
    <glyph glyph-name="uniFBFE" unicode="&#x6cc;" horiz-adv-x="516" arabic-form="initial" 
d="M324 225c0 -83.333 -16.5 -141.667 -49.5 -175s-92.5 -50 -178.5 -50h-145v162h307c-1.33301 34 -14 69.833 -38 107.5s-36 65.167 -36 82.5c0 28.667 15.333 80.667 46 156c18.667 -24.667 39 -67 61 -127c22 -64 33 -116 33 -156zM283 -96.001
c9.33301 5.33301 33.501 -3.83301 72.501 -27.5s58.5 -41.167 58.5 -52.5c0 -9.33301 -10.333 -33.5 -31 -72.5s-33 -58.5 -37 -58.5c-20 0 -64.333 19.333 -133 58c-12 -26 -28.333 -54 -49 -84c-2.66699 -2.66699 -26.167 5.5 -70.5 24.5s-67.833 31.833 -70.5 38.5
c-6 11.333 3 36.333 27 75s41.667 60 53 64c12 4.66699 34.667 -4.33301 68 -27s50.666 -34 51.999 -34s10.333 15 27 45s27.667 47 33 51z" />
    <glyph glyph-name="uniFBFF" unicode="&#x6cc;" horiz-adv-x="733" arabic-form="medial" 
d="M782 0h-128.999c-46 0 -89.833 12.667 -131.5 38s-70.834 58.333 -87.501 99l-57 -61c-31.333 -26 -72.333 -46 -123 -60c-65.333 -16 -150 -21.333 -254 -16h-49v162h82c80.667 0 128.334 0.666992 143.001 2c42.667 4 100 16.333 172 37c56 16 94.667 56.167 116 120.5
s51.666 103.833 90.999 118.5l-41 -159c-1.33301 -28.667 18 -54.667 58 -78c43.333 -27.333 98.333 -41 165 -41h45v-162zM475.001 -102c10 4 33.9961 -5.83301 71.9961 -29.5s57 -41.167 57 -52.5c0 -9.33301 -9.83301 -33.5 -29.5 -72.5s-31.5 -58.5 -35.5 -58.5
c-20.667 0 -65 19 -133 57c-12.667 -25.333 -29 -53.333 -49 -84c-4.66699 -2.66699 -28.834 5.66602 -72.501 24.999s-67.5 32.333 -71.5 39c-5.33301 10.667 4.33398 35.834 29.001 75.501s42.334 61.5 53.001 65.5s32.834 -5.16699 66.501 -27.5
s51.834 -33.5 54.501 -33.5c1.33301 0 9.83301 15 25.5 45s26.834 47 33.501 51z" />
    <glyph glyph-name="uniFE82" unicode="&#x622;" horiz-adv-x="491" arabic-form="final" 
d="M158 309c24.667 -70.667 65.668 -117 123.001 -139c14.667 -5.33301 101.334 -8 260.001 -8v-162h-195c-80.667 0 -141.334 26 -182.001 78c-46.667 58.667 -75.334 155.667 -86.001 291c-8 198 -21.667 430.667 -41 698c8 22 32.667 72 74 150
c16 -97.333 22.667 -224.333 20 -381c-2.66699 -196.667 -2 -324 2 -382s12.333 -106.333 25 -145zM-31.999 1396c-36.667 -1.33301 -61.3301 -3.33301 -73.9971 -6c-28 -4.66699 -50.667 -15.334 -68 -32.001c-8.66699 -5.33301 -22.334 -21.166 -41.001 -47.499
s-25.334 -43.5 -20.001 -51.5c4 -2 21.5 2.66699 52.5 14s50.833 20 59.5 26c4 2.66699 23.667 2.66699 59 0c46.667 -2.66699 73 -4 79 -4c77.333 0 125.333 1.33301 144 4c76 6.66699 131.667 25.667 167 57l73 93c-6.66699 -1.33301 -19.334 -7 -38.001 -17
c-34.667 -30 -100 -45 -196 -45c-30 0 -67.833 1.5 -113.5 4.5s-73.5 4.5 -83.5 4.5z" />
    <glyph glyph-name="uniFE84" unicode="&#x623;" horiz-adv-x="491" arabic-form="final" 
d="M157 309c24.667 -70.667 65.668 -117 123.001 -139c14.667 -5.33301 101.334 -8 260.001 -8v-162h-195c-80.667 0 -141.334 26 -182.001 78c-46.667 58.667 -75.334 155.667 -86.001 291c-8 198 -21.667 430.667 -41 698c8 22 32.667 72 74 150
c16 -97.333 22.667 -224.333 20 -381c-2.66699 -196.667 -2 -324 2 -382s12.333 -106.333 25 -145zM98.001 1559c22.667 0 42.499 -6.49707 59.499 -19.4971s25.5 -28.833 25.5 -47.5c0 -6.66699 -9.83301 -18.834 -29.5 -36.501s-34.5 -26.5 -44.5 -26.5l-11 30
c-5.33301 16.667 -30.333 25 -75 25c-13.333 0 -20 -3 -20 -9c0 -28 18.667 -49.667 56 -65c26 -11.333 52 -17 78 -17c10 0 19.333 0.666992 28 2h18c6.66699 0 16.667 2.33301 30 7s21 7 23 7c3.33301 0 5 -1 5 -3c0 -7.33301 -6.33301 -20 -19 -38
c-17.333 -25.333 -29.666 -40 -36.999 -44c-12.667 -6.66699 -38.667 -10.667 -78 -12c-34 -0.666992 -65 -13.334 -93 -38.001l-46 -43c12 44.667 26.333 77.667 43 99c0 -2 -14 4.5 -42 19.5s-42 39.833 -42 74.5c0 7.33301 12.667 26.666 38 57.999
c40 51.333 84.333 77 133 77z" />
    <glyph glyph-name="uniFE86" unicode="&#x624;" horiz-adv-x="753" arabic-form="final" 
d="M803 0h-253.999c0 -24 -16.333 -69.667 -49 -137c-40 -79.333 -84.333 -144.666 -133 -195.999c-67.333 -67.333 -135 -101 -203 -101c-140 0 -239.667 -2 -299 -6c109.333 40 205 81 287 123c195.333 104 305.666 209.667 330.999 317
c-114.667 0 -194.334 6 -239.001 18c-83.333 22 -125 68 -125 138c46.667 214 114.334 321 203.001 321c47.333 0 98 -34.833 152 -104.5s81 -139.834 81 -210.501h248v-162zM187.001 272c6.66699 -36.667 27.001 -63.001 61.001 -79.001c19.333 -10 53.333 -18.333 102 -25
c19.333 -2.66699 48.666 -2.66699 87.999 0c-28.667 42 -49 70 -61 84c-26 23.333 -60 40.333 -102 51c-30 6.66699 -59.333 -3.66602 -88 -30.999zM160.002 902.999c22.667 0 42.498 -6.49707 59.498 -19.4971s25.5 -28.833 25.5 -47.5
c0 -6.66699 -9.83301 -18.834 -29.5 -36.501s-34.5 -26.5 -44.5 -26.5l-11 30c-5.33301 16.667 -30.333 25 -75 25c-13.333 0 -20 -3 -20 -9c0 -28 18.667 -49.667 56 -65c26 -11.333 52 -17 78 -17c10 0 19.333 0.666992 28 2h18c6.66699 0 16.667 2.33301 30 7s21 7 23 7
c3.33301 0 5 -1 5 -3c0 -7.33301 -6.33301 -20 -19 -38c-17.333 -25.333 -29.666 -40 -36.999 -44c-12.667 -6.66699 -38.667 -10.667 -78 -12c-34 -0.666992 -65 -13.334 -93 -38.001l-46 -43c12 44.667 26.333 77.667 43 99c0 -2 -14 4.5 -42 19.5s-42 39.833 -42 74.5
c0 7.33301 12.333 26.666 37 57.999c40.667 51.333 85.334 77 134.001 77z" />
    <glyph glyph-name="uniFE88" unicode="&#x625;" horiz-adv-x="491" arabic-form="final" 
d="M157 309c24.667 -70.667 65.668 -117 123.001 -139c14.667 -5.33301 101.334 -8 260.001 -8v-162h-195c-80.667 0 -141.334 26 -182.001 78c-46.667 58.667 -75.334 155.667 -86.001 291c-8 198 -21.667 430.667 -41 698c8 22 32.667 72 74 150
c16 -97.333 22.667 -224.333 20 -381c-2.66699 -196.667 -2 -324 2 -382s12.333 -106.333 25 -145zM160.001 -31c22.667 0 42.498 -6.33301 59.498 -19s25.5 -28.667 25.5 -48c0 -6 -9.83301 -18 -29.5 -36s-34.5 -27 -44.5 -27l-11 30c-5.33301 16.667 -30.333 25 -75 25
c-13.333 0 -20 -3 -20 -9c0 -27.333 18.667 -48.666 56 -63.999c26 -11.333 52 -17 78 -17c10 0 19.333 0.333008 28 1h18c6.66699 0 16.667 2.33301 30 7s21 7 23 7c3.33301 0 5 -1 5 -3c0 -7.33301 -6.33301 -20 -19 -38c-17.333 -24.667 -29.666 -39 -36.999 -43
c-12.667 -7.33301 -38.667 -11.333 -78 -12c-34 -1.33301 -65 -14 -93 -38l-46 -44c12 45.333 26.333 78.666 43 99.999c0 -2 -14 4.5 -42 19.5s-42 39.5 -42 73.5c0 7.33301 12.333 27 37 59c40.667 50.667 85.334 76 134.001 76z" />
    <glyph glyph-name="uniFE8A" unicode="&#x626;" horiz-adv-x="1126" arabic-form="final" 
d="M243 121l21 -21.001c-78 -107.333 -117 -192.333 -117 -255c0 -75.333 28.667 -137.666 86 -186.999c64 -54 153.667 -81 269 -81c134.667 0 280.667 47.667 438 143v12l-211 53c-57.333 18 -86 48.333 -86 91c0 69.333 45 135 135 197s193.667 93 311 93
c10 0 23.5 -0.666992 40.5 -2s29.5 -2 37.5 -2v-162c-98 0 -165 -3.33301 -201 -10c-44.667 -6.66699 -99.667 -25.667 -165 -57v-12l196 -50c49.333 -16 74 -43.667 74 -83c0 -98.667 -82 -186.334 -246 -263.001c-142 -65.333 -273 -98 -393 -98
c-121.333 0 -214.833 29.333 -280.5 88s-98.5 139.334 -98.5 242.001c0 61.333 11.667 117.333 35 168c22 46 63 104.333 123 175c8 10 18.667 17 32 21zM282 726.999c30 0 55.667 -8.49902 77 -25.499s32 -38.5 32 -64.5c0 -8 -13 -24 -39 -48s-44.333 -36 -55 -36
c-4 0 -6.66699 3.33301 -8 10c-2 14 -4.33301 24.333 -7 31c-8 22 -39.333 33 -94 33c-16 0 -24 -4.33301 -24 -13c0 -36.667 23 -65.334 69 -86.001c32.667 -14.667 65.667 -22 99 -22c12 0 23.333 0.666992 34 2h25c8 0 20.5 3.33301 37.5 10s27.833 10 32.5 10
c2.66699 0 4 -1.33301 4 -4c0 -10.667 -8.33301 -28.334 -25 -53.001c-22 -32.667 -37.667 -51.667 -47 -57c-16.667 -10 -49.334 -15.667 -98.001 -17c-44 -1.33301 -83 -17.666 -117 -48.999l-57 -57c14.667 58.667 32.334 102.334 53.001 131.001
c0 -2.66699 -17 7 -51 29c-36 16 -54 48.667 -54 98c0 9.33301 15 34.666 45 75.999c50.667 68 106.667 102 168 102z" />
    <glyph glyph-name="uniFE8B" unicode="&#x626;" horiz-adv-x="516" arabic-form="initial" 
d="M217 1030c30 0 55.332 -8.50098 75.999 -25.501s31 -39.167 31 -66.5c0 -8 -12.667 -23.667 -38 -47s-43.333 -35 -54 -35l-15 41c-6.66699 22 -38 33 -94 33c-16.667 0 -25 -4 -25 -12c0 -37.333 23.333 -66.333 70 -87c32.667 -14.667 65.334 -22 98.001 -22
c12.667 0 24.334 0.666992 35.001 2h23c8 0 20.5 3 37.5 9s27.5 9 31.5 9c2.66699 0 4 -1.33301 4 -4c0 -9.33301 -8 -26.333 -24 -51c-22 -32.667 -37.667 -51.667 -47 -57c-16.667 -10 -47.834 -15.667 -93.501 -17s-86.167 -18.333 -121.5 -51l-58 -57
c15.333 60 34 104.333 56 133c0 -2.66699 -17.833 5.83301 -53.5 25.5s-53.5 52.834 -53.5 99.501c0 8 15.667 33.333 47 76c52 69.333 108 104 168 104zM323.999 224.999c0 -83.333 -16.5 -141.667 -49.5 -175s-92.5 -50 -178.5 -50h-145v162h307
c-1.33301 34 -14 69.833 -38 107.5s-36 65.167 -36 82.5c0 28.667 15.333 80.667 46 156c18.667 -24.667 39 -67 61 -127c22 -64 33 -116 33 -156z" />
    <glyph glyph-name="uniFE8C" unicode="&#x626;" horiz-adv-x="733" arabic-form="medial" 
d="M782 0h-128.999c-46 0 -89.833 12.667 -131.5 38s-70.834 58.333 -87.501 99l-57 -61c-31.333 -26 -72.333 -46 -123 -60c-65.333 -16 -150 -21.333 -254 -16h-49v162h82c80.667 0 128.334 0.666992 143.001 2c42.667 4 100 16.333 172 37c56 16 94.667 56.167 116 120.5
s51.666 103.833 90.999 118.5l-41 -159c-1.33301 -28.667 18 -54.667 58 -78c43.333 -27.333 98.333 -41 165 -41h45v-162zM453.001 942c30 0 55.498 -8.50098 76.498 -25.501s31.5 -39.167 31.5 -66.5c0 -8 -13 -24 -39 -48s-44.333 -36 -55 -36
c-2.66699 0 -5.66699 8.83301 -9 26.5s-13.166 30 -29.499 37s-39.5 10.5 -69.5 10.5c-16.667 0 -25 -4.33301 -25 -13c0 -34 20.333 -61.333 61 -82c33.333 -16 69 -24 107 -24c12 0 23.667 0.666992 35 2h24c8.66699 0 21.5 3 38.5 9s27.5 9 31.5 9
c2.66699 0 4 -1.33301 4 -4c0 -10.667 -8.33301 -27.667 -25 -51c-22.667 -32.667 -39 -51.667 -49 -57c-14.667 -10 -46.667 -15.667 -96 -17c-43.333 -1.33301 -82.333 -18.333 -117 -51l-57 -57c14.667 60 32.334 104.333 53.001 133c-12 5.33301 -29 14.333 -51 27
c-36.667 18.667 -55 51.334 -55 98.001c0 6.66699 15.667 32 47 76c50.667 69.333 106.667 104 168 104z" />
    <glyph glyph-name="uniFE8E" unicode="&#x627;" horiz-adv-x="491" arabic-form="final" 
d="M157 309c24.667 -70.667 65.668 -117 123.001 -139c14.667 -5.33301 101.334 -8 260.001 -8v-162h-195c-80.667 0 -141.334 26 -182.001 78c-46.667 58.667 -75.334 155.667 -86.001 291c-8 198 -21.667 430.667 -41 698c8 22 32.667 72 74 150
c16 -97.333 22.667 -224.333 20 -381c-2.66699 -196.667 -2 -324 2 -382s12.333 -106.333 25 -145z" />
    <glyph glyph-name="uniFE90" unicode="&#x628;" horiz-adv-x="1646" arabic-form="final" 
d="M125 410c-4 -161.333 159.669 -254.336 491.002 -279.003c114.667 -8 211 -10.667 289 -8c127.333 4 222.333 20.333 285 49c87.333 36.667 159 106.334 215 209.001c0 -5.33301 -1.33301 -20.666 -4 -45.999s-4 -39.333 -4 -42c0 -87.333 60 -131 180 -131h119v-162
h-183c-82 0 -145.333 42.333 -190 127l-57 -51c-42.667 -31.333 -100.334 -56.666 -173.001 -75.999c-100.667 -25.333 -231 -38 -391 -38c-151.333 0 -286.333 22.333 -405 67c-165.333 61.333 -248 153.333 -248 276c0 65.333 24.667 141 74 227
c43.333 75.333 80.666 120 111.999 134l-72 -132.5c-24 -44.333 -36.667 -85.5 -38 -123.5zM1347 -212.003c1.33301 -7.33301 -10.5 -28.999 -35.5 -64.999s-40.167 -54 -45.5 -54c-4.66699 -2.66699 -28.5 7.5 -71.5 30.5s-64.5 38.833 -64.5 47.5
c-5.33301 10.667 6 34.5 34 71.5s49 55.5 63 55.5c12 5.33301 35 -6.33398 69 -35.001s51 -45.667 51 -51z" />
    <glyph glyph-name="uniFE91" unicode="&#x628;" horiz-adv-x="516" arabic-form="initial" 
d="M324 225c0 -83.333 -16.5 -141.667 -49.5 -175s-92.5 -50 -178.5 -50h-145v162h307c-1.33301 34 -14 69.833 -38 107.5s-36 65.167 -36 82.5c0 28.667 15.333 80.667 46 156c18.667 -24.667 39 -67 61 -127c22 -64 33 -116 33 -156zM334 -194.001
c1.33301 -6.66699 -10.332 -29.166 -34.999 -67.499s-39.667 -57.5 -45 -57.5c-4 -2.66699 -27.5 7.66602 -70.5 30.999s-64.5 39 -64.5 47c-5.33301 10.667 5.66699 34.5 33 71.5s47.666 55.5 60.999 55.5c14 5.33301 37.667 -5 71 -31s50 -42.333 50 -49z" />
    <glyph glyph-name="uniFE92" unicode="&#x628;" horiz-adv-x="733" arabic-form="medial" 
d="M782 0h-128.999c-46 0 -89.833 12.667 -131.5 38s-70.834 58.333 -87.501 99l-57 -61c-31.333 -26 -72.333 -46 -123 -60c-65.333 -16 -150 -21.333 -254 -16h-49v162h82c80.667 0 128.334 0.666992 143.001 2c42.667 4 100 16.333 172 37c56 16 94.667 56.167 116 120.5
s51.666 103.833 90.999 118.5l-41 -159c-1.33301 -28.667 18 -54.667 58 -78c43.333 -27.333 98.333 -41 165 -41h45v-162zM555.001 -194c1.33301 -6.66699 -10.332 -27.832 -34.999 -63.499s-39.667 -53.5 -45 -53.5c-4 -2.66699 -27.5 7.66602 -70.5 30.999
s-64.5 39 -64.5 47c-5.33301 10.667 5.66699 34.167 33 70.5s47.666 54.5 60.999 54.5c14 5.33301 37.667 -6 71 -34s50 -45.333 50 -52z" />
    <glyph glyph-name="uniFE96" unicode="&#x62a;" horiz-adv-x="1646" arabic-form="final" 
d="M1323 911c17.333 -5.33301 71.3311 -26.332 161.998 -62.999c-22 -91.333 -51.333 -137 -88 -137c-7.33301 0 -29.666 8.83301 -66.999 26.5s-64.333 26.5 -81 26.5c-12 0 -26.167 -12.667 -42.5 -38s-30.833 -38 -43.5 -38c-36.667 11.333 -87 31.333 -151 60
c31.333 40.667 57 85.667 77 135c8.66699 -2.66699 38.667 -14.334 90 -35.001c32 -14 55.333 -21 70 -21c12.667 0 37.334 28 74.001 84zM124.998 410.001c-4 -161.333 159.669 -254.336 491.002 -279.003c114.667 -8 211 -10.667 289 -8c127.333 4 222.333 20.333 285 49
c87.333 36.667 159 106.334 215 209.001c0 -5.33301 -1.33301 -20.666 -4 -45.999s-4 -39.333 -4 -42c0 -87.333 60 -131 180 -131h119v-162h-183c-82 -0 -145.333 42.333 -190 127l-57 -51c-42.667 -31.333 -100.334 -56.666 -173.001 -75.999
c-100.667 -25.333 -231 -38 -391 -38c-151.333 0 -286.333 22.333 -405 67c-165.333 61.333 -248 153.333 -248 276c0 65.333 24.667 141 74 227c43.333 75.333 80.666 120 111.999 134l-72 -132.5c-24 -44.333 -36.667 -85.5 -38 -123.5z" />
    <glyph glyph-name="uniFE97" unicode="&#x62a;" horiz-adv-x="516" arabic-form="initial" 
d="M324 225c0 -83.333 -16.5 -141.667 -49.5 -175s-92.5 -50 -178.5 -50h-145v162h307c-1.33301 34 -14 69.833 -38 107.5s-36 65.167 -36 82.5c0 28.667 15.333 80.667 46 156c18.667 -24.667 39 -67 61 -127c22 -64 33 -116 33 -156zM254 855.999
c9.33301 4 33.166 -5.83203 71.499 -29.499s57.5 -41.167 57.5 -52.5c0 -9.33301 -9.83301 -33.5 -29.5 -72.5s-31.5 -58.5 -35.5 -58.5c-20.667 0 -65.334 19 -134.001 57c-12 -24 -28.333 -52 -49 -84c-4 -2.66699 -27.667 5.66602 -71 24.999s-67.333 32.333 -72 39
c-5.33301 10.667 5.33398 35.5 32.001 74.5s46 61.167 58 66.5c10.667 4 31.5 -5.16699 62.5 -27.5s47.833 -33.5 50.5 -33.5c1.33301 0 9.83301 15 25.5 45s26.834 47 33.501 51z" />
    <glyph glyph-name="uniFE98" unicode="&#x62a;" horiz-adv-x="733" arabic-form="medial" 
d="M782 0h-128.999c-46 0 -89.833 12.667 -131.5 38s-70.834 58.333 -87.501 99l-57 -61c-31.333 -26 -72.333 -46 -123 -60c-65.333 -16 -150 -21.333 -254 -16h-49v162h82c80.667 0 128.334 0.666992 143.001 2c42.667 4 100 16.333 172 37c56 16 94.667 56.167 116 120.5
s51.666 103.833 90.999 118.5l-41 -159c-1.33301 -28.667 18 -54.667 58 -78c43.333 -27.333 98.333 -41 165 -41h45v-162zM467.001 856c10.667 4 35.1699 -5.83301 73.5029 -29.5s57.5 -41.167 57.5 -52.5c0 -9.33301 -10.167 -33.5 -30.5 -72.5s-32.5 -58.5 -36.5 -58.5
c-20.667 0 -65.334 19 -134.001 57c-12 -24 -28.333 -52 -49 -84c-4 -2.66699 -27.833 5.66602 -71.5 24.999s-66.834 32.333 -69.501 39c-5.33301 10.667 3.83398 35.834 27.501 75.501s41.167 61.5 52.5 65.5c12 5.33301 34.833 -3.5 68.5 -26.5s51.167 -34.5 52.5 -34.5
s10.166 15 26.499 45s27.166 47 32.499 51z" />
    <glyph glyph-name="uniFE9A" unicode="&#x62b;" horiz-adv-x="1646" arabic-form="final" 
d="M1323 911c17.333 -5.33301 71.3311 -26.332 161.998 -62.999c-22 -91.333 -51.333 -137 -88 -137c-7.33301 0 -29.666 8.83301 -66.999 26.5s-64.333 26.5 -81 26.5c-12 0 -26.167 -12.667 -42.5 -38s-30.833 -38 -43.5 -38c-36.667 11.333 -87 31.333 -151 60
c31.333 40.667 57 85.667 77 135c8.66699 -2.66699 38.667 -14.334 90 -35.001c32 -14 55.333 -21 70 -21c12.667 0 37.334 28 74.001 84zM124.998 410.001c-4 -161.333 159.669 -254.336 491.002 -279.003c114.667 -8 211 -10.667 289 -8c127.333 4 222.333 20.333 285 49
c87.333 36.667 159 106.334 215 209.001c0 -5.33301 -1.33301 -20.666 -4 -45.999s-4 -39.333 -4 -42c0 -87.333 60 -131 180 -131h119v-162h-183c-82 -0 -145.333 42.333 -190 127l-57 -51c-42.667 -31.333 -100.334 -56.666 -173.001 -75.999
c-100.667 -25.333 -231 -38 -391 -38c-151.333 0 -286.333 22.333 -405 67c-165.333 61.333 -248 153.333 -248 276c0 65.333 24.667 141 74 227c43.333 75.333 80.666 120 111.999 134l-72 -132.5c-24 -44.333 -36.667 -85.5 -38 -123.5zM1317 984.998
c1.33301 -6.66699 -10.333 -27.832 -35 -63.499s-39.667 -53.5 -45 -53.5c-4 -2.66699 -27.5 7.66602 -70.5 30.999s-64.5 39 -64.5 47c-6 11.333 4.66699 35 32 71s48 54 62 54c13.333 5.33301 36.833 -6 70.5 -34s50.5 -45.333 50.5 -52z" />
    <glyph glyph-name="uniFE9B" unicode="&#x62b;" horiz-adv-x="516" arabic-form="initial" 
d="M324 225c0 -83.333 -16.5 -141.667 -49.5 -175s-92.5 -50 -178.5 -50h-145v162h307c-1.33301 34 -14 69.833 -38 107.5s-36 65.167 -36 82.5c0 28.667 15.333 80.667 46 156c18.667 -24.667 39 -67 61 -127c22 -64 33 -116 33 -156zM254 855.999
c9.33301 4 33.166 -5.83203 71.499 -29.499s57.5 -41.167 57.5 -52.5c0 -9.33301 -9.83301 -33.5 -29.5 -72.5s-31.5 -58.5 -35.5 -58.5c-20.667 0 -65.334 19 -134.001 57c-12 -24 -28.333 -52 -49 -84c-4 -2.66699 -27.667 5.66602 -71 24.999s-67.333 32.333 -72 39
c-5.33301 10.667 5.33398 35.5 32.001 74.5s46 61.167 58 66.5c10.667 4 31.5 -5.16699 62.5 -27.5s47.833 -33.5 50.5 -33.5c1.33301 0 9.83301 15 25.5 45s26.834 47 33.501 51zM260 926c1.33301 -7.33301 -10.166 -28.667 -34.499 -64s-39.5 -53 -45.5 -53
c-4 -2.66699 -27.5 7.5 -70.5 30.5s-64.5 38.833 -64.5 47.5c-5.33301 10.667 5.66699 34.167 33 70.5s47.666 54.5 60.999 54.5c14 5.33301 37.667 -6 71 -34s50 -45.333 50 -52z" />
    </font>
</defs>
</svg>
