<?xml version="1.0" standalone="no"?>
<!DOCTYPE svg PUBLIC "-//W3C//DTD SVG 1.1//EN" "http://www.w3.org/Graphics/SVG/1.1/DTD/svg11.dtd" >
<svg>
<metadata>
Created by FontForge 20090914 at Wed Oct 19 01:02:29 2011
 By www-data
(c) by Abolfazl Seilsepour - +98 912 591 3420  -  seilsepor@yahoo.com
</metadata>
<defs>
<font id="FarCompsetBold" horiz-adv-x="0" >
  <font-face 
    font-family="Far.Compset Bold"
    font-weight="700"
    font-stretch="normal"
    units-per-em="2048"
    panose-1="0 0 7 0 0 0 0 0 0 0"
    ascent="1638"
    descent="-410"
    bbox="-186 -1440 2200 2176"
    underline-thickness="100"
    underline-position="-950"
    unicode-range="U+0020-U+FEFC"
  />
<missing-glyph horiz-adv-x="1024" 
d="M128 0v1242h768v-1242h-768zM256 128h512v986h-512v-986z" />
    <glyph glyph-name="uE818" unicode="&#x651;&#x64b;" 
d="M427 1605c0 -42.667 -12.0029 -83.333 -36.0029 -122c-27.333 -44.667 -61 -67 -101 -67c-32.667 0 -58 17.333 -76 52c-29.333 -61.333 -67.666 -92 -114.999 -92c-31.333 0 -56 14.667 -74 44c-15.333 24.667 -23 54 -23 88c0 86.667 17.333 130 52 130
c8 0 15.667 -18.5 23 -55.5s24 -55.5 50 -55.5c26.667 0 47.334 22.167 62.001 66.5s29 66.5 43 66.5c6.66699 0 13.834 -16.667 21.501 -50s19.167 -50 34.5 -50c27.333 0 49.833 19.667 67.5 59s30.167 59 37.5 59c22.667 0 34 -24.333 34 -73zM437.997 1945l-24 -120
l-416 -128l16 118zM437.997 2160l-24 -120l-416 -128l16 118z" />
    <glyph glyph-name="uFC5E" unicode="&#x651;&#x64c;" arabic-form="isolated" 
d="M448 1589c0 -42.667 -12.0029 -83.333 -36.0029 -122c-27.333 -44.667 -61 -67 -101 -67c-32.667 0 -58 17.333 -76 52c-29.333 -61.333 -67.666 -92 -114.999 -92c-31.333 0 -56 14.667 -74 44c-15.333 24.667 -23 54 -23 88c0 86.667 17.333 130 52 130
c8 0 15.667 -18.5 23 -55.5s24 -55.5 50 -55.5c26.667 0 47.334 22.167 62.001 66.5s29 66.5 43 66.5c6.66699 0 13.834 -16.667 21.501 -50s19.167 -50 34.5 -50c27.333 0 49.833 19.667 67.5 59s30.167 59 37.5 59c22.667 0 34 -24.333 34 -73zM469.997 1859
c0 -30.667 -17.667 -73.667 -53 -129l-85 36c-23.333 -28.667 -57.333 -57.667 -102 -87c-57.333 -38 -108.333 -57 -153 -57c-10 0 -20.667 29.333 -32 88c6 1.33301 21 7.66602 45 18.999c2 16 3 30.667 3 44c0 45.333 -13 68 -39 68c-12 0 -24.333 -9.83301 -37 -29.5
s-21 -29.5 -25 -29.5c-18 0 -27 23.333 -27 70c0 25.333 11 52.166 33 80.499s45.333 42.5 70 42.5c28 0 51.333 -12.167 70 -36.5s28 -51.166 28 -80.499c0 -50.667 -3.33301 -85.667 -10 -105c44.667 25.333 75.667 50 93 74c-37.333 34.667 -56 76.334 -56 125.001
c0 46 13.333 91.667 40 137c30 51.333 66.667 77 110 77c68 0 102 -44.333 102 -133c0 -50.667 -12 -99.667 -36 -147c10 -9.33301 30.333 -18.333 61 -27zM339.997 1927c14.667 22.667 22 45 22 67c0 44.667 -15.333 67 -46 67c-24.667 0 -37 -20 -37 -60
c0 -12.667 7 -27.167 21 -43.5s27.333 -26.5 40 -30.5z" />
    <glyph glyph-name="uFC5F" unicode="&#x651;&#x64d;" arabic-form="isolated" 
d="M493 2103c0 -42.667 -12.0029 -83.333 -36.0029 -122c-27.333 -44.667 -61 -67 -101 -67c-32.667 0 -58 17.333 -76 52c-29.333 -61.333 -67.666 -92 -114.999 -92c-31.333 0 -56 14.667 -74 44c-15.333 24.667 -23 54 -23 88c0 86.667 17.333 130 52 130
c8 0 15.667 -18.5 23 -55.5s24 -55.5 50 -55.5c26.667 0 47.334 22.167 62.001 66.5s29 66.5 43 66.5c6.66699 0 13.834 -16.667 21.501 -50s19.167 -50 34.5 -50c27.333 0 49.833 19.667 67.5 59s30.167 59 37.5 59c22.667 0 34 -24.333 34 -73zM497.997 1647l-25 -121
l-416 -128l17 119zM497.997 1862l-25 -121l-416 -128l17 119z" />
    <glyph glyph-name="uFC60" unicode="&#x651;&#x64e;" arabic-form="isolated" 
d="M484 1551c0 -42.667 -12.0029 -83.333 -36.0029 -122c-27.333 -44.667 -61 -67 -101 -67c-32.667 0 -58 17.333 -76 52c-29.333 -61.333 -67.666 -92 -114.999 -92c-31.333 0 -56 14.667 -74 44c-15.333 24.667 -23 54 -23 88c0 86.667 17.333 130 52 130
c8 0 15.667 -18.5 23 -55.5s24 -55.5 50 -55.5c26.667 0 47.334 22.167 62.001 66.5s29 66.5 43 66.5c6.66699 0 13.834 -16.667 21.501 -50s19.167 -50 34.5 -50c27.333 0 49.833 19.667 67.5 59s30.167 59 37.5 59c22.667 0 34 -24.333 34 -73zM500.997 1918l-24 -120
l-416 -128l16 118z" />
    <glyph glyph-name="uFC61" unicode="&#x651;&#x64f;" arabic-form="isolated" 
d="M480 1570c0 -42.667 -12.0029 -83.333 -36.0029 -122c-27.333 -44.667 -61 -67 -101 -67c-32.667 0 -58 17.333 -76 52c-29.333 -61.333 -67.666 -92 -114.999 -92c-31.333 0 -56 14.667 -74 44c-15.333 24.667 -23 54 -23 88c0 86.667 17.333 130 52 130
c8 0 15.667 -18.5 23 -55.5s24 -55.5 50 -55.5c26.667 0 47.334 22.167 62.001 66.5s29 66.5 43 66.5c6.66699 0 13.834 -16.667 21.501 -50s19.167 -50 34.5 -50c27.333 0 49.833 19.667 67.5 59s30.167 59 37.5 59c22.667 0 34 -24.333 34 -73zM479.997 1869
c0 -30.667 -17.667 -73.668 -53 -129.001l-85 36c-23.333 -28.667 -57.333 -57.667 -102 -87c-57.333 -38 -108.333 -57 -153 -57c-10 0 -20.667 29.333 -32 88c98 26 166 65 204 117c-37.333 34.667 -56 76.334 -56 125.001c0 46 13.333 91.667 40 137
c30 51.333 66.667 77 110 77c68 0 102 -44.333 102 -133c0 -50.667 -12 -99.667 -36 -147c10 -9.33301 30.333 -18.333 61 -27zM349.997 1937c14.667 22.667 22 45 22 67c0 44.667 -15.333 67 -46 67c-24.667 0 -37 -20 -37 -60c0 -12.667 7 -27.167 21 -43.5
s27.333 -26.5 40 -30.5z" />
    <glyph glyph-name="uFC62" unicode="&#x651;&#x650;" arabic-form="isolated" 
d="M444 1888c0 -42.667 -12.0029 -83.333 -36.0029 -122c-27.333 -44.667 -61 -67 -101 -67c-32.667 0 -58 17.333 -76 52c-29.333 -61.333 -67.666 -92 -114.999 -92c-31.333 0 -56 14.667 -74 44c-15.333 24.667 -23 54 -23 88c0 86.667 17.333 130 52 130
c8 0 15.667 -18.5 23 -55.5s24 -55.5 50 -55.5c26.667 0 47.334 22.167 62.001 66.5s29 66.5 43 66.5c6.66699 0 13.834 -16.667 21.501 -50s19.167 -50 34.5 -50c27.333 0 49.833 19.667 67.5 59s30.167 59 37.5 59c22.667 0 34 -24.333 34 -73zM446.997 1643l-25 -121
l-416 -128l17 119z" />
    <glyph glyph-name="uFDF2" unicode="&#xfedf;&#xfee0;&#xfeea;" horiz-adv-x="1208" arabic-form="isolated" 
d="M754 1507c0 -98 -13.666 -146.999 -40.999 -146.999c-14.667 0 -25.334 15.333 -32.001 46c-10.667 47.333 -20.667 81.333 -30 102c-22.667 50 -48.667 97 -78 141c47.333 35.333 82.333 53 105 53c27.333 0 48 -27.333 62 -82c9.33301 -36.667 14 -74.334 14 -113.001z
M911.001 1262c0 -50 -11.667 -93.333 -35 -130c-27.333 -43.333 -64.666 -65 -111.999 -65c-24 0 -50 17.667 -78 53c-34 -57.333 -71.667 -86 -113 -86c-61.333 0 -92 44.667 -92 134c0 24.667 5 50.667 15 78c12.667 34 29 51 49 51c19.333 0 29 -7.66699 29 -23
c0 -6 -1.5 -15.333 -4.5 -28s-4.5 -22 -4.5 -28c0 -20 13.667 -30 41 -30c26.667 0 48.167 22.167 64.5 66.5s31.833 66.5 46.5 66.5c6 0 13.167 -19.167 21.5 -57.5s20.166 -57.5 35.499 -57.5c28.667 0 50.667 22 66 66s26 66 32 66c26 0 39 -25.333 39 -76zM1205 270.001
c0 -65.333 -10.334 -121.997 -31.001 -169.997c-28 -64.667 -70.333 -97 -127 -97c-66.667 0 -125 42.667 -175 128c-12 -89.333 -59 -134 -141 -134c-109.333 0 -185 77.333 -227 232c-27.333 -79.333 -46.666 -127 -57.999 -143c-27.333 -38.667 -71 -58 -131 -58
c-79.333 0 -119 45.333 -119 136c0 78 5 126.333 15 145c36 68 117 132 243 192l-11 99c46.667 29.333 76 44 88 44c4.66699 0 7.33398 -2 8.00098 -6c25.333 -169.333 42.666 -271 51.999 -305c24.667 -90 61.667 -135 111 -135c70.667 0 106 20.333 106 61
c0 7.33301 -1 14.666 -3 21.999c-34.667 125.333 -74.667 301 -120 527l84 111c15.333 20 25 19 29 -3c52 -290 84.667 -458.667 98 -506c38 -137.333 87.333 -206 148 -206c28.667 0 45.667 9.66699 51 29c2 7.33301 3 35.666 3 84.999c0 87.333 -32 266.666 -96 537.999
l92 102c8 8.66699 14.333 13 19 13c6.66699 0 11.667 -7 15 -21c51.333 -213.333 77 -440 77 -680zM502 237.004l-31 157c-109.333 -47.333 -164 -89.333 -164 -126c0 -26.667 30.333 -40 91 -40c27.333 0 62 3 104 9z" />
    <glyph glyph-name="uFEF5" unicode="&#xfedf;&#xfe82;" horiz-adv-x="1188" arabic-form="isolated" 
d="M1175 1125c8.66699 -12 8.33203 -22.668 -1.00098 -32.001c-26 -26 -39 -58 -39 -96c0 -130 -3 -223 -9 -279c-15.333 -144 -50 -267.333 -104 -370c10.667 -25.333 23 -64.666 37 -117.999c16 -61.333 24 -105 24 -131c0 -132 -47.667 -202 -143 -210
c-149.333 -12 -240 -6.33301 -272 17v164c0 20 10 32.667 30 38c44.667 12.667 96 50.667 154 114c54 59.333 81 99.333 81 120c0 28 -43 98.667 -129 212c-96 126.667 -186.667 220 -272 280c-28 -47.333 -45.333 -71 -52 -71c-2.66699 0 -5 1 -7 3l-190 178
c-1.33301 2 -2 4.66699 -2 8c0 18.667 9 58.334 27 119.001c16 54 30.333 96.333 43 127c8 14 17 21 27 21c8 0 17.667 -4.66699 29 -14c110.667 -91.333 225.334 -218.333 344.001 -381c110 -150 188 -281.333 234 -394c40 107.333 60 220.666 60 339.999
c0 109.333 -16.667 219.333 -50 330c-13.333 44 -10.333 77 9 99l49 56c10 11.333 20 10.333 30 -3zM1007 108.999c0 59.333 -11.334 110.332 -34.001 152.999c-57.333 -84 -106.666 -138.333 -147.999 -163c28 -5.33301 63.667 -7.66602 107 -6.99902
c50 1.33301 75 7 75 17zM818.997 1440c0 -28.667 -50.666 -51.334 -151.999 -68.001c-88.667 -14.667 -193 -22 -313 -22c-74.667 0 -117.667 -19.333 -129 -58c-4 -13.333 -8.66699 -20 -14 -20c-23.333 0 -43.833 10.667 -61.5 32s-26.5 44 -26.5 68
c0 87.333 44.333 131 133 131c46.667 0 116 -7.16699 208 -21.5s161.333 -21.5 208 -21.5c76.667 0 117 0.333008 121 1c-2.66699 0.666992 -11.334 1.33398 -26.001 2.00098c34.667 -1.33301 52 -9 52 -23z" />
    <glyph glyph-name="uFEF6" unicode="&#xfee0;&#xfe82;" horiz-adv-x="1374" arabic-form="final" 
d="M1405 1l-59.999 0.00390625c-94 0 -160.667 107 -200 321c-0.666992 2 -21.667 135.333 -63 400c-20.667 -148 -51.334 -290.333 -92.001 -427c-46 -155.333 -94.333 -266 -145 -332c-4.66699 -6 -50.334 -17 -137.001 -33l-225 -41c-7.33301 -1.33301 -13.333 -2 -18 -2
c-16 0 -24 5 -24 15c0 12 12 24.333 36 37c78 41.333 163.333 105.666 256 192.999c109.333 103.333 164 185.666 164 246.999c0 50 -38.333 113 -115 189s-140 114 -190 114l-21 -85c-33.333 10.667 -83 36.667 -149 78c-75.333 46.667 -113 80.334 -113 101.001
c0 79.333 13 171.666 39 276.999c2 7.33301 8.33301 9.33301 19 6c116.667 -38.667 233.5 -119.167 350.5 -241.5s192.5 -242.5 226.5 -360.5c60 148.667 90 343 90 583l105 123c4.66699 5.33301 8.33398 8.66602 11.001 9.99902c3.33301 0.666992 5 -4 5 -14
c8 -308 20.667 -511 38 -609c24 -132.667 44.333 -217.334 61 -254.001c20.667 -44.667 53.667 -67 99 -67h52v-228zM819.001 1286c0 -27.333 -50.667 -49.667 -152 -67c-90 -15.333 -194.333 -23 -313 -23c-74.667 0 -117.667 -19.333 -129 -58
c-4 -13.333 -8.66699 -20 -14 -20c-23.333 0 -43.833 11 -61.5 33s-26.5 44.667 -26.5 68c0 87.333 44.333 131 133 131c46.667 0 116 -7.16699 208 -21.5s161.333 -21.5 208 -21.5c117.333 0 149 0.666992 95 2c34.667 -1.33301 52 -9 52 -23z" />
    <glyph glyph-name="uFEF7" unicode="&#xfedf;&#xfe84;" horiz-adv-x="988" arabic-form="isolated" 
d="M1000 1125c8.66699 -12 8.33301 -22.668 -1 -32.001c-25.333 -25.333 -38 -57.333 -38 -96c0 -130 -3 -223 -9 -279c-15.333 -144 -50 -267.333 -104 -370c10.667 -25.333 23 -64.666 37 -117.999c16 -61.333 24 -105 24 -131c0 -132 -47.667 -202 -143 -210
c-149.333 -12 -240 -6.33301 -272 17v164c0 20 10 32.667 30 38c44.667 12.667 96 50.667 154 114c54 59.333 81 99.333 81 120c0 28 -43 98.667 -129 212c-96 126.667 -186.667 220 -272 280c-28.667 -47.333 -46 -71 -52 -71c-2.66699 0 -5 1 -7 3l-190 178
c-1.33301 2 -2 4.66699 -2 8c0 18.667 9 58.334 27 119.001c16 54 30.333 96.333 43 127c8 14 17 21 27 21c7.33301 0 16.666 -4.66699 27.999 -14c112 -92.667 227 -219.667 345 -381c110 -150.667 188 -282 234 -394c40 107.333 60 220.666 60 339.999
c0 109.333 -16.667 219.333 -50 330c-13.333 44.667 -10.666 77.667 8.00098 99l50 56c10 11.333 20 10.333 30 -3zM832.999 108.999c0 59.333 -11.333 110.332 -34 152.999c-58 -84 -107.333 -138.333 -148 -163c28 -5.33301 63.667 -7.66602 107 -6.99902
c50 1.33301 75 7 75 17zM437.999 1377l-354.002 -86c-6 -1.33301 -9 4.33398 -9 17.001c0 42.667 8 67 24 73l69 26c-37.333 36 -56 78.333 -56 127c0 33.333 19 71.666 57 114.999s73.333 65 106 65c25.333 0 48.666 -6 69.999 -18c25.333 -14 38 -32.667 38 -56
c0 -8.66699 -5.16699 -23.5 -15.5 -44.5s-19.166 -31.5 -26.499 -31.5c-3.33301 0 -16.166 6.16699 -38.499 18.5s-40.166 18.5 -53.499 18.5c-25.333 0 -38 -14.333 -38 -43c0 -18 15.333 -38.667 46 -62c26 -20 46 -31.667 60 -35l121 29l10 2c8.66699 2 13 0 13 -6
c0 -16 -7.66699 -52.333 -23 -109z" />
    <glyph glyph-name="uFEF8" unicode="&#xfee0;&#xfe84;" horiz-adv-x="1180" arabic-form="final" 
d="M1210 1h-60.001c-90.667 0 -157 107 -199 321c-3.33301 18 -24.333 151.333 -63 400c-21.333 -147.333 -52.333 -289.666 -93 -426.999c-46 -156 -94.333 -266.667 -145 -332c-4.66699 -6.66699 -50 -17.667 -136 -33l-225 -41c-7.33301 -1.33301 -13.333 -2 -18 -2
c-16 0 -24 5 -24 15c0 12 12 24.333 36 37c78.667 42 164 106.333 256 193c108.667 102.667 163 185 163 247c0 50 -38.333 113 -115 189s-140 114 -190 114l-20 -85c-34 11.333 -83.667 37 -149 77c-75.333 46 -113 80 -113 102c0 76.667 13 169 39 277
c2 7.33301 8 9.33301 18 6c116.667 -39.333 233.667 -120 351 -242s193 -242 227 -360c60 148.667 90 343 90 583l104 123c4.66699 5.33301 8.33398 8.66602 11.001 9.99902c4 0.666992 6 -4 6 -14c8 -311.333 20.333 -514.333 37 -609c24 -133.333 44.333 -218 61 -254
c20.667 -44.667 53.667 -67 99 -67h52v-228zM437.999 1265l-353.999 -86c-6 -1.33301 -9 4.33398 -9 17.001c0 42.667 8 67 24 73l69 25c-37.333 36 -56 78.333 -56 127c0 33.333 19 71.833 57 115.5s73.333 65.5 106 65.5c25.333 0 48.666 -6 69.999 -18
c25.333 -14 38 -32.667 38 -56c0 -8.66699 -5.33301 -23.667 -16 -45s-19.334 -32 -26.001 -32c-3.33301 0 -16.166 6.16699 -38.499 18.5s-40.166 18.5 -53.499 18.5c-25.333 0 -38 -14.333 -38 -43c0 -18 15.333 -38.667 46 -62c26 -20 46 -31.333 60 -34
c29.333 7.33301 69.666 16.666 120.999 27.999l10 2c8.66699 2 13 0 13 -6c0 -16 -7.66699 -52 -23 -108z" />
    <glyph glyph-name="uFEF9" unicode="&#xfedf;&#xfe88;" horiz-adv-x="988" arabic-form="isolated" 
d="M1000 1125c8.66699 -12 8.33301 -22.668 -1 -32.001c-25.333 -25.333 -38 -57.333 -38 -96c0 -130 -3 -223 -9 -279c-15.333 -144 -50 -267.333 -104 -370c10.667 -25.333 23 -64.666 37 -117.999c16 -61.333 24 -105 24 -131c0 -132 -47.667 -202 -143 -210
c-149.333 -12 -240 -6.33301 -272 17v164c0 20 10 32.667 30 38c44.667 12.667 96 50.667 154 114c54 59.333 81 99.333 81 120c0 28 -43 98.667 -129 212c-96 126.667 -186.667 220 -272 280c-28.667 -47.333 -46 -71 -52 -71c-2.66699 0 -5 1 -7 3l-190 178
c-1.33301 2 -2 4.66699 -2 8c0 18.667 9 58.334 27 119.001c16 54 30.333 96.333 43 127c8 14 17 21 27 21c7.33301 0 16.666 -4.66699 27.999 -14c112 -92.667 227 -219.667 345 -381c110 -150.667 188 -282 234 -394c40 107.333 60 220.666 60 339.999
c0 109.333 -16.667 219.333 -50 330c-13.333 44.667 -10.666 77.667 8.00098 99l50 56c10 11.333 20 10.333 30 -3zM832.999 108.999c0 59.333 -11.333 110.332 -34 152.999c-58 -84 -107.333 -138.333 -148 -163c28 -5.33301 63.667 -7.66602 107 -6.99902
c50 1.33301 75 7 75 17zM652.999 -538.002l-354.001 -86c-6 -1.33301 -9 4.33398 -9 17.001c0 42.667 8 67 24 73l69 26c-37.333 36 -56 78.333 -56 127c0 33.333 19 71.666 57 114.999s73.333 65 106 65c24.667 0 47.667 -6 69 -18c26 -14 39 -32.333 39 -55
c0 -9.33301 -5 -24 -15 -44c-10.667 -22 -19.667 -33 -27 -33c-3.33301 0 -16.166 6.16699 -38.499 18.5s-40.166 18.5 -53.499 18.5c-25.333 0 -38 -14.333 -38 -43c0 -18 15.333 -38.667 46 -62c26 -20 46 -31.667 60 -35c23.333 6 63.666 15.667 120.999 29l10 2
c8.66699 2 13 0 13 -6c0 -16 -7.66699 -52.333 -23 -109z" />
    <glyph glyph-name="uFEFA" unicode="&#xfee0;&#xfe88;" horiz-adv-x="1180" arabic-form="final" 
d="M1210 1h-60.001c-90.667 0 -157 107 -199 321c-3.33301 18 -24.333 151.333 -63 400c-21.333 -147.333 -52.333 -289.666 -93 -426.999c-46 -156 -94.333 -266.667 -145 -332c-4.66699 -6.66699 -50 -17.667 -136 -33l-225 -41c-7.33301 -1.33301 -13.333 -2 -18 -2
c-16 0 -24 5 -24 15c0 12 12 24.333 36 37c78.667 42 164 106.333 256 193c108.667 102.667 163 185 163 247c0 50 -38.333 113 -115 189s-140 114 -190 114l-20 -85c-34 11.333 -83.667 37 -149 77c-75.333 46 -113 80 -113 102c0 76.667 13 169 39 277
c2 7.33301 8 9.33301 18 6c116.667 -39.333 233.667 -120 351 -242s193 -242 227 -360c60 148.667 90 343 90 583l104 123c4.66699 5.33301 8.33398 8.66602 11.001 9.99902c4 0.666992 6 -4 6 -14c8 -311.333 20.333 -514.333 37 -609c24 -133.333 44.333 -218 61 -254
c20.667 -44.667 53.667 -67 99 -67h52v-228zM652.999 -538l-354.001 -86c-6 -1.33301 -9 4.33398 -9 17.001c0 42.667 8 67 24 73l69 26c-37.333 36 -56 78.333 -56 127c0 33.333 19 71.666 57 114.999s73.333 65 106 65c24.667 0 47.667 -6 69 -18
c26 -14 39 -32.333 39 -55c0 -9.33301 -5 -24 -15 -44c-10.667 -22 -19.667 -33 -27 -33c-3.33301 0 -16.166 6.16699 -38.499 18.5s-40.166 18.5 -53.499 18.5c-25.333 0 -38 -14.333 -38 -43c0 -18 15.333 -38.667 46 -62c26 -20 46 -31.667 60 -35
c23.333 6 63.666 15.667 120.999 29l10 2c8.66699 2 13 0 13 -6c0 -16 -7.66699 -52.333 -23 -109z" />
    <glyph glyph-name="uFEFB" unicode="&#xfedf;&#xfe8e;" horiz-adv-x="988" arabic-form="isolated" 
d="M1000 1125c8.66699 -12 8.33301 -22.668 -1 -32.001c-25.333 -25.333 -38 -57.333 -38 -96c0 -130 -3 -223 -9 -279c-15.333 -144 -50 -267.333 -104 -370c10.667 -25.333 23 -64.666 37 -117.999c16 -61.333 24 -105 24 -131c0 -132 -47.667 -202 -143 -210
c-149.333 -12 -240 -6.33301 -272 17v164c0 20 10 32.667 30 38c44.667 12.667 96 50.667 154 114c54 59.333 81 99.333 81 120c0 28 -43 98.667 -129 212c-96 126.667 -186.667 220 -272 280c-28.667 -47.333 -46 -71 -52 -71c-2.66699 0 -5 1 -7 3l-190 178
c-1.33301 2 -2 4.66699 -2 8c0 18.667 9 58.334 27 119.001c16 54 30.333 96.333 43 127c8 14 17 21 27 21c7.33301 0 16.666 -4.66699 27.999 -14c112 -92.667 227 -219.667 345 -381c110 -150.667 188 -282 234 -394c40 107.333 60 220.666 60 339.999
c0 109.333 -16.667 219.333 -50 330c-13.333 44.667 -10.666 77.667 8.00098 99l50 56c10 11.333 20 10.333 30 -3zM832.999 108.999c0 59.333 -11.333 110.332 -34 152.999c-58 -84 -107.333 -138.333 -148 -163c28 -5.33301 63.667 -7.66602 107 -6.99902
c50 1.33301 75 7 75 17z" />
    <glyph glyph-name="uFEFC" unicode="&#xfee0;&#xfe8e;" horiz-adv-x="1180" arabic-form="final" 
d="M1210 1h-60.001c-90.667 0 -157 107 -199 321c-3.33301 18 -24.333 151.333 -63 400c-21.333 -147.333 -52.333 -289.666 -93 -426.999c-46 -156 -94.333 -266.667 -145 -332c-4.66699 -6.66699 -50 -17.667 -136 -33l-225 -41c-7.33301 -1.33301 -13.333 -2 -18 -2
c-16 0 -24 5 -24 15c0 12 12 24.333 36 37c78.667 42 164 106.333 256 193c108.667 102.667 163 185 163 247c0 50 -38.333 113 -115 189s-140 114 -190 114l-20 -85c-34 11.333 -83.667 37 -149 77c-75.333 46 -113 80 -113 102c0 76.667 13 169 39 277
c2 7.33301 8 9.33301 18 6c116.667 -39.333 233.667 -120 351 -242s193 -242 227 -360c60 148.667 90 343 90 583l104 123c4.66699 5.33301 8.33398 8.66602 11.001 9.99902c4 0.666992 6 -4 6 -14c8 -311.333 20.333 -514.333 37 -609c24 -133.333 44.333 -218 61 -254
c20.667 -44.667 53.667 -67 99 -67h52v-228z" />
    <glyph glyph-name="u0652_u064E.liga" unicode="&#x652;&#x64e;" horiz-adv-x="1" 
d="M286 1079c0.666992 -6 1.00098 -10.667 1.00098 -14c0 -35.333 -8.66699 -63.333 -26 -84c-5.33301 -6 -10 -9 -14 -9s-6.33301 2.33301 -7 7c-0.666992 8.66699 -3.66699 39 -9 91c-0.666992 6.66699 -16.334 84 -47.001 232l63 45c5.33301 4 8.33301 3.33301 9 -2z" />
    <glyph glyph-name="u0652_u064B.liga" unicode="&#x652;&#x64b;" horiz-adv-x="1" 
d="M611 945l-82.998 -81c-8.66699 -8.66699 -16.334 -8.66699 -23.001 0l-84 84c-2 2 -3 5.33301 -3 10c0 4 1 7.33301 3 10l85 84c7.33301 7.33301 14.666 7.33301 21.999 0l83 -83c8 -8 8 -16 0 -24zM402.002 946l-82 -81c-8 -8 -16 -8 -24 0l-84 84
c-2 2 -3 5.33301 -3 10c0 4 1 7.33301 3 10l85 84c8 8 15.667 8 23 0l82 -83c8 -8 8 -16 0 -24z" />
    <glyph glyph-name="u0652_u064D.liga" unicode="&#x652;&#x64d;" horiz-adv-x="1" 
d="M810 -711l-83 -82c-8 -8 -16 -8 -24 0l-84 84c-2 2.66699 -3 6 -3 10s1 7.33301 3 10l85 84c8 7.33301 15.667 7.33301 23 0l83 -83c8 -8 8 -15.667 0 -23zM601 -710l-83 -82c-8 -8 -16 -8 -24 0l-84 84c-2 2.66699 -3 6 -3 10s1 7.33301 3 10l85 84
c8 7.33301 15.667 7.33301 23 0l83 -83c8 -8 8 -15.667 0 -23z" />
    <glyph glyph-name="u0622" unicode="&#x622;" horiz-adv-x="794" arabic-form="isolated" 
d="M586 336c0.666992 -9.33301 1 -23.334 1 -42.001c0 -114 -17 -203 -51 -267c-10.667 -20 -20.334 -30 -29.001 -30c-8 0 -12.333 7.33301 -13 22c-3.33301 60.667 -9.66602 157.334 -18.999 290.001c-2 24.667 -33.667 270.667 -95 738l126 142
c10.667 12 16.667 10 18 -6zM850 1368c0 -28 -50.6689 -50.333 -152.002 -67c-92.667 -15.333 -197 -23 -313 -23c-74.667 0 -117.667 -19.333 -129 -58c-4 -13.333 -8.66699 -20 -14 -20c-23.333 0 -43.833 10.667 -61.5 32s-26.5 44 -26.5 68c0 88 44.333 132 133 132
c46.667 0 115.834 -7.16699 207.501 -21.5s160.834 -21.5 207.501 -21.5c117.333 0 149 0.666992 95 2c35.333 -1.33301 53 -9 53 -23z" />
    <glyph glyph-name="u0623" unicode="&#x623;" horiz-adv-x="512" arabic-form="isolated" 
d="M473 336c1.33301 -18.667 2.00098 -32.668 2.00098 -42.001c0 -114 -17.333 -203 -52 -267c-10.667 -20 -20.334 -30 -29.001 -30c-8 0 -12.333 7.33301 -13 22c-3.33301 60.667 -9.66602 157.334 -18.999 290.001c-2 24.667 -33.667 270.667 -95 738l126 142
c11.333 12.667 17.666 10.667 18.999 -6zM520.001 1324l-353.999 -86c-6 -1.33301 -9 4.33398 -9 17.001c0 42.667 8 67 24 73l69 26c-37.333 35.333 -56 77.666 -56 126.999c0 33.333 19 71.666 57 114.999s73.333 65 106 65c25.333 0 48.666 -6 69.999 -18
c25.333 -14 38 -32.667 38 -56c0 -8.66699 -5.33301 -23.667 -16 -45s-19.334 -32 -26.001 -32c-3.33301 0 -16.166 6.16699 -38.499 18.5s-40.166 18.5 -53.499 18.5c-25.333 0 -38 -14.333 -38 -43c0 -18 15.333 -38.667 46 -62c25.333 -19.333 45.333 -30.666 60 -33.999
l121 29c3.33301 0 6.66602 0.666992 9.99902 2c8.66699 2 13 0 13 -6c0 -14 -7.66699 -50.333 -23 -109z" />
    <glyph glyph-name="u0624" unicode="&#x624;" horiz-adv-x="874" arabic-form="isolated" 
d="M872 275c0 -292.667 -108 -508.668 -324 -648.001c-58.667 -38 -100.667 -57 -126 -57c-4 0 -8 0.666992 -12 2l-282 102c-23.333 8.66699 -35 19.667 -35 33c0 16 14.333 23 43 21c10.667 -0.666992 24 -1 40 -1c100 0 191.667 23.333 275 70
c164.667 92 269.667 198.667 315 320c4.66699 12.667 7 22.334 7 29.001c0 7.33301 -3 11 -9 11c-5.33301 0 -17.333 -3.66699 -36 -11c-21.333 -8.66699 -34.333 -13.667 -39 -15c-20 -4.66699 -40.667 -7 -62 -7c-44.667 0 -81 22 -109 66
c-24.667 38.667 -37 81.667 -37 129c0 64 20.667 132.333 62 205c44.667 78.667 92.667 118 144 118c123.333 0 185 -122.333 185 -367zM719 337.999c-0.666992 22.667 -8 46.999 -22 72.999c-16.667 30.667 -34.667 46 -54 46s-37 -13 -53 -39
c-14 -23.333 -21 -45.666 -21 -66.999c0 -41.333 18 -62 54 -62c44.667 0 76.667 16.333 96 49zM766 852.998l-353.998 -86c-6 -1.33301 -9 4.33398 -9 17.001c0 42.667 8 67 24 73l69 26c-38 35.333 -57 77.666 -57 126.999c0 33.333 19.167 71.666 57.5 114.999
s73.833 65 106.5 65c25.333 0 48.666 -6 69.999 -18c25.333 -14 38 -32.667 38 -56c0 -8.66699 -5.33301 -23.667 -16 -45s-19.334 -32 -26.001 -32c-3.33301 0 -16.166 6.16699 -38.499 18.5s-40.166 18.5 -53.499 18.5c-25.333 0 -38 -14.333 -38 -43
c0 -18 15.333 -38.667 46 -62c25.333 -19.333 45.333 -30.666 60 -33.999l121 29c3.33301 0 6.66602 0.666992 9.99902 2c8.66699 2 13 0 13 -6c-4.66699 -24 -12.334 -60.333 -23.001 -109z" />
    <glyph glyph-name="u0625" unicode="&#x625;" horiz-adv-x="588" arabic-form="isolated" 
d="M504 336c0.666992 -9.33301 1 -23.334 1 -42.001c0 -114 -17 -203 -51 -267c-10.667 -20 -20.334 -30 -29.001 -30c-8 0 -12.333 7.33301 -13 22c-3.33301 60.667 -9.66602 157.334 -18.999 290.001c-2 24.667 -33.667 270.667 -95 738l126 142
c10.667 12 16.667 10 18 -6zM561 -427.001l-353.999 -86c-6 -1.33301 -9 4.33398 -9 17.001c0 42.667 8 67 24 73l69 26c-38 35.333 -57 77.666 -57 126.999c0 33.333 19.167 71.666 57.5 114.999s73.833 65 106.5 65c25.333 0 48.666 -6 69.999 -18
c25.333 -14 38 -32.667 38 -56c0 -8.66699 -5.33301 -23.667 -16 -45s-19.334 -32 -26.001 -32c-3.33301 0 -16.166 6.16699 -38.499 18.5s-40.166 18.5 -53.499 18.5c-25.333 0 -38 -14.333 -38 -43c0 -18 15.333 -38.667 46 -62c25.333 -19.333 45.333 -30.666 60 -33.999
l121 29c3.33301 0 6.66602 0.666992 9.99902 2c8.66699 2 13 0 13 -6c0 -14 -7.66699 -50.333 -23 -109z" />
    <glyph glyph-name="u0626" unicode="&#x626;" horiz-adv-x="1270" arabic-form="isolated" 
d="M1268 717c0 -24.667 -3.33105 -55.999 -9.99805 -93.999c-8.66699 -50.667 -19.334 -76 -32.001 -76c19.333 0 10 8.16699 -28 24.5s-65 24.5 -81 24.5c-44.667 0 -98.334 -18.667 -161.001 -56c-70.667 -42 -106 -84.667 -106 -128c0 -52 34 -84.667 102 -98
c34.667 -5.33301 97.334 -16.333 188.001 -33c68 -13.333 102 -45 102 -95c0 -56 -7.66699 -103.667 -23 -143c-16.667 -43.333 -81.667 -97.666 -195 -162.999c-136.667 -78.667 -273 -118 -409 -118c-110.667 0 -205 25.333 -283 76c-90.667 58.667 -136 140.667 -136 246
c0 124.667 50 259.667 150 405c14 20.667 27 31 39 31c10.667 0 16 -7 16 -21c0 -9.33301 -3.33301 -20 -10 -32c-50 -89.333 -75 -166.333 -75 -231c0 -58.667 24 -107.667 72 -147c74.667 -61.333 200 -92 376 -92c53.333 0 124.666 10 213.999 30
c114.667 25.333 172 54 172 86c0 12 -36.667 18.667 -110 20c-93.333 1.33301 -162 8.66602 -206 21.999c-73.333 22 -110 64.667 -110 128c0 99.333 53 211.666 159 336.999c109.333 128.667 212.333 193 309 193c50.667 0 76 -32 76 -96zM559.002 695.001
l-354.001 -86.001c-6 -1.33301 -9 4.33398 -9 17.001c0 42.667 8 67 24 73l69 26c-38 36 -57 78.333 -57 127c0 33.333 19.167 71.666 57.5 114.999s73.833 65 106.5 65c25.333 0 48.666 -6 69.999 -18c25.333 -14 38 -32.667 38 -56c0 -8.66699 -5.16699 -23.5 -15.5 -44.5
s-19.166 -31.5 -26.499 -31.5c-3.33301 0 -16.166 6.16699 -38.499 18.5s-40.166 18.5 -53.499 18.5c-25.333 0 -38 -14.333 -38 -43c0 -18 15.333 -38.667 46 -62c26 -20 46 -31.667 60 -35c23.333 6 63.666 15.667 120.999 29l10 2c8.66699 2 13 0 13 -6
c0 -13.333 -7.66699 -49.666 -23 -108.999z" />
    <glyph glyph-name="u0627" unicode="&#x627;" horiz-adv-x="403" arabic-form="isolated" 
d="M401 336c1.33301 -18.667 2.00098 -32.668 2.00098 -42.001c0 -114 -17.333 -203 -52 -267c-10.667 -20 -20.334 -30 -29.001 -30c-8 0 -12.333 7.33301 -13 22c-1.33301 28.667 -7.33301 125.334 -18 290.001c-1.33301 21.333 -33 267.333 -95 738l126 142
c10.667 12 16.667 10 18 -6z" />
    <glyph glyph-name="u0628" unicode="&#x628;" horiz-adv-x="1593" arabic-form="isolated" 
d="M1590 510c2 -47.333 -1.33105 -104.335 -9.99805 -171.002c-10.667 -81.333 -26.334 -134 -47.001 -158c-57.333 -68.667 -158.666 -124.334 -303.999 -167.001c-124 -36.667 -242.667 -55 -356 -55c-176.667 0 -311.667 12.333 -405 37
c-181.333 48 -272 142.667 -272 284c0 58.667 15.333 121 46 187c26 56.667 54.333 100 85 130c8.66699 8.66699 18.667 13 30 13c13.333 0 20 -5.66699 20 -17c0 -5.33301 -1.66699 -10.666 -5 -15.999c-34 -53.333 -51 -100.333 -51 -141
c0 -85.333 73.333 -145.666 220 -180.999c88.667 -21.333 193.667 -32 315 -32c147.333 0 292 20.667 434 62c135.333 39.333 203 76 203 110c0 6 -34 58.667 -102 158l98 205c2 4 4.33301 5.66699 7 5c3.33301 -0.666992 6.66602 -2.66699 9.99902 -6
c21.333 -20.667 40.666 -59.667 57.999 -117c15.333 -51.333 24 -94.666 26 -129.999zM929.002 -327.002l-98 -97c-4 -4 -8.33301 -6 -13 -6s-9 2 -13 6l-98 97c-8.66699 8.66699 -9 17 -1 25l99 99c2.66699 3.33301 7 5 13 5s10.333 -1.66699 13 -5l98 -97
c9.33301 -9.33301 9.33301 -18.333 0 -27z" />
    <glyph glyph-name="u0629" unicode="&#x629;" horiz-adv-x="686" arabic-form="isolated" 
d="M684 384c0 -268 -94.333 -402 -283 -402c-77.333 0 -132 21.333 -164 64c-27.333 37.333 -41 96 -41 176c0 111.333 28.667 229 86 353c59.333 128.667 119 193 179 193c36.667 0 79.667 -31 129 -93c62.667 -79.333 94 -176.333 94 -291zM602 336
c0 32 -29.334 65.333 -88.001 100c-54.667 32.667 -101.667 49 -141 49c-19.333 0 -37.666 -18.333 -54.999 -55c-15.333 -32 -23 -59.333 -23 -82c0 -60 37 -90 111 -90c130.667 0 196 26 196 78zM596.999 976l-353.998 -86c-6 -1.33301 -9 4.33398 -9 17.001
c0 42.667 8 67 24 73l69 26c-38 35.333 -57 77.666 -57 126.999c0 33.333 19.167 71.666 57.5 114.999s73.833 65 106.5 65c25.333 0 48.666 -6 69.999 -18c25.333 -14 38 -32.667 38 -56c0 -8.66699 -5.33301 -23.667 -16 -45s-19.334 -32 -26.001 -32
c-3.33301 0 -16.166 6.16699 -38.499 18.5s-40.166 18.5 -53.499 18.5c-25.333 0 -38 -14.333 -38 -43c0 -18 15.333 -38.667 46 -62c25.333 -19.333 45.333 -30.666 60 -33.999l121 29c3.33301 0 6.66602 0.666992 9.99902 2c8.66699 2 13 0 13 -6
c-4.66699 -24 -12.334 -60.333 -23.001 -109z" />
    <glyph glyph-name="u062A" unicode="&#x62a;" horiz-adv-x="1593" arabic-form="isolated" 
d="M1590 510c2 -47.333 -1.33105 -104.335 -9.99805 -171.002c-10.667 -81.333 -26.334 -134 -47.001 -158c-57.333 -68.667 -158.666 -124.334 -303.999 -167.001c-124 -36.667 -242.667 -55 -356 -55c-176.667 0 -311.667 12.333 -405 37
c-181.333 48 -272 142.667 -272 284c0 58.667 15.333 121 46 187c26 56.667 54.333 100 85 130c8.66699 8.66699 18.667 13 30 13c13.333 0 20 -5.66699 20 -17c0 -5.33301 -1.66699 -10.666 -5 -15.999c-34 -53.333 -51 -100.333 -51 -141
c0 -85.333 73.333 -145.666 220 -180.999c88.667 -21.333 193.667 -32 315 -32c147.333 0 292 20.667 434 62c135.333 39.333 203 76 203 110c0 6 -34 58.667 -102 158l98 205c2 4 4.33301 5.66699 7 5c3.33301 -0.666992 6.66602 -2.66699 9.99902 -6
c21.333 -20.667 40.666 -59.667 57.999 -117c15.333 -51.333 24 -94.666 26 -129.999zM1056 792.998l-83 -82c-8 -8 -16 -8 -24 0l-84 84c-2 2 -3 5.33301 -3 10c0 4 1 7.33301 3 10l85 84c8 7.33301 15.667 7.33301 23 0l83 -83c8 -8 8 -15.667 0 -23zM847.002 793.998
l-83 -82c-8 -8 -16 -8 -24 0l-84 84c-2 2 -3 5.33301 -3 10c0 4 1 7.33301 3 10l85 84c8 7.33301 15.667 7.33301 23 0l83 -83c8 -8 8 -15.667 0 -23z" />
    <glyph glyph-name="u062B" unicode="&#x62b;" horiz-adv-x="1593" arabic-form="isolated" 
d="M1590 510c2 -47.333 -1.33105 -104.335 -9.99805 -171.002c-10.667 -81.333 -26.334 -134 -47.001 -158c-57.333 -68.667 -158.666 -124.334 -303.999 -167.001c-124 -36.667 -242.667 -55 -356 -55c-176.667 0 -311.667 12.333 -405 37
c-181.333 48 -272 142.667 -272 284c0 58.667 15.333 121 46 187c26 56.667 54.333 100 85 130c8.66699 8.66699 18.667 13 30 13c13.333 0 20 -5.66699 20 -17c0 -5.33301 -1.66699 -10.666 -5 -15.999c-34 -53.333 -51 -100.333 -51 -141
c0 -85.333 73.333 -145.666 220 -180.999c88.667 -21.333 193.667 -32 315 -32c147.333 0 292 20.667 434 62c135.333 39.333 203 76 203 110c0 6 -34 58.667 -102 158l98 205c2 4 4.33301 5.66699 7 5c3.33301 -0.666992 6.66602 -2.66699 9.99902 -6
c21.333 -20.667 40.666 -59.667 57.999 -117c15.333 -51.333 24 -94.666 26 -129.999zM654.002 741.998c-8 7.33301 -7.66699 15.333 1 24l81 81c4 3.33301 8 5 12 5s8 -1.66699 12 -5l81 -81c8 -8 8.33301 -15.333 1 -22l-83 -82c-7.33301 -7.33301 -15 -7.33301 -23 0z
M867.002 742.998c-8 7.33301 -7.66699 15.333 1 24l81 81c4 4 8 6 12 6s8 -2 12 -6l81 -81c8 -8 8.33301 -15.333 1 -22l-83 -82c-7.33301 -7.33301 -15 -7.33301 -23 0zM763.002 956.998c-7.33301 7.33301 -6.99902 15.333 1.00098 24l80 81c4 4 8 6 12 6s8 -2 12 -6
l80 -81c7.33301 -8 7.66602 -15.333 0.999023 -22l-82 -81c-8 -8 -15.667 -8.33301 -23 -1z" />
    <glyph glyph-name="u062C" unicode="&#x62c;" horiz-adv-x="1115" arabic-form="isolated" 
d="M1360 -692c-52.667 -19.333 -130.668 -57.333 -234.001 -114c-88.667 -48.667 -139.334 -73 -152.001 -73c-518.667 0 -778 183.333 -778 550c0 178 53 337.333 159 478c63.333 84 135.333 151 216 201c-50.667 9.33301 -103 14 -157 14
c-68 0 -123.333 -7.33301 -166 -22c-8 -2.66699 -15.333 -4 -22 -4c-18 0 -24.667 12 -20 36c12 60 38.333 110.333 79 151c44 44.667 95 67 153 67c47.333 0 118 -7.16699 212 -21.5s164.667 -21.5 212 -21.5h197c22.667 0 34.334 -6.33301 35.001 -19
c0 -4.66699 -0.666992 -10.667 -2 -18l-39 -182c-133.333 0 -221.666 -6.33301 -264.999 -19c-129.333 -38 -240 -102.667 -332 -194c-108 -107.333 -162 -229 -162 -365c0 -134 84 -237 252 -309c128 -54.667 269 -82 423 -82c128 0 253.333 4.33301 376 13
c39.333 2.66699 59 -6 59 -26c0 -16 -14.667 -29.333 -44 -40zM836.999 -219l-97.999 -96.999c-8.66699 -8.66699 -17.334 -8.66699 -26.001 0l-99 97c-8.66699 8 -9 16 -1 24l100 100c2.66699 2.66699 7 4 13 4s10.333 -1.33301 13 -4l98 -98
c8.66699 -8.66699 8.66699 -17.334 0 -26.001z" />
    <glyph glyph-name="u062D" unicode="&#x62d;" horiz-adv-x="1115" arabic-form="isolated" 
d="M1360 -692c-52.667 -19.333 -130.668 -57.333 -234.001 -114c-88.667 -48.667 -139.334 -73 -152.001 -73c-518.667 0 -778 183.333 -778 550c0 178 53 337.333 159 478c63.333 84 135.333 151 216 201c-50.667 9.33301 -103 14 -157 14
c-68 0 -123.333 -7.33301 -166 -22c-8 -2.66699 -15.333 -4 -22 -4c-18 0 -24.667 12 -20 36c12 60 38.333 110.333 79 151c44 44.667 95 67 153 67c47.333 0 118 -7.16699 212 -21.5s164.667 -21.5 212 -21.5h197c22.667 0 34.334 -6.33301 35.001 -19
c0 -4.66699 -0.666992 -10.667 -2 -18l-39 -182c-133.333 0 -221.666 -6.33301 -264.999 -19c-129.333 -38 -240 -102.667 -332 -194c-108 -107.333 -162 -229 -162 -365c0 -134 84 -237 252 -309c128 -54.667 269 -82 423 -82c128 0 253.333 4.33301 376 13
c39.333 2.66699 59 -6 59 -26c0 -16 -14.667 -29.333 -44 -40z" />
    <glyph glyph-name="u062E" unicode="&#x62e;" horiz-adv-x="1115" arabic-form="isolated" 
d="M1360 -692c-52.667 -19.333 -130.668 -57.333 -234.001 -114c-88.667 -48.667 -139.334 -73 -152.001 -73c-518.667 0 -778 183.333 -778 550c0 178 53 337.333 159 478c63.333 84 135.333 151 216 201c-50.667 9.33301 -103 14 -157 14
c-68 0 -123.333 -7.33301 -166 -22c-8 -2.66699 -15.333 -4 -22 -4c-18 0 -24.667 12 -20 36c12 60 38.333 110.333 79 151c44 44.667 95 67 153 67c47.333 0 118 -7.16699 212 -21.5s164.667 -21.5 212 -21.5h197c22.667 0 34.334 -6.33301 35.001 -19
c0 -4.66699 -0.666992 -10.667 -2 -18l-39 -182c-133.333 0 -221.666 -6.33301 -264.999 -19c-129.333 -38 -240 -102.667 -332 -194c-108 -107.333 -162 -229 -162 -365c0 -134 84 -237 252 -309c128 -54.667 269 -82 423 -82c128 0 253.333 4.33301 376 13
c39.333 2.66699 59 -6 59 -26c0 -16 -14.667 -29.333 -44 -40zM769.999 877l-96.999 -97.999c-8.66699 -9.33301 -17.667 -9.33301 -27 0l-98 98c-8 8.66699 -8.33301 16.667 -1 24l99 99c3.33301 3.33301 7.66602 5 12.999 5c6 0 10.667 -1.66699 14 -5l97 -97
c8.66699 -8.66699 8.66699 -17.334 0 -26.001z" />
    <glyph glyph-name="u062F" unicode="&#x62f;" horiz-adv-x="788" arabic-form="isolated" 
d="M788 353c0 -149.333 -51.999 -250.666 -155.999 -303.999c-74 -38 -195.333 -57 -364 -57c-42 0 -64.667 10.333 -68 31c-0.666992 4 -1 12 -1 24c0 29.333 8 90.333 24 183c140.667 0 232.667 2.33301 276 7c130 14 195 47 195 99c0 42 -51 102.333 -153 181
c-29.333 22.667 -71.333 49.667 -126 81c-41.333 23.333 -63 37 -65 41c0 11.333 28.667 79 86 203c8 16.667 15.667 25 23 25c5.33301 0 12.666 -3.66699 21.999 -11c204.667 -162.667 307 -330.334 307 -503.001z" />
    <glyph glyph-name="u0630" unicode="&#x630;" horiz-adv-x="788" arabic-form="isolated" 
d="M788 353c0 -149.333 -51.999 -250.666 -155.999 -303.999c-74 -38 -195.333 -57 -364 -57c-42 0 -64.667 10.333 -68 31c-0.666992 4 -1 12 -1 24c0 29.333 8 90.333 24 183c140.667 0 232.667 2.33301 276 7c130 14 195 47 195 99c0 42 -51 102.333 -153 181
c-29.333 22.667 -71.333 49.667 -126 81c-41.333 23.333 -63 37 -65 41c0 11.333 28.667 79 86 203c8 16.667 15.667 25 23 25c5.33301 0 12.666 -3.66699 21.999 -11c204.667 -162.667 307 -330.334 307 -503.001zM494.001 1097l-97.999 -98
c-8.66699 -8.66699 -17.334 -8.66699 -26.001 0l-99 98c-8.66699 8 -9 16 -1 24l100 100c2.66699 2.66699 7 4 13 4s10.333 -1.33301 13 -4l98 -98c4 -4 6 -8.33301 6 -13s-2 -9 -6 -13z" />
    <glyph glyph-name="u0631" unicode="&#x631;" horiz-adv-x="780" arabic-form="isolated" 
d="M777 127c0 -214 -68 -388.333 -204 -523c-60 -59.333 -106.333 -89 -139 -89l-308 101c-18.667 6 -28 15 -28 27c0 17.333 19.333 26 58 26c191.333 0 349 86.333 473 259c43.333 60 65 106 65 138c0 45.333 -57.333 125 -172 239l57 229c4 16.667 8.66699 25 14 25
s13.333 -7 24 -21c106.667 -136.667 160 -273.667 160 -411z" />
    <glyph glyph-name="u0632" unicode="&#x632;" horiz-adv-x="780" arabic-form="isolated" 
d="M777 127c0 -214 -68 -388.333 -204 -523c-60 -59.333 -106.333 -89 -139 -89l-308 101c-18.667 6 -28 15 -28 27c0 17.333 19.333 26 58 26c191.333 0 349 86.333 473 259c43.333 60 65 106 65 138c0 45.333 -57.333 125 -172 239l57 229c4 16.667 8.66699 25 14 25
s13.333 -7 24 -21c106.667 -136.667 160 -273.667 160 -411zM632 825l-96.999 -97c-8.66699 -8.66699 -17.667 -8.66699 -27 0l-98 97c-8.66699 8.66699 -9 17 -1 25l99 99c3.33301 3.33301 7.66602 5 12.999 5c6 0 10.667 -1.66699 14 -5l97 -97
c9.33301 -8.66699 9.33301 -17.667 0 -27z" />
    <glyph glyph-name="u0633" unicode="&#x633;" horiz-adv-x="1696" arabic-form="isolated" 
d="M1695 347c0 -77.333 -16.668 -149.333 -50.001 -216c-36.667 -74 -82 -111 -136 -111c-34 0 -68.333 13.333 -103 40c-32 24 -56 52.333 -72 85c-56.667 -96 -121 -144 -193 -144c-36 0 -68.333 7.33301 -97 22c-0.666992 -152 -18.334 -264.333 -53.001 -337
c-76.667 -160.667 -233 -241 -469 -241c-89.333 0 -163.666 19.333 -222.999 58c-68.667 45.333 -103 110.666 -103 195.999c0 68 16 146 48 234c26 71.333 53.667 127.333 83 168c12.667 17.333 23.667 26 33 26c8.66699 0 13 -6 13 -18c0 -10 -2.66699 -20.333 -8 -31
c-41.333 -83.333 -62 -148.333 -62 -195c0 -68 36 -119 108 -153c54.667 -26 120.334 -39 197.001 -39c94.667 0 173.667 12.667 237 38c89.333 36 134 94.333 134 175c0 88.667 -34 180.667 -102 276l93 152c8 12.667 14.333 19 19 19s11 -6.66699 19 -20
c44 -74.667 91 -112 141 -112c81.333 0 152.333 56 213 168c16.667 30.667 30 46 40 46c8.66699 0 15 -20.667 19 -62c8 -84 48.667 -126 122 -126c11.333 0 23.833 3.83301 37.5 11.5s20.5 16.834 20.5 27.501c0 30 -18.333 55.333 -55 76l34 197c4 24 10.333 36 19 36
c7.33301 0 18.333 -10 33 -30c42 -58 63 -130 63 -216z" />
    <glyph glyph-name="u0634" unicode="&#x634;" horiz-adv-x="1696" arabic-form="isolated" 
d="M1695 347c0 -77.333 -16.668 -149.333 -50.001 -216c-36.667 -74 -82 -111 -136 -111c-34 0 -68.333 13.333 -103 40c-32 24 -56 52.333 -72 85c-56.667 -96 -121 -144 -193 -144c-36 0 -68.333 7.33301 -97 22c-0.666992 -152 -18.334 -264.333 -53.001 -337
c-76.667 -160.667 -233 -241 -469 -241c-89.333 0 -163.666 19.333 -222.999 58c-68.667 45.333 -103 110.666 -103 195.999c0 68 16 146 48 234c26 71.333 53.667 127.333 83 168c12.667 17.333 23.667 26 33 26c8.66699 0 13 -6 13 -18c0 -10 -2.66699 -20.333 -8 -31
c-41.333 -83.333 -62 -148.333 -62 -195c0 -68 36 -119 108 -153c54.667 -26 120.334 -39 197.001 -39c94.667 0 173.667 12.667 237 38c89.333 36 134 94.333 134 175c0 88.667 -34 180.667 -102 276l93 152c8 12.667 14.333 19 19 19s11 -6.66699 19 -20
c44 -74.667 91 -112 141 -112c81.333 0 152.333 56 213 168c16.667 30.667 30 46 40 46c8.66699 0 15 -20.667 19 -62c8 -84 48.667 -126 122 -126c11.333 0 23.833 3.83301 37.5 11.5s20.5 16.834 20.5 27.501c0 30 -18.333 55.333 -55 76l34 197c4 24 10.333 36 19 36
c7.33301 0 18.333 -10 33 -30c42 -58 63 -130 63 -216zM1151 785c-8 7.33301 -7.66797 15.333 0.999023 24l81 81c3.33301 3.33301 7.33301 5 12 5c4 0 7.66699 -1.66699 11 -5l81 -81c8 -8 8.33301 -15.333 1 -22l-83 -82c-7.33301 -7.33301 -14.666 -7.33301 -21.999 0z
M1364 786c-8 7.33301 -7.66797 15.333 0.999023 24l81 81c8 8 15.667 8 23 0l81 -81c8 -8 8.33301 -15.333 1 -22l-83 -82c-7.33301 -7.33301 -14.666 -7.33301 -21.999 0zM1260 1000c-7.33301 7.33301 -6.99902 15.333 1.00098 24l79 81c8 8.66699 16.333 8.66699 25 0
l80 -81c7.33301 -8 7.66602 -15.333 0.999023 -22l-82 -81c-8.66699 -8 -16.667 -8.33301 -24 -1z" />
    <glyph glyph-name="u0635" unicode="&#x635;" horiz-adv-x="2040" arabic-form="isolated" 
d="M2037 477c0 -165.333 -95.002 -290.999 -285.002 -376.999c-146 -66 -312.667 -99 -500 -99l-43 -73c-14.667 -25.333 -31.667 -38 -51 -38c-17.333 0 -26 9.66699 -26 29c0 4.66699 8.33301 33 25 85c-53.333 1.33301 -91 7.66602 -113 18.999
c-0.666992 -152 -18.334 -264.333 -53.001 -337c-76.667 -160.667 -233 -241 -469 -241c-89.333 0 -163.666 19.333 -222.999 58c-68.667 45.333 -103 110.666 -103 195.999c0 68 16 146 48 234c26 71.333 53.667 127.333 83 168c12.667 17.333 23.667 26 33 26
c8.66699 0 13 -6 13 -18c0 -10 -2.66699 -20.333 -8 -31c-41.333 -83.333 -62 -148.333 -62 -195c0 -68 36 -119 108 -153c54.667 -26 120.334 -39 197.001 -39c94.667 0 173.667 12.667 237 38c89.333 36 134 94.333 134 175c0 88.667 -34 180.667 -102 276l93 152
c8 12.667 14.333 19 19 19s11 -6.66699 19 -20c41.333 -70 91.666 -105 150.999 -105c40 0 69.333 6.33301 88 19c12.667 8.66699 32.334 32.334 59.001 71.001c64.667 94 135 174.667 211 242c110.667 98 213.334 147 308.001 147c67.333 0 120 -21.333 158 -64
c36 -41.333 54 -96 54 -164zM1921 393.001c0 52 -43 80.666 -129 85.999c-68.667 4 -149 -23.667 -241 -83c-76.667 -49.333 -142.667 -106.666 -198 -171.999c98 0 204.333 11 319 33c166 32 249 77.333 249 136z" />
    <glyph glyph-name="u0636" unicode="&#x636;" horiz-adv-x="2040" arabic-form="isolated" 
d="M2037 477c0 -165.333 -95.002 -290.999 -285.002 -376.999c-146 -66 -312.667 -99 -500 -99l-43 -73c-14.667 -25.333 -31.667 -38 -51 -38c-17.333 0 -26 9.66699 -26 29c0 4.66699 8.33301 33 25 85c-53.333 1.33301 -91 7.66602 -113 18.999
c-0.666992 -152 -18.334 -264.333 -53.001 -337c-76.667 -160.667 -233 -241 -469 -241c-89.333 0 -163.666 19.333 -222.999 58c-68.667 45.333 -103 110.666 -103 195.999c0 68 16 146 48 234c26 71.333 53.667 127.333 83 168c12.667 17.333 23.667 26 33 26
c8.66699 0 13 -6 13 -18c0 -10 -2.66699 -20.333 -8 -31c-41.333 -83.333 -62 -148.333 -62 -195c0 -68 36 -119 108 -153c54.667 -26 120.334 -39 197.001 -39c94.667 0 173.667 12.667 237 38c89.333 36 134 94.333 134 175c0 88.667 -34 180.667 -102 276l93 152
c8 12.667 14.333 19 19 19s11 -6.66699 19 -20c41.333 -70 91.666 -105 150.999 -105c40 0 69.333 6.33301 88 19c12.667 8.66699 32.334 32.334 59.001 71.001c64.667 94 135 174.667 211 242c110.667 98 213.334 147 308.001 147c67.333 0 120 -21.333 158 -64
c36 -41.333 54 -96 54 -164zM1921 393.001c0 52 -43 80.666 -129 85.999c-68.667 4 -149 -23.667 -241 -83c-76.667 -49.333 -142.667 -106.666 -198 -171.999c98 0 204.333 11 319 33c166 32 249 77.333 249 136zM1754 915l-96.999 -97
c-8.66699 -8.66699 -17.667 -8.66699 -27 0l-98 97c-8.66699 8.66699 -9 17 -1 25l99 99c3.33301 3.33301 8 5 14 5c5.33301 0 9.66602 -1.66699 12.999 -5l97 -97c9.33301 -8.66699 9.33301 -17.667 0 -27z" />
    <glyph glyph-name="u0637" unicode="&#x637;" horiz-adv-x="1321" arabic-form="isolated" 
d="M1319 526c0 -161.333 -85.333 -292.003 -256 -392.003c-156.667 -92 -344.334 -138 -563.001 -138h-84c-18 0 -51.667 27.667 -101 83c-42.667 48 -78.334 94.333 -107.001 139c-8 12.667 -10.667 22.667 -8 30s10.334 10 23.001 8c61.333 -9.33301 154 -18.333 278 -27
c82 -6 123 33.667 123 119c0 82.667 -14.5 205.334 -43.5 368.001s-43.5 285.334 -43.5 368.001c0 34 8.83301 71.167 26.5 111.5s39.167 71.5 64.5 93.5c14.667 12.667 26.667 11 36 -5l96 -162c10.667 -17.333 9.33398 -32.666 -3.99902 -45.999
c-56.667 -56.667 -82 -124.667 -76 -204l34 -460c158 222.667 293 334 405 334c46 0 86.333 -12.333 121 -37c52.667 -37.333 79 -98.333 79 -183zM1196 398.997c0 24.667 -17 45.667 -51 63c-28.667 15.333 -56.667 23 -84 23c-108 0 -233 -80.667 -375 -242
c106 2 209.333 14.333 310 37c133.333 30 200 69.667 200 119z" />
    <glyph glyph-name="u0638" unicode="&#x638;" horiz-adv-x="1321" arabic-form="isolated" 
d="M1319 526c0 -161.333 -85.333 -292.003 -256 -392.003c-156.667 -92 -344.334 -138 -563.001 -138h-84c-18 0 -51.667 27.667 -101 83c-42.667 48 -78.334 94.333 -107.001 139c-8 12.667 -10.667 22.667 -8 30s10.334 10 23.001 8c61.333 -9.33301 154 -18.333 278 -27
c82 -6 123 33.667 123 119c0 82.667 -14.5 205.334 -43.5 368.001s-43.5 285.334 -43.5 368.001c0 34 8.83301 71.167 26.5 111.5s39.167 71.5 64.5 93.5c14.667 12.667 26.667 11 36 -5l96 -162c10.667 -17.333 9.33398 -32.666 -3.99902 -45.999
c-56.667 -56.667 -82 -124.667 -76 -204l34 -460c158 222.667 293 334 405 334c46 0 86.333 -12.333 121 -37c52.667 -37.333 79 -98.333 79 -183zM1196 398.997c0 24.667 -17 45.667 -51 63c-28.667 15.333 -56.667 23 -84 23c-108 0 -233 -80.667 -375 -242
c106 2 209.333 14.333 310 37c133.333 30 200 69.667 200 119zM1113 964.997l-96.999 -98c-8.66699 -9.33301 -17.667 -9.33301 -27 0l-98 98c-8 8 -8.33301 16 -1 24l99 100c3.33301 2.66699 7.66602 4 12.999 4c6 0 10.667 -1.33301 14 -4l97 -98c4 -4 6 -8.33301 6 -13
s-2 -9 -6 -13z" />
    <glyph glyph-name="u0639" unicode="&#x639;" horiz-adv-x="968" arabic-form="isolated" 
d="M1278 -664c-62.667 -27.333 -143.33 -69.6631 -241.997 -126.996c-76.667 -44 -123 -66 -139 -66c-276 0 -471.667 66.667 -587 200c-76 88 -114 201 -114 339c0 219.333 77 415.333 231 588c-108.667 49.333 -163 117.666 -163 204.999c0 54.667 27 134.667 81 240
c64 125.333 130.667 188 200 188c48 0 94.333 -22.333 139 -67c34.667 -34.667 57.667 -67.334 69 -98.001c2.66699 -7.33301 4 -14 4 -20c0 -16.667 -7.33301 -25 -22 -25c-5.33301 0 -11 1.33301 -17 4c-48.667 21.333 -98.334 26.666 -149.001 15.999
c-34.667 -7.33301 -76.334 -28.333 -125.001 -63c-54.667 -38.667 -82 -73 -82 -103c0 -16.667 16 -37 48 -61c41.333 -30.667 91.666 -46 150.999 -46c40 0 146.667 44.333 320 133c10.667 5.33301 18.334 8 23.001 8c10 0 15 -5 15 -15
c0 -7.33301 -3.33301 -16.333 -10 -27l-118 -228c-132.667 -61.333 -230.334 -117 -293.001 -167c-128.667 -102.667 -193 -220.334 -193 -353.001c0 -120.667 63.333 -217.667 190 -291c102 -59.333 219.333 -92.333 352 -99c170.667 -8.66699 304.667 -7 402 5
c10.667 1.33301 21.667 2 33 2c33.333 0 50 -7.33301 50 -22c0 -17.333 -18 -34 -54 -50z" />
    <glyph glyph-name="u063A" unicode="&#x63a;" horiz-adv-x="968" arabic-form="isolated" 
d="M1278 -664c-62.667 -27.333 -143.33 -69.6631 -241.997 -126.996c-76.667 -44 -123 -66 -139 -66c-276 0 -471.667 66.667 -587 200c-76 88 -114 201 -114 339c0 219.333 77 415.333 231 588c-108.667 49.333 -163 117.666 -163 204.999c0 54.667 27 134.667 81 240
c64 125.333 130.667 188 200 188c48 0 94.333 -22.333 139 -67c34.667 -34.667 57.667 -67.334 69 -98.001c2.66699 -7.33301 4 -14 4 -20c0 -16.667 -7.33301 -25 -22 -25c-5.33301 0 -11 1.33301 -17 4c-48.667 21.333 -98.334 26.666 -149.001 15.999
c-34.667 -7.33301 -76.334 -28.333 -125.001 -63c-54.667 -38.667 -82 -73 -82 -103c0 -16.667 16 -37 48 -61c41.333 -30.667 91.666 -46 150.999 -46c40 0 146.667 44.333 320 133c10.667 5.33301 18.334 8 23.001 8c10 0 15 -5 15 -15
c0 -7.33301 -3.33301 -16.333 -10 -27l-118 -228c-132.667 -61.333 -230.334 -117 -293.001 -167c-128.667 -102.667 -193 -220.334 -193 -353.001c0 -120.667 63.333 -217.667 190 -291c102 -59.333 219.333 -92.333 352 -99c170.667 -8.66699 304.667 -7 402 5
c10.667 1.33301 21.667 2 33 2c33.333 0 50 -7.33301 50 -22c0 -17.333 -18 -34 -54 -50zM566.004 1120l-96.999 -97c-8.66699 -8.66699 -17.667 -8.66699 -27 0l-98 97c-8.66699 8.66699 -9 17 -1 25l99 99c3.33301 3.33301 8 5 14 5c5.33301 0 9.66602 -1.66699 12.999 -5
l97 -97c9.33301 -8.66699 9.33301 -17.667 0 -27z" />
    <glyph glyph-name="u0641" unicode="&#x641;" horiz-adv-x="1670" arabic-form="isolated" 
d="M1667 534c0 -112.667 -20.667 -210.669 -62 -294.002c-22.667 -45.333 -113.667 -100.333 -273 -165c-199.333 -80.667 -408.333 -121 -627 -121c-142 0 -256.333 22.667 -343 68c-114 58.667 -171 152.667 -171 282c0 42 11.667 97.333 35 166s48 120.667 74 156
c13.333 18.667 27 28 41 28c11.333 0 17 -7.33301 17 -22c0 -11.333 -3.66699 -24.333 -11 -39c-26 -52 -39 -101.667 -39 -149c0 -87.333 59.333 -149.666 178 -186.999c78 -24.667 172.667 -37 284 -37c156.667 0 305 19 445 57c110 30 203.667 68 281 114
c64.667 38.667 97 67.334 97 86.001c0 38 -10.333 71.333 -31 100c-37.333 -74 -98.333 -111 -183 -111c-42.667 0 -76 20.667 -100 62c-20.667 34.667 -31 74.667 -31 120c0 52.667 21.667 131 65 235c48.667 117.333 96 176 142 176c66 0 120.333 -74 163 -222
c32.667 -113.333 49 -214.333 49 -303zM1509 753.998c-5.33301 24.667 -16.335 51 -33.002 79c-20.667 34.667 -41 52 -61 52c-17.333 0 -32.666 -16.667 -45.999 -50c-11.333 -28 -17 -52.333 -17 -73c0 -50.667 21.667 -76 65 -76c42.667 0 73.334 22.667 92.001 68z
M1340 1235l-96.999 -97c-8.66699 -8.66699 -17.334 -8.66699 -26.001 0l-99 97c-8.66699 8.66699 -9 17 -1 25l100 99c2.66699 2.66699 7 4 13 4s10.333 -1.33301 13 -4l97 -97c9.33301 -8.66699 9.33301 -17.667 0 -27z" />
    <glyph glyph-name="u0642" unicode="&#x642;" horiz-adv-x="1200" arabic-form="isolated" 
d="M1197 317c0 -155.333 -42.666 -286.335 -127.999 -393.002c-103.333 -129.333 -254 -194 -452 -194c-124.667 0 -225 33.667 -301 101c-80 70 -120 166.667 -120 290c0 72 17.333 153.333 52 244c31.333 82.667 66 148 104 196c9.33301 12 19.333 18 30 18
c12 0 18 -6.66699 18 -20c0 -9.33301 -3 -19 -9 -29c-57.333 -95.333 -86 -183.666 -86 -264.999c0 -188.667 131.667 -283 395 -283c81.333 0 165.666 19.333 252.999 58c106 46.667 159 106.334 159 179.001c0 32 -11.667 68.333 -35 109c-48 -64 -109.333 -96 -184 -96
c-46 0 -81 22.667 -105 68c-20 36.667 -30 80 -30 130s19.333 125 58 225c48 124 100.333 186 157 186c72 0 130 -71 174 -213c33.333 -108 50 -211.667 50 -311zM1014 503.998c-19.333 96.667 -46.6689 145 -82.002 145c-19.333 0 -37.666 -16.333 -54.999 -49
c-15.333 -28.667 -23 -54 -23 -76c0 -18.667 5 -35.667 15 -51c11.333 -18 26 -27 44 -27c44.667 0 78.334 19.333 101.001 58zM1148 1075l-83 -82.001c-8 -8 -16 -8 -24 0l-84 84c-2 2.66699 -3 6 -3 10c0 4.66699 1 8.33398 3 11.001l85 84c8 7.33301 15.667 7.33301 23 0
l83 -83c8 -8 8 -16 0 -24zM938.998 1076l-82.998 -82.001c-8.66699 -8 -16.334 -8 -23.001 0l-84 84c-2.66699 2.66699 -4 6.33398 -4 11.001c0 4 1.33301 7.33301 4 10l85 84c7.33301 7.33301 14.666 7.33301 21.999 0l83 -83c8 -8 8 -16 0 -24z" />
    <glyph glyph-name="u0643" unicode="&#x643;" horiz-adv-x="1904" arabic-form="isolated" 
d="M1939 1356c-6 -26.667 -17.3291 -65.3291 -33.9961 -115.996c-20.667 -63.333 -36.334 -97 -47.001 -101c-222.667 -81.333 -446.667 -184 -672 -308c-38 -20.667 -57 -36.334 -57 -47.001s17 -24.334 51 -41.001c109.333 -54 180.666 -93 213.999 -117
c87.333 -62 131 -127.333 131 -196c0 -44.667 -4.33301 -90.667 -13 -138c-12 -64.667 -28.667 -106 -50 -124c-69.333 -58 -187.333 -104 -354 -138c-130.667 -26.667 -253.334 -40 -368.001 -40c-362.667 0 -544 110.667 -544 332c0 37.333 10.333 82.666 31 135.999
c20 50.667 42.667 91.667 68 123c9.33301 12 18.666 18 27.999 18c20.667 0 24 -12.333 10 -37c-20 -36 -30 -71.333 -30 -106c0 -88.667 72.333 -153.667 217 -195c96 -27.333 203 -41 321 -41c90 0 201 9 333 27c183.333 24.667 275 57.667 275 99
c0 29.333 -59.333 78.666 -178 147.999c-123.333 72 -192 132.667 -206 182c-7.33301 24.667 -9 61 -5 109c4 52 14 86.667 30 104c128 140 399.667 301 815 483c15.333 6.66699 25.333 10 30 10c6.66699 0 8 -8.66699 4 -26z" />
    <glyph glyph-name="u0644" unicode="&#x644;" horiz-adv-x="1004" arabic-form="isolated" 
d="M1018 1066c10.667 -18.667 8.33203 -36.332 -7.00098 -52.999c-41.333 -44.667 -60.333 -95.667 -57 -153l35 -565c0.666992 -10.667 1 -21.334 1 -32.001c0 -122 -43 -221 -129 -297c-82 -72.667 -184.667 -109 -308 -109c-238 0 -357 107.333 -357 322
c0 45.333 16.333 119.666 49 222.999c37.333 118.667 73 178 107 178c11.333 0 17 -6.33301 17 -19c0 -6.66699 -3 -15.334 -9 -26.001c-47.333 -85.333 -71 -166.666 -71 -243.999c0 -58 31.667 -102.333 95 -133c49.333 -24 106.333 -37 171 -39
c62 -2 128.667 4.66699 200 20c102.667 22 151.334 55.333 146.001 100l-82 670c-3.33301 27.333 -5 55 -5 83c0 88.667 23 162.667 69 222c9.33301 12 15.666 18 18.999 18c4 0 10 -6 18 -18c50.667 -73.333 83.334 -122.666 98.001 -147.999z" />
    <glyph glyph-name="u0645" unicode="&#x645;" horiz-adv-x="807" arabic-form="isolated" 
d="M805 287c0 -23.333 -8.33203 -61.332 -24.999 -113.999s-34.334 -84.334 -53.001 -95.001c-10 -5.33301 -47.333 -12 -112 -20s-110.667 -16.333 -138 -25c-130 -42 -192.667 -78.333 -188 -109c31.333 -202 47 -372 47 -510v-295c0 -24.667 -13.667 -37 -41 -37
c-26 0 -39 13 -39 39v217c0 84 -20 298 -60 642c-2.66699 23.333 3.33301 55.333 18 96c13.333 37.333 28 67.333 44 90c13.333 72.667 51.333 160.667 114 264c68 112 125 168 171 168c49.333 0 106 -39.667 170 -119c61.333 -76.667 92 -140.667 92 -192zM623.001 264.001
c-52 92 -102 138 -150 138c-14 0 -35.333 -24.667 -64 -74c-24.667 -42.667 -46 -87 -64 -133c91.333 36 184 59 278 69z" />
    <glyph glyph-name="u0646" unicode="&#x646;" horiz-adv-x="993" arabic-form="isolated" 
d="M990 377c0 -166 -48.667 -291 -146 -375c-80.667 -69.333 -183 -104 -307 -104c-108 0 -191.833 28.5 -251.5 85.5s-89.5 139.167 -89.5 246.5c0 125.333 41 248 123 368c10.667 15.333 21.334 23 32.001 23c9.33301 0 14 -6.33301 14 -19
c0 -8.66699 -3.33301 -19.667 -10 -33c-40 -81.333 -60 -150.333 -60 -207c0 -126 101.333 -189 304 -189c71.333 0 135.666 12.333 192.999 37c76.667 32.667 115 80 115 142c0 50 -60.667 145.667 -182 287c-10 11.333 -11.333 25 -4 41l97 221
c8 17.333 17 17.666 27 0.999023c40.667 -67.333 75 -151.666 103 -252.999s42 -192 42 -272zM660 1006l-96.999 -97.999c-8.66699 -8.66699 -17.334 -8.66699 -26.001 0l-99 98c-8.66699 8 -9 16 -1 24l100 99c2.66699 3.33301 7 5 13 5s10.333 -1.66699 13 -5l97 -97
c8.66699 -8.66699 8.66699 -17.334 0 -26.001z" />
    <glyph glyph-name="u0647" unicode="&#x647;" horiz-adv-x="686" arabic-form="isolated" 
d="M684 384c0 -268 -94.333 -402 -283 -402c-77.333 0 -132 21.333 -164 64c-27.333 37.333 -41 96 -41 176c0 111.333 28.667 229 86 353c59.333 128.667 119 193 179 193c36.667 0 79.667 -31 129 -93c62.667 -79.333 94 -176.333 94 -291zM602 336
c0 32 -29.334 65.333 -88.001 100c-54.667 32.667 -101.667 49 -141 49c-19.333 0 -37.666 -18.333 -54.999 -55c-15.333 -32 -23 -59.333 -23 -82c0 -60 37 -90 111 -90c130.667 0 196 26 196 78z" />
    <glyph glyph-name="u0648" unicode="&#x648;" horiz-adv-x="874" arabic-form="isolated" 
d="M872 275c0 -292.667 -108 -508.668 -324 -648.001c-58.667 -38 -100.667 -57 -126 -57c-4 0 -8 0.666992 -12 2l-282 102c-23.333 8.66699 -35 19.667 -35 33c0 16 14.333 23 43 21c10.667 -0.666992 24 -1 40 -1c100 0 191.667 23.333 275 70
c164.667 92 269.667 198.667 315 320c4.66699 12.667 7 22.334 7 29.001c0 7.33301 -3 11 -9 11c-5.33301 0 -17.333 -3.66699 -36 -11c-21.333 -8.66699 -34.333 -13.667 -39 -15c-20 -4.66699 -40.667 -7 -62 -7c-44.667 0 -81 22 -109 66
c-24.667 38.667 -37 81.667 -37 129c0 64 20.667 132.333 62 205c44.667 78.667 92.667 118 144 118c123.333 0 185 -122.333 185 -367zM719 337.999c-0.666992 22.667 -8 46.999 -22 72.999c-16.667 30.667 -34.667 46 -54 46s-37 -13 -53 -39
c-14 -23.333 -21 -45.666 -21 -66.999c0 -41.333 18 -62 54 -62c44.667 0 76.667 16.333 96 49z" />
    <glyph glyph-name="u0649" unicode="&#x649;" horiz-adv-x="1270" arabic-form="isolated" 
d="M1268 717c0 -24.667 -3.33105 -55.999 -9.99805 -93.999c-8.66699 -50.667 -19.334 -76 -32.001 -76c19.333 0 10 8.16699 -28 24.5s-65 24.5 -81 24.5c-44.667 0 -98.334 -18.667 -161.001 -56c-70.667 -42 -106 -84.667 -106 -128c0 -52 34 -84.667 102 -98
c34.667 -5.33301 97.334 -16.333 188.001 -33c68 -13.333 102 -45 102 -95c0 -56 -7.66699 -103.667 -23 -143c-16.667 -43.333 -81.667 -97.666 -195 -162.999c-136.667 -78.667 -273 -118 -409 -118c-110.667 0 -205 25.333 -283 76c-90.667 58.667 -136 140.667 -136 246
c0 124.667 50 259.667 150 405c14 20.667 27 31 39 31c10.667 0 16 -7 16 -21c0 -9.33301 -3.33301 -20 -10 -32c-50 -89.333 -75 -166.333 -75 -231c0 -58.667 24 -107.667 72 -147c74.667 -61.333 200 -92 376 -92c53.333 0 124.666 10 213.999 30
c114.667 25.333 172 54 172 86c0 12 -36.667 18.667 -110 20c-93.333 1.33301 -162 8.66602 -206 21.999c-73.333 22 -110 64.667 -110 128c0 99.333 53 211.666 159 336.999c109.333 128.667 212.333 193 309 193c50.667 0 76 -32 76 -96z" />
    <glyph glyph-name="u064A" unicode="&#x64a;" horiz-adv-x="1270" arabic-form="isolated" 
d="M1268 717c0 -24.667 -3.33105 -55.999 -9.99805 -93.999c-8.66699 -50.667 -19.334 -76 -32.001 -76c19.333 0 10 8.16699 -28 24.5s-65 24.5 -81 24.5c-44.667 0 -98.334 -18.667 -161.001 -56c-70.667 -42 -106 -84.667 -106 -128c0 -52 34 -84.667 102 -98
c34.667 -5.33301 97.334 -16.333 188.001 -33c68 -13.333 102 -45 102 -95c0 -56 -7.66699 -103.667 -23 -143c-16.667 -43.333 -81.667 -97.666 -195 -162.999c-136.667 -78.667 -273 -118 -409 -118c-110.667 0 -205 25.333 -283 76c-90.667 58.667 -136 140.667 -136 246
c0 124.667 50 259.667 150 405c14 20.667 27 31 39 31c10.667 0 16 -7 16 -21c0 -9.33301 -3.33301 -20 -10 -32c-50 -89.333 -75 -166.333 -75 -231c0 -58.667 24 -107.667 72 -147c74.667 -61.333 200 -92 376 -92c53.333 0 124.666 10 213.999 30
c114.667 25.333 172 54 172 86c0 12 -36.667 18.667 -110 20c-93.333 1.33301 -162 8.66602 -206 21.999c-73.333 22 -110 64.667 -110 128c0 99.333 53 211.666 159 336.999c109.333 128.667 212.333 193 309 193c50.667 0 76 -32 76 -96z" />
    <glyph glyph-name="u067E" unicode="&#x67e;" horiz-adv-x="1593" arabic-form="isolated" 
d="M1590 510c2 -47.333 -1.33105 -104.335 -9.99805 -171.002c-10.667 -81.333 -26.334 -134 -47.001 -158c-57.333 -68.667 -158.666 -124.334 -303.999 -167.001c-124 -36.667 -242.667 -55 -356 -55c-176.667 0 -311.667 12.333 -405 37
c-181.333 48 -272 142.667 -272 284c0 58.667 15.333 121 46 187c26 56.667 54.333 100 85 130c8.66699 8.66699 18.667 13 30 13c13.333 0 20 -5.66699 20 -17c0 -5.33301 -1.66699 -10.666 -5 -15.999c-34 -53.333 -51 -100.333 -51 -141
c0 -85.333 73.333 -145.666 220 -180.999c88.667 -21.333 193.667 -32 315 -32c147.333 0 292 20.667 434 62c135.333 39.333 203 76 203 110c0 6 -34 58.667 -102 158l98 205c2 4 4.33301 5.66699 7 5c3.33301 -0.666992 6.66602 -2.66699 9.99902 -6
c21.333 -20.667 40.666 -59.667 57.999 -117c15.333 -51.333 24 -94.666 26 -129.999zM1053 -241.002c7.33301 -7.33301 7 -14.999 -1 -22.999l-81 -81c-4 -3.33301 -8 -5 -12 -5s-8 1.66699 -12 5l-81 81c-4 4 -6 7.66699 -6 11s1.66699 6.66602 5 9.99902l83 83
c7.33301 7.33301 15 7.33301 23 0zM840.002 -242.001c7.33301 -7.33301 7 -14.999 -1 -22.999l-81 -81c-4 -4 -8 -6 -12 -6s-8 2 -12 6l-81 81c-4 4 -6 7.66699 -6 11s1.66699 6.66602 5 9.99902l83 83c7.33301 7.33301 15 7.33301 23 0zM944.002 -456
c7.33301 -7.33301 6.99902 -15 -1.00098 -23l-80 -81c-4 -4 -8 -6 -12 -6s-8 2 -12 6l-80 81c-7.33301 7.33301 -7.66602 14.333 -0.999023 21l82 82c4 4 8 6 12 6s7.66699 -1.66699 11 -5z" />
    <glyph glyph-name="u0686" unicode="&#x686;" horiz-adv-x="1115" arabic-form="isolated" 
d="M1360 -692c-52.667 -19.333 -130.668 -57.333 -234.001 -114c-88.667 -48.667 -139.334 -73 -152.001 -73c-518.667 0 -778 183.333 -778 550c0 178 53 337.333 159 478c63.333 84 135.333 151 216 201c-50.667 9.33301 -103 14 -157 14
c-68 0 -123.333 -7.33301 -166 -22c-8 -2.66699 -15.333 -4 -22 -4c-18 0 -24.667 12 -20 36c12 60 38.333 110.333 79 151c44 44.667 95 67 153 67c47.333 0 118 -7.16699 212 -21.5s164.667 -21.5 212 -21.5h197c22.667 0 34.334 -6.33301 35.001 -19
c0 -4.66699 -0.666992 -10.667 -2 -18l-39 -182c-133.333 0 -221.666 -6.33301 -264.999 -19c-129.333 -38 -240 -102.667 -332 -194c-108 -107.333 -162 -229 -162 -365c0 -134 84 -237 252 -309c128 -54.667 269 -82 423 -82c128 0 253.333 4.33301 376 13
c39.333 2.66699 59 -6 59 -26c0 -16 -14.667 -29.333 -44 -40zM949.999 -113c7.33301 -7.33301 7.00098 -14.999 -0.999023 -22.999l-81 -81c-3.33301 -3.33301 -7 -5 -11 -5c-4.66699 0 -8.66699 1.66699 -12 5l-81 81c-4 4 -6 7.66699 -6 11s1.66699 6.66602 5 9.99902
l83 83c7.33301 7.33301 14.666 7.33301 21.999 0zM737 -113.999c7.33301 -7.33301 7.00098 -14.999 -0.999023 -22.999l-81 -81c-7.33301 -8 -15 -8 -23 0l-81 81c-4 4 -6 7.66699 -6 11s1.66699 6.66602 5 9.99902l83 83c7.33301 7.33301 14.666 7.33301 21.999 0z
M842.001 -327.998c7.33301 -7.33301 6.99902 -15 -1.00098 -23l-80 -81c-8.66699 -8.66699 -17 -8.66699 -25 0l-80 81c-7.33301 7.33301 -7.66602 14.333 -0.999023 21l82 82c8.66699 8 16.667 8.33301 24 1z" />
    <glyph glyph-name="u0698" unicode="&#x698;" horiz-adv-x="780" arabic-form="isolated" 
d="M777 127c0 -214 -68 -388.333 -204 -523c-60 -59.333 -106.333 -89 -139 -89l-308 101c-18.667 6 -28 15 -28 27c0 17.333 19.333 26 58 26c191.333 0 349 86.333 473 259c43.333 60 65 106 65 138c0 45.333 -57.333 125 -172 239l57 229c4 16.667 8.66699 25 14 25
s13.333 -7 24 -21c106.667 -136.667 160 -273.667 160 -411zM332 791c-7.33301 7.33301 -7.00098 14.999 0.999023 22.999l81 81c3.33301 3.33301 7 5 11 5c4.66699 0 8.66699 -1.66699 12 -5l81 -81c4 -4 6 -7.66699 6 -11s-1.66699 -6.66602 -5 -9.99902l-83 -83
c-7.33301 -7.33301 -14.666 -7.33301 -21.999 0zM544.999 791.999c-7.33301 7.33301 -7.00098 14.999 0.999023 22.999l81 81c8 8 15.667 8 23 0l81 -81c4 -4 6 -7.66699 6 -11s-1.66699 -6.66602 -5 -9.99902l-83 -83c-7.33301 -7.33301 -14.666 -7.33301 -21.999 0z
M439.998 1006c-7.33301 7.33301 -6.99902 15 1.00098 23l80 81c8 8.66699 16.333 8.66699 25 0l80 -81c7.33301 -7.33301 7.66602 -14.333 0.999023 -21l-82 -82c-8 -8 -16 -8.33301 -24 -1z" />
    <glyph glyph-name="u06AF" unicode="&#x6af;" horiz-adv-x="1926" arabic-form="isolated" 
d="M1982 1671c-19.333 -59.333 -42.332 -116.668 -68.999 -172.001c-268 -119.333 -538.333 -271.666 -811 -456.999l16 148c285.333 224.667 566 394 842 508c13.333 5.33301 21.666 6 24.999 2s2.33301 -13.667 -3 -29zM1939 1356
c-6 -26.667 -17.3301 -65.3301 -33.9971 -115.997c-20.667 -63.333 -36.334 -97 -47.001 -101c-235.333 -85.333 -461 -188 -677 -308c-38 -21.333 -57 -37 -57 -47c0 -10.667 17 -24.334 51 -41.001c112 -55.333 184 -94.333 216 -117c89.333 -62.667 134 -128 134 -196
c0 -44.667 -4.33301 -90.667 -13 -138c-12 -64.667 -28.667 -106 -50 -124c-69.333 -58 -187.333 -104 -354 -138c-130.667 -26.667 -253.334 -40 -368.001 -40c-362.667 0 -544 110.667 -544 332c0 37.333 10.333 82.666 31 135.999c20 50.667 42.667 91.667 68 123
c9.33301 12 18.666 18 27.999 18c20.667 0 24 -12.333 10 -37c-20 -36 -30 -71.333 -30 -106c0 -88.667 72.333 -153.667 217 -195c96 -27.333 203 -41 321 -41c90 0 201 9 333 27c183.333 24.667 275 57.667 275 99c0 29.333 -59.333 78.666 -178 147.999
c-123.333 72 -192 132.667 -206 182c-7.33301 24.667 -9 61 -5 109c4 52 14 86.667 30 104c128 140 399.667 301 815 483c15.333 6.66699 25.333 10 30 10c6.66699 0 8 -8.66699 4 -26z" />
    <glyph glyph-name="uFB57" unicode="&#x67e;" horiz-adv-x="1647" arabic-form="final" 
d="M1676 1l-57.998 0.000976562c-56.667 0 -107.334 25.333 -152.001 76c-30.667 34.667 -50.667 69 -60 103c-35.333 -38 -92.333 -74.333 -171 -109c-132.667 -58.667 -288.334 -88 -467.001 -88c-381.333 0 -572 113.667 -572 341c0 56.667 16.333 117 49 181
c26.667 52 55.667 92.333 87 121c6.66699 6 13.667 9 21 9c14.667 0 22 -7 22 -21c0 -4 -1 -8 -3 -12c-35.333 -55.333 -53 -102.333 -53 -141c0 -84 81.333 -145.667 244 -185c104.667 -25.333 217.334 -38 338.001 -38c163.333 0 293 18.667 389 56
c70 27.333 113 58.666 129 93.999c12 26.667 23.667 40 35 40c13.333 0 23.666 -17.667 30.999 -53c20 -97.333 66.667 -146 140 -146h51v-228zM1053 -240.999c7.33301 -7.33301 7 -14.999 -1 -22.999l-81 -81c-4 -3.33301 -8 -5 -12 -5s-8 1.66699 -12 5l-81 81
c-4 4 -6 7.66699 -6 11s1.66699 6.66602 5 9.99902l83 83c7.33301 7.33301 15 7.33301 23 0zM840.002 -241.998c7.33301 -7.33301 7 -14.999 -1 -22.999l-81 -81c-4 -4 -8 -6 -12 -6s-8 2 -12 6l-81 81c-4 4 -6 7.66699 -6 11s1.66699 6.66602 5 9.99902l83 83
c7.33301 7.33301 15 7.33301 23 0zM944.002 -455.997c7.33301 -7.33301 6.99902 -15 -1.00098 -23l-80 -81c-4 -4 -8 -6 -12 -6s-8 2 -12 6l-80 81c-7.33301 7.33301 -7.66602 14.333 -0.999023 21l82 82c4 4 8 6 12 6s7.66699 -1.66699 11 -5z" />
    <glyph glyph-name="uFB58" unicode="&#x67e;" horiz-adv-x="471" arabic-form="initial" 
d="M305 422c0 -152 -34.667 -265.336 -104 -340.003c-50 -54 -106.333 -81 -169 -81h-63v228h68c110.667 0 166 28 166 84c0 47.333 -40 115.333 -120 204l122 130c8 8.66699 13.667 13.334 17 14.001c4 -1.33301 9.33301 -6.66602 16 -15.999
c44.667 -63.333 67 -137.666 67 -222.999zM449 -220.003c7.33301 -7.33301 6.66602 -15.332 -2.00098 -23.999l-80 -81c-4 -3.33301 -8 -5 -12 -5c-4.66699 0 -8.66699 1.66699 -12 5l-81 81c-7.33301 7.33301 -7.66602 14.666 -0.999023 21.999l83 83
c7.33301 7.33301 15 7.33301 23 0zM236 -221.002c7.33301 -7.33301 6.66602 -15.332 -2.00098 -23.999l-80 -81c-8 -8 -16 -8 -24 0l-81 81c-7.33301 7.33301 -7.66602 14.666 -0.999023 21.999l83 83c7.33301 7.33301 15 7.33301 23 0zM340 -435.001
c7.33301 -7.33301 6.99902 -15.333 -1.00098 -24l-80 -81c-8.66699 -8.66699 -17 -8.66699 -25 0l-79 81c-7.33301 8 -7.66602 15.333 -0.999023 22l82 82c4 4 8 6 12 6s7.66699 -1.66699 11 -5z" />
    <glyph glyph-name="uFB59" unicode="&#x67e;" horiz-adv-x="504" arabic-form="medial" 
d="M534 1h-62.0029c-45.333 0 -90.666 12.5 -135.999 37.5s-78.666 57.167 -99.999 96.5c-54 -89.333 -122 -134 -204 -134h-63v228h82c66.667 0 115.334 13.667 146.001 41c22 19.333 40.667 52.333 56 99c8 24.667 20 37 36 37c19.333 0 29 -15 29 -45
c0 -88 39.333 -132 118 -132h98v-228zM448.997 -220c7.33301 -7.33301 6.66602 -15.332 -2.00098 -23.999l-80 -81c-4 -3.33301 -8 -5 -12 -5c-4.66699 0 -8.66699 1.66699 -12 5l-81 81c-7.33301 7.33301 -7.66602 14.666 -0.999023 21.999l83 83
c7.33301 7.33301 15 7.33301 23 0zM235.997 -220.999c7.33301 -7.33301 6.66602 -15.332 -2.00098 -23.999l-80 -81c-8 -8 -16 -8 -24 0l-81 81c-7.33301 7.33301 -7.66602 14.666 -0.999023 21.999l83 83c7.33301 7.33301 15 7.33301 23 0zM339.997 -434.998
c7.33301 -7.33301 6.99902 -15.333 -1.00098 -24l-80 -81c-8.66699 -8.66699 -17 -8.66699 -25 0l-79 81c-7.33301 8 -7.66602 15.333 -0.999023 22l82 82c4 4 8 6 12 6s7.66699 -1.66699 11 -5z" />
    <glyph glyph-name="uFB7B" unicode="&#x686;" horiz-adv-x="1118" arabic-form="final" 
d="M1360 -692c-52.667 -19.333 -130.667 -57.333 -234 -114c-88.667 -48.667 -139.334 -73 -152.001 -73c-518.667 0 -778 183.333 -778 550c0 178 53 337.333 159 478c63.333 84 135.333 151 216 201c-47.333 9.33301 -98.333 14 -153 14c-70 0 -126.667 -7.33301 -170 -22
c-16 -5.33301 -27.333 -5.66602 -34 -0.999023c-8 5.33301 -10.667 16.333 -8 33c8.66699 60 34.334 110.667 77.001 152c44 44 95.667 66 155 66c47.333 0 118 -7.16699 212 -21.5s164.667 -21.5 212 -21.5h197c22.667 0 34.334 -6.33301 35.001 -19
c0 -4.66699 -0.666992 -10.667 -2 -18l-39 -182c-42 -2.66699 -98.667 -8 -170 -16c0 -28.667 3.33301 -47.334 10 -56.001c15.333 -20 51.666 -30 108.999 -30h147v-227h-99c-102 0 -172 28.333 -210 85c-28.667 42.667 -46 117.667 -52 225
c-106.667 -22 -211.667 -83.333 -315 -184c-119.333 -116.667 -179 -241.667 -179 -375c0 -134 84 -237 252 -309c128 -54.667 269 -82 423 -82c128 0 253.333 4.33301 376 13c39.333 2.66699 59 -6 59 -26c0 -16 -14.667 -29.333 -44 -40zM899 -143
c8 -7.33301 7.66699 -15.332 -1 -23.999l-81 -81c-3.33301 -3.33301 -7.33301 -5 -12 -5c-4 0 -7.66699 1.66699 -11 5l-81 81c-7.33301 7.33301 -7.66602 14.666 -0.999023 21.999l83 83c7.33301 7.33301 14.666 7.33301 21.999 0zM686 -143.999
c8 -7.33301 7.66699 -15.332 -1 -23.999l-81 -81c-7.33301 -8 -15 -8 -23 0l-81 81c-7.33301 7.33301 -7.66602 14.666 -0.999023 21.999l83 83c7.33301 7.33301 14.666 7.33301 21.999 0zM791 -357.998c7.33301 -7.33301 6.99902 -15.333 -1.00098 -24l-80 -81
c-8.66699 -8.66699 -17 -8.66699 -25 0l-80 81c-7.33301 8 -7.66602 15.333 -0.999023 22l82 81c8.66699 8 16.667 8.33301 24 1z" />
    <glyph glyph-name="uFB7C" unicode="&#x686;" horiz-adv-x="1022" arabic-form="initial" 
d="M1015 509l-37.002 -176.001c-212.667 0 -385 -40.667 -517 -122l-205 -136c-76 -49.333 -150.667 -74 -224 -74h-63v228h85c90.667 0 180 20.667 268 62l196 92c-125.333 33.333 -216.666 50 -273.999 50c-44 0 -91.333 -9.66699 -142 -29c-21.333 -8 -32 -2 -32 18
c0 4.66699 1.33301 11.334 4 20.001c16.667 53.333 45.334 100 86.001 140c52 51.333 110.667 77 176 77c37.333 0 83.333 -9.66699 138 -29c80 -28 139.333 -46.333 178 -55c88.667 -19.333 195 -29 319 -29c26 0 40.667 -2 44 -6c4 -2.66699 4 -13 0 -31z
M765.998 -143.001c8 -7.33301 7.66699 -15.333 -1 -24l-81 -81c-3.33301 -3.33301 -7.33301 -5 -12 -5c-4 0 -8 1.66699 -12 5l-80 81c-7.33301 8 -7.66602 15.333 -0.999023 22l83 83c7.33301 7.33301 14.666 7.33301 21.999 0zM552.998 -144.001
c8 -7.33301 7.66699 -15.333 -1 -24l-81 -81c-8 -8 -16 -8 -24 0l-80 81c-7.33301 8 -7.66602 15.333 -0.999023 22l83 83c7.33301 7.33301 14.666 7.33301 21.999 0zM656.998 -358.001c7.33301 -7.33301 6.99902 -15.333 -1.00098 -24l-79 -81
c-8 -8.66699 -16.333 -8.66699 -25 0l-80 81c-7.33301 8 -7.66602 15.333 -0.999023 22l82 81c8.66699 8 16.667 8.33301 24 1z" />
    <glyph glyph-name="uFB7D" unicode="&#x686;" horiz-adv-x="1040" arabic-form="medial" 
d="M1071 1l-89.002 0.00195312c-176.667 0 -265 68 -265 204c0 34 5 73.667 15 119c-86 -16.667 -176.333 -54.334 -271 -113.001l-205 -136c-76 -49.333 -150.667 -74 -224 -74h-63v228h85c90.667 0 180 20.667 268 62l196 92c-118 33.333 -208.667 50 -272 50
c-46 0 -94 -9.66699 -144 -29c-21.333 -8 -32 -2 -32 18c0 4.66699 1.33301 11.334 4 20.001c16.667 53.333 45.334 100 86.001 140c52 51.333 110.667 77 176 77c28 0 71.333 -10.667 130 -32c78.667 -28.667 143.334 -48.334 194.001 -59.001
c95.333 -20 202.333 -28 321 -24c18 0.666992 29.333 -3 34 -11c4 -7.33301 4 -20 0 -38l-37 -165h-140c-2.66699 -12.667 -4 -23.334 -4 -32.001c0 -46 45 -69 135 -69h102v-228zM724.998 -142.998c8 -7.33301 7.66699 -15.332 -1 -23.999l-81 -81
c-3.33301 -3.33301 -7.33301 -5 -12 -5c-4 0 -7.66699 1.66699 -11 5l-81 81c-7.33301 7.33301 -7.66602 14.666 -0.999023 21.999l83 83c7.33301 7.33301 14.666 7.33301 21.999 0zM511.998 -143.997c8 -7.33301 7.66699 -15.332 -1 -23.999l-81 -81
c-7.33301 -8 -15 -8 -23 0l-81 81c-7.33301 7.33301 -7.66602 14.666 -0.999023 21.999l83 83c7.33301 7.33301 14.666 7.33301 21.999 0zM615.998 -357.996c7.33301 -7.33301 6.99902 -15.333 -1.00098 -24l-79 -81c-8 -8.66699 -16.333 -8.66699 -25 0l-80 81
c-7.33301 8 -7.66602 15.333 -0.999023 22l82 81c8.66699 8 16.667 8.33301 24 1z" />
    <glyph glyph-name="uFB8B" unicode="&#x698;" horiz-adv-x="947" arabic-form="final" 
d="M978 1l-63.998 -0.000976562c-18 0 -39.667 4.66699 -65 14c-27.333 9.33301 -46 20 -56 32c0 -118 -42.333 -231.833 -127 -341.5s-184.334 -181.5 -299.001 -215.5l-245 104c-18.667 8 -28 17.333 -28 28c0 16 20.333 24.667 61 26
c153.333 4.66699 308.666 83 465.999 235c58.667 56.667 88 118.334 88 185.001c0 18.667 -33.667 65 -101 139l59 160c5.33301 15.333 11 23 17 23s13.667 -6.33301 23 -19c40 -54 68 -88 84 -102c30 -26.667 62.667 -40 98 -40h89v-228zM424.002 626.999
c-7.33301 7.33301 -7.00098 14.999 0.999023 22.999l81 81c3.33301 4 7.33301 6 12 6c4 0 7.66699 -2 11 -6l81 -81c4 -4 6 -7.66699 6 -11s-1.66699 -6.66602 -5 -9.99902l-83 -83c-7.33301 -7.33301 -14.666 -7.33301 -21.999 0zM637.001 627.998
c-7.33301 7.33301 -7.00098 14.999 0.999023 22.999l81 81c8 8 15.667 8 23 0l81 -81c4 -4 6 -7.66699 6 -11s-1.66699 -6.66602 -5 -9.99902l-83 -83c-7.33301 -7.33301 -14.666 -7.33301 -21.999 0zM532 841.997c-6.66699 6.66699 -5.99902 14.333 2.00098 23l79 81
c8 8.66699 16.333 8.66699 25 0l80 -81c7.33301 -7.33301 7.66602 -14.333 0.999023 -21l-82 -82c-8 -8 -16 -8.33301 -24 -1z" />
    <glyph glyph-name="uFEDA" unicode="&#x6a9;" horiz-adv-x="2061" arabic-form="final" 
d="M2093 1l-63.9971 0.00488281c-53.333 0 -133.333 43.667 -240 131c-154.667 126.667 -249 200.334 -283 221.001c1.33301 -8.66699 2 -17.667 2 -27c0 -76.667 -17 -129.334 -51 -158.001c-68.667 -58.667 -185.667 -104.667 -351 -138c-132 -26.667 -254 -40 -366 -40
c-362.667 0 -544 110.667 -544 332c0 37.333 10.333 82.666 31 135.999c20 50.667 42.667 91.667 68 123c9.33301 12 18.666 18 27.999 18c20.667 0 24 -12.333 10 -37c-20 -36 -30 -71.333 -30 -106c0 -88.667 72.333 -153.667 217 -195c96 -27.333 203 -41 321 -41
c90 0 201 9 333 27c183.333 24.667 275 57.667 275 99c0 29.333 -59.333 78.666 -178 147.999c-123.333 72 -192 132.667 -206 182c-7.33301 24.667 -9 61 -5 109c4 52 14 86.667 30 104c128 140 399.667 301 815 483c15.333 6.66699 25.333 10 30 10
c6.66699 0 8 -8.66699 4 -26c-6 -26.667 -17.333 -65.334 -34 -116.001c-20.667 -63.333 -36.334 -97 -47.001 -101c-234.667 -85.333 -460.334 -188 -677.001 -308c-33.333 -18.667 -50 -33.334 -50 -44.001c0 -12.667 19.667 -28.334 59 -47.001
c95.333 -44.667 207.666 -104 336.999 -178c57.333 -32.667 161.333 -109.667 312 -231c84.667 -68 154.334 -102 209.001 -102h45v-228z" />
    <glyph glyph-name="uFEDB" unicode="&#x6a9;" horiz-adv-x="969" arabic-form="initial" 
d="M1000 1469c-6.66699 -31.333 -18.666 -74.332 -35.999 -128.999c-22 -70.667 -38 -107.667 -48 -111c-224.667 -83.333 -465 -206.333 -721 -369c-36.667 -23.333 -55 -39.333 -55 -48c0 -9.33301 16 -22 48 -38c107.333 -53.333 178.666 -92 213.999 -116
c93.333 -63.333 143 -126 149 -188c2 -20.667 3 -43 3 -67c0 -156 -18.333 -252.333 -55 -289c-77.333 -77.333 -218 -115 -422 -113l-108 1v227h150c236.667 0 355 35 355 105c0 31.333 -61.667 83 -185 155c-129.333 76 -201 139 -215 189c-2 7.33301 -3 19.666 -3 36.999
c0 44 4.66699 92.667 14 146c10.667 60.667 22.667 98.334 36 113.001c68 75.333 190.667 164.666 368 267.999c148 86.667 307 168 477 244c14.667 6.66699 24.667 10 30 10c6.66699 0 8 -9 4 -27z" />
    <glyph glyph-name="uFEDC" unicode="&#x6a9;" horiz-adv-x="1029" arabic-form="medial" 
d="M1059 1l-65 -0.00195312c-48 0 -101.333 20.667 -160 62c-40.667 28.667 -98.167 77.334 -172.5 146.001s-132.5 117.667 -174.5 147c7.33301 -49.333 11 -81 11 -95c0 -173.333 -140.333 -260 -421 -260h-108v228h154c208.667 0 313 33.333 313 100
c0 34 -62.667 87.667 -188 161c-132 77.333 -204.333 139.333 -217 186c-3.33301 12 -5 30 -5 54c0 116.667 16 192.667 48 228c67.333 74.667 196.666 165.667 387.999 273c150 84.667 302.667 160.334 458 227.001c18 8 29 11 33 9c4 -1.33301 4.33301 -9.66602 1 -24.999
c-33.333 -152 -57.333 -230.667 -72 -236c-260.667 -92.667 -504 -212 -730 -358c-34 -22 -51 -39.333 -51 -52s18 -27 54 -43c163.333 -72.667 288.333 -138.334 375 -197.001c70.667 -47.333 172.334 -126.333 305.001 -237c72 -60 131.667 -90 179 -90h45v-228z" />
    <glyph glyph-name="uFB93" unicode="&#x6af;" horiz-adv-x="2061" arabic-form="final" 
d="M1982 1671c-19.333 -59.333 -42.332 -116.668 -68.999 -172.001c-268 -119.333 -538.333 -271.666 -811 -456.999l16 148c285.333 224.667 566 394 842 508c13.333 5.33301 21.666 6 24.999 2s2.33301 -13.667 -3 -29zM2093 0.998047l-64 0.00390625
c-53.333 0 -133.333 43.667 -240 131c-154.667 126.667 -249 200.334 -283 221.001c1.33301 -8.66699 2 -17.667 2 -27c0 -76.667 -17 -129.334 -51 -158.001c-68.667 -58.667 -185.667 -104.667 -351 -138c-132 -26.667 -254 -40 -366 -40
c-362.667 0 -544 110.667 -544 332c0 37.333 10.333 82.666 31 135.999c20 50.667 42.667 91.667 68 123c9.33301 12 18.666 18 27.999 18c20.667 0 24 -12.333 10 -37c-20 -36 -30 -71.333 -30 -106c0 -88.667 72.333 -153.667 217 -195c96 -27.333 203 -41 321 -41
c90 0 201 9 333 27c183.333 24.667 275 57.667 275 99c0 29.333 -59.333 78.666 -178 147.999c-123.333 72 -192 132.667 -206 182c-7.33301 24.667 -9 61 -5 109c4 52 14 86.667 30 104c128 140 399.667 301 815 483c15.333 6.66699 25.333 10 30 10
c6.66699 0 8 -8.66699 4 -26c-6 -26.667 -17.333 -65.334 -34 -116.001c-20.667 -63.333 -36.334 -97 -47.001 -101c-225.333 -82 -449.333 -184.667 -672 -308c-32.667 -18 -49 -32.667 -49 -44c0 -12.667 19.333 -28.334 58 -47.001
c88.667 -42.667 199.334 -102 332.001 -178c58.667 -34 162.667 -111 312 -231c84.667 -68 154.334 -102 209.001 -102h45v-228z" />
    <glyph glyph-name="uFB94" unicode="&#x6af;" horiz-adv-x="935" arabic-form="initial" 
d="M979 1692c-20.667 -60 -44.001 -117.332 -70.001 -171.999c-267.333 -120 -537.666 -272.333 -810.999 -457l17 147c282.667 223.333 563 392.666 841 507.999c14 6 22.667 6.66699 26 2c3.33301 -4 2.33301 -13.333 -3 -28zM950.999 1386
c-5.33301 -24.667 -17.333 -65.335 -36 -122.002c-22.667 -67.333 -38 -102.666 -46 -105.999c-266 -97.333 -494.333 -203.333 -685 -318c-22 -13.333 -33 -26.333 -33 -39c0 -14 13.333 -27.667 40 -41c122.667 -60.667 193 -97 211 -109
c92 -59.333 141.667 -119.666 149 -180.999c4.66699 -39.333 7 -80.333 7 -123c0 -112 -16 -187.667 -48 -227c-64 -79.333 -208.333 -119 -433 -119h-108v228h150c241.333 0 362 33.333 362 100c0 31.333 -62.667 84 -188 158c-132 78 -205 141.667 -219 191
c-3.33301 12 -5 31.667 -5 59c0 107.333 13 174 39 200c52.667 52.667 165 128 337 226c165.333 94 322.333 174 471 240c14.667 6.66699 25 10 31 10c6.66699 0 8 -9 4 -27z" />
    <glyph glyph-name="uFB95" unicode="&#x6af;" horiz-adv-x="1029" arabic-form="medial" 
d="M958 1692c-18.667 -58 -41.666 -115.333 -68.999 -172c-268 -120 -538.333 -272.333 -811 -457l16 147c283.333 224 564 393.333 842 508c13.333 5.33301 21.666 6 24.999 2c2.66699 -4 1.66699 -13.333 -3 -28zM1059 1h-65.002c-48 0 -101.333 20.667 -160 62
c-40.667 28.667 -98.167 77.334 -172.5 146.001s-132.5 117.667 -174.5 147c7.33301 -49.333 11 -81 11 -95c0 -173.333 -140.333 -260 -421 -260h-108v228h154c208.667 0 313 33.333 313 100c0 33.333 -60.333 84.666 -181 153.999
c-126.667 72.667 -196.334 133 -209.001 181c-9.33301 35.333 -14 77 -14 125c0 56.667 8.66699 94.667 26 114c65.333 72.667 191.333 161 378 265c151.333 84 300.333 157.333 447 220c18 7.33301 29 10.333 33 9c4.66699 -2 5.33398 -10.667 2.00098 -26
c-32.667 -145.333 -56 -220.333 -70 -225c-245.333 -79.333 -475.666 -178.666 -690.999 -297.999c-34.667 -19.333 -52 -36 -52 -50c0 -13.333 18.333 -28.333 55 -45c154 -68.667 277.333 -134.334 370 -197.001c70.667 -47.333 172.334 -126.333 305.001 -237
c72 -60 131.667 -90 179 -90h45v-228z" />
    <glyph glyph-name="uFE94" unicode="&#x6c0;" horiz-adv-x="815" arabic-form="final" 
d="M846 1l-62.002 0.00292969c-77.333 0 -138.333 61 -183 183c-18.667 51.333 -43.667 158 -75 320c-29.333 -8.66699 -61.666 -24 -96.999 -46c-42.667 -26.667 -64 -50.334 -64 -71.001c0 -36.667 62 -60 186 -70c0 -18.667 -16.667 -54.334 -50 -107.001
c-37.333 -59.333 -70 -89 -98 -89c-42 0 -83.333 8.33301 -124 25c-52 21.333 -78 50.333 -78 87c0 27.333 10.333 65 31 113c18.667 46 37.334 80.667 56.001 104s53 51.666 103 84.999c48 32 87 53.667 117 65l-21 133l83 111c6.66699 9.33301 12.667 14 18 14
c6 0 10 -7 12 -21c16.667 -115.333 41.334 -264 74.001 -446c11.333 -62 29.666 -106.333 54.999 -133c18.667 -19.333 48 -29 88 -29h29v-228zM606.998 976.003l-353.999 -86c-6 -1.33301 -9 4.33398 -9 17.001c0 42.667 8 67 24 73l69 26
c-37.333 35.333 -56 77.666 -56 126.999c0 33.333 19 71.666 57 114.999s73.333 65 106 65c25.333 0 48.666 -6 69.999 -18c25.333 -14 38 -32.667 38 -56c0 -8.66699 -5.33301 -23.667 -16 -45s-19.334 -32 -26.001 -32c-3.33301 0 -16.166 6.16699 -38.499 18.5
s-40.166 18.5 -53.499 18.5c-25.333 0 -38 -14.333 -38 -43c0 -18 15.333 -38.667 46 -62c25.333 -19.333 45.333 -30.666 60 -33.999l121 29c3.33301 0 6.66602 0.666992 9.99902 2c8.66699 2 13 0 13 -6c0 -14 -7.66699 -50.333 -23 -109z" />
    <glyph glyph-name="uFEF2" unicode="&#x6cc;" horiz-adv-x="1321" arabic-form="final" 
d="M1352 1l-62.001 0.00292969c-208.667 0 -313 -23.667 -313 -71c0 -14.667 23.667 -27.334 71 -38.001c74.667 -16.667 118.334 -27.667 131.001 -33c46.667 -19.333 70 -46 70 -80c0 -67.333 -6 -109.666 -18 -126.999c-34.667 -50.667 -108.334 -105 -221.001 -163
c-138 -71.333 -272.667 -107 -404 -107c-135.333 0 -240.333 40 -315 120c-63.333 68 -95 150.667 -95 248c0 68 17.667 144 53 228c27.333 65.333 58.333 120.666 93 165.999c14 18 26.333 27 37 27c10 0 15 -6.66699 15 -20c0 -8.66699 -2.66699 -17.667 -8 -27
c-50 -87.333 -75 -166.333 -75 -237c0 -181.333 143.333 -272 430 -272c52.667 0 128.334 9 227.001 27c122 22 183 47 183 75c0 9.33301 -31 18.666 -93 27.999c-70 10 -114 22 -132 36c-34.667 26.667 -52 73 -52 139c0 117.333 51.333 202.666 154 255.999
c68 35.333 144.333 53 229 53h95v-228z" />
    <glyph glyph-name="uFEF3" unicode="&#x6cc;" horiz-adv-x="483" arabic-form="initial" 
d="M305 422c0 -152 -34.667 -265.336 -104 -340.003c-50 -54 -106.333 -81 -169 -81h-63v228h68c110.667 0 166 28 166 84c0 47.333 -40 115.333 -120 204l122 130c8 8.66699 13.667 13.334 17 14.001c4 -1.33301 9.33301 -6.66602 16 -15.999
c44.667 -63.333 67 -137.666 67 -222.999zM460 -271.003l-83 -82c-8 -8 -16 -8 -24 0l-84 84c-2 2.66699 -3 6 -3 10s1 7.33301 3 10l85 84c8 7.33301 15.667 7.33301 23 0l83 -83c8 -8 8 -15.667 0 -23zM251 -270.003l-83 -82c-8 -8 -16 -8 -24 0l-84 84
c-2 2.66699 -3 6 -3 10s1 7.33301 3 10l85 84c8 7.33301 15.667 7.33301 23 0l83 -83c8 -8 8 -15.667 0 -23z" />
    <glyph glyph-name="uFEF4" unicode="&#x6cc;" horiz-adv-x="504" arabic-form="medial" 
d="M534 1h-62.0029c-45.333 0 -90.666 12.5 -135.999 37.5s-78.666 57.167 -99.999 96.5c-54 -89.333 -122 -134 -204 -134h-63v228h82c66.667 0 115.334 13.667 146.001 41c22 19.333 40.667 52.333 56 99c8 24.667 20 37 36 37c19.333 0 29 -15 29 -45
c0 -88 39.333 -132 118 -132h98v-228zM459.997 -271l-83 -82c-8 -8 -16 -8 -24 0l-84 84c-2 2.66699 -3 6 -3 10s1 7.33301 3 10l85 84c8 7.33301 15.667 7.33301 23 0l83 -83c8 -8 8 -15.667 0 -23zM250.997 -270l-83 -82c-8 -8 -16 -8 -24 0l-84 84c-2 2.66699 -3 6 -3 10
s1 7.33301 3 10l85 84c8 7.33301 15.667 7.33301 23 0l83 -83c8 -8 8 -15.667 0 -23z" />
    <glyph glyph-name="Hcircumflex" unicode="&#x622;" horiz-adv-x="727" arabic-form="final" 
d="M760 1h-82.998c-84.667 0 -141.667 52.333 -171 157c-12.667 46 -28.334 170.667 -47.001 374c-16 179.333 -35.667 343 -59 491l96 148c5.33301 8 9.66602 12.333 12.999 13c4.66699 2 8.33398 -3.33301 11.001 -16c8 -40 30.333 -290 67 -750
c4.66699 -60.667 14 -104 28 -130c21.333 -39.333 57.666 -59 108.999 -59h36v-228zM850.002 1368c0 -28 -50.6689 -50.333 -152.002 -67c-92.667 -15.333 -197 -23 -313 -23c-74.667 0 -117.667 -19.333 -129 -58c-4 -13.333 -8.66699 -20 -14 -20
c-23.333 0 -43.833 10.667 -61.5 32s-26.5 44 -26.5 68c0 88 44.333 132 133 132c46.667 0 115.834 -7.16699 207.501 -21.5s160.834 -21.5 207.501 -21.5c117.333 0 149 0.666992 95 2c35.333 -1.33301 53 -9 53 -23z" />
    <glyph glyph-name="uFE84" unicode="&#x623;" horiz-adv-x="596" arabic-form="final" 
d="M627 1l-83.001 0.000976562c-84.667 0 -141.667 52.333 -171 157c-12 43.333 -27.667 168 -47 374c-16 172 -35.667 335.667 -59 491l95 148c12.667 19.333 21 18.333 25 -3c8.66699 -43.333 31 -293.333 67 -750c4.66699 -62.667 13.667 -106.334 27 -131.001
c20.667 -38.667 57.334 -58 110.001 -58h36v-228zM519.999 1324l-353.999 -86c-6 -1.33301 -9 4.33398 -9 17.001c0 42.667 8 67 24 73l69 26c-37.333 35.333 -56 77.666 -56 126.999c0 33.333 19 71.666 57 114.999s73.333 65 106 65c25.333 0 48.666 -6 69.999 -18
c25.333 -14 38 -32.667 38 -56c0 -8.66699 -5.33301 -23.667 -16 -45s-19.334 -32 -26.001 -32c-3.33301 0 -16.166 6.16699 -38.499 18.5s-40.166 18.5 -53.499 18.5c-25.333 0 -38 -14.333 -38 -43c0 -18 15.333 -38.667 46 -62c25.333 -19.333 45.333 -30.666 60 -33.999
l121 29c3.33301 0 6.66602 0.666992 9.99902 2c8.66699 2 13 0 13 -6c0 -14 -7.66699 -50.333 -23 -109z" />
    <glyph glyph-name="uFE86" unicode="&#x624;" horiz-adv-x="1011" arabic-form="final" 
d="M1040 1l-171 -0.000976562c-24 -111.333 -73.667 -210.666 -149 -297.999c-56 -65.333 -120.333 -118.666 -193 -159.999c-58.667 -33.333 -92.334 -48.333 -101.001 -45c-138 56 -234.333 91.667 -289 107c-18.667 5.33301 -28 14.666 -28 27.999c0 17.333 15 27 45 29
c95.333 6 174 20 236 42c80.667 28.667 156.334 69 227.001 121c82 60.667 137.667 124 167 190c-155.333 18.667 -233 80.667 -233 186c0 65.333 19.667 142 59 230c46 103.333 97.333 155 154 155c94.667 0 142 -119 142 -357h134v-228zM818 237.999
c0 30.667 -7.00098 60.667 -21.001 90c-17.333 36 -39.333 54 -66 54c-21.333 0 -40.166 -7.5 -56.499 -22.5s-24.5 -33.167 -24.5 -54.5c0 -44.667 56 -67 168 -67zM857.999 816.999l-354.002 -86.001c-6 -1.33301 -9 4.33398 -9 17.001c0 42.667 8 67 24 73l69 26
c-38 36 -57 78.333 -57 127c0 33.333 19.167 71.666 57.5 114.999s73.833 65 106.5 65c25.333 0 48.666 -6 69.999 -18c25.333 -14 38 -32.667 38 -56c0 -8.66699 -5.16699 -23.5 -15.5 -44.5s-19.166 -31.5 -26.499 -31.5c-3.33301 0 -16.166 6 -38.499 18
s-40.166 18 -53.499 18c-25.333 0 -38 -14.333 -38 -43c0 -18 15.333 -38.667 46 -62c25.333 -19.333 45.333 -30.666 60 -33.999l121 29l10 2c8.66699 2 13 0 13 -6c0 -14 -7.66699 -50.333 -23 -109z" />
    <glyph glyph-name="uFE88" unicode="&#x625;" horiz-adv-x="625" arabic-form="final" 
d="M657 1l-83.001 -0.000976562c-83.333 0 -140 52.333 -170 157c-14 48.667 -30 173.334 -48 374.001c-16 177.333 -35.333 341 -58 491l95 148c12 18.667 20.333 17.667 25 -3c6.66699 -32 28.667 -282 66 -750c4.66699 -61.333 14 -105 28 -131
c20.667 -38.667 57.334 -58 110.001 -58h35v-228zM611.999 -417.001l-354.003 -86.002c-6 -1.33301 -9 4.33398 -9 17.001c0 42.667 8 67 24 73l69 26c-37.333 36 -56 78.333 -56 127c0 34 19 72.5 57 115.5s73.667 64.5 107 64.5c25.333 0 48.333 -6 69 -18
c25.333 -14 38 -32.667 38 -56c0 -8.66699 -5.16699 -23.5 -15.5 -44.5s-19.166 -31.5 -26.499 -31.5c-3.33301 0 -16.166 6 -38.499 18s-40.166 18 -53.499 18c-25.333 0 -38 -14.333 -38 -43c0 -17.333 15.333 -37.666 46 -60.999c26 -20 46.333 -31.667 61 -35l130 31
c8.66699 2 13 0 13 -6c0 -16 -7.66699 -52.333 -23 -109z" />
    <glyph glyph-name="uFE8A" unicode="&#x626;" horiz-adv-x="1321" arabic-form="final" 
d="M1352 1l-62.001 0.00292969c-208.667 0 -313 -23.667 -313 -71c0 -14.667 23.667 -27.334 71 -38.001c74.667 -16.667 118.334 -27.667 131.001 -33c46.667 -19.333 70 -46 70 -80c0 -67.333 -6 -109.666 -18 -126.999c-34.667 -50.667 -108.334 -105 -221.001 -163
c-138 -71.333 -272.667 -107 -404 -107c-135.333 0 -240.333 40 -315 120c-63.333 68 -95 150.667 -95 248c0 68 17.667 144 53 228c27.333 65.333 58.333 120.666 93 165.999c14 18 26.333 27 37 27c10 0 15 -6.66699 15 -20c0 -8.66699 -2.66699 -17.667 -8 -27
c-50 -87.333 -75 -166.333 -75 -237c0 -181.333 143.333 -272 430 -272c52.667 0 128.334 9 227.001 27c122 22 183 47 183 75c0 9.33301 -31 18.666 -93 27.999c-70 10 -114 22 -132 36c-34.667 26.667 -52 73 -52 139c0 117.333 51.333 202.666 154 255.999
c68 35.333 144.333 53 229 53h95v-228zM558.999 378.003l-353.999 -85.999c-6 -1.33301 -9 4.33398 -9 17.001c0 42.667 8 67 24 73l69 26c-38 35.333 -57 77.666 -57 126.999c0 33.333 19.167 71.666 57.5 114.999s73.833 65 106.5 65c25.333 0 48.666 -6 69.999 -18
c25.333 -14 38 -32.667 38 -56c0 -8.66699 -5.33301 -23.667 -16 -45s-19.334 -32 -26.001 -32c-3.33301 0 -16.166 6.16699 -38.499 18.5s-40.166 18.5 -53.499 18.5c-25.333 0 -38 -14.333 -38 -43c0 -18 15.333 -38.667 46 -62c25.333 -19.333 45.333 -30.666 60 -33.999
c29.333 7.33301 69.666 16.666 120.999 27.999c2 0.666992 5.33301 1.66699 10 3c8.66699 2 13 0 13 -6c0 -14 -7.66699 -50.333 -23 -109z" />
    <glyph glyph-name="uFE8B" unicode="&#x626;" horiz-adv-x="410" arabic-form="initial" 
d="M305 422c0 -152 -34.667 -265.336 -104 -340.003c-50 -54 -106.333 -81 -169 -81h-63v228h68c110.667 0 166 28 166 84c0 47.333 -40 115.333 -120 204l122 130c8 8.66699 13.667 13.334 17 14.001c4 -1.33301 9.33301 -6.66602 16 -15.999
c44.667 -63.333 67 -137.666 67 -222.999zM382 853.997l-353.998 -86c-6 -1.33301 -9 4.33398 -9 17.001c0 42.667 8 67 24 73l69 26c-38 35.333 -57 77.666 -57 126.999c0 33.333 19.167 71.666 57.5 114.999s73.833 65 106.5 65c25.333 0 48.666 -6 69.999 -18
c25.333 -14 38 -32.667 38 -56c0 -8.66699 -5.33301 -23.667 -16 -45s-19.334 -32 -26.001 -32c-3.33301 0 -16.166 6.16699 -38.499 18.5s-40.166 18.5 -53.499 18.5c-25.333 0 -38 -14.333 -38 -43c0 -18 15.333 -38.667 46 -62c25.333 -19.333 45.333 -30.666 60 -33.999
l121 29c3.33301 0 6.66602 0.666992 9.99902 2c8.66699 2 13 0 13 -6c-4.66699 -24 -12.334 -60.333 -23.001 -109z" />
    <glyph glyph-name="uFE8C" unicode="&#x626;" horiz-adv-x="504" arabic-form="medial" 
d="M534 1h-62.0029c-45.333 0 -90.666 12.5 -135.999 37.5s-78.666 57.167 -99.999 96.5c-54 -89.333 -122 -134 -204 -134h-63v228h82c66.667 0 115.334 13.667 146.001 41c22 19.333 40.667 52.333 56 99c8 24.667 20 37 36 37c19.333 0 29 -15 29 -45
c0 -88 39.333 -132 118 -132h98v-228zM432.997 607l-354.002 -86.002c-6 -1.33301 -9 4.33398 -9 17.001c0 42.667 8 67 24 73l69 26c-38 36 -57 78.333 -57 127c0 33.333 19.167 71.666 57.5 114.999s73.833 65 106.5 65c25.333 0 48.666 -6 69.999 -18
c25.333 -14 38 -32.667 38 -56c0 -8.66699 -5.16699 -23.5 -15.5 -44.5s-19.166 -31.5 -26.499 -31.5c-3.33301 0 -16.166 6 -38.499 18s-40.166 18 -53.499 18c-25.333 0 -38 -14.333 -38 -43c0 -17.333 15.333 -37.666 46 -60.999c26 -20 46 -31.667 60 -35l121 29l10 2
c8.66699 2 13 0 13 -6c0 -13.333 -7.66699 -49.666 -23 -108.999z" />
    <glyph glyph-name="uFE8E" unicode="&#x627;" horiz-adv-x="524" arabic-form="final" 
d="M555 1l-82.999 -0.000976562c-84.667 0 -141.667 52.333 -171 157c-12.667 46 -28.334 170.667 -47.001 374c-16.667 180.667 -36 344.334 -58 491.001l95 148c12 18.667 20 17.667 24 -3c8.66699 -43.333 31 -293.333 67 -750c4.66699 -60.667 14 -104 28 -130
c20.667 -39.333 57 -59 109 -59h36v-228z" />
    <glyph glyph-name="uFE90" unicode="&#x628;" horiz-adv-x="1647" arabic-form="final" 
d="M1676 1l-57.998 0.000976562c-56.667 0 -107.334 25.333 -152.001 76c-30.667 34.667 -50.667 69 -60 103c-35.333 -38 -92.333 -74.333 -171 -109c-132.667 -58.667 -288.334 -88 -467.001 -88c-381.333 0 -572 113.667 -572 341c0 56.667 16.333 117 49 181
c26.667 52 55.667 92.333 87 121c6.66699 6 13.667 9 21 9c14.667 0 22 -7 22 -21c0 -4 -1 -8 -3 -12c-35.333 -55.333 -53 -102.333 -53 -141c0 -84 81.333 -145.667 244 -185c104.667 -25.333 217.334 -38 338.001 -38c163.333 0 293 18.667 389 56
c70 27.333 113 58.666 129 93.999c12 26.667 23.667 40 35 40c13.333 0 23.666 -17.667 30.999 -53c20 -97.333 66.667 -146 140 -146h51v-228zM929.002 -326.999l-98 -97c-4 -4 -8.33301 -6 -13 -6s-9 2 -13 6l-98 97c-8.66699 8.66699 -9 17 -1 25l99 99
c2.66699 3.33301 7 5 13 5s10.333 -1.66699 13 -5l98 -97c9.33301 -9.33301 9.33301 -18.333 0 -27z" />
    <glyph glyph-name="uFE91" unicode="&#x628;" horiz-adv-x="307" arabic-form="initial" 
d="M305 422c0 -152 -34.667 -265.336 -104 -340.003c-50 -54 -106.333 -81 -169 -81h-63v228h68c110.667 0 166 28 166 84c0 47.333 -40 115.333 -120 204l122 130c8 8.66699 13.667 13.334 17 14.001c4 -1.33301 9.33301 -6.66602 16 -15.999
c44.667 -63.333 67 -137.666 67 -222.999zM284 -296.003l-97.999 -97c-8.66699 -8.66699 -17.334 -8.66699 -26.001 0l-99 97c-8.66699 8.66699 -9 17 -1 25l100 99c2.66699 3.33301 7 5 13 5s10.333 -1.66699 13 -5l98 -97c9.33301 -9.33301 9.33301 -18.333 0 -27z" />
    <glyph glyph-name="uFE92" unicode="&#x628;" horiz-adv-x="504" arabic-form="medial" 
d="M534 1h-62.0029c-45.333 0 -90.666 12.5 -135.999 37.5s-78.666 57.167 -99.999 96.5c-54 -89.333 -122 -134 -204 -134h-63v228h82c66.667 0 115.334 13.667 146.001 41c22 19.333 40.667 52.333 56 99c8 24.667 20 37 36 37c19.333 0 29 -15 29 -45
c0 -88 39.333 -132 118 -132h98v-228zM344.997 -296l-96.999 -97c-8.66699 -8.66699 -17.667 -8.66699 -27 0l-98 97c-8.66699 8.66699 -9 17 -1 25l99 99c3.33301 3.33301 7.66602 5 12.999 5c6 0 10.667 -1.66699 14 -5l97 -97c9.33301 -9.33301 9.33301 -18.333 0 -27z
" />
    <glyph glyph-name="uFE96" unicode="&#x62a;" horiz-adv-x="1647" arabic-form="final" 
d="M1676 1l-57.998 0.000976562c-56.667 0 -107.334 25.333 -152.001 76c-30.667 34.667 -50.667 69 -60 103c-35.333 -38 -92.333 -74.333 -171 -109c-132.667 -58.667 -288.334 -88 -467.001 -88c-381.333 0 -572 113.667 -572 341c0 56.667 16.333 117 49 181
c26.667 52 55.667 92.333 87 121c6.66699 6 13.667 9 21 9c14.667 0 22 -7 22 -21c0 -4 -1 -8 -3 -12c-35.333 -55.333 -53 -102.333 -53 -141c0 -84 81.333 -145.667 244 -185c104.667 -25.333 217.334 -38 338.001 -38c163.333 0 293 18.667 389 56
c70 27.333 113 58.666 129 93.999c12 26.667 23.667 40 35 40c13.333 0 23.666 -17.667 30.999 -53c20 -97.333 66.667 -146 140 -146h51v-228zM1056 793.001l-83 -82c-8 -8 -16 -8 -24 0l-84 84c-2 2 -3 5.33301 -3 10c0 4 1 7.33301 3 10l85 84
c8 7.33301 15.667 7.33301 23 0l83 -83c8 -8 8 -15.667 0 -23zM847.002 794.001l-83 -82c-8 -8 -16 -8 -24 0l-84 84c-2 2 -3 5.33301 -3 10c0 4 1 7.33301 3 10l85 84c8 7.33301 15.667 7.33301 23 0l83 -83c8 -8 8 -15.667 0 -23z" />
    <glyph glyph-name="uFE97" unicode="&#x62a;" horiz-adv-x="467" arabic-form="initial" 
d="M305 422c0 -152 -34.667 -265.336 -104 -340.003c-50 -54 -106.333 -81 -169 -81h-63v228h68c110.667 0 166 28 166 84c0 47.333 -40 115.333 -120 204l122 130c8 8.66699 13.667 13.334 17 14.001c4 -1.33301 9.33301 -6.66602 16 -15.999
c44.667 -63.333 67 -137.666 67 -222.999zM441 914.997l-82.998 -81c-8.66699 -8.66699 -16.334 -8.66699 -23.001 0l-84 84c-2 2 -3 5.33301 -3 10c0 4 1 7.33301 3 10l85 84c7.33301 7.33301 14.666 7.33301 21.999 0l83 -83c8 -8 8 -16 0 -24zM232.002 915.997l-82 -81
c-8 -8 -16 -8 -24 0l-84 84c-2 2 -3 5.33301 -3 10c0 4 1 7.33301 3 10l85 84c8 8 15.667 8 23 0l82 -83c8 -8 8 -16 0 -24z" />
    <glyph glyph-name="uFE98" unicode="&#x62a;" horiz-adv-x="504" arabic-form="medial" 
d="M534 1h-62.0029c-45.333 0 -90.666 12.5 -135.999 37.5s-78.666 57.167 -99.999 96.5c-54 -89.333 -122 -134 -204 -134h-63v228h82c66.667 0 115.334 13.667 146.001 41c22 19.333 40.667 52.333 56 99c8 24.667 20 37 36 37c19.333 0 29 -15 29 -45
c0 -88 39.333 -132 118 -132h98v-228zM451.997 690l-83 -82.001c-8 -8 -16 -8 -24 0l-84 84c-2 2.66699 -3 6 -3 10c0 4.66699 1 8.33398 3 11.001l85 84c8 7.33301 15.667 7.33301 23 0l83 -83c8 -8 8 -16 0 -24zM242.997 690.999l-83 -82.001c-8 -8 -16 -8 -24 0l-84 84
c-2 2.66699 -3 6 -3 10c0 4.66699 1 8.33398 3 11.001l85 84c8 7.33301 15.667 7.33301 23 0l83 -83c8 -8 8 -16 0 -24z" />
    <glyph glyph-name="uFE9A" unicode="&#x62b;" horiz-adv-x="1647" arabic-form="final" 
d="M1676 1l-57.998 0.000976562c-56.667 0 -107.334 25.333 -152.001 76c-30.667 34.667 -50.667 69 -60 103c-35.333 -38 -92.333 -74.333 -171 -109c-132.667 -58.667 -288.334 -88 -467.001 -88c-381.333 0 -572 113.667 -572 341c0 56.667 16.333 117 49 181
c26.667 52 55.667 92.333 87 121c6.66699 6 13.667 9 21 9c14.667 0 22 -7 22 -21c0 -4 -1 -8 -3 -12c-35.333 -55.333 -53 -102.333 -53 -141c0 -84 81.333 -145.667 244 -185c104.667 -25.333 217.334 -38 338.001 -38c163.333 0 293 18.667 389 56
c70 27.333 113 58.666 129 93.999c12 26.667 23.667 40 35 40c13.333 0 23.666 -17.667 30.999 -53c20 -97.333 66.667 -146 140 -146h51v-228zM654.002 742.001c-8 7.33301 -7.66699 15.333 1 24l81 81c4 3.33301 8 5 12 5s8 -1.66699 12 -5l81 -81
c8 -8 8.33301 -15.333 1 -22l-83 -82c-7.33301 -7.33301 -15 -7.33301 -23 0zM867.002 743.001c-8 7.33301 -7.66699 15.333 1 24l81 81c4 4 8 6 12 6s8 -2 12 -6l81 -81c8 -8 8.33301 -15.333 1 -22l-83 -82c-7.33301 -7.33301 -15 -7.33301 -23 0zM763.002 957.001
c-7.33301 7.33301 -6.99902 15.333 1.00098 24l80 81c4 4 8 6 12 6s8 -2 12 -6l80 -81c7.33301 -8 7.66602 -15.333 0.999023 -22l-82 -81c-8 -8 -15.667 -8.33301 -23 -1z" />
    <glyph glyph-name="uFE9B" unicode="&#x62b;" horiz-adv-x="461" arabic-form="initial" 
d="M305 422c0 -152 -34.667 -265.336 -104 -340.003c-50 -54 -106.333 -81 -169 -81h-63v228h68c110.667 0 166 28 166 84c0 47.333 -40 115.333 -120 204l122 130c8 8.66699 13.667 13.334 17 14.001c4 -1.33301 9.33301 -6.66602 16 -15.999
c44.667 -63.333 67 -137.666 67 -222.999zM35 864.997c-8 7.33301 -7.66797 15.332 0.999023 23.999l81 81c3.33301 3.33301 7.33301 5 12 5c4 0 7.66699 -1.66699 11 -5l81 -81c8 -7.33301 8.33301 -14.666 1 -21.999l-83 -83
c-7.33301 -7.33301 -14.666 -7.33301 -21.999 0zM247.999 865.996c-8 7.33301 -7.66797 15.332 0.999023 23.999l81 81c8 8 15.667 8 23 0l81 -81c8 -7.33301 8.33301 -14.666 1 -21.999l-83 -83c-7.33301 -7.33301 -14.666 -7.33301 -21.999 0zM142.998 1080
c-7.33301 7.33301 -6.99902 15.333 1.00098 24l80 81c8 8.66699 16.333 8.66699 25 0l80 -81c7.33301 -8 7.66602 -15.333 0.999023 -22l-82 -82c-8 -8 -16 -8.33301 -24 -1z" />
    <glyph glyph-name="uFE9C" unicode="&#x62b;" horiz-adv-x="504" arabic-form="medial" 
d="M534 1h-62.0029c-45.333 0 -90.666 12.5 -135.999 37.5s-78.666 57.167 -99.999 96.5c-54 -89.333 -122 -134 -204 -134h-63v228h82c66.667 0 115.334 13.667 146.001 41c22 19.333 40.667 52.333 56 99c8 24.667 20 37 36 37c19.333 0 29 -15 29 -45
c0 -88 39.333 -132 118 -132h98v-228zM54.9971 660c-8 7.33301 -7.66699 15.332 1 23.999l81 81c4 3.33301 8 5 12 5s8 -1.66699 12 -5l81 -81c4 -4 6 -7.66699 6 -11s-1.66699 -6.66602 -5 -9.99902l-83 -83c-7.33301 -7.33301 -15 -7.33301 -23 0zM267.997 661.999
c-7.33301 7.33301 -7 14.999 1 22.999l81 81c4 4 8 6 12 6s8 -2 12 -6l81 -81c4 -4 6 -7.66699 6 -11s-1.66699 -6.66602 -5 -9.99902l-83 -83c-7.33301 -7.33301 -15 -7.33301 -23 0zM163.997 875.998c-7.33301 7.33301 -6.99902 15 1.00098 23l80 81c4 4 8 6 12 6
s8 -2 12 -6l80 -81c7.33301 -7.33301 7.66602 -14.333 0.999023 -21l-82 -82c-4.66699 -4.66699 -8.66699 -7 -12 -7s-7 2 -11 6z" />
    <glyph glyph-name="uFE9E" unicode="&#x62c;" horiz-adv-x="1118" arabic-form="final" 
d="M1360 -692c-52.667 -19.333 -130.667 -57.333 -234 -114c-88.667 -48.667 -139.334 -73 -152.001 -73c-518.667 0 -778 183.333 -778 550c0 178 53 337.333 159 478c63.333 84 135.333 151 216 201c-47.333 9.33301 -98.333 14 -153 14c-70 0 -126.667 -7.33301 -170 -22
c-16 -5.33301 -27.333 -5.66602 -34 -0.999023c-8 5.33301 -10.667 16.333 -8 33c8.66699 60 34.334 110.667 77.001 152c44 44 95.667 66 155 66c47.333 0 118 -7.16699 212 -21.5s164.667 -21.5 212 -21.5h197c22.667 0 34.334 -6.33301 35.001 -19
c0 -4.66699 -0.666992 -10.667 -2 -18l-39 -182c-42 -2.66699 -98.667 -8 -170 -16c0 -28.667 3.33301 -47.334 10 -56.001c15.333 -20 51.666 -30 108.999 -30h147v-227h-99c-102 0 -172 28.333 -210 85c-28.667 42.667 -46 117.667 -52 225
c-106.667 -22 -211.667 -83.333 -315 -184c-119.333 -116.667 -179 -241.667 -179 -375c0 -134 84 -237 252 -309c128 -54.667 269 -82 423 -82c128 0 253.333 4.33301 376 13c39.333 2.66699 59 -6 59 -26c0 -16 -14.667 -29.333 -44 -40zM796 -240l-97.999 -97
c-8.66699 -8.66699 -17.334 -8.66699 -26.001 0l-99 97c-8.66699 8.66699 -9 17 -1 25l100 99c2.66699 3.33301 7 5 13 5s10.333 -1.66699 13 -5l98 -97c9.33301 -9.33301 9.33301 -18.333 0 -27z" />
    <glyph glyph-name="uFE9F" unicode="&#x62c;" horiz-adv-x="1022" arabic-form="initial" 
d="M1015 509l-37.002 -176.001c-212.667 0 -385 -40.667 -517 -122l-205 -136c-76 -49.333 -150.667 -74 -224 -74h-63v228h85c90.667 0 180 20.667 268 62l196 92c-125.333 33.333 -216.666 50 -273.999 50c-44 0 -91.333 -9.66699 -142 -29c-21.333 -8 -32 -2 -32 18
c0 4.66699 1.33301 11.334 4 20.001c16.667 53.333 45.334 100 86.001 140c52 51.333 110.667 77 176 77c37.333 0 83.333 -9.66699 138 -29c80 -28 139.333 -46.333 178 -55c88.667 -19.333 195 -29 319 -29c26 0 40.667 -2 44 -6c4 -2.66699 4 -13 0 -31z
M667.998 -234.001l-97.999 -97.999c-8.66699 -8.66699 -17.334 -8.66699 -26.001 0l-99 98c-8.66699 8 -9 16 -1 24l100 99c2.66699 3.33301 7 5 13 5s10.333 -1.66699 13 -5l98 -97c8.66699 -8.66699 8.66699 -17.334 0 -26.001z" />
    <glyph glyph-name="uFEA0" unicode="&#x62c;" horiz-adv-x="1040" arabic-form="medial" 
d="M1071 1l-89.002 0.00195312c-176.667 0 -265 68 -265 204c0 34 5 73.667 15 119c-86 -16.667 -176.333 -54.334 -271 -113.001l-205 -136c-76 -49.333 -150.667 -74 -224 -74h-63v228h85c90.667 0 180 20.667 268 62l196 92c-118 33.333 -208.667 50 -272 50
c-46 0 -94 -9.66699 -144 -29c-21.333 -8 -32 -2 -32 18c0 4.66699 1.33301 11.334 4 20.001c16.667 53.333 45.334 100 86.001 140c52 51.333 110.667 77 176 77c28 0 71.333 -10.667 130 -32c78.667 -28.667 143.334 -48.334 194.001 -59.001
c95.333 -20 202.333 -28 321 -24c18 0.666992 29.333 -3 34 -11c4 -7.33301 4 -20 0 -38l-37 -165h-140c-2.66699 -12.667 -4 -23.334 -4 -32.001c0 -46 45 -69 135 -69h102v-228zM615.998 -233.998l-96.999 -97.999c-8.66699 -8.66699 -17.334 -8.66699 -26.001 0l-99 98
c-8.66699 8 -9 16 -1 24l100 99c2.66699 3.33301 7 5 13 5s10.333 -1.66699 13 -5l97 -97c8.66699 -8.66699 8.66699 -17.334 0 -26.001z" />
    <glyph glyph-name="uFEA2" unicode="&#x62d;" horiz-adv-x="1118" arabic-form="final" 
d="M1360 -692c-52.667 -19.333 -130.667 -57.333 -234 -114c-88.667 -48.667 -139.334 -73 -152.001 -73c-518.667 0 -778 183.333 -778 550c0 178 53 337.333 159 478c63.333 84 135.333 151 216 201c-47.333 9.33301 -98.333 14 -153 14c-70 0 -126.667 -7.33301 -170 -22
c-16 -5.33301 -27.333 -5.66602 -34 -0.999023c-8 5.33301 -10.667 16.333 -8 33c8.66699 60 34.334 110.667 77.001 152c44 44 95.667 66 155 66c47.333 0 118 -7.16699 212 -21.5s164.667 -21.5 212 -21.5h197c22.667 0 34.334 -6.33301 35.001 -19
c0 -4.66699 -0.666992 -10.667 -2 -18l-39 -182c-42 -2.66699 -98.667 -8 -170 -16c0 -28.667 3.33301 -47.334 10 -56.001c15.333 -20 51.666 -30 108.999 -30h147v-227h-99c-102 0 -172 28.333 -210 85c-28.667 42.667 -46 117.667 -52 225
c-106.667 -22 -211.667 -83.333 -315 -184c-119.333 -116.667 -179 -241.667 -179 -375c0 -134 84 -237 252 -309c128 -54.667 269 -82 423 -82c128 0 253.333 4.33301 376 13c39.333 2.66699 59 -6 59 -26c0 -16 -14.667 -29.333 -44 -40z" />
    <glyph glyph-name="uFEA3" unicode="&#x62d;" horiz-adv-x="1022" arabic-form="initial" 
d="M1015 509l-37.002 -176.001c-212.667 0 -385 -40.667 -517 -122l-205 -136c-76 -49.333 -150.667 -74 -224 -74h-63v228h85c90.667 0 180 20.667 268 62l196 92c-125.333 33.333 -216.666 50 -273.999 50c-44 0 -91.333 -9.66699 -142 -29c-21.333 -8 -32 -2 -32 18
c0 4.66699 1.33301 11.334 4 20.001c16.667 53.333 45.334 100 86.001 140c52 51.333 110.667 77 176 77c37.333 0 83.333 -9.66699 138 -29c80 -28 139.333 -46.333 178 -55c88.667 -19.333 195 -29 319 -29c26 0 40.667 -2 44 -6c4 -2.66699 4 -13 0 -31z" />
    <glyph glyph-name="uFEA4" unicode="&#x62d;" horiz-adv-x="1040" arabic-form="medial" 
d="M1071 1l-89.002 0.00195312c-176.667 0 -265 68 -265 204c0 34 5 73.667 15 119c-86 -16.667 -176.333 -54.334 -271 -113.001l-205 -136c-76 -49.333 -150.667 -74 -224 -74h-63v228h85c90.667 0 180 20.667 268 62l196 92c-118 33.333 -208.667 50 -272 50
c-46 0 -94 -9.66699 -144 -29c-21.333 -8 -32 -2 -32 18c0 4.66699 1.33301 11.334 4 20.001c16.667 53.333 45.334 100 86.001 140c52 51.333 110.667 77 176 77c28 0 71.333 -10.667 130 -32c78.667 -28.667 143.334 -48.334 194.001 -59.001
c95.333 -20 202.333 -28 321 -24c18 0.666992 29.333 -3 34 -11c4 -7.33301 4 -20 0 -38l-37 -165h-140c-2.66699 -12.667 -4 -23.334 -4 -32.001c0 -46 45 -69 135 -69h102v-228z" />
    <glyph glyph-name="uFEA6" unicode="&#x62e;" horiz-adv-x="1118" arabic-form="final" 
d="M1360 -692c-52.667 -19.333 -130.667 -57.333 -234 -114c-88.667 -48.667 -139.334 -73 -152.001 -73c-518.667 0 -778 183.333 -778 550c0 178 53 337.333 159 478c63.333 84 135.333 151 216 201c-47.333 9.33301 -98.333 14 -153 14c-70 0 -126.667 -7.33301 -170 -22
c-16 -5.33301 -27.333 -5.66602 -34 -0.999023c-8 5.33301 -10.667 16.333 -8 33c8.66699 60 34.334 110.667 77.001 152c44 44 95.667 66 155 66c47.333 0 118 -7.16699 212 -21.5s164.667 -21.5 212 -21.5h197c22.667 0 34.334 -6.33301 35.001 -19
c0 -4.66699 -0.666992 -10.667 -2 -18l-39 -182c-42 -2.66699 -98.667 -8 -170 -16c0 -28.667 3.33301 -47.334 10 -56.001c15.333 -20 51.666 -30 108.999 -30h147v-227h-99c-102 0 -172 28.333 -210 85c-28.667 42.667 -46 117.667 -52 225
c-106.667 -22 -211.667 -83.333 -315 -184c-119.333 -116.667 -179 -241.667 -179 -375c0 -134 84 -237 252 -309c128 -54.667 269 -82 423 -82c128 0 253.333 4.33301 376 13c39.333 2.66699 59 -6 59 -26c0 -16 -14.667 -29.333 -44 -40zM770 877l-96.999 -97.999
c-8.66699 -9.33301 -17.667 -9.33301 -27 0l-98 98c-8 8.66699 -8.33301 16.667 -1 24l99 99c3.33301 3.33301 7.66602 5 12.999 5c6 0 10.667 -1.66699 14 -5l97 -97c8.66699 -8.66699 8.66699 -17.334 0 -26.001z" />
    </font>
</defs>
</svg>
