<?xml version="1.0" standalone="no"?>
<!DOCTYPE svg PUBLIC "-//W3C//DTD SVG 1.1//EN" "http://www.w3.org/Graphics/SVG/1.1/DTD/svg11.dtd" >
<svg>
<metadata>
Created by FontForge 20090914 at Wed Oct 19 01:08:40 2011
 By www-data
(c) by Abolfazl Seilsepour - +98 912 591 3420  -  seilsepor@yahoo.com
</metadata>
<defs>
<font id="FarEastExtra" horiz-adv-x="0" >
  <font-face 
    font-family="Far.EastExtra"
    font-weight="800"
    font-stretch="normal"
    units-per-em="2048"
    panose-1="2 10 5 3 2 1 2 2 2 4"
    ascent="1638"
    descent="-410"
    bbox="-194 -890 2434 2255"
    underline-thickness="100"
    underline-position="-670"
    unicode-range="U+0020-U+FEFC"
  />
<missing-glyph horiz-adv-x="1024" 
d="M158 0v1218h708v-1218h-708zM226 68h572v1082h-572v-1082z" />
    <glyph glyph-name=".notdef" unicode="&#x652;&#x64d;" horiz-adv-x="1024" 
d="M158 0v1218h708v-1218h-708zM226 68h572v1082h-572v-1082z" />
    <glyph glyph-name="copyright" unicode="&#x652;&#x64b;" horiz-adv-x="1816" 
d="M862 1495c125.333 0 247.5 -32 366.5 -96s211.833 -155.5 278.5 -274.5s100 -243.167 100 -372.5s-32.833 -253.333 -98.5 -372s-157.667 -210.5 -276 -275.5s-241.833 -97.5 -370.5 -97.5c-129.333 0 -252.833 32.5 -370.5 97.5s-209.5 156.833 -275.5 275.5
s-99 242.667 -99 372s33.5 253.5 100.5 372.5s160 210.5 279 274.5s240.833 96 365.5 96zM862 1431c-114 0 -225.169 -29.333 -333.502 -88s-193.166 -142.334 -254.499 -251.001s-92 -222 -92 -340s30 -230.833 90 -338.5s144 -191.667 252 -252s220.667 -90.5 338 -90.5
s230 30.167 338 90.5s192.167 144.333 252.5 252s90.5 220.5 90.5 338.5s-30.667 231.333 -92 340s-146.166 192.334 -254.499 251.001s-219.833 88 -334.5 88zM1230 1230l22 -293.999h-41c-26 83.333 -66.167 145.5 -120.5 186.5s-120.166 61.5 -197.499 61.5
c-58 0 -109.333 -12 -154 -36s-81.334 -55.667 -110.001 -95c-21.333 -30.667 -39 -71 -53 -121s-21 -102 -21 -156c0 -148.667 32 -258.167 96 -328.5s148 -105.5 252 -105.5c136 0 245 56.667 327 170l39 -20c-97.333 -142 -231 -213 -401 -213
c-140.667 0 -257 45.333 -349 136s-138 200.667 -138 330c0 134 49 248.333 147 343s223 142 375 142c33.333 0 60.333 -2 81 -6s59 -15 115 -33c16.667 -6 29 -9 37 -9c11.333 0 21 3.16699 29 9.5s16 19.166 24 38.499h41z" />
    <glyph glyph-name="uniE818" unicode="&#x651;&#x64b;" 
d="M576 1592c0 -40 -11.0029 -73.665 -33.0029 -100.998c-25.333 -32 -60 -48 -104 -48c-71.333 0 -125.666 27 -162.999 81c-42 -98 -105.667 -147 -191 -147c-92 0 -138 49.333 -138 148c0 44 19.667 107.667 59 191l77 -40c-20.667 -54.667 -31 -89.667 -31 -105
c0 -56.667 17.667 -85 53 -85c47.333 0 79.333 27.667 96 83c8.66699 29.333 12.334 70.666 11.001 123.999c18 11.333 52.333 30 103 56c0 -131.333 32 -197 96 -197c36.667 0 53.334 25.667 50.001 77c-2 25.333 -17 61 -45 107l79 57c22 -30.667 42 -69.334 60 -116.001
c14 -38.667 21 -67 21 -85zM537.997 2165l-550 -137l-23 87l552 140zM544.997 1954l-550 -137l-23 87l552 140z" />
    <glyph glyph-name="uniFC5E" unicode="&#x651;&#x64c;" arabic-form="isolated" 
d="M568 1575c0 -38.667 -10.668 -71.666 -32.001 -98.999c-24.667 -31.333 -58.667 -47 -102 -47c-70 0 -123.667 26.333 -161 79c-40 -96 -102 -144 -186 -144c-90 0 -135 48.333 -135 145c0 43.333 19.333 105.666 58 186.999l75 -39
c-20 -53.333 -30 -87.666 -30 -102.999c0 -55.333 17.333 -83 52 -83c46.667 0 78 26.667 94 80c8.66699 29.333 12.334 70.666 11.001 123.999l100 54c0 -129.333 31.667 -194 95 -194c36 0 52.333 25.333 49 76c-2 26 -9.66699 49.667 -23 71l-21 34l76 54
c22 -28.667 42 -66 60 -112c13.333 -38 20 -65.667 20 -83zM585.999 2083c0 -94.667 -61.333 -156.668 -184 -186.001l-402 -95l-28 78l30 14c42 19.333 63 51.666 63 96.999c0 32 -10 48 -30 48c-12.667 0 -31 -9 -55 -27l-35 50c28 40 63.333 59 106 57
c64.667 -0.666992 97 -30 97 -88c0 -33.333 -17.333 -76.666 -52 -129.999l149 56c-26.667 44.667 -40 85.334 -40 122.001c0 45.333 21 85 63 119c40 32 79.667 48 119 48c52.667 0 99 -16.333 139 -49s60 -70.667 60 -114zM486.999 2083c0 51.333 -31 77 -93 77
c-19.333 0 -38.666 -7.16699 -57.999 -21.5s-29 -35.166 -29 -62.5c0 -27.333 9.66699 -50 29 -68s39.666 -26.333 60.999 -25c60 4 90 37.333 90 100z" />
    <glyph glyph-name="uniFC5F" unicode="&#x651;&#x64d;" arabic-form="isolated" 
d="M528 1728l-550 -137l-23 87l552 140zM553 2046c0 -40 -11 -73.666 -33 -100.999c-25.333 -32 -60 -48 -104 -48c-71.333 0 -126 26.667 -164 80c-41.333 -96.667 -104.666 -145 -189.999 -145c-92 0 -138 49.333 -138 148c0 43.333 19.333 106.666 58 189.999l80 -40
c-22 -54.667 -33 -89.667 -33 -105c0 -56 17.667 -84 53 -84c49.333 0 81.666 27.333 96.999 82c8 28 11.333 69.667 10 125c18 11.333 52.333 29.333 103 54c0 -130.667 32 -196 96 -196c37.333 0 54.333 25.667 51 77c-1.33301 28.667 -16.333 64.334 -45 107l77 58
c54.667 -73.333 82 -140.666 82 -202zM548 1498l-550 -137l-23 87l552 140z" />
    <glyph glyph-name="uniFC60" unicode="&#x651;&#x64e;" arabic-form="isolated" 
d="M582 1611c0 -38.667 -10.668 -71.666 -32.001 -98.999c-24.667 -31.333 -58.667 -47 -102 -47c-70 0 -123.667 26.333 -161 79c-40 -96 -102 -144 -186 -144c-90 0 -135 48.333 -135 145c0 43.333 19.333 105.666 58 186.999l75 -39
c-20 -53.333 -30 -87.666 -30 -102.999c0 -55.333 17.333 -83 52 -83c46.667 0 78 26.667 94 80c8.66699 29.333 12.334 70.666 11.001 123.999l100 54c0 -129.333 31.667 -194 95 -194c36 0 52.333 25.333 49 76c-2 26 -9.66699 49.667 -23 71l-21 34l76 54
c22 -28.667 42 -66 60 -112c13.333 -38 20 -65.667 20 -83zM525.999 1959l-539 -135l-23 85l541 137z" />
    <glyph glyph-name="uniFC61" unicode="&#x651;&#x64f;" arabic-form="isolated" 
d="M582 1570c0 -40 -11 -73.6689 -33 -101.002c-25.333 -32 -60 -48 -104 -48c-71.333 0 -126 26.667 -164 80c-41.333 -97.333 -104.666 -146 -189.999 -146c-92 0 -138 49.333 -138 148c0 44 19.333 107.667 58 191l80 -40c-22 -54.667 -33 -89.667 -33 -105
c0 -56.667 17.667 -85 53 -85c49.333 0 81.666 27.667 96.999 83c8 28 11.333 70 10 126l103 54c0 -131.333 32 -197 96 -197c37.333 0 54.333 25.667 51 77c-1.33301 28.667 -16.333 64.667 -45 108l77 55c24 -31.333 44.667 -69.666 62 -114.999
c13.333 -37.333 20 -65.666 20 -84.999zM475 2076c0 51.333 -31.667 76.999 -95 76.999c-20.667 0 -39.667 -6.66699 -57 -20c-23.333 -17.333 -35 -40 -35 -68c0 -29.333 10.333 -52.166 31 -68.499s42 -23.833 64 -22.5c61.333 4 92 38 92 102zM229 1951
c-28 45.333 -42 84.333 -42 117c0 46 21 86.667 63 122c40.667 34 81.667 51 123 51c52.667 0 99.667 -16.333 141 -49c41.333 -33.333 62 -72 62 -116c0 -98 -62.667 -161.667 -188 -191l-398 -92l-22 80c58 16 145 42 261 78z" />
    <glyph glyph-name="uniFC62" unicode="&#x651;&#x650;" arabic-form="isolated" 
d="M541 1578l-550 -137l-23 87l552 140zM566 1896c0 -40 -11 -73.668 -33 -101.001c-25.333 -32 -60 -48 -104 -48c-71.333 0 -126 26.667 -164 80c-41.333 -96.667 -104.666 -145 -189.999 -145c-92 0 -138 49.333 -138 148c0 43.333 19.333 106.666 58 189.999l80 -40
c-22 -54.667 -33 -89.667 -33 -105c0 -56 17.667 -84 53 -84c49.333 0 81.666 27.333 96.999 82c8 28 11.333 69.667 10 125c18 11.333 52.333 29.333 103 54c0 -130.667 32 -196 96 -196c37.333 0 54.333 25.667 51 77c-1.33301 28.667 -16.333 64.334 -45 107.001l77 58
c54.667 -73.333 82 -140.666 82 -201.999z" />
    <glyph glyph-name="uniFD3E" unicode="&#x652;&#x64e;" horiz-adv-x="1135" 
d="M1075 -612c0 -10 -8 -15 -24 -15c-50.667 0 -127 50.333 -229 151c-134 130.667 -238.667 297 -314 499c-139.333 2 -209 20.333 -209 55c91.333 96 137 170.333 137 223c-41.333 0 -85.833 -24.5 -133.5 -73.5s-74.834 -73.5 -81.501 -73.5
c-25.333 0 -43.666 54.333 -54.999 163c-74 36 -111 67.667 -111 95c0 30.667 35 66.667 105 108c7.33301 104 23.666 156 48.999 156c102 -96 177.667 -144 227 -144c-4.66699 51.333 -30.667 100 -78 146s-71 72 -71 78c0 10.667 20.333 22.334 61 35.001
c46 14 97.333 22 154 24c48 144.667 113 274 195 388c63.333 88.667 131.333 161.667 204 219c58 46 99 69 123 69c13.333 0 20 -7.66699 20 -23c0 -6.66699 -24.333 -37 -73 -91c-60 -67.333 -109 -136.666 -147 -207.999c-59.333 -109.333 -99 -230.666 -119 -363.999
c66.667 -10.667 100 -25.667 100 -45c-94 -94.667 -141 -168.334 -141 -221.001c48 0 119.667 49 215 147c12 0 24.333 -17.667 37 -53s20 -72.333 22 -111c70.667 -36.667 106 -70 106 -100c0 -24.667 -33.333 -56.667 -100 -96
c-5.33301 -106.667 -23.666 -160 -54.999 -160l-68 65c-46 45.333 -97 70.666 -153 75.999c0 -47.333 24.5 -95 73.5 -143s73.5 -76 73.5 -84c0 -15.333 -36 -30.333 -108 -45c21.333 -108.667 64.833 -220.834 130.5 -336.501s138.167 -207.834 217.5 -276.501
c13.333 -11.333 20 -22.666 20 -33.999zM680 418c0 35.333 -12.667 65.666 -38 90.999s-55.666 38 -90.999 38c-36 0 -66.5 -12.667 -91.5 -38s-37.5 -55.666 -37.5 -90.999c0 -34.667 12.5 -64.167 37.5 -88.5s55.5 -36.5 91.5 -36.5c35.333 0 65.666 12.167 90.999 36.5
s38 53.833 38 88.5z" />
    <glyph glyph-name="uniFDF2" unicode="&#xfedf;&#xfee0;&#xfeea;" horiz-adv-x="2685" arabic-form="isolated" 
d="M1385 1671h105v-160c6.66699 -8.66699 15.334 -13 26.001 -13c24 0 36 14.333 36 43v130h101v-162c10 -7.33301 20 -11 30 -11c22 0 33 14.333 33 43v130h106v-130c0 -56 -37 -84 -111 -84c-48.667 0 -82.667 7.33301 -102 22c-14.667 -12.667 -43.667 -20 -87 -22
c-8 0 -15 0.333008 -21 1c-8 0.666992 -15.333 1.66699 -22 3c-18.667 2.66699 -34.334 7 -47.001 13c-31.333 14 -47 36.333 -47 67v130zM621 0c-102.667 0 -186.333 34.668 -251 104.001c-68 74 -102 172.667 -102 296c0 310.667 154 466 462 466
c150.667 0 256.667 -19 318 -57v-656h325c40 0 76.333 13.667 109 41v1065h260v-980c0 -84 47 -126 141 -126h167c83.333 0 125 39.333 125 118v988h259v-965c0 -196 -125 -294 -375 -294h-172c-67.333 0 -125.666 8 -174.999 24c-38.667 11.333 -77 32.666 -115 63.999
c-42.667 -30.667 -84 -52 -124 -64c-52.667 -16 -113.334 -24 -182.001 -24h-670zM798.001 724.001c-30 11.333 -59.667 17 -89 17c-122.667 0 -184 -106 -184 -318c0 -100 15.333 -170.333 46 -211c29.333 -39.333 77.333 -59 144 -59h85z" />
    <glyph glyph-name="uniFEF5" unicode="&#xfedf;&#xfe82;" horiz-adv-x="1150" arabic-form="isolated" 
d="M173 153h112v1008h239v-1008h110c90 0 135 47.667 135 143v963h259v-939c0 -213.333 -112.333 -320 -337 -320h-518v153zM660 1346c-15.333 -44 -57.334 -69 -126.001 -75h-15c-28 0 -64.333 10.667 -109 32c-42 20.667 -74 31 -96 31h-9
c-46 -3.33301 -81 -32.666 -105 -87.999l-49 93c24.667 48 67.334 76 128.001 84h10c30.667 0 67.667 -11 111 -33c41.333 -20.667 72 -31 92 -31h12c50 5.33301 86.667 32.666 110 81.999z" />
    <glyph glyph-name="uniFEF6" unicode="&#xfee0;&#xfe82;" horiz-adv-x="1266" arabic-form="final" 
d="M1028 271c0 -78.667 42 -118 126 -118h140v-153h-148c-110.667 0 -196 15.667 -256 47c-60 -31.333 -126.333 -47 -199 -47h-518v153h112v1008h239v-1008h110c90 0 135 47.667 135 143v965h259v-990zM660 1346c-15.333 -44 -57.334 -69 -126.001 -75h-15
c-28 0 -64.333 10.667 -109 32c-42 20.667 -74 31 -96 31h-9c-46 -3.33301 -81 -32.666 -105 -87.999l-49 93c24.667 48 67.334 76 128.001 84h10c30.667 0 67.667 -11 111 -33c41.333 -20.667 72 -31 92 -31h12c50 5.33301 86.667 32.666 110 81.999z" />
    <glyph glyph-name="uniFEF7" unicode="&#xfedf;&#xfe84;" horiz-adv-x="1150" arabic-form="isolated" 
d="M173 153h113v1008h239v-1008h110c89.333 0 134 47.667 134 143v963h259v-939c0 -213.333 -112 -320 -336 -320h-519v153zM247 1334h130.003c-35.333 28 -53 60 -53 96c0 43.333 15.333 79 46 107c31.333 27.333 68.666 41 111.999 41
c35.333 0 64.666 -7.83301 87.999 -23.5s1.66602 -22.5 -65.001 -20.5c-42.667 -4 -64 -38.667 -64 -104c0 -64 23.667 -96 71 -96h40c33.333 -0.666992 46.333 -18 39 -52h-323z" />
    <glyph glyph-name="uniFEF8" unicode="&#xfee0;&#xfe84;" horiz-adv-x="1266" arabic-form="final" 
d="M1028 271c0 -78.667 42.333 -118 127 -118h140v-153h-148c-110.667 0 -196 15.667 -256 47c-60 -31.333 -126.333 -47 -199 -47h-519v153h113v1008h239v-1008h110c89.333 0 134 47.667 134 143v965h259v-990zM247 1334h130.003c-35.333 28 -53 60 -53 96
c0 43.333 15.333 79 46 107c31.333 27.333 68.666 41 111.999 41c35.333 0 64.666 -7.83301 87.999 -23.5s1.66602 -22.5 -65.001 -20.5c-42.667 -4 -64 -38.667 -64 -104c0 -64 23.667 -96 71 -96h40c33.333 -0.666992 46.333 -18 39 -52h-323z" />
    <glyph glyph-name="uniFEF9" unicode="&#xfedf;&#xfe88;" horiz-adv-x="1150" arabic-form="isolated" 
d="M173 153h113v1008h239v-1008h110c89.333 0 134 47.667 134 143v963h259v-939c0 -213.333 -112 -320 -336 -320h-519v153zM162 -339h130.002c-35.333 28.667 -53 60.667 -53 96c0 43.333 15.667 79 47 107c30.667 27.333 67.667 41 111 41
c35.333 0 64.666 -7.83301 87.999 -23.5s1.66602 -22.5 -65.001 -20.5c-42.667 -4 -64 -38.667 -64 -104c0 -64 23.667 -96 71 -96h40c33.333 0 46.333 -17.333 39 -52h-322z" />
    <glyph glyph-name="uniFEFA" unicode="&#xfee0;&#xfe88;" horiz-adv-x="1266" arabic-form="final" 
d="M1028 271c0 -78.667 42.333 -118 127 -118h140v-153h-148c-110.667 0 -196 15.667 -256 47c-60 -31.333 -126.333 -47 -199 -47h-519v153h113v1008h239v-1008h110c89.333 0 134 47.667 134 143v965h259v-990zM172 -339h130.002c-35.333 28.667 -53 60.667 -53 96
c0 43.333 15.667 79 47 107c30.667 27.333 67.667 41 111 41c35.333 0 64.666 -7.83301 87.999 -23.5s1.66602 -22.5 -65.001 -20.5c-42.667 -4 -64 -38.667 -64 -104c0 -64 23.667 -96 71 -96h40c33.333 0 46.333 -17.333 39 -52h-322z" />
    <glyph glyph-name="uniFEFB" unicode="&#xfedf;&#xfe8e;" horiz-adv-x="1150" arabic-form="isolated" 
d="M173 153h113v1008h239v-1008h110c89.333 0 134 47.667 134 143v963h259v-939c0 -213.333 -112 -320 -336 -320h-519v153z" />
    <glyph glyph-name="uniFEFC" unicode="&#xfee0;&#xfe8e;" horiz-adv-x="1266" arabic-form="final" 
d="M1028 271c0 -78.667 42.333 -118 127 -118h140v-153h-148c-110.667 0 -196 15.667 -256 47c-60 -31.333 -126.333 -47 -199 -47h-519v153h113v1008h239v-1008h110c89.333 0 134 47.667 134 143v965h259v-990z" />
    <glyph glyph-name="afii57410" unicode="&#x622;" horiz-adv-x="573" arabic-form="isolated" 
d="M562 1445c-15.333 -44 -57.334 -69 -126.001 -75h-15c-28 0 -64.333 10.667 -109 32c-42 20.667 -74 31 -96 31h-9c-46 -3.33301 -81 -32.666 -105 -87.999l-49 93c24.667 48 67.334 76 128.001 84h10c30.667 0 67.667 -11 111 -33c41.333 -20.667 72 -31 92 -31h12
c50 5.33301 86.667 32.666 110 81.999zM192.999 0v1259h257v-1259h-257z" />
    <glyph glyph-name="afii57411" unicode="&#x623;" horiz-adv-x="573" arabic-form="isolated" 
d="M142 1407h130.002c-35.333 28 -53 60 -53 96c0 43.333 15.667 79 47 107c30.667 27.333 67.667 41 111 41c35.333 0 64.666 -7.83301 87.999 -23.5s1.66602 -22.5 -65.001 -20.5c-42.667 -4 -64 -38.667 -64 -104c0 -64 23.667 -96 71 -96h40
c33.333 -0.666992 46.333 -18 39 -52h-322zM193.002 0v1259h258v-1259h-258z" />
    <glyph glyph-name="afii57412" unicode="&#x624;" horiz-adv-x="1044" arabic-form="isolated" 
d="M926 -28c0 -122.667 -42.3311 -214 -126.998 -274c-74.667 -53.333 -175.334 -80 -302.001 -80c-122.667 0 -219.667 19 -291 57l57 149c50 -27.333 119.667 -41 209 -41c52 0 97.667 13.667 137 41c44.667 32 67 73.333 67 124v94c-54.667 -28 -113.667 -42 -177 -42
c-102.667 -0 -186.334 34.333 -251.001 103c-68 72 -102 169.667 -102 293c0 310.667 154 466 462 466c150 0 256 -18.333 318 -55v-835zM676.002 720c-34.667 12.667 -64.333 19 -89 19c-122.667 0 -184 -106.667 -184 -320c0 -199.333 60 -299 180 -299
c25.333 0 56.333 6 93 18v582zM404.003 1118h130.003c-35.333 28 -53 60 -53 96c0 43.333 15.333 79 46 107c31.333 27.333 68.666 41 111.999 41c35.333 0 64.666 -7.83301 87.999 -23.5s1.66602 -22.5 -65.001 -20.5c-42.667 -4 -64 -38.667 -64 -104
c0 -64 23.667 -96 71 -96h40c33.333 -0.666992 46.333 -18 39 -52h-323z" />
    <glyph glyph-name="afii57413" unicode="&#x625;" horiz-adv-x="573" arabic-form="isolated" 
d="M194 0v1259h257v-1259h-257zM109 -358h130.002c-35.333 28.667 -53 60.667 -53 96c0 43.333 15.667 79 47 107c30.667 27.333 67.667 41 111 41c35.333 0 64.666 -7.83301 87.999 -23.5s1.66602 -22.5 -65.001 -20.5c-42.667 -4 -64 -38.667 -64 -104
c0 -64 23.667 -96 71 -96h40c33.333 0 46.333 -17.333 39 -52h-322z" />
    <glyph glyph-name="afii57414" unicode="&#x626;" horiz-adv-x="1615" arabic-form="isolated" 
d="M1132 383c-128 0 -228.002 34.3311 -300.002 102.998c-69.333 64.667 -104 151.334 -104 260.001c0 106.667 35 192.334 105 257.001c72.667 68 172.334 102 299.001 102c168 0 280.333 -45.333 337 -136l-207 -90c-10 81.333 -53.333 122 -130 122
c-54.667 0 -93 -27.667 -115 -83c-15.333 -37.333 -23 -94 -23 -170c0 -140 45 -210 135 -210l29 -2h311c8.66699 -22 15.667 -54.333 21 -97l3 -50l1 -38c0 -120 -37.333 -210 -112 -270c-68.667 -54 -164 -81 -286 -81h-541c-116.667 0 -213 29.667 -289 89
c-79.333 62 -119 144 -119 246v443h259v-468c0 -49.333 21.667 -88 65 -116c32.667 -22 70.334 -33 113.001 -33h462c132 0 198 74 198 222h-112zM128.998 946.998h130.002c-35.333 28 -53 60 -53 96c0 43.333 15.667 79 47 107c30.667 27.333 67.667 41 111 41
c35.333 0 64.666 -7.83301 87.999 -23.5s1.66602 -22.5 -65.001 -20.5c-42.667 -4 -64 -38.667 -64 -104c0 -64 23.667 -96 71 -96h40c33.333 -0.666992 46.333 -18 39 -52h-322z" />
    <glyph glyph-name="afii57415" unicode="&#x627;" horiz-adv-x="573" arabic-form="isolated" 
d="M193 0v1259h257v-1259h-257z" />
    <glyph glyph-name="afii57416" unicode="&#x628;" horiz-adv-x="1724" arabic-form="isolated" 
d="M526 0c-253.333 0 -380 98 -380 294v568h259v-591c0 -78.667 42.333 -118 127 -118h684c84 0 126 39.333 126 118v591h260v-568c0 -196 -125.333 -294 -376 -294h-700zM909 -380c-67.333 0 -101 28 -101 84c0 59.333 33.667 89 101 89c71.333 0 107 -29.667 107 -89
c0 -56 -35.667 -84 -107 -84z" />
    <glyph glyph-name="afii57417" unicode="&#x629;" horiz-adv-x="962" arabic-form="isolated" 
d="M770 107c-70 -82 -166.333 -123 -289 -123s-219 41 -289 123c-68.667 78.667 -103 184 -103 316c0 131.333 34.333 236.333 103 315c70 82.667 166.333 124 289 124s219 -41.333 289 -124c68.667 -78.667 103 -183.667 103 -315c0 -132 -34.333 -237.333 -103 -316z
M594 627c-20.667 64 -58.333 96 -113 96c-55.333 0 -93.333 -31.667 -114 -95c-15.333 -44 -23 -110.333 -23 -199c0 -193.333 45.667 -290 137 -290c89.333 0 134 96.667 134 290c0 88 -7 154 -21 198zM111.001 1098h129.999c-35.333 28 -53 60 -53 96
c0 43.333 15.667 79 47 107c30.667 27.333 67.667 41 111 41c35.333 0 64.833 -7.83301 88.5 -23.5s1.83398 -22.5 -65.499 -20.5c-42.667 -4 -64 -38.667 -64 -104c0 -64 23.667 -96 71 -96h41c32.667 -0.666992 45.667 -18 39 -52h-323z" />
    <glyph glyph-name="afii57418" unicode="&#x62a;" horiz-adv-x="1724" arabic-form="isolated" 
d="M526 0c-253.333 0 -380 98 -380 294v568h259v-591c0 -78.667 42.333 -118 127 -118h684c84 0 126 39.333 126 118v591h260v-568c0 -196 -125.333 -294 -376 -294h-700zM1048 1085c-68.667 0 -103 28.333 -103 85c0 59.333 34.333 89 103 89c70 0 105 -29.667 105 -89
c0 -56.667 -35 -85 -105 -85zM694 1085c-68 0 -102 28.333 -102 85c0 59.333 34 89 102 89c71.333 0 107 -29.667 107 -89c0 -56.667 -35.667 -85 -107 -85z" />
    <glyph glyph-name="afii57419" unicode="&#x62b;" horiz-adv-x="1724" arabic-form="isolated" 
d="M526 0c-253.333 0 -380 98 -380 294v568h259v-591c0 -78.667 42.333 -118 127 -118h684c84 0 126 39.333 126 118v591h260v-568c0 -196 -125.333 -294 -376 -294h-700zM1021 915c-54.667 0 -82 22.333 -82 67c0 46.667 27.333 70 82 70c55.333 0 83 -23.333 83 -70
c0 -44.667 -27.667 -67 -83 -67zM724 915c-54.667 0 -82 22.333 -82 67c0 46.667 27.333 70 82 70c56.667 0 85 -23.333 85 -70c0 -44.667 -28.333 -67 -85 -67zM866 1126c-55.333 0 -83 23 -83 69c0 45.333 27.667 68 83 68c56 0 84 -22.667 84 -68c0 -46 -28 -69 -84 -69z
" />
    <glyph glyph-name="afii57420" unicode="&#x62c;" horiz-adv-x="1046" arabic-form="isolated" 
d="M709 -370c-26 -8 -68 -12.001 -126 -12.001c-143.333 0 -254 58 -332 174c-70 104 -105 224.333 -105 361h518v446c0 85.333 -56.333 128 -169 128c-86 0 -162.333 -14.667 -229 -44l-44 122c25.333 10.667 64.666 22 117.999 34c73.333 15.333 149 23 227 23
c112 0 197.667 -23.667 257 -71c66.667 -53.333 100 -136 100 -248v-543h-478c0 -78.667 20 -140 60 -184c40.667 -43.333 83.334 -65.666 128.001 -66.999zM853 -288.001c-68.667 0 -103 28.667 -103 86c0 58 34.333 87 103 87c70 0 105 -29 105 -87
c0 -57.333 -35 -86 -105 -86z" />
    <glyph glyph-name="afii57421" unicode="&#x62d;" horiz-adv-x="1046" arabic-form="isolated" 
d="M446 0c0 -80 20.667 -142 62 -186c42 -44 91.667 -66 149 -66c49.333 0 87.333 7 114 21l41 -101c-45.333 -33.333 -121.666 -50 -228.999 -50c-143.333 0 -254 58 -332 174c-70 104 -105 224.333 -105 361h518v446c0 85.333 -56.333 128 -169 128
c-86 0 -162.333 -14.667 -229 -44l-44 122c25.333 10.667 64.666 22 117.999 34c73.333 15.333 149 23 227 23c112 0 197.667 -23.667 257 -71c66.667 -53.333 100 -136 100 -248v-543h-478z" />
    <glyph glyph-name="afii57422" unicode="&#x62e;" horiz-adv-x="1046" arabic-form="isolated" 
d="M446 0c0 -80 20.667 -142 62 -186c42 -44 91.667 -66 149 -66c49.333 0 87.333 7 114 21l41 -101c-45.333 -33.333 -121.666 -50 -228.999 -50c-143.333 0 -254 58 -332 174c-70 104 -105 224.333 -105 361h518v446c0 85.333 -56.333 128 -169 128
c-86 0 -162.333 -14.667 -229 -44l-44 122c25.333 10.667 64.666 22 117.999 34c73.333 15.333 149 23 227 23c112 0 197.667 -23.667 257 -71c66.667 -53.333 100 -136 100 -248v-543h-478zM567 1085c-69.333 0 -104 28.333 -104 85c0 59.333 34.667 89 104 89
c71.333 0 107 -29.667 107 -89c0 -56.667 -35.667 -85 -107 -85z" />
    <glyph glyph-name="afii57423" unicode="&#x62f;" horiz-adv-x="1026" arabic-form="isolated" 
d="M150 153l349 -0.000976562c88 0 132 36.667 132 110c0 7.33301 -1 16 -3 26l-81 216l-75 189h-54v168h247l201 -482c24.667 -58 37 -109.333 37 -154c0 -73.333 -28.333 -130.666 -85 -171.999c-50.667 -36 -110.667 -54 -180 -54h-488v153z" />
    <glyph glyph-name="afii57424" unicode="&#x630;" horiz-adv-x="1026" arabic-form="isolated" 
d="M452 1085c-67.333 0 -101 28.333 -101 85c0 59.333 33.667 89 101 89c71.333 0 107 -29.667 107 -89c0 -56.667 -35.667 -85 -107 -85zM150 153l349 -0.000976562c88 0 132 36.667 132 110c0 7.33301 -1 16 -3 26l-81 216l-75 189h-54v168h247l201 -482
c24.667 -58 37 -109.333 37 -154c0 -73.333 -28.333 -130.666 -85 -171.999c-50.667 -36 -110.667 -54 -180 -54h-488v153z" />
    <glyph glyph-name="afii57425" unicode="&#x631;" horiz-adv-x="659" arabic-form="isolated" 
d="M36 -219c-2.66699 0 12 0 44 0c132 0 198 61.667 198 185v896h257v-892c0 -120 -36 -209.667 -108 -269c-66.667 -55.333 -160 -83 -280 -83c-27.333 0 -59 1.66699 -95 5c-28.667 2.66699 -47.667 4.66699 -57 6z" />
    <glyph glyph-name="afii57426" unicode="&#x632;" horiz-adv-x="659" arabic-form="isolated" 
d="M36 -219c-2.66699 0 12 0 44 0c132 0 198 61.667 198 185v896h257v-892c0 -120 -36 -209.667 -108 -269c-66.667 -55.333 -160 -83 -280 -83c-27.333 0 -59 1.66699 -95 5c-28.667 2.66699 -47.667 4.66699 -57 6zM403 1085c-68.667 0 -103 28.333 -103 85
c0 59.333 34.333 89 103 89c70.667 0 106 -29.667 106 -89c0 -56.667 -35.333 -85 -106 -85z" />
    <glyph glyph-name="afii57427" unicode="&#x633;" horiz-adv-x="2181" arabic-form="isolated" 
d="M1042 -46c0 -100.667 -45.333 -182.664 -136 -245.997c-86 -60 -189.667 -90 -311 -90c-120.667 0 -224.334 30 -311.001 90c-92 63.333 -138 144.666 -138 243.999v910h259v-906c0 -49.333 24.333 -88 73 -116c36.667 -22 76.334 -33 119.001 -33
c43.333 0 82.666 11.333 117.999 34c45.333 28.667 68 67 68 115v906h259v-686c38.667 -23.333 75.334 -35 110.001 -35c92.667 0 139 41.333 139 124v597h259v-685c36 -24 72.667 -36 110 -36c92.667 0 139 41.333 139 124v597h259v-595c0 -176.667 -104 -265 -312 -265
c-71.333 0 -133.333 8 -186 24c-40.667 11.333 -82 32.666 -124 63.999c-37.333 -30.667 -74 -52.334 -110 -65.001c-44 -14.667 -97 -23 -159 -25l-71 4c-10 1.33301 -28 2 -54 2v-52z" />
    <glyph glyph-name="afii57428" unicode="&#x634;" horiz-adv-x="2181" arabic-form="isolated" 
d="M1263 1014c-54 0 -81 22.667 -81 68s27 68 81 68c56.667 0 85 -22.667 85 -68s-28.333 -68 -85 -68zM1404 1227c-54.667 0 -82 22 -82 66c0 46.667 27.333 70 82 70c56.667 0 85 -23.333 85 -70c0 -44 -28.333 -66 -85 -66zM1560 1014c-54 0 -81 22.667 -81 68
s27 68 81 68c56.667 0 85 -22.667 85 -68s-28.333 -68 -85 -68zM1042 -46c0 -100.667 -45.333 -182.664 -136 -245.997c-86 -60 -189.667 -90 -311 -90c-120.667 0 -224.334 30 -311.001 90c-92 63.333 -138 144.666 -138 243.999v910h259v-906
c0 -49.333 24.333 -88 73 -116c36.667 -22 76.334 -33 119.001 -33c43.333 0 82.666 11.333 117.999 34c45.333 28.667 68 67 68 115v906h259v-686c38.667 -23.333 75.334 -35 110.001 -35c92.667 0 139 41.333 139 124v597h259v-685c36 -24 72.667 -36 110 -36
c92.667 0 139 41.333 139 124v597h259v-595c0 -176.667 -104 -265 -312 -265c-71.333 0 -133.333 8 -186 24c-40.667 11.333 -82 32.666 -124 63.999c-37.333 -30.667 -74 -52.334 -110 -65.001c-44 -14.667 -97 -23 -159 -25l-71 4c-10 1.33301 -28 2 -54 2v-52z" />
    <glyph glyph-name="afii57429" unicode="&#x635;" horiz-adv-x="2095" arabic-form="isolated" 
d="M1042 379c116.667 196 213.333 326.334 290 391.001c86.667 72 180.334 108 281.001 108c98.667 0 181.667 -39.667 249 -119c72 -84.667 108 -194.667 108 -330v-13c-2 -124.667 -31.333 -226.667 -88 -306c-52.667 -73.333 -115.667 -110 -189 -110h-657l6 -47
c0 -100 -45.333 -181.667 -136 -245c-86 -60 -189.667 -90 -311 -90c-120.667 0 -224.334 30 -311.001 90c-92 63.333 -138 144.666 -138 243.999v910h259v-906c0 -48.667 25.667 -87.667 77 -117c38 -21.333 78.333 -32 121 -32c43.333 0 82 11.667 116 35
c42.667 28 64 66 64 114v906h259v-483zM1540 153.001c117.333 22.667 178.333 120 183 292v17c0 184.667 -60 277 -180 277c-76.667 -0.666992 -153.667 -41 -231 -121c-90 -91.333 -185.667 -246.333 -287 -465h515z" />
    <glyph glyph-name="afii57430" unicode="&#x636;" horiz-adv-x="2095" arabic-form="isolated" 
d="M1710 1180c0 -57.333 -35 -86 -105 -86s-105 28.667 -105 86c0 58 35 87 105 87s105 -29 105 -87zM1042 379c116.667 196 213.333 326.334 290 391.001c86.667 72 180.334 108 281.001 108c98.667 0 181.667 -39.667 249 -119c72 -84.667 108 -194.667 108 -330v-13
c-2 -124.667 -31.333 -226.667 -88 -306c-52.667 -73.333 -115.667 -110 -189 -110h-657l6 -47c0 -100 -45.333 -181.667 -136 -245c-86 -60 -189.667 -90 -311 -90c-120.667 0 -224.334 30 -311.001 90c-92 63.333 -138 144.666 -138 243.999v910h259v-906
c0 -48.667 25.667 -87.667 77 -117c38 -21.333 78.333 -32 121 -32c43.333 0 82 11.667 116 35c42.667 28 64 66 64 114v906h259v-483zM1540 153.001c117.333 22.667 178.333 120 183 292v17c0 184.667 -60 277 -180 277c-76.667 -0.666992 -153.667 -41 -231 -121
c-90 -91.333 -185.667 -246.333 -287 -465h515z" />
    <glyph glyph-name="afii57431" unicode="&#x637;" horiz-adv-x="1644" arabic-form="isolated" 
d="M159 0l55.999 153h224v1042h259v-656c40 61.333 67.667 102 83 122l35 43c14.667 16.667 30 32.334 46 47.001c40.667 37.333 83.334 66.666 128.001 87.999c55.333 26 112 39 170 39c102 0 186.333 -40.667 253 -122c71.333 -86 107 -199.333 107 -340
c0 -124 -29 -226 -87 -306c-53.333 -73.333 -117 -110 -191 -110h-1083zM1090 153c121.333 23.333 182.001 125.333 182.001 306c0 186.667 -59.667 280 -179 280c-75.333 -0.666992 -153.333 -43 -234 -127c-88.667 -92 -184.334 -245 -287.001 -459h518z" />
    <glyph glyph-name="afii57432" unicode="&#x638;" horiz-adv-x="1644" arabic-form="isolated" 
d="M1257 1180c0 -57.333 -35 -86 -105 -86c-68.667 0 -103 28.667 -103 86c0 58 34.333 87 103 87c70 0 105 -29 105 -87zM159 0l55.999 153h224v1042h259v-656c40 61.333 67.667 102 83 122l35 43c14.667 16.667 30 32.334 46 47.001
c40.667 37.333 83.334 66.666 128.001 87.999c55.333 26 112 39 170 39c102 0 186.333 -40.667 253 -122c71.333 -86 107 -199.333 107 -340c0 -124 -29 -226 -87 -306c-53.333 -73.333 -117 -110 -191 -110h-1083zM1090 153c121.333 23.333 182.001 125.333 182.001 306
c0 186.667 -59.667 280 -179 280c-75.333 -0.666992 -153.333 -43 -234 -127c-88.667 -92 -184.334 -245 -287.001 -459h518z" />
    <glyph glyph-name="afii57433" unicode="&#x639;" horiz-adv-x="976" arabic-form="isolated" 
d="M446 0c0 -80 20.665 -142 61.998 -186c42 -44 91.667 -66 149 -66c49.333 0 87.333 7 114 21l41 -101c-45.333 -33.333 -121.666 -50 -228.999 -50c-143.333 0 -254 58 -332 174c-70 104 -105 224.333 -105 361h222c-45.333 99.333 -68 196 -68 290
c0 139.333 36 249 108 329c64.667 70.667 146.334 106 245.001 106c96 0 161.333 -15 196 -45l-40 -107c-10 8.66699 -37 13 -81 13c-116.667 0 -175 -98 -175 -294c0 -194.667 58.333 -292 175 -292h126v-153h-408z" />
    <glyph glyph-name="afii57434" unicode="&#x63a;" horiz-adv-x="976" arabic-form="isolated" 
d="M446 0c0 -80 20.665 -142 61.998 -186c42 -44 91.667 -66 149 -66c49.333 0 87.333 7 114 21l41 -101c-45.333 -33.333 -121.666 -50 -228.999 -50c-143.333 0 -254 58 -332 174c-70 104 -105 224.333 -105 361h222c-45.333 99.333 -68 196 -68 290
c0 139.333 36 249 108 329c64.667 70.667 146.334 106 245.001 106c96 0 161.333 -15 196 -45l-40 -107c-10 8.66699 -37 13 -81 13c-116.667 0 -175 -98 -175 -294c0 -194.667 58.333 -292 175 -292h126v-153h-408zM738.998 1180c0 -57.333 -34.333 -86 -103 -86
c-70 0 -105 28.667 -105 86c0 58 35 87 105 87c68.667 0 103 -29 103 -87z" />
    <glyph glyph-name="afii57441" unicode="&#x641;" horiz-adv-x="1716" arabic-form="isolated" 
d="M1339 1180c0 -57.333 -34.333 -86 -103 -86c-70 0 -105 28.667 -105 86c0 58 35 87 105 87c68.667 0 103 -29 103 -87zM1210 153c97.333 0 146 55.334 146 166.001c-90.667 9.33301 -162.667 19.666 -216 30.999c-60.667 13.333 -111.667 31.333 -153 54
c-90.667 46.667 -136 117 -136 211c0 88.667 40.667 156 122 202c73.333 40.667 170 61 290 61c136.667 0 246.667 -19 330 -57v-519c0 -109.333 -31 -188 -93 -236c-57.333 -44 -145.333 -66 -264 -66h-749c-108 -0 -191 24.333 -249 73c-61.333 51.333 -92 129 -92 233
v556h259v-591c0 -78.667 42.333 -118 127 -118h678zM1356 750.001c-40.667 13.333 -75 19.998 -103 19.998c-110.667 0 -166 -54.333 -166 -163c0 -69.333 27 -120.666 81 -153.999c39.333 -25.333 102 -39.666 188 -42.999v340z" />
    <glyph glyph-name="afii57442" unicode="&#x642;" horiz-adv-x="1579" arabic-form="isolated" 
d="M1454 -34c0 -101.333 -35.666 -183.999 -106.999 -247.999c-74 -66.667 -173 -100 -297 -100h-467c-118.667 0 -220.334 30 -305.001 90c-88 62.667 -132 144 -132 244v553h259v-586c0 -49.333 24.333 -88 73 -116c36 -21.333 75 -32 117 -32h445c66 0 114 21.667 144 65
c22 32.667 33 86.667 33 162c-152.667 12.667 -273.667 50 -363 112c-95.333 66 -143 148.333 -143 247c0 176.667 130.667 265 392 265c63.333 0 133 -7.66699 209 -23c60 -12.667 107.333 -25.334 142 -38.001v-595zM1217 489.001c-31.333 15.333 -64.667 23 -100 23
c-112.667 0 -169 -54.333 -169 -163c0 -68 27.333 -119.667 82 -155c42 -27.333 104.333 -41 187 -41v336zM937 811.001c-68.667 0 -103 29 -103 87c0 57.333 34.333 86 103 86c71.333 0 107 -28.667 107 -86c0 -58 -35.667 -87 -107 -87zM1292 811.001
c-70.667 0 -106 29 -106 87c0 57.333 35.333 86 106 86c68.667 0 103 -28.667 103 -86c0 -58 -34.333 -87 -103 -87z" />
    <glyph glyph-name="afii57443" unicode="&#x643;" horiz-adv-x="1724" arabic-form="isolated" 
d="M1216 153c84 0 125.999 37.001 125.999 111.001l2 4v231c0 85.333 -56.333 128 -169 128c-39.333 0 -82.666 -5.33301 -129.999 -16c-36.667 -8.66699 -75 -20.667 -115 -36l-45 -31l-54 154l695 562l80 -221l-399 -275c155.333 -8.66699 258.333 -37.334 309 -86.001
c57.333 -53.333 86 -132.333 86 -237v-158c-4 -184.667 -124 -279 -360 -283h-716c-253.333 0 -380 98 -380 294v209h259v-232c0 -78.667 42.333 -118 127 -118h684z" />
    <glyph glyph-name="afii57444" unicode="&#x644;" horiz-adv-x="1165" arabic-form="isolated" 
d="M1042 -46c0 -100.667 -45.332 -182.666 -135.999 -245.999c-86 -60 -189.667 -90 -311 -90c-120.667 0 -224.334 30 -311.001 90c-92 63.333 -138 144.666 -138 243.999v551h259v-547c0 -49.333 24.333 -88 73 -116c36 -22 75 -33 117 -33c43.333 0 83 11.333 119 34
c46 28.667 69 67 69 115v1305h259v-1307z" />
    <glyph glyph-name="afii57445" unicode="&#x645;" horiz-adv-x="1445" arabic-form="isolated" 
d="M1043 644c-20.667 64.667 -58.666 97 -113.999 97c-54.667 0 -92.334 -32.333 -113.001 -97c-14 -44 -21 -110.333 -21 -199c0 -193.333 44.667 -290 134 -290c91.333 0 137 96.667 137 290c0 88.667 -7.66699 155 -23 199zM616.001 153
c-52.667 96 -78.999 192 -78.999 288c0 131.333 34.667 236.333 104 315c70 81.333 166 122 288 122c124 0 221 -40.667 291 -122c68.667 -78.667 103 -183.667 103 -315c0 -132 -34.667 -238 -104 -318c-70.667 -82 -167.334 -123 -290.001 -123h-397
c-84.667 0 -127 -39.333 -127 -118v-267h-259v245c0 195.333 109.333 293 328 293h142z" />
    <glyph glyph-name="afii57446" unicode="&#x646;" horiz-adv-x="1165" arabic-form="isolated" 
d="M1042 -46c0 -100.667 -45.332 -182.666 -135.999 -245.999c-86 -60 -189.667 -90 -311 -90c-120.667 0 -224.334 30 -311.001 90c-92 63.333 -138 144.666 -138 243.999v910h259v-906c0 -49.333 24.333 -88 73 -116c36 -22 75 -33 117 -33c43.333 0 83 11.333 119 34
c46 28.667 69 67 69 115v906h259v-908zM608.001 1085c-69.333 0 -104 28.333 -104 85c0 59.333 34.667 89 104 89c70 0 105 -29.667 105 -89c0 -56.667 -35 -85 -105 -85z" />
    <glyph glyph-name="afii57470" unicode="&#x647;" horiz-adv-x="962" arabic-form="isolated" 
d="M770 107c-70 -82 -166.333 -123 -289 -123s-219 41 -289 123c-68.667 78.667 -103 184 -103 316c0 131.333 34.333 236.333 103 315c70 82.667 166.333 124 289 124s219 -41.333 289 -124c68.667 -78.667 103 -183.667 103 -315c0 -132 -34.333 -237.333 -103 -316z
M594 627c-20.667 64 -58.333 96 -113 96c-55.333 0 -93.333 -31.667 -114 -95c-15.333 -44 -23 -110.333 -23 -199c0 -193.333 45.667 -290 137 -290c89.333 0 134 96.667 134 290c0 88 -7 154 -21 198z" />
    <glyph glyph-name="afii57448" unicode="&#x648;" horiz-adv-x="1044" arabic-form="isolated" 
d="M926 -28c0 -122.667 -42.3311 -214 -126.998 -274c-74.667 -53.333 -175.334 -80 -302.001 -80c-122.667 0 -219.667 19 -291 57l57 149c50 -27.333 119.667 -41 209 -41c52 0 97.667 13.667 137 41c44.667 32 67 73.333 67 124v94c-54.667 -28 -113.667 -42 -177 -42
c-102.667 -0 -186.334 34.333 -251.001 103c-68 72 -102 169.667 -102 293c0 310.667 154 466 462 466c150 0 256 -18.333 318 -55v-835zM676.002 720c-34.667 12.667 -64.333 19 -89 19c-122.667 0 -184 -106.667 -184 -320c0 -199.333 60 -299 180 -299
c25.333 0 56.333 6 93 18v582z" />
    <glyph glyph-name="afii57449" unicode="&#x649;" horiz-adv-x="1615" arabic-form="isolated" 
d="M1132 383c-128.667 0 -228.998 34.3311 -300.998 102.998c-68.667 64.667 -103 151.334 -103 260.001c0 106.667 34.333 192.334 103 257.001c73.333 68 173.666 102 300.999 102c166.667 0 279 -45.333 337 -136l-208 -90c-10.667 81.333 -53.667 122 -129 122
c-55.333 0 -94 -27.667 -116 -83c-15.333 -37.333 -23 -94 -23 -170c0 -140 45.333 -210 136 -210l28 -2h311c9.33301 -22.667 16.333 -55 21 -97l3 -49l1 -39c0 -120 -37.333 -210 -112 -270c-68 -54 -163.333 -81 -286 -81h-541c-116.667 0 -213.334 29.667 -290.001 89
c-78.667 62 -118 144 -118 246v527h259v-552c0 -49.333 21.667 -88 65 -116c33.333 -22 71 -33 113 -33h463c132 0 198 74 198 222h-112z" />
    <glyph glyph-name="afii57450" unicode="&#x64a;" horiz-adv-x="1615" arabic-form="isolated" 
d="M1132 383c-128.667 0 -228.998 34.3311 -300.998 102.998c-68.667 64.667 -103 151.334 -103 260.001c0 106.667 34.333 192.334 103 257.001c73.333 68 173.666 102 300.999 102c166.667 0 279 -45.333 337 -136l-208 -90c-10.667 81.333 -53.667 122 -129 122
c-55.333 0 -94 -27.667 -116 -83c-15.333 -37.333 -23 -94 -23 -170c0 -140 45.333 -210 136 -210l28 -2h311c9.33301 -22.667 16.333 -55 21 -97l3 -49l1 -39c0 -120 -37.333 -210 -112 -270c-68 -54 -163.333 -81 -286 -81h-541c-116.667 0 -213.334 29.667 -290.001 89
c-78.667 62 -118 144 -118 246v527h259v-552c0 -49.333 21.667 -88 65 -116c33.333 -22 71 -33 113 -33h463c132 0 198 74 198 222h-112z" />
    <glyph glyph-name="afii57506" unicode="&#x67e;" horiz-adv-x="1724" arabic-form="isolated" 
d="M526 0c-253.333 0 -380 98 -380 294v568h259v-591c0 -78.667 42.333 -118 127 -118h684c84 0 126 39.333 126 118v591h260v-568c0 -196 -125.333 -294 -376 -294h-700zM1118 -277c0 -47.333 -28 -71 -84 -71c-54 0 -81 23.667 -81 71c0 44 27 66 81 66
c56 0 84 -22 84 -66zM823 -277c0 -47.333 -28 -71 -84 -71c-55.333 0 -83 23.667 -83 71c0 44 27.667 66 83 66c56 0 84 -22 84 -66zM965 -490c0 -46 -28.333 -69 -85 -69c-55.333 0 -83 23 -83 69c0 45.333 27.667 68 83 68c56.667 0 85 -22.667 85 -68z" />
    <glyph glyph-name="afii57507" unicode="&#x686;" horiz-adv-x="1046" arabic-form="isolated" 
d="M724 -71c56 0 84 -21.667 84 -65c0 -45.333 -28 -68 -84 -68c-58 0 -87 22.667 -87 68c0 43.333 29 65 87 65zM925 -71c57.333 0 86 -21.667 86 -65c0 -45.333 -28.667 -68 -86 -68c-58.667 0 -88 22.667 -88 68c0 43.333 29.333 65 88 65zM829 -214
c57.333 0 86 -22 86 -66c0 -44.667 -28.667 -67 -86 -67c-58.667 0 -88 22.333 -88 67c0 44 29.333 66 88 66zM709 -370c-26 -8 -68 -12.001 -126 -12.001c-143.333 0 -254 58 -332 174c-70 104 -105 224.333 -105 361h518v446c0 85.333 -56.333 128 -169 128
c-86 0 -162.333 -14.667 -229 -44l-44 122c25.333 10.667 64.666 22 117.999 34c73.333 15.333 149 23 227 23c112 0 197.667 -23.667 257 -71c66.667 -53.333 100 -136 100 -248v-543h-478c0 -78.667 20 -140 60 -184c40.667 -43.333 83.334 -65.666 128.001 -66.999z" />
    <glyph glyph-name="afii57508" unicode="&#x698;" horiz-adv-x="659" arabic-form="isolated" 
d="M36 -219c-2.66699 0 12 0 44 0c132 0 198 61.667 198 185v896h257v-892c0 -120 -36 -209.667 -108 -269c-66.667 -55.333 -160 -83 -280 -83c-27.333 0 -59 1.66699 -95 5c-28.667 2.66699 -47.667 4.66699 -57 6zM547 1104c-54 0 -81 22 -81 66c0 46.667 27 70 81 70
c56.667 0 85 -23.333 85 -70c0 -44 -28.333 -66 -85 -66zM252 1104c-55.333 0 -83 22 -83 66c0 46.667 27.667 70 83 70c56.667 0 85 -23.333 85 -70c0 -44 -28.333 -66 -85 -66zM393 1315c-54.667 0 -82 22.667 -82 68s27.333 68 82 68c56.667 0 85 -22.667 85 -68
s-28.333 -68 -85 -68z" />
    <glyph glyph-name="afii57509" unicode="&#x6af;" horiz-adv-x="1724" arabic-form="isolated" 
d="M831 933l625 500l39 -131l-664 -534v165zM1216 153c84 0 125.999 37.001 125.999 111.001l2 4v231c0 85.333 -56.333 128 -169 128c-39.333 0 -82.666 -5.33301 -129.999 -16c-36.667 -8.66699 -75 -20.667 -115 -36l-45 -31l-54 154l695 562l80 -221l-399 -275
c155.333 -8.66699 258.333 -37.334 309 -86.001c57.333 -53.333 86 -132.333 86 -237v-158c-4 -184.667 -124 -279 -360 -283h-716c-253.333 0 -380 98 -380 294v209h259v-232c0 -78.667 42.333 -118 127 -118h684z" />
    <glyph glyph-name="uniFB57" unicode="&#x67e;" horiz-adv-x="1804" arabic-form="final" 
d="M1748 0c-68 0 -126.667 8.00098 -176 24.001c-38 11.333 -76 32.666 -114 63.999c-42 -30.667 -83.333 -52 -124 -64c-52.667 -16 -114.667 -24 -186 -24h-622c-253.333 0 -380 98 -380 294v568h259v-591c0 -78.667 42.333 -118 127 -118h702c37.333 0 74 13.333 110 40
v669h260v-583c0 -84 46.667 -126 140 -126h75v-153h-71zM1118 -276.999c0 -47.333 -28 -71 -84 -71c-54 0 -81 23.667 -81 71c0 44 27 66 81 66c56 0 84 -22 84 -66zM823 -276.999c0 -47.333 -28 -71 -84 -71c-55.333 0 -83 23.667 -83 71c0 44 27.667 66 83 66
c56 0 84 -22 84 -66zM965 -489.999c0 -46 -28.333 -69 -85 -69c-55.333 0 -83 23 -83 69c0 45.333 27.667 68 83 68c56.667 0 85 -22.667 85 -68z" />
    <glyph glyph-name="uniFB58" unicode="&#x67e;" horiz-adv-x="677" arabic-form="initial" 
d="M-18 153h190c82.667 0 124 39.333 124 118v591h260v-568c0 -196 -125.333 -294 -376 -294h-198v153zM529 -277c0 -47.333 -28 -71 -84 -71c-54 0 -81 23.667 -81 71c0 44 27 66 81 66c56 0 84 -22 84 -66zM234 -277c0 -47.333 -28 -71 -84 -71
c-55.333 0 -83 23.667 -83 71c0 44 27.667 66 83 66c56 0 84 -22 84 -66zM376 -490c0 -46 -28.333 -69 -85 -69c-55.333 0 -83 23 -83 69c0 45.333 27.667 68 83 68c56.667 0 85 -22.667 85 -68z" />
    <glyph glyph-name="uniFB59" unicode="&#x67e;" horiz-adv-x="788" arabic-form="medial" 
d="M690 0c-66.667 0 -124.666 8.00098 -173.999 24.001c-38.667 11.333 -77 32.666 -115 63.999c-42.667 -30.667 -84.334 -52 -125.001 -64c-52.667 -16 -114.667 -24 -186 -24h-98v153h184c40 0 76.667 13.667 110 41v668h260v-583c0 -84 46.667 -126 140 -126h121v-153
h-117zM544.001 -221.999c0 -46.667 -28.333 -70 -85 -70c-54 0 -81 23.333 -81 70c0 44 27 66 81 66c56.667 0 85 -22 85 -66zM247.001 -221.999c0 -46.667 -27.667 -70 -83 -70s-83 23.333 -83 70c0 44 27.667 66 83 66s83 -22 83 -66zM388.001 -434.999
c0 -45.333 -28.333 -68 -85 -68c-54.667 0 -82 22.667 -82 68s27.333 68 82 68c56.667 0 85 -22.667 85 -68z" />
    <glyph glyph-name="uniFB7B" unicode="&#x686;" horiz-adv-x="1046" arabic-form="final" 
d="M709 -370c-26 -8 -68 -12.001 -126 -12.001c-143.333 0 -254 58 -332 174c-70 104 -105 224.333 -105 361h518v446c0 85.333 -56.333 128 -169 128c-86 0 -162.333 -14.667 -229 -44l-44 122c25.333 10.667 64.666 22 117.999 34c73.333 15.333 149 23 227 23
c112 0 197.667 -23.667 257 -71c66.667 -53.333 100 -136 100 -248v-390h130v-153h-608c0 -78.667 20 -140 60 -184c40.667 -43.333 83.334 -65.666 128.001 -66.999zM724 -71.001c56 0 84 -21.667 84 -65c0 -45.333 -28 -68 -84 -68c-58 0 -87 22.667 -87 68
c0 43.333 29 65 87 65zM925 -71.001c57.333 0 86 -21.667 86 -65c0 -45.333 -28.667 -68 -86 -68c-58.667 0 -88 22.667 -88 68c0 43.333 29.333 65 88 65zM829 -214.001c57.333 0 86 -22 86 -66c0 -44.667 -28.667 -67 -86 -67c-58.667 0 -88 22.333 -88 67
c0 44 29.333 66 88 66z" />
    <glyph glyph-name="uniFB7C" unicode="&#x686;" horiz-adv-x="985" arabic-form="initial" 
d="M604 153v446.001c0 85.333 -56.667 128 -170 128c-86 0 -162 -14.667 -228 -44l-45 122c24 10 63.333 21.333 118 34c73.333 15.333 149 23 227 23c112 0 197.667 -23.667 257 -71c65.333 -52.667 98 -135.334 98 -248.001v-543h-879v153h622zM340 -216.999
c54 0 81 -22 81 -66c0 -47.333 -27 -71 -81 -71c-56.667 0 -85 23.667 -85 71c0 44 28.333 66 85 66zM635 -216.999c55.333 0 83 -22 83 -66c0 -47.333 -27.667 -71 -83 -71c-56.667 0 -85 23.667 -85 71c0 44 28.333 66 85 66zM494 -427.999c54.667 0 82 -22.667 82 -68
c0 -46 -27.333 -69 -82 -69c-56.667 0 -85 23 -85 69c0 45.333 28.333 68 85 68z" />
    <glyph glyph-name="uniFB7D" unicode="&#x686;" horiz-adv-x="980" arabic-form="medial" 
d="M604 153v446.001c0 85.333 -56.667 128 -170 128c-86 0 -162 -14.667 -228 -44l-45 122c24 10 63.333 21.333 118 34c73.333 15.333 149 23 227 23c112 0 197.667 -23.667 257 -71c65.333 -52.667 98 -135.334 98 -248.001v-390h148v-153h-1027v153h622zM340 -216.999
c54 0 81 -22 81 -66c0 -47.333 -27 -71 -81 -71c-56.667 0 -85 23.667 -85 71c0 44 28.333 66 85 66zM635 -216.999c55.333 0 83 -22 83 -66c0 -47.333 -27.667 -71 -83 -71c-56.667 0 -85 23.667 -85 71c0 44 28.333 66 85 66zM494 -427.999c54.667 0 82 -22.667 82 -68
c0 -46 -27.333 -69 -82 -69c-56.667 0 -85 23 -85 69c0 45.333 28.333 68 85 68z" />
    <glyph glyph-name="uniFB8B" unicode="&#x698;" horiz-adv-x="765" arabic-form="final" 
d="M536 271c0 -78.667 46.333 -118 139 -118h120v-153h-114c-46 0 -94.333 11.667 -145 35v-65c0 -120 -36 -209.667 -108 -269c-66.667 -55.333 -160 -83 -280 -83c-28 0 -59.667 1.66699 -95 5l-57 7l41 151c-2.66699 0 12 0 44 0c132 0 198 61.667 198 185v896h257v-591z
M527 1104c-53.333 0 -80 22 -80 66c0 46.667 26.667 70 80 70c56.667 0 85 -23.333 85 -70c0 -44 -28.333 -66 -85 -66zM232 1104c-54.667 0 -82 22 -82 66c0 46.667 27.333 70 82 70c56.667 0 85 -23.333 85 -70c0 -44 -28.333 -66 -85 -66zM374 1315
c-55.333 0 -83 22.667 -83 68s27.667 68 83 68c56 0 84 -22.667 84 -68s-28 -68 -84 -68z" />
    <glyph glyph-name="uniFB8F" unicode="&#x6a9;" horiz-adv-x="1841" arabic-form="final" 
d="M1604 279c0 -84 46.666 -125.998 139.999 -125.998h105v-153h-101c-68 0 -126.667 8 -176 24c-38 11.333 -76 32.666 -114 63.999c-42 -30.667 -83.333 -52 -124 -64c-27.333 -8.66699 -54.333 -16.667 -81 -24h-727c-253.333 0 -380 98 -380 294v211h259v-234
c0 -78.667 42.333 -118 127 -118h702c37.333 0 62.5 1.16699 75.5 3.5s25.167 9.5 36.5 21.5v321c0 85.333 -56.333 128 -169 128c-39.333 0 -82.666 -5.33301 -129.999 -16c-36.667 -8.66699 -75 -20.667 -115 -36l-45 -31l-54 154l695 562l80 -221l-399 -275
c155.333 -8.66699 258.333 -37.334 309 -86.001c57.333 -53.333 86 -132.333 86 -237v-162z" />
    <glyph glyph-name="uniFB90" unicode="&#x6a9;" horiz-adv-x="985" arabic-form="initial" 
d="M468 765c154.667 -10 257.333 -39 308 -87c57.333 -53.333 86 -132.333 86 -237v-441h-886v153h628v345c0 86 -56.333 129 -169 129c-40 0 -83.333 -5.66699 -130 -17c-36.667 -8 -75 -19.667 -115 -35l-45 -32l-54 154l695 562l80 -220z" />
    <glyph glyph-name="uniFB91" unicode="&#x6a9;" horiz-adv-x="985" arabic-form="medial" 
d="M-14 153h617.999v345c0 86 -56.333 129 -169 129c-40 0 -83.333 -5.66699 -130 -17c-36.667 -8 -75 -19.667 -115 -35l-45 -32l-54 154l695 562l80 -220l-398 -274c154.667 -10 257.334 -39 308.001 -87c57.333 -53.333 86 -132.333 86 -237v-288h126v-153h-1002v153z
" />
    <glyph glyph-name="uniFB93" unicode="&#x6af;" horiz-adv-x="1841" arabic-form="final" 
d="M1604 279c0 -84 46.666 -125.998 139.999 -125.998h105v-153h-101c-68 0 -126.667 8 -176 24c-38 11.333 -76 32.666 -114 63.999c-42 -30.667 -83.333 -52 -124 -64c-27.333 -8.66699 -54.333 -16.667 -81 -24h-727c-253.333 0 -380 98 -380 294v211h259v-234
c0 -78.667 42.333 -118 127 -118h702c37.333 0 62.5 1.16699 75.5 3.5s25.167 9.5 36.5 21.5v321c0 85.333 -56.333 128 -169 128c-39.333 0 -82.666 -5.33301 -129.999 -16c-36.667 -8.66699 -75 -20.667 -115 -36l-45 -31l-54 154l695 562l80 -221l-399 -275
c155.333 -8.66699 258.333 -37.334 309 -86.001c57.333 -53.333 86 -132.333 86 -237v-162zM830.999 933.002l625 500l39 -131l-664 -534v165z" />
    <glyph glyph-name="uniFB94" unicode="&#x6af;" horiz-adv-x="985" arabic-form="initial" 
d="M91 697l694.999 562l80 -220l-398 -274c154.667 -10 257.334 -39 308.001 -87c57.333 -53.333 86 -132.333 86 -237v-441h-866v153h608v345c0 86 -56.333 129 -169 129c-40 0 -83.333 -5.66699 -130 -17c-36.667 -8 -75 -19.667 -115 -35l-45 -32zM90.999 933l625 500
l39 -131l-664 -534v165z" />
    <glyph glyph-name="uniFB95" unicode="&#x6af;" horiz-adv-x="985" arabic-form="medial" 
d="M-14 153h617.999v345c0 86 -56.333 129 -169 129c-40 0 -83.333 -5.66699 -130 -17c-36.667 -8 -75 -19.667 -115 -35l-45 -32l-54 154l695 562l80 -220l-398 -274c154.667 -10 257.334 -39 308.001 -87c57.333 -53.333 86 -132.333 86 -237v-288h146v-153h-1022v153z
M90.999 933l625 500l39 -131l-664 -534v165z" />
    <glyph glyph-name="uniFBA5" unicode="&#x6c0;" horiz-adv-x="1161" arabic-form="final" 
d="M499 0c-102.667 0 -186.333 34.667 -251 104c-68 74 -102 172.667 -102 296c0 310.667 154 466 462 466c150.667 0 256.667 -19 318 -57v-656h253v-153h-680zM676.001 724c-30 11.333 -59.667 17 -89 17c-122.667 0 -184 -106 -184 -318c0 -100 15.333 -170.333 46 -211
c29.333 -39.333 77.333 -59 144 -59h85zM211.001 1098h129.999c-35.333 28 -53 60 -53 96c0 43.333 15.667 79 47 107c30.667 27.333 67.667 41 111 41c35.333 0 64.833 -7.83301 88.5 -23.5s1.83398 -22.5 -65.499 -20.5c-42.667 -4 -64 -38.667 -64 -104
c0 -64 23.667 -96 71 -96h41c32.667 -0.666992 45.667 -18 39 -52h-323z" />
    <glyph glyph-name="uniFBFD" unicode="&#x6cc;" horiz-adv-x="1642" arabic-form="final" 
d="M146 479l259.001 -0.000976562v-552c0 -48.667 21.667 -87 65 -115c33.333 -22 71 -33 113 -33h463c132 0 198 73.667 198 221h-315v153h733v-153h-169v-32c0 -119.333 -37.333 -208.666 -112 -267.999c-68 -54.667 -163.333 -82 -286 -82h-541
c-116.667 0 -213.334 29.667 -290.001 89c-78.667 61.333 -118 143 -118 245v527z" />
    <glyph glyph-name="uniFBFE" unicode="&#x6cc;" horiz-adv-x="675" arabic-form="initial" 
d="M-17 153h190c82.667 0 124 39.333 124 118v591h259v-568c0 -196 -125 -294 -375 -294h-198v153zM463 -385c-68.667 0 -103 29 -103 87s34.333 87 103 87c70.667 0 106 -29 106 -87s-35.333 -87 -106 -87zM109 -385c-67.333 0 -101 29 -101 87s33.667 87 101 87
c71.333 0 107 -29 107 -87s-35.667 -87 -107 -87z" />
    <glyph glyph-name="uniFBFF" unicode="&#x6cc;" horiz-adv-x="788" arabic-form="medial" 
d="M690 0c-67.333 0 -125.667 8.00098 -175 24.001c-38 11.333 -76.333 32.666 -115 63.999c-42 -30.667 -83.333 -52 -124 -64c-52.667 -16 -114.667 -24 -186 -24h-108v153h194c40 0 76.667 13.667 110 41v668h260v-583c0 -84 46.667 -126 140 -126h121v-153h-117z
M439.999 -377.999c-68.667 0 -103 28 -103 84c0 59.333 34.333 89 103 89c70.667 0 106 -29.667 106 -89c0 -56 -35.333 -84 -106 -84zM87.999 -377.999c-68.667 0 -103 28 -103 84c0 59.333 34.333 89 103 89c70 0 105 -29.667 105 -89c0 -56 -35 -84 -105 -84z" />
    <glyph glyph-name="uniFE82" unicode="&#x622;" horiz-adv-x="658" arabic-form="final" 
d="M667 0h-99c-250 0 -375 98 -375 294v965h257v-988c0 -78.667 42.333 -118 127 -118h90v-153zM562 1445c-15.333 -44 -57.334 -69 -126.001 -75h-15c-28 0 -64.333 10.667 -109 32c-42 20.667 -74 31 -96 31h-9c-46 -3.33301 -81 -32.666 -105 -87.999l-49 93
c24.667 48 67.334 76 128.001 84h10c30.667 0 67.667 -11 111 -33c41.333 -20.667 72 -31 92 -31h12c50 5.33301 86.667 32.666 110 81.999z" />
    <glyph glyph-name="uniFE84" unicode="&#x623;" horiz-adv-x="658" arabic-form="final" 
d="M668 0h-99c-250.667 0 -376 98 -376 294v965h258v-988c0 -78.667 42 -118 126 -118h91v-153zM142 1407h130.002c-35.333 28 -53 60 -53 96c0 43.333 15.667 79 47 107c30.667 27.333 67.667 41 111 41c35.333 0 64.666 -7.83301 87.999 -23.5
s1.66602 -22.5 -65.001 -20.5c-42.667 -4 -64 -38.667 -64 -104c0 -64 23.667 -96 71 -96h40c33.333 -0.666992 46.333 -18 39 -52h-322z" />
    <glyph glyph-name="uniFE86" unicode="&#x624;" horiz-adv-x="1135" arabic-form="final" 
d="M676 720c-34.667 12.667 -64.333 19 -89 19c-122.667 0 -184 -100 -184 -300c0 -192 60 -288 180 -288h22c6.66699 0.666992 13.667 1 21 1l50 2v566zM926.001 153h239.001v-153h-241c0 -142 -42.333 -243 -127 -303c-74.667 -52.667 -174.667 -79 -300 -79
c-122.667 0 -219.667 19 -291 57l57 149c50 -27.333 119.667 -41 209 -41c52 0 97.667 13.667 137 41c44.667 32 67 73.333 67 124v52h-177c-102.667 -0 -186.334 34.333 -251.001 103c-68 72 -102 169.667 -102 293c0 310.667 154 466 462 466c150 0 256 -18.333 318 -55
v-654zM404.002 1118h130.003c-35.333 28 -53 60 -53 96c0 43.333 15.333 79 46 107c31.333 27.333 68.666 41 111.999 41c35.333 0 64.666 -7.83301 87.999 -23.5s1.66602 -22.5 -65.001 -20.5c-42.667 -4 -64 -38.667 -64 -104c0 -64 23.667 -96 71 -96h40
c33.333 -0.666992 46.333 -18 39 -52h-323z" />
    <glyph glyph-name="uniFE88" unicode="&#x625;" horiz-adv-x="650" arabic-form="final" 
d="M668 0h-99c-250 0 -375 98 -375 294v965h257v-988c0 -78.667 42.333 -118 127 -118h90v-153zM109 -358h130.002c-35.333 28.667 -53 60.667 -53 96c0 43.333 15.667 79 47 107c30.667 27.333 67.667 41 111 41c35.333 0 64.666 -7.83301 87.999 -23.5
s1.66602 -22.5 -65.001 -20.5c-42.667 -4 -64 -38.667 -64 -104c0 -64 23.667 -96 71 -96h40c33.333 0 46.333 -17.333 39 -52h-322z" />
    <glyph glyph-name="uniFE8A" unicode="&#x626;" horiz-adv-x="1621" arabic-form="final" 
d="M146 479l259.001 -0.000976562v-552c0 -48.667 21.667 -87 65 -115c33.333 -22 71 -33 113 -33h463c132 0 198 73.667 198 221h-315v153h703v-153h-139v-32c0 -119.333 -37.333 -208.666 -112 -267.999c-68.667 -54.667 -164 -82 -286 -82h-541
c-116.667 0 -213.334 29.667 -290.001 89c-78.667 61.333 -118 143 -118 245v527zM119.001 646.999h130.002c-35.333 28 -53 60 -53 96c0 43.333 15.667 79 47 107c30.667 27.333 67.667 41 111 41c35.333 0 64.666 -7.83301 87.999 -23.5s1.66602 -22.5 -65.001 -20.5
c-42.667 -4 -64 -38.667 -64 -104c0 -64 23.667 -96 71 -96h40c33.333 -0.666992 46.333 -18 39 -52h-322z" />
    <glyph glyph-name="uniFE8B" unicode="&#x626;" horiz-adv-x="677" arabic-form="initial" 
d="M-28 153h200c82.667 0 124 39.333 124 118v591h260v-568c0 -196 -125.333 -294 -376 -294h-208v153zM241 1098h130.003c-35.333 28 -53 60 -53 96c0 43.333 15.333 79 46 107c31.333 27.333 68.666 41 111.999 41c35.333 0 64.666 -7.83301 87.999 -23.5
s1.66602 -22.5 -65.001 -20.5c-42.667 -4 -64 -38.667 -64 -104c0 -64 23.667 -96 71 -96h40c33.333 -0.666992 46.333 -18 39 -52h-323z" />
    <glyph glyph-name="uniFE8C" unicode="&#x626;" horiz-adv-x="788" arabic-form="medial" 
d="M690 0c-66.667 0 -124.666 8.00098 -173.999 24.001c-38.667 11.333 -77 32.666 -115 63.999c-42.667 -30.667 -84.334 -52 -125.001 -64c-52.667 -16 -114.667 -24 -186 -24h-108v153h194c40 0 76.667 13.667 110 41v668h260v-583c0 -84 46.667 -126 140 -126h131v-153
h-127zM241.001 1098h130.003c-35.333 28 -53 60 -53 96c0 43.333 15.333 79 46 107c31.333 27.333 68.666 41 111.999 41c35.333 0 64.666 -7.83301 87.999 -23.5s1.66602 -22.5 -65.001 -20.5c-42.667 -4 -64 -38.667 -64 -104c0 -64 23.667 -96 71 -96h40
c33.333 -0.666992 46.333 -18 39 -52h-323z" />
    <glyph glyph-name="uniFE8E" unicode="&#x627;" horiz-adv-x="690" arabic-form="final" 
d="M698 0h-129c-250.667 0 -376 98 -376 294v965h257v-988c0 -78.667 42.333 -118 127 -118h121v-153z" />
    <glyph glyph-name="uniFE90" unicode="&#x628;" horiz-adv-x="1841" arabic-form="final" 
d="M872 -382c-67.333 0 -101 28.667 -101 86c0 58 33.667 87 101 87c71.333 0 107 -29 107 -87c0 -57.333 -35.667 -86 -107 -86zM1748 0c-68 0 -126.667 8.00098 -176 24.001c-38 11.333 -76 32.666 -114 63.999c-42 -30.667 -83.333 -52 -124 -64
c-52.667 -16 -114.667 -24 -186 -24h-622c-253.333 0 -380 98 -380 294v568h259v-591c0 -78.667 42.333 -118 127 -118h702c37.333 0 74 13.333 110 40v669h260v-583c0 -84 46.667 -126 140 -126h115v-153h-111z" />
    <glyph glyph-name="uniFE91" unicode="&#x628;" horiz-adv-x="677" arabic-form="initial" 
d="M-18 153h190c82.667 0 124 39.333 124 118v591h260v-568c0 -196 -125.333 -294 -376 -294h-198v153zM303 -382c-68.667 0 -103 28.667 -103 86c0 58 34.333 87 103 87c70 0 105 -29 105 -87c0 -57.333 -35 -86 -105 -86z" />
    <glyph glyph-name="uniFE92" unicode="&#x628;" horiz-adv-x="788" arabic-form="medial" 
d="M690 0c-66.667 0 -124.666 8.00098 -173.999 24.001c-38.667 11.333 -77 32.666 -115 63.999c-42.667 -30.667 -84.334 -52 -125.001 -64c-52.667 -16 -114.667 -24 -186 -24h-108v153h194c40 0 76.667 13.667 110 41v668h260v-583c0 -84 46.667 -126 140 -126h121v-153
h-117zM426.001 -381.999c-68.667 0 -103 28.667 -103 86c0 58 34.333 87 103 87c71.333 0 107 -29 107 -87c0 -57.333 -35.667 -86 -107 -86z" />
    <glyph glyph-name="uniFE96" unicode="&#x62a;" horiz-adv-x="1841" arabic-form="final" 
d="M1048 1085c-68.667 0 -103 28.333 -103 85c0 59.333 34.333 89 103 89c70 0 105 -29.667 105 -89c0 -56.667 -35 -85 -105 -85zM694 1085c-68 0 -102 28.333 -102 85c0 59.333 34 89 102 89c71.333 0 107 -29.667 107 -89c0 -56.667 -35.667 -85 -107 -85zM1748 0
c-68 0 -126.667 8.00098 -176 24.001c-38 11.333 -76 32.666 -114 63.999c-42 -30.667 -83.333 -52 -124 -64c-52.667 -16 -114.667 -24 -186 -24h-622c-253.333 0 -380 98 -380 294v568h259v-591c0 -78.667 42.333 -118 127 -118h702c37.333 0 74 13.333 110 40v669h260
v-583c0 -84 46.667 -126 140 -126h115v-153h-111z" />
    <glyph glyph-name="uniFE97" unicode="&#x62a;" horiz-adv-x="675" arabic-form="initial" 
d="M-17 153h190c82.667 0 124 39.333 124 118v591h259v-568c0 -196 -125 -294 -375 -294h-198v153zM463 1085c-68.667 0 -103 28.333 -103 85c0 59.333 34.333 89 103 89c70.667 0 106 -29.667 106 -89c0 -56.667 -35.333 -85 -106 -85zM109 1085
c-67.333 0 -101 28.333 -101 85c0 59.333 33.667 89 101 89c71.333 0 107 -29.667 107 -89c0 -56.667 -35.667 -85 -107 -85z" />
    <glyph glyph-name="uniFE98" unicode="&#x62a;" horiz-adv-x="788" arabic-form="medial" 
d="M690 0c-67.333 0 -125.667 8.00098 -175 24.001c-38 11.333 -76.333 32.666 -115 63.999c-42 -30.667 -83.333 -52 -124 -64c-52.667 -16 -114.667 -24 -186 -24h-108v153h194c40 0 76.667 13.667 110 41v668h260v-583c0 -84 46.667 -126 140 -126h121v-153h-117z
M439.999 1085c-68.667 0 -103 28.333 -103 85c0 59.333 34.333 89 103 89c70.667 0 106 -29.667 106 -89c0 -56.667 -35.333 -85 -106 -85zM87.999 1085c-68.667 0 -103 28.333 -103 85c0 59.333 34.333 89 103 89c70 0 105 -29.667 105 -89c0 -56.667 -35 -85 -105 -85z
" />
    <glyph glyph-name="uniFE9A" unicode="&#x62b;" horiz-adv-x="1841" arabic-form="final" 
d="M1748 0c-68 0 -126.667 8.00098 -176 24.001c-38 11.333 -76 32.666 -114 63.999c-42 -30.667 -83.333 -52 -124 -64c-52.667 -16 -114.667 -24 -186 -24h-622c-253.333 0 -380 98 -380 294v568h259v-591c0 -78.667 42.333 -118 127 -118h702c37.333 0 74 13.333 110 40
v669h260v-583c0 -84 46.667 -126 140 -126h105v-153h-101zM722 915.001c-54.667 0 -82 22.333 -82 67c0 46.667 27.333 70 82 70c56.667 0 85 -23.333 85 -70c0 -44.667 -28.333 -67 -85 -67zM864 1126c-55.333 0 -83 23 -83 69c0 45.333 27.667 68 83 68
c56 0 84 -22.667 84 -68c0 -46 -28 -69 -84 -69zM1019 915.001c-53.333 0 -80 22.333 -80 67c0 46.667 26.667 70 80 70c55.333 0 83 -23.333 83 -70c0 -44.667 -27.667 -67 -83 -67z" />
    <glyph glyph-name="uniFE9B" unicode="&#x62b;" horiz-adv-x="688" arabic-form="initial" 
d="M-18 153h190c82.667 0 124 39.333 124 118v591h260v-568c0 -196 -125.333 -294 -376 -294h-198v153zM496 1014c-54 0 -81 22.667 -81 68s27 68 81 68c56 0 84 -22.667 84 -68s-28 -68 -84 -68zM201 1014c-55.333 0 -83 22.667 -83 68s27.667 68 83 68s83 -22.667 83 -68
s-27.667 -68 -83 -68zM340 1227c-53.333 0 -80 22 -80 66c0 46.667 26.667 70 80 70c56.667 0 85 -23.333 85 -70c0 -44 -28.333 -66 -85 -66z" />
    <glyph glyph-name="uniFE9C" unicode="&#x62b;" horiz-adv-x="788" arabic-form="medial" 
d="M690 0c-66.667 0 -124.666 8.00098 -173.999 24.001c-38.667 11.333 -77 32.666 -115 63.999c-42.667 -30.667 -84.334 -52 -125.001 -64c-52.667 -16 -114.667 -24 -186 -24h-108v153h194c40 0 76.667 13.667 110 41v668h260v-583c0 -84 46.667 -126 140 -126h121v-153
h-117zM459.001 1014c-54 0 -81 22.667 -81 68s27 68 81 68c56.667 0 85 -22.667 85 -68s-28.333 -68 -85 -68zM164.001 1014c-55.333 0 -83 22.667 -83 68s27.667 68 83 68s83 -22.667 83 -68s-27.667 -68 -83 -68zM303.001 1227c-54.667 0 -82 22 -82 66
c0 46.667 27.333 70 82 70c56.667 0 85 -23.333 85 -70c0 -44 -28.333 -66 -85 -66z" />
    <glyph glyph-name="uniFE9E" unicode="&#x62c;" horiz-adv-x="1046" arabic-form="final" 
d="M709 -370c-26 -8 -68 -12.001 -126 -12.001c-143.333 0 -254 58 -332 174c-70 104 -105 224.333 -105 361h518v446c0 85.333 -56.333 128 -169 128c-86 0 -162.333 -14.667 -229 -44l-44 122c25.333 10.667 64.666 22 117.999 34c73.333 15.333 149 23 227 23
c112 0 197.667 -23.667 257 -71c66.667 -53.333 100 -136 100 -248v-390h120v-153h-598c0 -78.667 20 -140 60 -184c40.667 -43.333 83.334 -65.666 128.001 -66.999zM853 -288.001c-68.667 0 -103 28.667 -103 86c0 58 34.333 87 103 87c70 0 105 -29 105 -87
c0 -57.333 -35 -86 -105 -86z" />
    <glyph glyph-name="uniFE9F" unicode="&#x62c;" horiz-adv-x="985" arabic-form="initial" 
d="M604 153v446.001c0 85.333 -56.667 128 -170 128c-86 0 -162 -14.667 -228 -44l-45 122c24 10 63.333 21.333 118 34c73.333 15.333 149 23 227 23c112 0 197.667 -23.667 257 -71c65.333 -52.667 98 -135.334 98 -248.001v-543h-879v153h622zM486 -381.999
c-69.333 0 -104 28.667 -104 86c0 58 34.667 87 104 87c70 0 105 -29 105 -87c0 -57.333 -35 -86 -105 -86z" />
    <glyph glyph-name="uniFEA0" unicode="&#x62c;" horiz-adv-x="980" arabic-form="medial" 
d="M604 153v446.001c0 85.333 -56.667 128 -170 128c-86 0 -162 -14.667 -228 -44l-45 122c24 10 63.333 21.333 118 34c73.333 15.333 149 23 227 23c112 0 197.667 -23.667 257 -71c65.333 -52.667 98 -135.334 98 -248.001v-390h138v-153h-1027v153h632zM486 -381.999
c-69.333 0 -104 28.667 -104 86c0 58 34.667 87 104 87c70 0 105 -29 105 -87c0 -57.333 -35 -86 -105 -86z" />
    <glyph glyph-name="uniFEA2" unicode="&#x62d;" horiz-adv-x="1040" arabic-form="final" 
d="M446 0c0 -80 20.667 -142 62 -186c42 -44 91.667 -66 149 -66c49.333 0 87.333 7 114 21l41 -101c-45.333 -33.333 -121.666 -50 -228.999 -50c-143.333 0 -254 58 -332 174c-70 104 -105 224.333 -105 361h518v446c0 85.333 -56.333 128 -169 128
c-86 0 -162.333 -14.667 -229 -44l-44 122c25.333 10.667 64.666 22 117.999 34c73.333 15.333 149 23 227 23c112 0 197.667 -23.667 257 -71c66.667 -53.333 100 -136 100 -248v-390h134v-153h-612z" />
    <glyph glyph-name="uniFEA3" unicode="&#x62d;" horiz-adv-x="985" arabic-form="initial" 
d="M604 153v446.001c0 85.333 -56.667 128 -170 128c-86 0 -162 -14.667 -228 -44l-45 122c24 10 63.333 21.333 118 34c73.333 15.333 149 23 227 23c112 0 197.667 -23.667 257 -71c65.333 -52.667 98 -135.334 98 -248.001v-543h-879v153h622z" />
    <glyph glyph-name="uniFEA4" unicode="&#x62d;" horiz-adv-x="980" arabic-form="medial" 
d="M604 153v446.001c0 85.333 -56.667 128 -170 128c-86 0 -162 -14.667 -228 -44l-45 122c24 10 63.333 21.333 118 34c73.333 15.333 149 23 227 23c112 0 197.667 -23.667 257 -71c65.333 -52.667 98 -135.334 98 -248.001v-390h148v-153h-1027v153h622z" />
    <glyph glyph-name="uniFEA6" unicode="&#x62e;" horiz-adv-x="1040" arabic-form="final" 
d="M446 0c0 -80 20.667 -142 62 -186c42 -44 91.667 -66 149 -66c49.333 0 87.333 7 114 21l41 -101c-45.333 -33.333 -121.666 -50 -228.999 -50c-143.333 0 -254 58 -332 174c-70 104 -105 224.333 -105 361h518v446c0 85.333 -56.333 128 -169 128
c-86 0 -162.333 -14.667 -229 -44l-44 122c25.333 10.667 64.666 22 117.999 34c73.333 15.333 149 23 227 23c112 0 197.667 -23.667 257 -71c66.667 -53.333 100 -136 100 -248v-390h134v-153h-612zM567 1085c-69.333 0 -104 28.333 -104 85c0 59.333 34.667 89 104 89
c71.333 0 107 -29.667 107 -89c0 -56.667 -35.667 -85 -107 -85z" />
    <glyph glyph-name="uniFEA7" unicode="&#x62e;" horiz-adv-x="985" arabic-form="initial" 
d="M604 153v446.001c0 85.333 -56.667 128 -170 128c-86 0 -162 -14.667 -228 -44l-45 122c24 10 63.333 21.333 118 34c73.333 15.333 149 23 227 23c112 0 197.667 -23.667 257 -71c65.333 -52.667 98 -135.334 98 -248.001v-543h-879v153h622zM506 1085
c-68.667 0 -103 28.333 -103 85c0 59.333 34.333 89 103 89c70 0 105 -29.667 105 -89c0 -56.667 -35 -85 -105 -85z" />
    <glyph glyph-name="uniFEA8" unicode="&#x62e;" horiz-adv-x="980" arabic-form="medial" 
d="M604 153v446.001c0 85.333 -56.667 128 -170 128c-86 0 -162 -14.667 -228 -44l-45 122c24 10 63.333 21.333 118 34c73.333 15.333 149 23 227 23c112 0 197.667 -23.667 257 -71c65.333 -52.667 98 -135.334 98 -248.001v-390h148v-153h-1027v153h622zM506 1085
c-68.667 0 -103 28.333 -103 85c0 59.333 34.333 89 103 89c70 0 105 -29.667 105 -89c0 -56.667 -35 -85 -105 -85z" />
    <glyph glyph-name="uniFEAA" unicode="&#x62f;" horiz-adv-x="1208" arabic-form="final" 
d="M146 153h353.001c88 0 132 36.667 132 110c0 7.33301 -1 16 -3 26l-155 405h-55v168h247l251 -600c36 -72.667 95.667 -109 179 -109h131v-153h-121c-58.667 0 -110.334 5.66699 -155.001 17c-37.333 9.33301 -75.333 26 -114 50c-62.667 -44.667 -128.667 -67 -198 -67
h-492v153z" />
    <glyph glyph-name="uniFEAC" unicode="&#x630;" horiz-adv-x="1208" arabic-form="final" 
d="M452 1085c-67.333 0 -101 28.333 -101 85c0 59.333 33.667 89 101 89c71.333 0 107 -29.667 107 -89c0 -56.667 -35.667 -85 -107 -85zM146 153h353.001c88 0 132 36.667 132 110c0 7.33301 -1 16 -3 26l-155 405h-55v168h247l251 -600c36 -72.667 95.667 -109 179 -109
h131v-153h-121c-58.667 0 -110.334 5.66699 -155.001 17c-37.333 9.33301 -75.333 26 -114 50c-62.667 -44.667 -128.667 -67 -198 -67h-492v153z" />
    <glyph glyph-name="uniFEAE" unicode="&#x631;" horiz-adv-x="765" arabic-form="final" 
d="M536 271c0 -78.667 46.333 -118 139 -118h110v-153h-104c-46 0 -94.333 11.667 -145 35v-65c0 -120 -36 -209.667 -108 -269c-66.667 -55.333 -160 -83 -280 -83c-28 0 -59.667 1.66699 -95 5l-57 7l41 151c-2.66699 0 12 0 44 0c132 0 198 61.667 198 185v896h257v-591z
" />
    <glyph glyph-name="uniFEB0" unicode="&#x632;" horiz-adv-x="765" arabic-form="final" 
d="M536 271c0 -78.667 46.333 -118 139 -118h130v-153h-124c-46 0 -94.333 11.667 -145 35v-65c0 -120 -36 -209.667 -108 -269c-66.667 -55.333 -160 -83 -280 -83c-28 0 -59.667 1.66699 -95 5l-57 7l41 151c-2.66699 0 12 0 44 0c132 0 198 61.667 198 185v896h257v-591z
M404 1085c-68.667 0 -103 28.333 -103 85c0 59.333 34.333 89 103 89c70.667 0 106 -29.667 106 -89c0 -56.667 -35.333 -85 -106 -85z" />
    <glyph glyph-name="uniFEB2" unicode="&#x633;" horiz-adv-x="2299" arabic-form="final" 
d="M146 862l259 0.00292969v-906c0 -49.333 25 -88.333 75 -117c38 -21.333 78.333 -32 121 -32c43.333 0 82 11.333 116 34c44 28.667 66 67 66 115v906h259v-686c38.667 -23.333 75.334 -35 110.001 -35c92.667 0 139 41.333 139 124v597h259v-685
c36 -24 72.667 -36 110 -36c92.667 0 139 41.333 139 124v597h259v-592c6 -78 53 -117 141 -117h128v-153h-124c-98 0 -181.333 18.333 -250 55c-64 -35.333 -133 -53 -207 -53c-71.333 0 -133.333 8 -186 24c-40.667 11.333 -82 32.666 -124 63.999
c-37.333 -30.667 -74 -52.334 -110 -65.001c-44 -14.667 -97 -23 -159 -25l-125 8v-54c0 -100.667 -45.333 -182.667 -136 -246c-86 -60 -189.667 -90 -311 -90c-120.667 0 -224.334 30 -311.001 90c-92 63.333 -138 144.666 -138 243.999v910z" />
    <glyph glyph-name="uniFEB3" unicode="&#x633;" horiz-adv-x="1683" arabic-form="initial" 
d="M670 0c-62.667 2 -116.666 10.335 -161.999 25.002c-34 12 -69.667 33 -107 63c-42.667 -30.667 -84.334 -52 -125.001 -64c-52.667 -16 -114.667 -24 -186 -24h-118v153h204c40 0 76.667 13.667 110 41v668h260v-686c37.333 -23.333 74 -35 110 -35
c92 0 138 41.333 138 124v597h260v-686c37.333 -23.333 73.666 -35 108.999 -35c94 0 141 41.333 141 124v597h257v-595c0 -176.667 -104 -265 -312 -265c-71.333 0 -133.333 8 -186 24c-40.667 11.333 -82 32.666 -124 63.999
c-37.333 -30.667 -73.666 -52.334 -108.999 -65.001c-44.667 -14.667 -98 -23 -160 -25z" />
    <glyph glyph-name="uniFEB4" unicode="&#x633;" horiz-adv-x="1804" arabic-form="medial" 
d="M1561 270c6 -78 53.001 -116.998 141.001 -116.998h121v-153h-117c-98 0 -181.667 18.333 -251 55c-61.333 -35.333 -130 -53 -206 -53c-71.333 0 -133.333 8 -186 24c-40.667 11.333 -82 32.666 -124 63.999c-37.333 -30.667 -73.666 -52.334 -108.999 -65.001
c-44.667 -14.667 -98 -23 -160 -25c-62.667 2 -116.667 10.333 -162 25c-34 12 -69.667 33 -107 63c-42.667 -30.667 -84.334 -52 -125.001 -64c-52.667 -16 -114.667 -24 -186 -24h-118v153h204c40 0 76.667 13.667 110 41v668h260v-686c37.333 -23.333 74 -35 110 -35
c92 0 138 41.333 138 124v597h260v-686c37.333 -23.333 73.666 -35 108.999 -35c94 0 141 41.333 141 124v597h257v-592z" />
    <glyph glyph-name="uniFEB6" unicode="&#x634;" horiz-adv-x="2299" arabic-form="final" 
d="M146 862l259 0.00292969v-906c0 -49.333 25 -88.333 75 -117c38 -21.333 78.333 -32 121 -32c43.333 0 82 11.333 116 34c44 28.667 66 67 66 115v906h259v-686c38.667 -23.333 75.334 -35 110.001 -35c92.667 0 139 41.333 139 124v597h259v-685
c36 -24 72.667 -36 110 -36c92.667 0 139 41.333 139 124v597h259v-592c6 -78 53 -117 141 -117h128v-153h-124c-98 0 -181.333 18.333 -250 55c-64 -35.333 -133 -53 -207 -53c-71.333 0 -133.333 8 -186 24c-40.667 11.333 -82 32.666 -124 63.999
c-37.333 -30.667 -74 -52.334 -110 -65.001c-44 -14.667 -97 -23 -159 -25l-125 8v-54c0 -100.667 -45.333 -182.667 -136 -246c-86 -60 -189.667 -90 -311 -90c-120.667 0 -224.334 30 -311.001 90c-92 63.333 -138 144.666 -138 243.999v910zM1404 1227
c-54.667 0 -82 22 -82 66c0 46.667 27.333 70 82 70c56.667 0 85 -23.333 85 -70c0 -44 -28.333 -66 -85 -66zM1263 1014c-54 0 -81 22.667 -81 68s27 68 81 68c56.667 0 85 -22.667 85 -68s-28.333 -68 -85 -68zM1560 1014c-54 0 -81 22.667 -81 68s27 68 81 68
c56.667 0 85 -22.667 85 -68s-28.333 -68 -85 -68z" />
    <glyph glyph-name="uniFEB7" unicode="&#x634;" horiz-adv-x="1683" arabic-form="initial" 
d="M670 0c-62.667 2 -116.666 10.335 -161.999 25.002c-34 12 -69.667 33 -107 63c-42.667 -30.667 -84.334 -52 -125.001 -64c-52.667 -16 -114.667 -24 -186 -24h-118v153h204c40 0 76.667 13.667 110 41v668h260v-686c37.333 -23.333 74 -35 110 -35
c92 0 138 41.333 138 124v597h260v-686c37.333 -23.333 73.666 -35 108.999 -35c94 0 141 41.333 141 124v597h257v-595c0 -176.667 -104 -265 -312 -265c-71.333 0 -133.333 8 -186 24c-40.667 11.333 -82 32.666 -124 63.999
c-37.333 -30.667 -73.666 -52.334 -108.999 -65.001c-44.667 -14.667 -98 -23 -160 -25zM1063 1014c-53.333 0 -80 22.667 -80 68s26.667 68 80 68c56.667 0 85 -22.667 85 -68s-28.333 -68 -85 -68zM768.001 1014c-54.667 0 -82 22.667 -82 68s27.333 68 82 68
c56.667 0 85 -22.667 85 -68s-28.333 -68 -85 -68zM910.001 1227c-55.333 0 -83 22 -83 66c0 46.667 27.667 70 83 70c54.667 0 82 -23.333 82 -70c0 -44 -27.333 -66 -82 -66z" />
    <glyph glyph-name="uniFEB8" unicode="&#x634;" horiz-adv-x="1804" arabic-form="medial" 
d="M1561 270c6 -78 53.001 -116.998 141.001 -116.998h121v-153h-117c-98 0 -181.667 18.333 -251 55c-61.333 -35.333 -130 -53 -206 -53c-71.333 0 -133.333 8 -186 24c-40.667 11.333 -82 32.666 -124 63.999c-37.333 -30.667 -73.666 -52.334 -108.999 -65.001
c-44.667 -14.667 -98 -23 -160 -25c-62.667 2 -116.667 10.333 -162 25c-34 12 -69.667 33 -107 63c-42.667 -30.667 -84.334 -52 -125.001 -64c-52.667 -16 -114.667 -24 -186 -24h-108v153h194c40 0 76.667 13.667 110 41v668h260v-686c37.333 -23.333 74 -35 110 -35
c92 0 138 41.333 138 124v597h260v-686c37.333 -23.333 73.666 -35 108.999 -35c94 0 141 41.333 141 124v597h257v-592zM768.001 1014c-54.667 0 -82 22.667 -82 68s27.333 68 82 68c56.667 0 85 -22.667 85 -68s-28.333 -68 -85 -68zM910.001 1227
c-55.333 0 -83 22 -83 66c0 46.667 27.667 70 83 70c54.667 0 82 -23.333 82 -70c0 -44 -27.333 -66 -82 -66zM1063 1014c-53.333 0 -80 22.667 -80 68s26.667 68 80 68c56.667 0 85 -22.667 85 -68s-28.333 -68 -85 -68z" />
    <glyph glyph-name="uniFEBA" unicode="&#x635;" horiz-adv-x="2125" arabic-form="final" 
d="M1538 153c116.667 22.667 178.334 119.667 185.001 291v18c0 184.667 -60 277 -180 277c-76.667 -0.666992 -154.334 -41 -233.001 -121c-90 -92 -185.667 -247 -287 -465h515zM1042 0v-45.999c0 -100.667 -45.333 -182.667 -136 -246c-86 -60 -189.667 -90 -311 -90
c-120.667 0 -224.334 30 -311.001 90c-92 63.333 -138 144.666 -138 243.999v910h259v-906c0 -48.667 25.667 -87.667 77 -117c38 -21.333 78.333 -32 121 -32c43.333 0 82 11.667 116 35c42.667 28 64 66 64 114v906h259v-483c116.667 196 213.334 326.333 290.001 391
c86 72 179 108 279 108c98.667 0 182 -39.667 250 -119c72.667 -85.333 109 -195.333 109 -330v-13c-2 -83.333 -23 -171 -63 -263h246v-153h-1111z" />
    <glyph glyph-name="uniFEBB" unicode="&#x635;" horiz-adv-x="1581" arabic-form="initial" 
d="M1098 878c102 0 186.333 -40.667 253 -122c70.667 -86 106 -199.333 106 -340c0 -124 -29.333 -226 -88 -306c-53.333 -73.333 -116.333 -110 -189 -110h-1198v153h194c40 0 76.667 13.667 110 41v465h257l-25 -298c124 208 224 344.333 300 409
c86.667 72 180 108 280 108zM1025 153c123.333 24 185.001 126 185.001 306c0 186.667 -60 280 -180 280c-76.667 -0.666992 -154.334 -41 -233.001 -121c-90 -92 -185.667 -247 -287 -465h515z" />
    <glyph glyph-name="uniFEBC" unicode="&#x635;" horiz-adv-x="1611" arabic-form="medial" 
d="M1098 878c102 0 186.333 -40.666 253 -121.999c70.667 -86 106 -199.333 106 -340c0 -38.667 -4 -78.334 -12 -119.001c-7.33301 -34 -23 -82 -47 -144h232v-153h-1648v153h194c40 0 76.667 13.667 110 41v465h257l-25 -298c124 208 224 344.333 300 409
c86.667 72 180 108 280 108zM1025 153.001c123.333 24 185.001 126 185.001 306c0 186.667 -60 280 -180 280c-76.667 -0.666992 -154.334 -41 -233.001 -121c-90 -92 -185.667 -247 -287 -465h515z" />
    <glyph glyph-name="uniFEBE" unicode="&#x636;" horiz-adv-x="2125" arabic-form="final" 
d="M1538 153c116.667 22.667 178.334 119.667 185.001 291v18c0 184.667 -60 277 -180 277c-76.667 -0.666992 -154.334 -41 -233.001 -121c-90 -92 -185.667 -247 -287 -465h515zM1708 1180c0 -57.333 -35 -86 -105 -86s-105 28.667 -105 86c0 58 35 87 105 87
s105 -29 105 -87zM1042 0v-45.999c0 -100.667 -45.333 -182.667 -136 -246c-86 -60 -189.667 -90 -311 -90c-120.667 0 -224.334 30 -311.001 90c-92 63.333 -138 144.666 -138 243.999v910h259v-906c0 -48.667 25.667 -87.667 77 -117c38 -21.333 78.333 -32 121 -32
c43.333 0 82 11.667 116 35c42.667 28 64 66 64 114v906h259v-483c116.667 196 213.334 326.333 290.001 391c86 72 179 108 279 108c98.667 0 182 -39.667 250 -119c72.667 -85.333 109 -195.333 109 -330v-13c-2 -83.333 -23 -171 -63 -263h236v-153h-1101z" />
    <glyph glyph-name="uniFEBF" unicode="&#x636;" horiz-adv-x="1581" arabic-form="initial" 
d="M1195 1180c0 -57.333 -35 -86 -105 -86c-68.667 0 -103 28.667 -103 86c0 58 34.333 87 103 87c70 0 105 -29 105 -87zM1098 878c102 0 186.333 -40.667 253 -122c70.667 -86 106 -199.333 106 -340c0 -124 -29.333 -226 -88 -306
c-53.333 -73.333 -116.333 -110 -189 -110h-1198v153h194c40 0 76.667 13.667 110 41v465h257l-25 -298c124 208 224 344.333 300 409c86.667 72 180 108 280 108zM1025 153c123.333 24 185.001 126 185.001 306c0 186.667 -60 280 -180 280
c-76.667 -0.666992 -154.334 -41 -233.001 -121c-90 -92 -185.667 -247 -287 -465h515z" />
    <glyph glyph-name="uniFEC0" unicode="&#x636;" horiz-adv-x="1611" arabic-form="medial" 
d="M1195 1180c0 -57.333 -35 -86 -105 -86c-68.667 0 -103 28.667 -103 86c0 58 34.333 87 103 87c70 0 105 -29 105 -87zM1098 878c102 0 186.333 -40.666 253 -121.999c70.667 -86 106 -199.333 106 -340c0 -38.667 -4 -78.334 -12 -119.001
c-7.33301 -34 -23 -82 -47 -144h232v-153h-1658v153h204c40 0 76.667 13.667 110 41v465h257l-25 -298c124 208 224 344.333 300 409c86.667 72 180 108 280 108zM1025 153.001c123.333 24 185.001 126 185.001 306c0 186.667 -60 280 -180 280
c-76.667 -0.666992 -154.334 -41 -233.001 -121c-90 -92 -185.667 -247 -287 -465h515z" />
    <glyph glyph-name="uniFEC2" unicode="&#x637;" horiz-adv-x="1681" arabic-form="final" 
d="M1689 153l-0.000976562 -153h-1530l56 153h224v1042h259v-656l65 98c6.66699 10 14 20.333 22 31c10.667 14 22 27.667 34 41c15.333 16.667 31 32.334 47 47.001c40.667 36 83.334 64.333 128.001 85c54 24.667 109.333 37 166 37c102 0 186.333 -40.667 253 -122
c71.333 -86 107 -199.333 107 -340c0 -38.667 -4.33301 -78.334 -13 -119.001c-7.33301 -34 -22.333 -82 -45 -144h227zM1090 153c121.333 23.333 182.001 125.333 182.001 306c0 186.667 -59.667 280 -179 280c-75.333 -0.666992 -153.333 -43 -234 -127
c-88.667 -92 -184.334 -245 -287.001 -459h518z" />
    <glyph glyph-name="uniFEC3" unicode="&#x637;" horiz-adv-x="1443" arabic-form="initial" 
d="M-16 0l-0.000976562 153h282v1042h235v-656c56 61.333 91.667 102 107 122l35 43c14.667 16.667 29.667 32.334 45 47.001c41.333 37.333 84.333 66.666 129 87.999c55.333 26 112 39 170 39c101.333 0 185.333 -40.667 252 -122c71.333 -86.667 107 -200 107 -340
c0 -124 -29 -226 -87 -306c-53.333 -73.333 -116.666 -110 -189.999 -110h-1085zM914.999 153c122.667 24 184.001 126 184.001 306c0 186.667 -59.667 280 -179 280c-75.333 -0.666992 -153.333 -43 -234 -127c-88.667 -92 -184.334 -245 -287.001 -459h516z" />
    <glyph glyph-name="uniFEC4" unicode="&#x637;" horiz-adv-x="1464" arabic-form="medial" 
d="M1483 153l-0.00195312 -153h-1501v153h259v1042h260v-665l65 107c6 10 13 20.333 21 31c10.667 14 22 27.667 34 41c15.333 16.667 31.333 32.334 48 47.001c40.667 36 83.334 64.333 128.001 85c54 24.667 110 37 168 37c100.667 0 184.334 -40.667 251.001 -122
c70.667 -86.667 106 -200 106 -340c0 -38.667 -4 -78.334 -12 -119.001c-8 -34 -23.333 -82 -46 -144h219zM891.998 153c122 23.333 183.001 125.333 183.001 306c0 186.667 -60 280 -180 280c-74.667 -0.666992 -152.334 -43 -233.001 -127
c-88 -92 -183.333 -245 -286 -459h516z" />
    <glyph glyph-name="uniFEC6" unicode="&#x638;" horiz-adv-x="1681" arabic-form="final" 
d="M1689 153l-0.000976562 -153h-1530l56 153h224v1042h259v-656l65 98c6.66699 10 14 20.333 22 31c10.667 14 22 27.667 34 41c15.333 16.667 31 32.334 47 47.001c40.667 36 83.334 64.333 128.001 85c54 24.667 109.333 37 166 37c102 0 186.333 -40.667 253 -122
c71.333 -86 107 -199.333 107 -340c0 -38.667 -4.33301 -78.334 -13 -119.001c-7.33301 -34 -22.333 -82 -45 -144h227zM1090 153c121.333 23.333 182.001 125.333 182.001 306c0 186.667 -59.667 280 -179 280c-75.333 -0.666992 -153.333 -43 -234 -127
c-88.667 -92 -184.334 -245 -287.001 -459h518zM1257 1180c0 -57.333 -35 -86 -105 -86c-68.667 0 -103 28.667 -103 86c0 58 34.333 87 103 87c70 0 105 -29 105 -87z" />
    <glyph glyph-name="uniFEC7" unicode="&#x638;" horiz-adv-x="1443" arabic-form="initial" 
d="M-16 0l-0.000976562 153h282v1042h235v-656c56 61.333 91.667 102 107 122l35 43c14.667 16.667 29.667 32.334 45 47.001c41.333 37.333 84.333 66.666 129 87.999c55.333 26 112 39 170 39c101.333 0 185.333 -40.667 252 -122c71.333 -86.667 107 -200 107 -340
c0 -124 -29 -226 -87 -306c-53.333 -73.333 -116.666 -110 -189.999 -110h-1085zM914.999 153c122.667 24 184.001 126 184.001 306c0 186.667 -59.667 280 -179 280c-75.333 -0.666992 -153.333 -43 -234 -127c-88.667 -92 -184.334 -245 -287.001 -459h516zM1084 1180
c0 -57.333 -35 -86 -105 -86s-105 28.667 -105 86c0 58 35 87 105 87s105 -29 105 -87z" />
    <glyph glyph-name="uniFEC8" unicode="&#x638;" horiz-adv-x="1464" arabic-form="medial" 
d="M1483 153l-0.00195312 -153h-1501v153h259v1042h260v-665l65 107c6 10 13 20.333 21 31c10.667 14 22 27.667 34 41c15.333 16.667 31.333 32.334 48 47.001c40.667 36 83.334 64.333 128.001 85c54 24.667 110 37 168 37c100.667 0 184.334 -40.667 251.001 -122
c70.667 -86.667 106 -200 106 -340c0 -38.667 -4 -78.334 -12 -119.001c-8 -34 -23.333 -82 -46 -144h219zM891.998 153c122 23.333 183.001 125.333 183.001 306c0 186.667 -60 280 -180 280c-74.667 -0.666992 -152.334 -43 -233.001 -127
c-88 -92 -183.333 -245 -286 -459h516zM1060 1180c0 -57.333 -34.333 -86 -103 -86c-70.667 0 -106 28.667 -106 86c0 58 35.333 87 106 87c68.667 0 103 -29 103 -87z" />
    <glyph glyph-name="uniFECA" unicode="&#x639;" horiz-adv-x="974" arabic-form="final" 
d="M446 0c0 -80 20.665 -142 61.998 -186c42 -44 91.667 -66 149 -66c49.333 0 87.333 7 114 21l41 -101c-45.333 -33.333 -121.666 -50 -228.999 -50c-143.333 0 -254 58 -332 174c-70 104 -105 224.333 -105 361h222c-45.333 99.333 -68 196 -68 290
c0 139.333 36 249 108 329c64.667 70.667 146.334 106 245.001 106c96 0 161.333 -15 196 -45l-40 -107c-10 8.66699 -37 13 -81 13c-116.667 0 -175 -98 -175 -294c0 -194.667 58.333 -292 175 -292h314l-30 -153h-566z" />
    <glyph glyph-name="uniFECB" unicode="&#x639;" horiz-adv-x="905" arabic-form="initial" 
d="M-10 153h306.999c-45.333 99.333 -68 196 -68 290c0 139.333 36 249 108 329c64.667 70.667 146.334 106 245.001 106c96 0 161.667 -15 197 -45l-41 -107c-10 8.66699 -36.667 13 -80 13c-117.333 0 -176 -98 -176 -294c0 -194.667 58.667 -292 176 -292
c45.333 0 72.333 4.33301 81 13l44 -119c-10 -9.33301 -30 -19 -60 -29c-37.333 -12 -83 -18 -137 -18h-596v153z" />
    <glyph glyph-name="uniFECC" unicode="&#x639;" horiz-adv-x="907" arabic-form="medial" 
d="M924 153v-153h-934v153h324c-45.333 99.333 -68 196 -68 290c0 139.333 36 249 108 329c64.667 70.667 146 106 244 106c95.333 0 161.333 -15 198 -45l-40 -105c-8.66699 7.33301 -36 11 -82 11c-116.667 0 -175 -98 -175 -294c0 -194.667 58.333 -292 175 -292h250z
" />
    <glyph glyph-name="uniFECE" unicode="&#x63a;" horiz-adv-x="974" arabic-form="final" 
d="M446 0c0 -80 20.665 -142 61.998 -186c42 -44 91.667 -66 149 -66c49.333 0 87.333 7 114 21l41 -101c-45.333 -33.333 -121.666 -50 -228.999 -50c-143.333 0 -254 58 -332 174c-70 104 -105 224.333 -105 361h222c-45.333 99.333 -68 196 -68 290
c0 139.333 36 249 108 329c64.667 70.667 146.334 106 245.001 106c96 0 161.333 -15 196 -45l-40 -107c-10 8.66699 -37 13 -81 13c-116.667 0 -175 -98 -175 -294c0 -194.667 58.333 -292 175 -292h254v-153h-536zM738.998 1180c0 -57.333 -34.333 -86 -103 -86
c-70 0 -105 28.667 -105 86c0 58 35 87 105 87c68.667 0 103 -29 103 -87z" />
    <glyph glyph-name="uniFECF" unicode="&#x63a;" horiz-adv-x="905" arabic-form="initial" 
d="M-10 153h306.999c-45.333 99.333 -68 196 -68 290c0 139.333 36 249 108 329c64.667 70.667 146.334 106 245.001 106c96 0 161.667 -15 197 -45l-41 -107c-10 8.66699 -36.667 13 -80 13c-117.333 0 -176 -98 -176 -294c0 -194.667 58.667 -292 176 -292
c45.333 0 72.333 4.33301 81 13l44 -119c-10 -9.33301 -30 -19 -60 -29c-37.333 -12 -83 -18 -137 -18h-596v153zM668.999 1180c0 -57.333 -35 -86 -105 -86c-68.667 0 -103 28.667 -103 86c0 58 34.333 87 103 87c70 0 105 -29 105 -87z" />
    <glyph glyph-name="uniFED0" unicode="&#x63a;" horiz-adv-x="907" arabic-form="medial" 
d="M924 153v-153h-934v153h324c-45.333 99.333 -68 196 -68 290c0 139.333 36 249 108 329c64.667 70.667 146 106 244 106c95.333 0 161.333 -15 198 -45l-40 -105c-8.66699 7.33301 -36 11 -82 11c-116.667 0 -175 -98 -175 -294c0 -194.667 58.333 -292 175 -292h250z
M685 1180c0 -57.333 -35 -86 -105 -86c-68.667 0 -103 28.667 -103 86c0 58 34.333 87 103 87c70 0 105 -29 105 -87z" />
    <glyph glyph-name="uniFED2" unicode="&#x641;" horiz-adv-x="1806" arabic-form="final" 
d="M457 0c-107.333 0 -190.001 24.335 -248.001 73.002c-60.667 51.333 -91 129 -91 233v556h257v-591c0 -78.667 42.333 -118 127 -118h678c97.333 0 146 55.333 146 166c-90.667 9.33301 -162.667 19.666 -216 30.999c-60.667 13.333 -111.667 31.333 -153 54
c-91.333 46.667 -137 117 -137 211c0 88.667 41.333 156 124 202c73.333 40.667 170.333 61 291 61c130.667 0 240 -19.333 328 -58v-541c0 -84 47 -126 141 -126h121v-153h-117c-67.333 0 -125.666 8 -174.999 24c-38 11.333 -76.333 32.666 -115 63.999
c-39.333 -28.667 -76.333 -49 -111 -61c-43.333 -14 -93 -23 -149 -27h-701zM1326 750.002c-41.333 13.333 -75.667 19.999 -103 19.999c-110.667 0 -166 -54.333 -166 -163c0 -68.667 26.667 -120 80 -154c40 -25.333 103 -39.666 189 -42.999v340zM1313 1180
c0 -57.333 -35 -86 -105 -86c-68.667 0 -103 28.667 -103 86c0 58 34.333 87 103 87c70 0 105 -29 105 -87z" />
    <glyph glyph-name="uniFED3" unicode="&#x641;" horiz-adv-x="1030" arabic-form="initial" 
d="M656 1180c0 -57.333 -34.333 -86 -103 -86c-70 0 -105 28.667 -105 86c0 58 35 87 105 87c68.667 0 103 -29 103 -87zM-18 0v153.001h561c86.667 0 130 55.333 130 166c-90.667 9.33301 -162.667 19.666 -216 30.999c-60.667 13.333 -111.667 31.333 -153 54
c-91.333 46.667 -137 117 -137 211c0 88.667 41 156 123 202c73.333 40.667 170 61 290 61c136.667 0 246.667 -19 330 -57v-519c0 -109.333 -31 -188 -93 -236c-57.333 -44 -145.333 -66 -264 -66h-571zM673 750.001c-41.333 13.333 -75.667 19.999 -103 19.999
c-110.667 0 -166 -54.333 -166 -163c0 -68.667 26.667 -120 80 -154c40 -25.333 103 -39.666 189 -42.999v340z" />
    <glyph glyph-name="uniFED4" unicode="&#x641;" horiz-adv-x="1177" arabic-form="medial" 
d="M1200 0l-139.002 0.00195312c-67.333 0 -125.666 8 -174.999 24c-38 11.333 -76.333 32.666 -115 63.999c-42 -30.667 -83.333 -52 -124 -64c-52.667 -16 -114 -24 -184 -24h-471v153h555c88 0 132 55.333 132 166c-91.333 9.33301 -163.666 19.666 -216.999 30.999
c-60.667 13.333 -111.667 31 -153 53c-90 47.333 -135 118 -135 212c0 88.667 40.667 156 122 202c73.333 40.667 170 61 290 61c136.667 0 246.667 -19 330 -57v-542c0 -84 47.667 -126 143 -126h141v-153zM678.998 750.002c-40.667 13.333 -75 19.999 -103 19.999
c-110 0 -165 -54.333 -165 -163c0 -68.667 26.333 -120 79 -154c39.333 -25.333 102.333 -39.666 189 -42.999v340zM666.998 1180c0 -57.333 -34.667 -86 -104 -86c-70 0 -105 28.667 -105 86c0 58 35 87 105 87c69.333 0 104 -29 104 -87z" />
    <glyph glyph-name="uniFED6" unicode="&#x642;" horiz-adv-x="1574" arabic-form="final" 
d="M583 -382c-118.667 0 -220.332 30.001 -304.999 90.001c-88 62.667 -132 144 -132 244v553h274v-586c0 -48 21 -86.667 63 -116c33.333 -21.333 70.666 -32 111.999 -32h445c66 0 114 21.667 144 65c22 32.667 33 86.667 33 162c-152.667 12.667 -273.667 50 -363 112
c-95.333 66 -143 148.333 -143 247c0 176.667 130.667 265 392 265c63.333 0 133 -7.66699 209 -23c60 -12.667 107.333 -25.334 142 -38.001v-408h138v-153h-140c0 -123.333 -35 -217 -105 -281c-73.333 -67.333 -172.333 -101 -297 -101h-467zM1217 489.001
c-31.333 15.333 -64.667 23 -100 23c-112.667 0 -169 -54.333 -169 -163c0 -68 27.333 -119.667 82 -155c42 -27.333 104.333 -41 187 -41v336zM937.001 811.001c-68.667 0 -103 29 -103 87c0 57.333 34.333 86 103 86c71.333 0 107 -28.667 107 -86
c0 -58 -35.667 -87 -107 -87zM1292 811.001c-70.667 0 -106 29 -106 87c0 57.333 35.333 86 106 86c68.667 0 103 -28.667 103 -86c0 -58 -34.333 -87 -103 -87z" />
    <glyph glyph-name="uniFED7" unicode="&#x642;" horiz-adv-x="1030" arabic-form="initial" 
d="M853 1178c0 -57.333 -35 -86 -105 -86s-105 28.667 -105 86c0 58 35 87 105 87s105 -29 105 -87zM395 1092c-70 0 -105 28.667 -105 86c0 58 35 87 105 87c70.667 0 106 -29 106 -87c0 -57.333 -35.333 -86 -106 -86zM-28 0v153.001h571c86.667 0 130 55.333 130 166
c-90.667 9.33301 -162.667 19.666 -216 30.999c-60.667 13.333 -111.667 31.333 -153 54c-91.333 46.667 -137 117 -137 211c0 88.667 41 156 123 202c73.333 40.667 170 61 290 61c136.667 0 246.667 -19 330 -57v-519c0 -109.333 -31 -188 -93 -236
c-57.333 -44 -145.333 -66 -264 -66h-581zM673 750.001c-41.333 13.333 -75.667 19.999 -103 19.999c-110.667 0 -166 -54.333 -166 -163c0 -68.667 26.667 -120 80 -154c40 -25.333 103 -39.666 189 -42.999v340z" />
    <glyph glyph-name="uniFED8" unicode="&#x642;" horiz-adv-x="1177" arabic-form="medial" 
d="M1190 0l-129.002 0.00195312c-67.333 0 -125.666 8 -174.999 24c-38 11.333 -76.333 32.666 -115 63.999c-42 -30.667 -83.333 -52 -124 -64c-52.667 -16 -114 -24 -184 -24h-481v153h565c88 0 132 55.333 132 166c-91.333 9.33301 -163.666 19.666 -216.999 30.999
c-60.667 13.333 -111.667 31 -153 53c-90 47.333 -135 118 -135 212c0 88.667 40.667 156 122 202c73.333 40.667 170 61 290 61c136.667 0 246.667 -19 330 -57v-542c0 -84 47.667 -126 143 -126h131v-153zM678.998 750.002c-40.667 13.333 -75 19.999 -103 19.999
c-110 0 -165 -54.333 -165 -163c0 -68.667 26.333 -120 79 -154c39.333 -25.333 102.333 -39.666 189 -42.999v340zM854.998 1178c0 -57.333 -34.333 -86 -103 -86c-70 0 -105 28.667 -105 86c0 58 35 87 105 87c68.667 0 103 -29 103 -87zM397.998 1092
c-69.333 0 -104 28.667 -104 86c0 58 34.667 87 104 87c71.333 0 107 -29 107 -87c0 -57.333 -35.667 -86 -107 -86z" />
    <glyph glyph-name="uniFEDE" unicode="&#x644;" horiz-adv-x="1300" arabic-form="final" 
d="M1320 0l-139 0.000976562c-38 0 -84.333 3.33301 -139 10v-56c0 -100.667 -45.333 -182.667 -136 -246c-86 -60 -189.667 -90 -311 -90c-120.667 0 -224.334 30 -311.001 90c-92 63.333 -138 144.666 -138 243.999v553h259v-549c0 -49.333 24.333 -88 73 -116
c36 -22 75 -33 117 -33c43.333 0 83 11.333 119 34c46 28.667 69 67 69 115v1303h259v-1020c18.667 -57.333 64.334 -86 137.001 -86h141v-153z" />
    <glyph glyph-name="uniFEDF" unicode="&#x644;" horiz-adv-x="677" arabic-form="initial" 
d="M-18 153h190c82.667 0 124 39.333 124 118v988h260v-965c0 -196 -125.333 -294 -376 -294h-198v153z" />
    <glyph glyph-name="uniFEE0" unicode="&#x644;" horiz-adv-x="788" arabic-form="medial" 
d="M690 0c-66.667 0 -124.666 8.00098 -173.999 24.001c-38.667 11.333 -77 32.666 -115 63.999c-42.667 -30.667 -84.334 -52 -125.001 -64c-52.667 -16 -114.667 -24 -186 -24h-108v153h194c40 0 76.667 13.667 110 41v1065h260v-980c0 -84 46.667 -126 140 -126h121v-153
h-117z" />
    <glyph glyph-name="uniFEE2" unicode="&#x645;" horiz-adv-x="1462" arabic-form="final" 
d="M1117 228c0 88.667 -7 155 -21 199c-21.333 64.667 -60 97 -116 97c-55.333 0 -93.666 -32.333 -114.999 -97c-14 -44 -21 -110.333 -21 -199c0 -193.333 45.333 -290 136 -290c55.333 0 93.666 31 114.999 93c14.667 43.333 22 109 22 197zM1480 0l-152 0.000976562
c-71.333 -144.667 -187.333 -217 -348 -217c-160 0 -276.667 72.333 -350 217h-98c-84.667 0 -127 -39.333 -127 -118v-267h-259v245c0 195.333 117.667 293 353 293h89v71c0 131.333 34.667 236.666 104 315.999c70 82 166 123 288 123c124 0 221 -41 291 -123
c68.667 -79.333 103 -184.666 103 -315.999v-21c0 -4.66699 -3 -21.334 -9 -50.001h115v-153z" />
    <glyph glyph-name="uniFEE3" unicode="&#x645;" horiz-adv-x="1138" arabic-form="initial" 
d="M-20 153h325.001c-49.333 96.667 -74 192.667 -74 288c0 131.333 34.667 236.333 104 315c70 81.333 166 122 288 122c124 0 221 -40.667 291 -122c68.667 -78.667 103 -183.667 103 -315c0 -132 -34.667 -238 -104 -318c-70.667 -82 -167.334 -123 -290.001 -123h-643
v153zM760.001 445c0 88.667 -7.66797 155 -23.001 199c-20.667 64.667 -58.667 97 -114 97s-93.666 -32.333 -114.999 -97c-14 -44 -21 -110.333 -21 -199c0 -193.333 45.333 -290 136 -290c91.333 0 137 96.667 137 290z" />
    <glyph glyph-name="uniFEE4" unicode="&#x645;" horiz-adv-x="1056" arabic-form="medial" 
d="M-10 153l164.999 0.000976562v71c0 131.333 34.333 236.666 103 315.999c70 82 166.333 123 289 123s219.334 -41 290.001 -123c68 -79.333 102 -184.666 102 -315.999v-21c0 -4.66699 -3 -21.334 -9 -50.001h148v-153h-183c-71.333 -144.667 -187.333 -217 -348 -217
c-160 0 -276.667 72.333 -350 217h-207v153zM681.999 228.001c0 88.667 -7.00098 155 -21.001 199c-21.333 64.667 -59.333 97 -114 97c-55.333 0 -93.666 -32.333 -114.999 -97c-14 -44 -21 -110.333 -21 -199c0 -193.333 45.333 -290 136 -290c90 0 135 96.667 135 290z
" />
    <glyph glyph-name="uniFEE6" unicode="&#x646;" horiz-adv-x="1300" arabic-form="final" 
d="M1310 0l-129 0.000976562c-38 0 -84.333 3.33301 -139 10v-56c0 -100.667 -45.333 -182.667 -136 -246c-86 -60 -189.667 -90 -311 -90c-120.667 0 -224.334 30 -311.001 90c-92 63.333 -138 144.666 -138 243.999v910h259v-906c0 -49.333 24.667 -88.333 74 -117
c37.333 -21.333 77.333 -32 120 -32c43.333 0 82.333 11.333 117 34c44.667 28.667 67 67 67 115v906h259v-623c18.667 -57.333 64.334 -86 137.001 -86h131v-153zM608 1085c-69.333 0 -104 28.333 -104 85c0 59.333 34.667 89 104 89c70 0 105 -29.667 105 -89
c0 -56.667 -35 -85 -105 -85z" />
    <glyph glyph-name="uniFEE7" unicode="&#x646;" horiz-adv-x="677" arabic-form="initial" 
d="M-18 153h190c82.667 0 124 39.333 124 118v591h260v-568c0 -196 -125.333 -294 -376 -294h-198v153zM418 1085c-68.667 0 -103 28.333 -103 85c0 59.333 34.333 89 103 89c71.333 0 107 -29.667 107 -89c0 -56.667 -35.667 -85 -107 -85z" />
    <glyph glyph-name="uniFEE8" unicode="&#x646;" horiz-adv-x="788" arabic-form="medial" 
d="M690 0c-66.667 0 -124.666 8.00098 -173.999 24.001c-38.667 11.333 -77 32.666 -115 63.999c-42.667 -30.667 -84.334 -52 -125.001 -64c-52.667 -16 -114.667 -24 -186 -24h-108v153h194c40 0 76.667 13.667 110 41v668h260v-583c0 -84 46.667 -126 140 -126h121v-153
h-117zM410.001 1085c-68.667 0 -103 28.333 -103 85c0 59.333 34.333 89 103 89c70 0 105 -29.667 105 -89c0 -56.667 -35 -85 -105 -85z" />
    <glyph glyph-name="uniFEEA" unicode="&#x647;" horiz-adv-x="1161" arabic-form="final" 
d="M499 0c-102.667 0 -186.333 34.667 -251 104c-68 74 -102 172.667 -102 296c0 310.667 154 466 462 466c150.667 0 256.667 -19 318 -57v-656h253v-153h-680zM676.001 724c-30 11.333 -59.667 17 -89 17c-122.667 0 -184 -106 -184 -318c0 -100 15.333 -170.333 46 -211
c29.333 -39.333 77.333 -59 144 -59h85z" />
    <glyph glyph-name="uniFEEB" unicode="&#x647;" horiz-adv-x="1316" arabic-form="initial" 
d="M-10 153l207 -0.000976562c-11.333 52.667 -17 102.334 -17 149.001c0 112 26 201.333 78 268c52 67.333 123.333 101 214 101s162 -33.667 214 -101c51.333 -66.667 77 -156 77 -268c0 -37.333 -5 -87 -15 -149h188v597c0 86 -56.667 129 -170 129
c-85.333 0 -160.666 -15 -225.999 -45l-45 123c27.333 10 66.666 20.667 117.999 32c74.667 16 150.334 24 227.001 24c111.333 0 196.666 -23.667 255.999 -71c64.667 -52.667 97 -135.667 97 -249v-693h-1203v153zM583 307.999c0 170 -37 254.999 -111 254.999
c-73.333 0 -110 -85 -110 -255c0 -62 3.66699 -113.667 11 -155h197c8.66699 48.667 13 100.334 13 155.001z" />
    <glyph glyph-name="uniFEEC" unicode="&#x647;" horiz-adv-x="1351" arabic-form="medial" 
d="M-10 153l206.997 0.000976562c-10 62 -15 111.667 -15 149c0 112 26 201.333 78 268c52 67.333 123.333 101 214 101s162.334 -33.667 215.001 -101c52 -66.667 78 -156 78 -268c0 -28.667 -5.66699 -78.334 -17 -149.001h190v597c0 86 -56.333 129 -169 129
c-87.333 0 -163.666 -15 -228.999 -45l-45 122c2.66699 1.33301 14.334 5 35.001 11c27.333 8.66699 55.333 16 84 22c74 16 149.333 24 226 24c112 0 197.667 -23.667 257 -71c65.333 -52.667 98 -135.667 98 -249v-540h180v-153h-1387v153zM587.997 308.001
c0 170 -38 254.999 -114 254.999c-73.333 0 -110 -85 -110 -255c0 -50 3 -101.667 9 -155h201c9.33301 48.667 14 100.334 14 155.001z" />
    <glyph glyph-name="uniFEEE" unicode="&#x648;" horiz-adv-x="1187" arabic-form="final" 
d="M676 720c-34.667 12.667 -64.333 19 -89 19c-122.667 0 -184 -100 -184 -300c0 -192 60 -288 180 -288h22c6.66699 0.666992 13.667 1 21 1l50 2v566zM926.001 153h279.001v-153h-281c0 -142 -42.333 -243 -127 -303c-74.667 -52.667 -174.667 -79 -300 -79
c-122.667 0 -219.667 19 -291 57l57 149c50 -27.333 119.667 -41 209 -41c52 0 97.667 13.667 137 41c44.667 32 67 73.333 67 124v52h-177c-102.667 -0 -186.334 34.333 -251.001 103c-68 72 -102 169.667 -102 293c0 310.667 154 466 462 466c150 0 256 -18.333 318 -55
v-654z" />
    <glyph glyph-name="uniFEF0" unicode="&#x649;" horiz-adv-x="1642" arabic-form="final" 
d="M146 479l259.001 -0.000976562v-552c0 -48.667 21.667 -87 65 -115c33.333 -22 71 -33 113 -33h463c132 0 198 73.667 198 221h-315v153h733v-153h-169v-32c0 -119.333 -37.333 -208.666 -112 -267.999c-68 -54.667 -163.333 -82 -286 -82h-541
c-116.667 0 -213.334 29.667 -290.001 89c-78.667 61.333 -118 143 -118 245v527z" />
    <glyph glyph-name="space" unicode=" " horiz-adv-x="434" 
 />
    <glyph glyph-name="exclam" unicode="!" horiz-adv-x="585" 
d="M402 432h-189l-64 663h317zM411 26c-28 -28 -62 -42 -102 -42c-98 0 -147 48.667 -147 146c0 39.333 14.333 73.333 43 102c28 28 62.667 42 104 42c40 0 74 -14 102 -42s42 -62 42 -102c0 -41.333 -14 -76 -42 -104z" />
    <glyph glyph-name="percent" unicode="%" horiz-adv-x="839" 
d="M230 -44l-108 44l481 1141l110 -44zM346 963c0 -59.333 -34.333 -89 -103 -89c-70 0 -105 29.667 -105 89c0 56.667 35 85 105 85c68.667 0 103 -28.333 103 -85zM725 152c0 -59.333 -35 -89 -105 -89c-69.333 0 -104 29.667 -104 89c0 56.667 34.667 85 104 85
c70 0 105 -28.333 105 -85z" />
    <glyph glyph-name="parenleft" unicode="(" horiz-adv-x="698" 
d="M528 -377c-279.333 272 -419 548 -419 828c0 277.333 139.667 552.333 419 825l99 -52c-71.333 -100.667 -129.333 -213.667 -174 -339c-49.333 -140 -74 -284.667 -74 -434c0 -150.667 24.667 -296 74 -436c44.667 -125.333 102.667 -238 174 -338z" />
    <glyph glyph-name="parenright" unicode=")" horiz-adv-x="698" 
d="M168 -377l-98 53.998c72 100.667 130 213.334 174 338.001c50.667 140.667 76 286 76 436c0 148.667 -25.333 293.334 -76 434.001c-44 124.667 -102 237.667 -174 339l98 52c281.333 -274 422 -549 422 -825c0 -278.667 -140.667 -554.667 -422 -828z" />
    <glyph glyph-name="asterisk" unicode="*" horiz-adv-x="1294" 
d="M1211 881l-75 186l-339 -88v283h-246l4 -279l-340 87l-79 -186l344 -89l-211 -229l195 -112l208 225l211 -225l201 112l-212 229z" />
    <glyph glyph-name="plus" unicode="+" horiz-adv-x="966" 
d="M554 453v-250h-141v250h-248v142h248v250h141v-250h249v-142h-249z" />
    <glyph glyph-name="comma" unicode="," horiz-adv-x="595" 
d="M351 442h110l-132 -380c-32 -41.333 -78.333 -62 -139 -62c-54 -0 -84.333 14.333 -91 43z" />
    <glyph glyph-name="hyphen" unicode="-" horiz-adv-x="966" 
d="M165 453v142h638v-142h-638z" />
    <glyph glyph-name="period" unicode="." horiz-adv-x="454" 
d="M227 0c-86.667 0 -130 44 -130 132c0 35.333 12.667 65.666 38 90.999c26 26 56.667 39 92 39s66 -13 92 -39c24.667 -25.333 37 -55.666 37 -90.999c0 -88 -43 -132 -129 -132z" />
    <glyph glyph-name="slash" unicode="/" horiz-adv-x="993" 
d="M44 -315l762 1586l139 -68l-765 -1585z" />
    <glyph glyph-name="zero" unicode="0" horiz-adv-x="616" 
d="M447 394l-135 -264l-139 249l132 258z" />
    <glyph glyph-name="zero" unicode="&#x6f0;" horiz-adv-x="616" 
d="M447 394l-135 -264l-139 249l132 258z" />
    <glyph glyph-name="zero" unicode="&#x660;" horiz-adv-x="616" 
d="M447 394l-135 -264l-139 249l132 258z" />
    <glyph glyph-name="one" unicode="1" horiz-adv-x="604" 
d="M432 1035v-1035h-259v1119z" />
    <glyph glyph-name="one" unicode="&#x6f1;" horiz-adv-x="604" 
d="M432 1035v-1035h-259v1119z" />
    <glyph glyph-name="one" unicode="&#x661;" horiz-adv-x="604" 
d="M432 1035v-1035h-259v1119z" />
    <glyph glyph-name="two" unicode="2" horiz-adv-x="997" 
d="M846 507c-69.333 -40.667 -154.667 -61 -256 -61c-54.667 0 -94.334 5 -119.001 15c-4 4 -20.333 6 -49 6v-467h-257v1095h257v-469c12.667 -12.667 20.334 -19 23.001 -19c23.333 -14.667 43 -22 59 -22c92.667 0 139 42 139 126v371l259 -95v-432
c-21.333 -22.667 -40 -38.667 -56 -48z" />
    <glyph glyph-name="two" unicode="&#x6f2;" horiz-adv-x="997" 
d="M846 507c-69.333 -40.667 -154.667 -61 -256 -61c-54.667 0 -94.334 5 -119.001 15c-4 4 -20.333 6 -49 6v-467h-257v1095h257v-469c12.667 -12.667 20.334 -19 23.001 -19c23.333 -14.667 43 -22 59 -22c92.667 0 139 42 139 126v371l259 -95v-432
c-21.333 -22.667 -40 -38.667 -56 -48z" />
    <glyph glyph-name="two" unicode="&#x662;" horiz-adv-x="997" 
d="M846 507c-69.333 -40.667 -154.667 -61 -256 -61c-54.667 0 -94.334 5 -119.001 15c-4 4 -20.333 6 -49 6v-467h-257v1095h257v-469c12.667 -12.667 20.334 -19 23.001 -19c23.333 -14.667 43 -22 59 -22c92.667 0 139 42 139 126v371l259 -95v-432
c-21.333 -22.667 -40 -38.667 -56 -48z" />
    <glyph glyph-name="three" unicode="3" horiz-adv-x="1492" 
d="M823 518c-54 -48 -131.667 -72.001 -233 -72.001c-54.667 0 -94.334 5 -119.001 15c-4 4 -20.333 6 -49 6v-467h-257v1095h257v-469c12.667 -12.667 20.334 -19 23.001 -19c23.333 -14.667 43 -22 59 -22c92.667 0 139 42 139 126v371l259 -95v-402h72
c92.667 0 139 42 139 126v371l259 -95v-276c0 -81.333 -20.667 -143.333 -62 -186l-20 -18c-51.333 -41.333 -124.333 -64.666 -219 -69.999c-54 0.666992 -99 6.5 -135 17.5s-73.667 32.167 -113 63.5z" />
    <glyph glyph-name="three" unicode="&#x6f3;" horiz-adv-x="1492" 
d="M823 518c-54 -48 -131.667 -72.001 -233 -72.001c-54.667 0 -94.334 5 -119.001 15c-4 4 -20.333 6 -49 6v-467h-257v1095h257v-469c12.667 -12.667 20.334 -19 23.001 -19c23.333 -14.667 43 -22 59 -22c92.667 0 139 42 139 126v371l259 -95v-402h72
c92.667 0 139 42 139 126v371l259 -95v-276c0 -81.333 -20.667 -143.333 -62 -186l-20 -18c-51.333 -41.333 -124.333 -64.666 -219 -69.999c-54 0.666992 -99 6.5 -135 17.5s-73.667 32.167 -113 63.5z" />
    <glyph glyph-name="three" unicode="&#x663;" horiz-adv-x="1492" 
d="M823 518c-54 -48 -131.667 -72.001 -233 -72.001c-54.667 0 -94.334 5 -119.001 15c-4 4 -20.333 6 -49 6v-467h-257v1095h257v-469c12.667 -12.667 20.334 -19 23.001 -19c23.333 -14.667 43 -22 59 -22c92.667 0 139 42 139 126v371l259 -95v-402h72
c92.667 0 139 42 139 126v371l259 -95v-276c0 -81.333 -20.667 -143.333 -62 -186l-20 -18c-51.333 -41.333 -124.333 -64.666 -219 -69.999c-54 0.666992 -99 6.5 -135 17.5s-73.667 32.167 -113 63.5z" />
    <glyph glyph-name="four" unicode="4" horiz-adv-x="917" 
d="M711 932l-101 0.000976562c-114 0 -171 -45 -171 -135c0 -118 85.333 -177 256 -177v-103c6.66699 -0.666992 -2 -1 -26 -1c-167.333 0 -251 -58.333 -251 -175c0 -117.333 70.667 -176 212 -176l46 1c17.333 0 33.333 0.666992 48 2c34 2.66699 53.667 5 59 7v-167
c-34.667 -8 -104.667 -12 -210 -12c-133.333 0 -240.333 32 -321 96c-78.667 62.667 -118 145 -118 247c0 67.333 17.667 121.666 53 162.999c30 35.333 83.333 67.333 160 96v45c-55.333 24 -95.666 49.333 -120.999 76c-30 33.333 -45 71 -45 113
c0 179.333 147 269 441 269h58c21.333 -0.666992 31.666 -1 30.999 -1v-168z" />
    <glyph glyph-name="four" unicode="&#x6f4;" horiz-adv-x="917" 
d="M711 932l-101 0.000976562c-114 0 -171 -45 -171 -135c0 -118 85.333 -177 256 -177v-103c6.66699 -0.666992 -2 -1 -26 -1c-167.333 0 -251 -58.333 -251 -175c0 -117.333 70.667 -176 212 -176l46 1c17.333 0 33.333 0.666992 48 2c34 2.66699 53.667 5 59 7v-167
c-34.667 -8 -104.667 -12 -210 -12c-133.333 0 -240.333 32 -321 96c-78.667 62.667 -118 145 -118 247c0 67.333 17.667 121.666 53 162.999c30 35.333 83.333 67.333 160 96v45c-55.333 24 -95.666 49.333 -120.999 76c-30 33.333 -45 71 -45 113
c0 179.333 147 269 441 269h58c21.333 -0.666992 31.666 -1 30.999 -1v-168z" />
    <glyph glyph-name="four" unicode="&#x664;" horiz-adv-x="917" 
d="M711 932l-101 0.000976562c-114 0 -171 -45 -171 -135c0 -118 85.333 -177 256 -177v-103c6.66699 -0.666992 -2 -1 -26 -1c-167.333 0 -251 -58.333 -251 -175c0 -117.333 70.667 -176 212 -176l46 1c17.333 0 33.333 0.666992 48 2c34 2.66699 53.667 5 59 7v-167
c-34.667 -8 -104.667 -12 -210 -12c-133.333 0 -240.333 32 -321 96c-78.667 62.667 -118 145 -118 247c0 67.333 17.667 121.666 53 162.999c30 35.333 83.333 67.333 160 96v45c-55.333 24 -95.666 49.333 -120.999 76c-30 33.333 -45 71 -45 113
c0 179.333 147 269 441 269h58c21.333 -0.666992 31.666 -1 30.999 -1v-168z" />
    <glyph glyph-name="five" unicode="5" horiz-adv-x="1064" 
d="M532 16c-122.667 0 -219 40.999 -289 122.999c-68.667 80 -103 186 -103 318c0 76.667 17.667 149.334 53 218.001c29.333 58 70.666 112 123.999 162c40.667 39.333 86 74.333 136 105c36 22.667 62.333 37 79 43c16.667 -6 42.667 -20 78 -42
c50.667 -31.333 96.334 -66.666 137.001 -105.999c53.333 -50 94.333 -104 123 -162c36 -68.667 54 -141.334 54 -218.001c0 -132 -34.333 -238 -103 -318c-70 -82 -166.333 -123 -289 -123zM532 759.999c-20 -7.33301 -35.999 -17 -47.999 -29
c-14.667 -14 -28.334 -31.333 -41.001 -52c-32 -56 -48 -128.333 -48 -217c0 -194 45.667 -291 137 -291c90.667 0 136 97 136 291c0 88.667 -16 161 -48 217c-11.333 20.667 -25 38 -41 52c-12 12 -27.667 21.667 -47 29z" />
    <glyph glyph-name="five" unicode="&#x6f5;" horiz-adv-x="1064" 
d="M532 16c-122.667 0 -219 40.999 -289 122.999c-68.667 80 -103 186 -103 318c0 76.667 17.667 149.334 53 218.001c29.333 58 70.666 112 123.999 162c40.667 39.333 86 74.333 136 105c36 22.667 62.333 37 79 43c16.667 -6 42.667 -20 78 -42
c50.667 -31.333 96.334 -66.666 137.001 -105.999c53.333 -50 94.333 -104 123 -162c36 -68.667 54 -141.334 54 -218.001c0 -132 -34.333 -238 -103 -318c-70 -82 -166.333 -123 -289 -123zM532 759.999c-20 -7.33301 -35.999 -17 -47.999 -29
c-14.667 -14 -28.334 -31.333 -41.001 -52c-32 -56 -48 -128.333 -48 -217c0 -194 45.667 -291 137 -291c90.667 0 136 97 136 291c0 88.667 -16 161 -48 217c-11.333 20.667 -25 38 -41 52c-12 12 -27.667 21.667 -47 29z" />
    <glyph glyph-name="five" unicode="&#x665;" horiz-adv-x="1064" 
d="M532 16c-122.667 0 -219 40.999 -289 122.999c-68.667 80 -103 186 -103 318c0 76.667 17.667 149.334 53 218.001c29.333 58 70.666 112 123.999 162c40.667 39.333 86 74.333 136 105c36 22.667 62.333 37 79 43c16.667 -6 42.667 -20 78 -42
c50.667 -31.333 96.334 -66.666 137.001 -105.999c53.333 -50 94.333 -104 123 -162c36 -68.667 54 -141.334 54 -218.001c0 -132 -34.333 -238 -103 -318c-70 -82 -166.333 -123 -289 -123zM532 759.999c-20 -7.33301 -35.999 -17 -47.999 -29
c-14.667 -14 -28.334 -31.333 -41.001 -52c-32 -56 -48 -128.333 -48 -217c0 -194 45.667 -291 137 -291c90.667 0 136 97 136 291c0 88.667 -16 161 -48 217c-11.333 20.667 -25 38 -41 52c-12 12 -27.667 21.667 -47 29z" />
    <glyph glyph-name="six" unicode="6" horiz-adv-x="997" 
d="M535 767c0 116.667 -63.668 175.002 -191.001 175.002c-49.333 0 -93.666 -4.66699 -132.999 -14c-30 -7.33301 -50 -13.333 -60 -18l-53 145c22 11.333 57 22.666 105 33.999c64 14.667 132.667 22 206 22c77.333 0 143.333 -9.66699 198 -29
c48 -17.333 86.667 -42 116 -74c25.333 -26.667 44 -58.334 56 -95.001c10.667 -32 16 -66.333 16 -103v-810h-260v767z" />
    <glyph glyph-name="six" unicode="&#x6f6;" horiz-adv-x="997" 
d="M535 767c0 116.667 -63.668 175.002 -191.001 175.002c-49.333 0 -93.666 -4.66699 -132.999 -14c-30 -7.33301 -50 -13.333 -60 -18l-53 145c22 11.333 57 22.666 105 33.999c64 14.667 132.667 22 206 22c77.333 0 143.333 -9.66699 198 -29
c48 -17.333 86.667 -42 116 -74c25.333 -26.667 44 -58.334 56 -95.001c10.667 -32 16 -66.333 16 -103v-810h-260v767z" />
    </font>
</defs>
</svg>
