<?xml version="1.0" standalone="no"?>
<!DOCTYPE svg PUBLIC "-//W3C//DTD SVG 1.1//EN" "http://www.w3.org/Graphics/SVG/1.1/DTD/svg11.dtd" >
<svg>
<metadata>
Created by FontForge 20090914 at Wed Oct 19 01:54:23 2011
 By www-data
(c) by Abolfazl Seilsepour - +98 912 591 3420  -  seilsepor@yahoo.com
</metadata>
<defs>
<font id="FarTailMedium" horiz-adv-x="0" >
  <font-face 
    font-family="Far.Tail Medium"
    font-weight="400"
    font-stretch="normal"
    units-per-em="2048"
    panose-1="0 0 4 0 0 0 0 0 0 0"
    ascent="1638"
    descent="-410"
    bbox="-241 -600 1643 1938"
    underline-thickness="80"
    underline-position="-580"
    unicode-range="U+0020-U+FEFC"
  />
<missing-glyph horiz-adv-x="980" 
d="M81 -9v1662h826v-1662h-826zM212 105h558v1406h-558v-1406z" />
    <glyph glyph-name=".notdef" unicode="&#x652;&#x64d;" horiz-adv-x="980" 
d="M81 -9v1662h826v-1662h-826zM212 105h558v1406h-558v-1406z" />
    <glyph glyph-name="copyright" unicode="&#x652;&#x64e;" horiz-adv-x="1652" 
d="M862 1495c125.333 0 247.5 -32 366.5 -96s211.833 -155.5 278.5 -274.5s100 -243.167 100 -372.5s-32.833 -253.333 -98.5 -372s-157.667 -210.5 -276 -275.5s-241.833 -97.5 -370.5 -97.5c-129.333 0 -252.833 32.5 -370.5 97.5s-209.5 156.833 -275.5 275.5
s-99 242.667 -99 372s33.5 253.5 100.5 372.5s160 210.5 279 274.5s240.833 96 365.5 96zM862 1431c-114 0 -225.169 -29.333 -333.502 -88s-193.166 -142.334 -254.499 -251.001s-92 -222 -92 -340s30 -230.833 90 -338.5s144 -191.667 252 -252s220.667 -90.5 338 -90.5
s230 30.167 338 90.5s192.167 144.333 252.5 252s90.5 220.5 90.5 338.5s-30.667 231.333 -92 340s-146.166 192.334 -254.499 251.001s-219.833 88 -334.5 88zM1230 1230l22 -293.999h-41c-26 83.333 -66.167 145.5 -120.5 186.5s-120.166 61.5 -197.499 61.5
c-58 0 -109.333 -12 -154 -36s-81.334 -55.667 -110.001 -95c-21.333 -30.667 -39 -71 -53 -121s-21 -102 -21 -156c0 -148.667 32 -258.167 96 -328.5s148 -105.5 252 -105.5c136 0 245 56.667 327 170l39 -20c-97.333 -142 -231 -213 -401 -213
c-140.667 0 -257 45.333 -349 136s-138 200.667 -138 330c0 134 49 248.333 147 343s223 142 375 142c33.333 0 60.333 -2 81 -6s59 -15 115 -33c16.667 -6 29 -9 37 -9c11.333 0 21 3.16699 29 9.5s16 19.166 24 38.499h41z" />
    <glyph glyph-name="uniE818" unicode="&#x651;&#x64b;" 
d="M365 1788l-2 -67l-312 3v64h314zM369 1905l1 -66l-319 2v69zM383 1669l0.000976562 -72.002c0 -24 -7 -44.667 -21 -62c-18.667 -22 -45 -33 -79 -33c-36 2 -59.667 14 -71 36c-10.667 -20 -36 -30 -76 -30c-35.333 -3.33301 -62 6.33398 -80 29.001
c-14 16.667 -21 36.667 -21 60v72h76v-57c4 -31.333 15.667 -46.666 35 -45.999c15.333 1.33301 23 25.333 23 72v31h77v-32c5.33301 -47.333 18.666 -71 39.999 -71c18 0 24.667 16.333 20 49l2 54h75z" />
    <glyph glyph-name="uniFC5E" unicode="&#x651;&#x64c;" arabic-form="isolated" 
d="M435 1564l-0.000976562 -72.999c0 -24.667 -7 -45.334 -21 -62.001c-18.667 -22 -45 -33 -79 -33c-36 1.33301 -59.667 13.666 -71 36.999c-11.333 -20.667 -36.666 -31 -75.999 -31c-35.333 -3.33301 -62 6.33398 -80 29.001c-13.333 16.667 -20 36.667 -20 60v73h75
v-58c4.66699 -32 16.667 -47 36 -45c14.667 0.666992 22 24 22 70v33h78v-33c4.66699 -46.667 17.667 -70 39 -70c18 0 24.667 15.667 20 47l2 56h75zM355.999 1862c-31.333 0 -47 -18 -47 -54c0 -38 15.667 -57 47 -57c32 0 48 19 48 57c0 36 -16 54 -48 54zM190.999 1862
c-31.333 0 -47 -18 -47 -54c0 -38 15.667 -57 47 -57c32 0 48 19 48 57c0 36 -16 54 -48 54zM280.999 1714c8.66699 20.667 5.66602 25.668 -9.00098 15.001c-2.66699 -2.66699 -5 -5.33398 -7 -8.00098l-3 -6l-149 -106l-24 46l67 47c-16.667 2 -33 11.667 -49 29
c-21.333 20.667 -32 45.667 -32 75c0 70.667 38.333 106 115 106c36.667 0 64 -7.33301 82 -22c18.667 14.667 46.334 22 83.001 22c78 0 117 -35.333 117 -106c0 -28.667 -11 -53.667 -33 -75l-162 -122l-22 46l65 46c-15.333 2.66699 -35 16 -59 40
c5.33301 -10 12 -19 20 -27z" />
    <glyph glyph-name="uniFC5F" unicode="&#x651;&#x64d;" arabic-form="isolated" 
d="M392 1903l-0.000976562 -75.001c0 -23.333 -7 -43.666 -21 -60.999c-18 -22 -44.667 -33 -80 -33c-35.333 2 -58.666 14 -69.999 36c-11.333 -20.667 -36.666 -31 -75.999 -31c-35.333 -2.66699 -62 7.33301 -80 30c-14 17.333 -21 37 -21 59v75h76v-59
c4 -32 15.667 -47 35 -45c15.333 0 23 23.667 23 71v33h77v-34c5.33301 -46.667 18.666 -70 39.999 -70c18 0 24.667 16 20 48l2 56h75zM366.999 1587l1 -68l-315 3v65h314zM365.999 1698v-67l-310 -2l-4 69h314z" />
    <glyph glyph-name="uniFC60" unicode="&#x651;&#x64e;" horiz-adv-x="1" arabic-form="isolated" 
d="M382 1755l-0.000976562 -72c0 -25.333 -7 -46.333 -21 -63c-18 -22.667 -44.667 -34 -80 -34c-35.333 2 -58.666 14.667 -69.999 38c-11.333 -21.333 -36.666 -32 -75.999 -32c-35.333 -2.66699 -62 7.33301 -80 30c-14 18 -21 38.333 -21 61v72h76v-58
c4 -32 15.667 -47.333 35 -46c15.333 1.33301 23 25 23 71v33h77v-33c5.33301 -47.333 18.666 -71 39.999 -71c18 0 24.667 16 20 48l2 56h75zM367.999 1862l1 -57h-317l2 57h314z" />
    <glyph glyph-name="uniFC61" unicode="&#x651;&#x64f;" horiz-adv-x="1" arabic-form="isolated" 
d="M194 1830c0 -38 16 -57 48 -57c31.333 0 47 19 47 57c0 37.333 -15.667 56 -47 56c-32 0 -48 -18.667 -48 -56zM316 1745l-3 -7l-150 -106l-25 45l68 47c-16 2.66699 -31.667 11.667 -47 27c-22.667 22.667 -34 48.334 -34 77.001c0 72 38.333 108 115 108
c77.333 0 116 -36 116 -108c0 -28.667 -10.333 -53.334 -31 -74.001zM400 1594l0.000976562 -73c0 -24.667 -7 -45.667 -21 -63c-18.667 -21.333 -45 -32 -79 -32c-36 0.666992 -59.667 12.667 -71 36c-10.667 -20.667 -36 -31 -76 -31c-35.333 -2.66699 -62 7 -80 29
c-14 18 -21 38.333 -21 61v73h76v-58c4 -32 15.667 -47.667 35 -47c15.333 2 23 26 23 72v33h77v-34c5.33301 -47.333 18.666 -71 39.999 -71c18 0 24.667 16.333 20 49l2 56h75z" />
    <glyph glyph-name="uniFC62" unicode="&#x651;&#x650;" horiz-adv-x="1" arabic-form="isolated" 
d="M399 1871l-0.000976562 -74c0 -24.667 -7 -45.334 -21 -62.001c-18 -22.667 -44.667 -34 -80 -34c-35.333 2.66699 -58.666 15.334 -69.999 38.001c-11.333 -20.667 -36.666 -31 -75.999 -31c-35.333 -3.33301 -62 6.66699 -80 30c-14 17.333 -21 37 -21 59v74h76v-59
c4 -32 15.667 -47 35 -45c15.333 0.666992 23 24 23 70v34h77v-34c5.33301 -46.667 18.666 -70 39.999 -70c18 0 24.667 15.667 20 47l2 57h75zM385.999 1665l1 -57h-316l2 57h313z" />
    <glyph glyph-name="uniFD3F" unicode="&#x652;&#x64b;" horiz-adv-x="759" 
d="M206 323c36.667 24.667 70.3359 79.665 101.003 164.998c-52 0 -112.333 -6 -181 -18c60.667 45.333 111 88.666 151 129.999c12.667 14 24.334 28.333 35.001 43c-10.667 7.33301 -19.667 16 -27 26c-16.667 -11.333 -31.334 -22.666 -44.001 -33.999
c-41.333 -39.333 -84.666 -89.666 -129.999 -150.999c12 69.333 18 135.333 18 198v123c0 63.333 -6 129.333 -18 198c46.667 -62.667 90 -113 130 -151c10.667 -9.33301 25.334 -20.666 44.001 -33.999c8 10 17 19 27 27c-10.667 14.667 -22.334 29 -35.001 43
c-40 41.333 -90.333 84.666 -151 129.999c71.333 -12.667 131.666 -19 180.999 -19c-30.667 85.333 -64.334 140.333 -101.001 165c-28.667 20.667 -78.334 31 -149.001 31c31.333 36.667 51.333 67.334 60 92.001c5.33301 14 7.66602 35 6.99902 63
c-7.33301 76.667 -15 145.334 -23 206.001l203 -251c72 -88.667 122 -190.667 150 -306c55.333 0 119 6.33301 191 19c-59.333 -44 -109.666 -87.333 -150.999 -130c-12.667 -13.333 -24.334 -27.666 -35.001 -42.999c10 -8 19 -17 27 -27
c17.333 12 31.666 23.333 42.999 34c41.333 40 84.666 90.333 129.999 151c-12.667 -71.333 -19 -137.333 -19 -198v-123c0 -60 6.33301 -126 19 -198c-45.333 61.333 -88.666 111.666 -129.999 150.999c-11.333 10.667 -25.666 22 -42.999 34
c-6 -8.66699 -14.667 -17.334 -26 -26.001c9.33301 -14 20.666 -28.333 33.999 -43c41.333 -42.667 91.666 -86 150.999 -130c-69.333 12 -133 18 -191 18c-28 -114.667 -78 -216.667 -150 -306l-203 -250c13.333 121.333 21 190 23 206
c0.666992 27.333 -1.66602 48.333 -6.99902 63c-8.66699 24.667 -28.667 55 -60 91c70.667 0 120.334 10.333 149.001 31zM321.002 679.998c18 -18 39.333 -27 64 -27c25.333 0 47 9 65 27s27 39.333 27 64s-9.16699 46 -27.5 64s-39.833 27 -64.5 27s-46 -9 -64 -27
s-27 -39.333 -27 -64s9 -46 27 -64z" />
    <glyph glyph-name="uniFDF2" unicode="&#xfedf;&#xfee0;&#xfeea;" horiz-adv-x="1663" arabic-form="isolated" 
d="M280 198h218v524c0 46.667 -20 79.667 -60 99l-158 -139v-484zM696 0l0.000976562 -78.998c0 -26 16.667 -52.333 50 -79c20.667 -21.333 36.334 -34 47.001 -38l-47 -2c-33.333 0 -69.833 6.66699 -109.5 20s-72.667 33.166 -99 59.499s-39.5 65.833 -39.5 118.5h-326
l-90 99v662l317 297c198 0 297 -99 297 -297v-563h230v922c0 26 -19.667 52.333 -59 79v246c171.333 -39.333 257 -141.333 257 -306v-943h227v1030c0 32 -19.667 58.333 -59 79v247c171.333 -46 257 -148 257 -306v-1129c0 -26.667 14.333 -53 43 -79
c25.333 -22 42.333 -34.667 51 -38h-519v-79c0 -32 16.333 -61.333 49 -88c21.333 -15.333 35.666 -25 42.999 -29l-43 -2c-32.667 0 -68.834 5.16699 -108.501 15.5s-72.667 28.666 -99 54.999s-39.5 62.5 -39.5 108.5v19h-230z" />
    <glyph glyph-name="uniFEF5" unicode="&#xfedf;&#xfe82;" horiz-adv-x="797" arabic-form="isolated" 
d="M712 -59c0 -152.667 -69.667 -261.999 -209 -327.999c-46 -26 -95.333 -42 -148 -48l-70 -11l31 20c32 20 58.333 39.667 79 59c32 34 58.333 67 79 99c19.333 46.667 29 96.667 29 150v1326c0 19.333 -6.66699 39 -20 59c-6 13.333 -19.333 26.666 -40 39.999v218
c179.333 -26.667 269 -125.667 269 -297v-1287zM395 0.000976562l-40 0.000976562c-33.333 0 -69.833 4.83301 -109.5 14.5s-72.667 27.667 -99 54s-39.5 62.833 -39.5 109.5v1030c0 19.333 -6.66699 39 -20 59c-6 13.333 -19.333 26.666 -40 39.999v218
c172 -26.667 258 -125.667 258 -297v-1109c0 -34 16.667 -64 50 -90c18 -16 31.333 -25.667 40 -29zM43 1615c-16.667 0 -31.667 -10.999 -45 -32.999c-9.33301 -12 -15.666 -20.667 -18.999 -26v26c0 25.333 2 46.666 6 63.999c8.66699 30.667 19.667 54.334 33 71.001
c20.667 21.333 46.334 32 77.001 32h272c16.667 0 31.667 11 45 33c9.33301 11.333 15.666 19.666 18.999 24.999v-25c0 -26 -2 -47.667 -6 -65c-8.66699 -30 -19.667 -53.667 -33 -71c-20.667 -20.667 -46.334 -31 -77.001 -31h-272z" />
    <glyph glyph-name="uniFEF6" unicode="&#xfee0;&#xfe82;" horiz-adv-x="825" arabic-form="final" 
d="M839 198v-197.999h-127v-59c0 -152.667 -69.667 -262 -209 -328c-46 -26 -95.333 -42 -148 -48l-70 -11l31 20c32 20 58.333 39.667 79 59c32 34 58.333 67 79 99c19.333 46.667 29 96.667 29 150v1326c0 19.333 -6.66699 39 -20 59c-6 13.333 -19.333 26.666 -40 39.999
v218c179.333 -26.667 269 -125.667 269 -297v-1030h127zM395 0.000976562l-40 0.000976562c-33.333 0 -69.833 4.83301 -109.5 14.5s-72.667 27.667 -99 54s-39.5 62.833 -39.5 109.5v1030c0 19.333 -6.66699 39 -20 59c-6 13.333 -19.333 26.666 -40 39.999v218
c172 -26.667 258 -125.667 258 -297v-1109c0 -34 16.667 -64 50 -90c18 -16 31.333 -25.667 40 -29zM43 1615c-16.667 0 -31.667 -10.999 -45 -32.999c-9.33301 -12 -15.666 -20.667 -18.999 -26v26c0 25.333 2 46.666 6 63.999c8.66699 30.667 19.667 54.334 33 71.001
c20.667 21.333 46.334 32 77.001 32h272c16.667 0 31.667 11 45 33c9.33301 11.333 15.666 19.666 18.999 24.999v-25c0 -26 -2 -47.667 -6 -65c-8.66699 -30 -19.667 -53.667 -33 -71c-20.667 -20.667 -46.334 -31 -77.001 -31h-272z" />
    <glyph glyph-name="uniFEF7" unicode="&#xfedf;&#xfe84;" horiz-adv-x="796" arabic-form="isolated" 
d="M711 -59c0 -152.667 -69.668 -261.999 -209.001 -327.999c-45.333 -26 -94.333 -42 -147 -48l-70 -11l30 20c32.667 20 59 39.667 79 59c32.667 34 59.334 67 80.001 99c18.667 46.667 28 96.667 28 150v1326c0 19.333 -6.33301 39 -19 59
c-6 13.333 -19.333 26.666 -40 39.999v218c178.667 -26.667 268 -125.667 268 -297v-1287zM393.999 0.000976562l-39 0.000976562c-34 0 -70.667 4.83301 -110 14.5s-72.333 27.667 -99 54s-40 62.833 -40 109.5v1030c0 19.333 -6.33301 39 -19 59
c-6 13.333 -19.333 26.666 -40 39.999v218c171.333 -26.667 257 -125.667 257 -297v-1109c0 -34 17 -64 51 -90c18 -16 31 -25.667 39 -29zM76.999 1563c-16 0 -28.332 12.332 -36.999 36.999c-7.33301 16 -11 27.333 -11 34c1.33301 -10 17.333 -17.667 48 -23v119l95 71
c63.333 0 95 -31.667 95 -95v-48c0 -7.33301 3.33301 -18.666 10 -33.999l13 -13c0 -7.33301 -15.667 -3 -47 13c-32 6.66699 -48 26 -48 58v24c0 16 -7.66699 24 -23 24l-24 -24v-95h47c39.333 0 71 -24 95 -72h-71c-8.66699 0 -16.667 4.33301 -24 13
c-8.66699 7.33301 -16.334 11 -23.001 11h-95z" />
    <glyph glyph-name="uniFEF8" unicode="&#xfee0;&#xfe84;" horiz-adv-x="825" arabic-form="final" 
d="M839 198l-0.000976562 -197.999h-128v-59c0 -152.667 -69.667 -262 -209 -328c-45.333 -26 -94.333 -42 -147 -48l-70 -11l30 20c32.667 20 59 39.667 79 59c32.667 34 59.334 67 80.001 99c18.667 46.667 28 96.667 28 150v1326c0 19.333 -6.33301 39 -19 59
c-6 13.333 -19.333 26.666 -40 39.999v218c178.667 -26.667 268 -125.667 268 -297v-1030h128zM393.999 0.000976562l-39 0.000976562c-34 0 -70.667 4.83301 -110 14.5s-72.333 27.667 -99 54s-40 62.833 -40 109.5v1030c0 19.333 -6.33301 39 -19 59
c-6 13.333 -19.333 26.666 -40 39.999v218c171.333 -26.667 257 -125.667 257 -297v-1109c0 -34 17 -64 51 -90c18 -16 31 -25.667 39 -29zM76.999 1563c-16 0 -28.332 12.332 -36.999 36.999c-7.33301 16 -11 27.333 -11 34c1.33301 -10 17.333 -17.667 48 -23v119l95 71
c63.333 0 95 -31.667 95 -95v-48c0 -7.33301 3.33301 -18.666 10 -33.999l13 -13c0 -7.33301 -15.667 -3 -47 13c-32 6.66699 -48 26 -48 58v24c0 16 -7.66699 24 -23 24l-24 -24v-95h47c39.333 0 71 -24 95 -72h-71c-8.66699 0 -16.667 4.33301 -24 13
c-8.66699 7.33301 -16.334 11 -23.001 11h-95z" />
    <glyph glyph-name="uniFEF9" unicode="&#xfedf;&#xfe88;" horiz-adv-x="796" arabic-form="isolated" 
d="M711 -59c0 -152.667 -69.668 -261.999 -209.001 -327.999c-45.333 -26 -94.333 -42 -147 -48l-70 -11l30 20c32.667 20 59 39.667 79 59c32.667 34 59.334 67 80.001 99c18.667 46.667 28 96.667 28 150v1326c0 19.333 -6.33301 39 -19 59
c-6 13.333 -19.333 26.666 -40 39.999v218c178.667 -26.667 268 -125.667 268 -297v-1287zM393.999 0.000976562l-39 0.000976562c-34 0 -70.667 4.83301 -110 14.5s-72.333 27.667 -99 54s-40 62.833 -40 109.5v1030c0 19.333 -6.33301 39 -19 59
c-6 13.333 -19.333 26.666 -40 39.999v218c171.333 -26.667 257 -125.667 257 -297v-1109c0 -34 17 -64 51 -90c18 -16 31 -25.667 39 -29zM164.999 -264.998c-16 0 -28.333 12.335 -37 37.002c-7.33301 15.333 -11 26.666 -11 33.999c1.33301 -10 17.333 -18 48 -24v119
l95 71c63.333 0 95 -31.667 95 -95v-47c0 -7.33301 3.66699 -19 11 -35l13 -13c0 -6.66699 -16 -2.33398 -48 12.999c-31.333 7.33301 -47 27 -47 59v23c0 16 -8 24 -24 24l-24 -24v-95h48c38.667 0 70.334 -23.667 95.001 -71h-72c-8.66699 0 -16.334 4.33301 -23.001 13
c-8.66699 7.33301 -16.667 11 -24 11h-95z" />
    <glyph glyph-name="uniFEFA" unicode="&#xfee0;&#xfe88;" horiz-adv-x="825" arabic-form="final" 
d="M839 198l-0.000976562 -197.999h-128v-59c0 -152.667 -69.667 -262 -209 -328c-45.333 -26 -94.333 -42 -147 -48l-70 -11l30 20c32.667 20 59 39.667 79 59c32.667 34 59.334 67 80.001 99c18.667 46.667 28 96.667 28 150v1326c0 19.333 -6.33301 39 -19 59
c-6 13.333 -19.333 26.666 -40 39.999v218c178.667 -26.667 268 -125.667 268 -297v-1030h128zM393.999 0.000976562l-39 0.000976562c-34 0 -70.667 4.83301 -110 14.5s-72.333 27.667 -99 54s-40 62.833 -40 109.5v1030c0 19.333 -6.33301 39 -19 59
c-6 13.333 -19.333 26.666 -40 39.999v218c171.333 -26.667 257 -125.667 257 -297v-1109c0 -34 17 -64 51 -90c18 -16 31 -25.667 39 -29zM164.999 -264.998c-16 0 -28.333 12.335 -37 37.002c-7.33301 15.333 -11 26.666 -11 33.999c1.33301 -10 17.333 -18 48 -24v119
l95 71c63.333 0 95 -31.667 95 -95v-47c0 -7.33301 3.66699 -19 11 -35l13 -13c0 -6.66699 -16 -2.33398 -48 12.999c-31.333 7.33301 -47 27 -47 59v23c0 16 -8 24 -24 24l-24 -24v-95h48c38.667 0 70.334 -23.667 95.001 -71h-72c-8.66699 0 -16.334 4.33301 -23.001 13
c-8.66699 7.33301 -16.667 11 -24 11h-95z" />
    <glyph glyph-name="uniFEFB" unicode="&#xfedf;&#xfe8e;" horiz-adv-x="796" arabic-form="isolated" 
d="M711 -59c0 -152.667 -69.668 -261.999 -209.001 -327.999c-45.333 -26 -94.333 -42 -147 -48l-70 -11l30 20c32.667 20 59 39.667 79 59c32.667 34 59.334 67 80.001 99c18.667 46.667 28 96.667 28 150v1326c0 19.333 -6.33301 39 -19 59
c-6 13.333 -19.333 26.666 -40 39.999v218c178.667 -26.667 268 -125.667 268 -297v-1287zM393.999 0.000976562l-39 0.000976562c-34 0 -70.667 4.83301 -110 14.5s-72.333 27.667 -99 54s-40 62.833 -40 109.5v1030c0 19.333 -6.33301 39 -19 59
c-6 13.333 -19.333 26.666 -40 39.999v218c171.333 -26.667 257 -125.667 257 -297v-1109c0 -34 17 -64 51 -90c18 -16 31 -25.667 39 -29z" />
    <glyph glyph-name="uniFEFC" unicode="&#xfee0;&#xfe8e;" horiz-adv-x="825" arabic-form="final" 
d="M839 198l-0.000976562 -197.999h-128v-59c0 -152.667 -69.667 -262 -209 -328c-45.333 -26 -94.333 -42 -147 -48l-70 -11l30 20c32.667 20 59 39.667 79 59c32.667 34 59.334 67 80.001 99c18.667 46.667 28 96.667 28 150v1326c0 19.333 -6.33301 39 -19 59
c-6 13.333 -19.333 26.666 -40 39.999v218c178.667 -26.667 268 -125.667 268 -297v-1030h128zM393.999 0.000976562l-39 0.000976562c-34 0 -70.667 4.83301 -110 14.5s-72.333 27.667 -99 54s-40 62.833 -40 109.5v1030c0 19.333 -6.33301 39 -19 59
c-6 13.333 -19.333 26.666 -40 39.999v218c171.333 -26.667 257 -125.667 257 -297v-1109c0 -34 17 -64 51 -90c18 -16 31 -25.667 39 -29z" />
    <glyph glyph-name="afii57410" unicode="&#x622;" horiz-adv-x="449" arabic-form="isolated" 
d="M424 0c-67.333 0 -134.666 11.332 -201.999 33.999s-101 80.334 -101 173.001v1021c0 32 -19.667 58.333 -59 79v237c171.333 -26 257 -125 257 -297v-1128c0 -26.667 15.667 -52 47 -76s50.666 -38.333 57.999 -43zM3 1615c-16.667 0 -31.667 -10.999 -45 -32.999
c-9.33301 -12 -15.666 -20.667 -18.999 -26v26c0 25.333 2 46.666 6 63.999c8.66699 30.667 19.667 54.334 33 71.001c20.667 21.333 46.334 32 77.001 32h272c16.667 0 31.667 11 45 33c9.33301 11.333 15.666 19.666 18.999 24.999v-25c0 -26 -2 -47.667 -6 -65
c-8.66699 -30 -19.667 -53.667 -33 -71c-20.667 -20.667 -46.334 -31 -77.001 -31h-272z" />
    <glyph glyph-name="afii57411" unicode="&#x623;" horiz-adv-x="415" arabic-form="isolated" 
d="M423 0c-67.333 0 -134.5 11.332 -201.5 33.999s-100.5 80.334 -100.5 173.001v1021c0 32 -20 58.333 -60 79v237c172 -26 258 -125 258 -297v-1128c0 -26.667 15.5 -52 46.5 -76s50.167 -38.333 57.5 -43zM77 1616c-16 0 -28.332 12.334 -36.999 37.001
c-7.33301 16 -11 27.667 -11 35c1.33301 -10 17.333 -18 48 -24v119l95 71c63.333 0 95 -31.667 95 -95v-48c0 -6.66699 3.33301 -18 10 -34l13 -13c0 -7.33301 -15.667 -3 -47 13c-32 7.33301 -48 26.666 -48 57.999v24c0 16 -7.66699 24 -23 24l-24 -24v-95h47
c39.333 0 71 -23.667 95 -71h-71c-8.66699 0 -16.667 4.33301 -24 13c-8.66699 6.66699 -16.334 10 -23.001 10h-95z" />
    <glyph glyph-name="afii57412" unicode="&#x624;" horiz-adv-x="733" arabic-form="isolated" 
d="M265 684l167 139c39.333 -7.33301 59 -37.333 59 -90v-524h-226v475zM689 763c0 204 -101.999 306 -305.999 306l-316 -306v-653l99 -110h325v-99c0 -52.667 -9.33301 -101.667 -28 -147c-20.667 -34 -47.334 -67 -80.001 -99c-52.667 -46.667 -92 -70 -118 -70h19
c19.333 0 35.666 3.33301 48.999 10c52.667 6 102.334 19.333 149.001 40c138 52.667 207 154.667 207 306v822zM97.001 1292c-23.333 0 -41.3311 18.333 -53.998 55c-10.667 23.333 -16 40.333 -16 51c2 -15.333 25.333 -27 70 -35v175l141 105
c93.333 0 140 -46.667 140 -140v-70c0 -10.667 5.33301 -27.667 16 -51l19 -19c0 -10.667 -23.333 -4.33398 -70 18.999c-46.667 10.667 -70 39.334 -70 86.001v35c0 23.333 -11.667 35 -35 35l-35 -35v-140h70c57.333 0 104 -35.333 140 -106h-105
c-12.667 0 -24.334 6.33301 -35.001 19c-12.667 10.667 -24.334 16 -35.001 16h-141z" />
    <glyph glyph-name="afii57413" unicode="&#x625;" horiz-adv-x="426" arabic-form="isolated" 
d="M423 0c-67.333 0 -134.666 11.332 -201.999 33.999s-101 80.334 -101 173.001v1021c0 32 -19.667 58.333 -59 79v237c171.333 -26 257 -125 257 -297v-1128c0 -26.667 15.667 -52 47 -76s50.666 -38.333 57.999 -43zM155 -326.001
c-15.333 0 -27.334 12.001 -36.001 36.001c-7.33301 16 -11 27.667 -11 35c1.33301 -10 17 -18 47 -24v119l95 71c63.333 0 95 -31.667 95 -95v-47c0 -7.33301 3.66699 -19 11 -35l13 -13c0 -7.33301 -15.667 -3 -47 13c-32 7.33301 -48 26.666 -48 57.999v24
c0 16 -8 24 -24 24l-23 -24v-95h47c38.667 0 70.334 -23.667 95.001 -71h-71c-8.66699 0 -16.667 4.33301 -24 13c-8.66699 7.33301 -16.667 11 -24 11h-95z" />
    <glyph glyph-name="afii57414" unicode="&#x626;" horiz-adv-x="1324" arabic-form="isolated" 
d="M334 763c0 158.667 -86.001 257.668 -258.001 297.001v-237c40 -20.667 60 -47.334 60 -80.001v-624l99 -119h761c-6 -0 -22.333 13.333 -49 40c-33.333 26 -50 52.333 -50 79v387l-119 119v217h60l59 -19l158 -159v-99c0 -33.333 -16 -63.333 -48 -90
c-13.333 -6 -26.666 -15.667 -39.999 -29h-20l-10 -10h50c39.333 6.66699 72.333 13 99 19c45.333 13.333 78.333 33.333 99 60c32.667 33.333 49 76.333 49 129v99l-218 238c-138 151.333 -286.333 151.333 -445 0v-436l128 -118v-229h-365v565zM129.999 1103
c-23.333 0 -41.3311 18.333 -53.998 55c-10.667 23.333 -16 40.333 -16 51c2 -15.333 25.333 -27 70 -35v175l141 105c93.333 0 140 -46.667 140 -140v-70c0 -10.667 5.33301 -27.667 16 -51l19 -19c0 -10.667 -23.333 -4.33398 -70 18.999
c-46.667 10.667 -70 39.334 -70 86.001v35c0 23.333 -11.667 35 -35 35l-35 -35v-140h70c57.333 0 104 -35.333 140 -106h-105c-12.667 0 -24.334 6.33301 -35.001 19c-12.667 10.667 -24.334 16 -35.001 16h-141z" />
    <glyph glyph-name="afii57415" unicode="&#x627;" horiz-adv-x="431" arabic-form="isolated" 
d="M423 0c-67.333 0 -134.666 11.332 -201.999 33.999s-101 80.334 -101 173.001v1021c0 32 -19.667 58.333 -59 79v237c171.333 -26 257 -125 257 -297v-1128c0 -26.667 15.667 -52 47 -76s50.666 -38.333 57.999 -43z" />
    <glyph glyph-name="afii57416" unicode="&#x628;" horiz-adv-x="1079" arabic-form="isolated" 
d="M200 0l-99 119.002v623c0 33.333 -19.667 59.666 -59 78.999v248c171.333 -46.667 257 -149.334 257 -308.001v-563h486v544c0 46.667 -19.667 73 -59 79v248c171.333 -20 257 -122.667 257 -308v-644c13.333 -46.667 50 -85.667 110 -117h-893zM506 -70.998
c73.333 0 110 -33 110 -99s-36.667 -99 -110 -99c-66 0 -99 33 -99 99s33 99 99 99z" />
    <glyph glyph-name="afii57417" unicode="&#x629;" horiz-adv-x="878" arabic-form="isolated" 
d="M277 198h229v526c0 45.333 -20 78.333 -60 99l-169 -139v-486zM797 0h-619l-99 99v664l317 297c205.333 0 308 -99 308 -297v-644c0 -26.667 16 -53 48 -79c22.667 -22 37.667 -35.333 45 -40zM167 1202c-23.333 0 -41.3311 18.333 -53.998 55
c-10.667 23.333 -16 40.333 -16 51c2 -15.333 25.333 -27 70 -35v175l141 105c93.333 0 140 -46.667 140 -140v-70c0 -10.667 5.33301 -27.667 16 -51l19 -19c0 -10.667 -23.333 -4.33398 -70 18.999c-46.667 10.667 -70 39.334 -70 86.001v35c0 23.333 -11.667 35 -35 35
l-35 -35v-140h70c57.333 0 104 -35.333 140 -106h-105c-12.667 0 -24.334 6.33301 -35.001 19c-12.667 10.667 -24.334 16 -35.001 16h-141z" />
    <glyph glyph-name="afii57418" unicode="&#x62a;" horiz-adv-x="1115" arabic-form="isolated" 
d="M200 0l-99 119.002v623c0 33.333 -19.667 59.666 -59 78.999v248c171.333 -46.667 257 -149.334 257 -308.001v-563h486v544c0 46.667 -19.667 73 -59 79v248c171.333 -20 257 -122.667 257 -308v-644c13.333 -46.667 50 -85.667 110 -117h-893zM591 1336
c66 0 99 -33 99 -99c0 -72 -33 -108 -99 -108c-73.333 0 -110 36 -110 108c0 66 36.667 99 110 99zM362 1336c66 0 99 -33 99 -99c0 -72 -33 -108 -99 -108s-99 36 -99 108c0 66 33 99 99 99z" />
    <glyph glyph-name="afii57419" unicode="&#x62b;" horiz-adv-x="1079" arabic-form="isolated" 
d="M200 0l-99 119.002v623c0 33.333 -19.667 59.666 -59 78.999v248c171.333 -46.667 257 -149.334 257 -308.001v-564l486 1v544c0 46.667 -19.667 73 -59 79v248c171.333 -20 257 -122.667 257 -308v-644c13.333 -46.667 50 -85.667 110 -117h-893zM590 1325
c72.667 0 109 -32.333 109 -97c0 -66.667 -36.333 -100 -109 -100c-58.667 0 -88 33.333 -88 100c0 64.667 29.333 97 88 97zM480 1522c65.333 0 98 -32.333 98 -97c0 -66.667 -32.667 -100 -98 -100c-66 0 -99 33.333 -99 100c0 64.667 33 97 99 97zM371 1325
c64.667 0 97 -32.333 97 -97c0 -66.667 -32.333 -100 -97 -100c-66 0 -99 33.333 -99 100c0 64.667 33 97 99 97z" />
    <glyph glyph-name="afii57420" unicode="&#x62c;" horiz-adv-x="885" arabic-form="isolated" 
d="M828 0l-539.999 -1c0 5.33301 -3 -5 -9 -31c-13.333 -26.667 -20 -59.667 -20 -99c26 -105.333 114.667 -187.666 266 -246.999l139 -39l70 -11l-90 -9c-26.667 -7.33301 -56 -11 -88 -11h-99c-198 20.667 -323.333 106.667 -376 258c-13.333 26 -23.666 59 -30.999 99
c0 26 3.66699 56 11 90c0 26 3 48.667 9 68l11 30l99 99h345v544c0 20 -6.66699 39.667 -20 59c-12.667 7.33301 -32.334 17.666 -59.001 30.999l-139 -150v-277c0 -39.333 17 -68.666 51 -87.999c20 -16.667 33.667 -27 41 -31h-41c-40 0 -73 3.66699 -99 11
c-46.667 13.333 -83.334 29.666 -110.001 48.999c-32.667 33.333 -49 73 -49 119v307l306 297c218.667 0 328 -99 328 -297v-653c0 -26.667 16.333 -53 49 -79c21.333 -22 36.333 -34.667 45 -38zM525.001 -70c66 0 99 -36.667 99 -110c0 -66 -33 -99 -99 -99
c-72 0 -108 33 -108 99c0 73.333 36 110 108 110z" />
    <glyph glyph-name="afii57421" unicode="&#x62d;" horiz-adv-x="885" arabic-form="isolated" 
d="M828 0l-539.999 -1c0 5.33301 -3 -5 -9 -31c-13.333 -26.667 -20 -59.667 -20 -99c26 -105.333 114.667 -187.666 266 -246.999l139 -39l70 -11l-90 -9c-26.667 -7.33301 -56 -11 -88 -11h-99c-198 20.667 -323.333 106.667 -376 258c-13.333 26 -23.666 59 -30.999 99
c0 26 3.66699 56 11 90c0 26 3 48.667 9 68l11 30l99 99h345v544c0 20 -6.66699 39.667 -20 59c-12.667 7.33301 -32.334 17.666 -59.001 30.999l-139 -150v-277c0 -39.333 17 -68.666 51 -87.999c20 -16.667 33.667 -27 41 -31h-41c-40 0 -73 3.66699 -99 11
c-46.667 13.333 -83.334 29.666 -110.001 48.999c-32.667 33.333 -49 73 -49 119v307l306 297c218.667 0 328 -99 328 -297v-653c0 -26.667 16.333 -53 49 -79c21.333 -22 36.333 -34.667 45 -38z" />
    <glyph glyph-name="afii57422" unicode="&#x62e;" horiz-adv-x="885" arabic-form="isolated" 
d="M828 0l-539.999 -1c0 5.33301 -3 -5 -9 -31c-13.333 -26.667 -20 -59.667 -20 -99c26 -105.333 114.667 -187.666 266 -246.999l139 -39l70 -11l-90 -9c-26.667 -7.33301 -56 -11 -88 -11h-99c-198 20.667 -323.333 106.667 -376 258c-13.333 26 -23.666 59 -30.999 99
c0 26 3.66699 56 11 90c0 26 3 48.667 9 68l11 30l99 99h345v544c0 20 -6.66699 39.667 -20 59c-12.667 7.33301 -32.334 17.666 -59.001 30.999l-139 -150v-277c0 -39.333 17 -68.666 51 -87.999c20 -16.667 33.667 -27 41 -31h-41c-40 0 -73 3.66699 -99 11
c-46.667 13.333 -83.334 29.666 -110.001 48.999c-32.667 33.333 -49 73 -49 119v307l306 297c218.667 0 328 -99 328 -297v-653c0 -26.667 16.333 -53 49 -79c21.333 -22 36.333 -34.667 45 -38zM466.001 1337c66 0 99 -36.667 99 -110c0 -66 -33 -99 -99 -99
c-72 0 -108 33 -108 99c0 73.333 36 110 108 110z" />
    <glyph glyph-name="afii57423" unicode="&#x62f;" horiz-adv-x="938" arabic-form="isolated" 
d="M482 0c-40 0 -76.666 -19.667 -109.999 -59h-238c46.667 171.333 145.667 257 297 257h169v484l-169 139l-29 -29c-20 -20.667 -30 -37.334 -30 -50.001v-278c0 -45.333 -13.167 -81.166 -39.5 -107.499s-59.333 -44.666 -99 -54.999s-75.834 -15.5 -108.501 -15.5h-43
c8.66699 4 23 14.333 43 31c32.667 26 49 55.333 49 88v356c0 205.333 109 308 327 308l297 -308v-642c13.333 -46.667 50 -86.334 110 -119.001h-426z" />
    <glyph glyph-name="afii57424" unicode="&#x630;" horiz-adv-x="938" arabic-form="isolated" 
d="M482 0c-40 0 -76.666 -19.667 -109.999 -59h-238c46.667 171.333 145.667 257 297 257h169v484l-169 139l-29 -29c-20 -20.667 -30 -37.334 -30 -50.001v-278c0 -45.333 -13.167 -81.166 -39.5 -107.499s-59.333 -44.666 -99 -54.999s-75.834 -15.5 -108.501 -15.5h-43
c8.66699 4 23 14.333 43 31c32.667 26 49 55.333 49 88v356c0 205.333 109 308 327 308l297 -308v-642c13.333 -46.667 50 -86.334 110 -119.001h-426zM451.001 1327c66 0 99 -33 99 -99c0 -73.333 -33 -110 -99 -110s-99 36.667 -99 110c0 66 33 99 99 99z" />
    <glyph glyph-name="afii57425" unicode="&#x631;" horiz-adv-x="498" arabic-form="isolated" 
d="M454 -59c0 -152.667 -69.666 -258.333 -208.999 -317c-46 -20 -95.333 -33 -148 -39l-70 -11l40 20c26 12.667 52.333 29.334 79 50.001c33.333 32.667 56.666 65.667 69.999 99c26.667 45.333 40 98 40 158v841c0 33.333 -20 59.666 -60 78.999v237
c172 -26 258 -125 258 -297v-820z" />
    <glyph glyph-name="afii57426" unicode="&#x632;" horiz-adv-x="579" arabic-form="isolated" 
d="M509 -59c0 -152.667 -69.666 -258.333 -208.999 -317c-46 -20 -95.333 -33 -148 -39l-70 -11l40 20c26 12.667 52.333 29.334 79 50.001c33.333 32.667 56.666 65.667 69.999 99c26.667 45.333 40 98 40 158v841c0 33.333 -20 59.666 -60 78.999v237
c172 -26 258 -125 258 -297v-820zM302.001 1337c66 0 99 -33 99 -99c0 -72.667 -33 -109 -99 -109s-99 36.333 -99 109c0 66 33 99 99 99z" />
    <glyph glyph-name="afii57427" unicode="&#x633;" horiz-adv-x="1595" arabic-form="isolated" 
d="M711 743c0 146 -84 244.669 -252 296.002v-240c36.667 -14.667 55 -40.667 55 -78v-940l-99 -119h-97v1081c0 154 -84.333 252.667 -253 296v-240c37.333 -8 56 -34 56 -78v-1137l75 -119h296l219 241v294h885c-6.66699 0 -24.667 11 -54 33
c-28.667 29.333 -43 58.666 -43 87.999v622c0 139.333 -84.333 238 -253 296v-240l12 -12c6.66699 -6.66699 14 -10 22 -10c14.667 -14.667 22 -33.334 22 -56.001v-523h-197v545c0 146 -84.333 244.667 -253 296v-240c37.333 -14.667 56 -40.667 56 -78v-523h-197v545z" />
    <glyph glyph-name="afii57428" unicode="&#x634;" horiz-adv-x="1650" arabic-form="isolated" 
d="M1019 1327c73.333 0 110 -32.667 110 -98c0 -66 -36.667 -99 -110 -99c-58 0 -87 33 -87 99c0 65.333 29 98 87 98zM711 743c0 146 -84 244.669 -252 296.002v-240c36.667 -14.667 55 -40.667 55 -78v-940l-99 -119h-97v1081c0 154 -84.333 252.667 -253 296v-240
c37.333 -8 56 -34 56 -78v-1137l75 -119h296l219 241v294h885c-6.66699 0 -24.667 11 -54 33c-28.667 29.333 -43 58.666 -43 87.999v622c0 139.333 -84.333 238 -253 296v-240l12 -12c6.66699 -6.66699 14 -10 22 -10c14.667 -14.667 22 -33.334 22 -56.001v-523h-197v545
c0 146 -84.333 244.667 -253 296v-240c37.333 -14.667 56 -40.667 56 -78v-523h-197v545zM910 1523c65.333 0 98 -32.333 98 -97c0 -66 -32.667 -99 -98 -99c-66 0 -99 33 -99 99c0 64.667 33 97 99 97zM801 1327c64.667 0 97 -32.667 97 -98c0 -66 -32.333 -99 -97 -99
c-66.667 0 -100 33 -100 99c0 65.333 33.333 98 100 98z" />
    <glyph glyph-name="afii57429" unicode="&#x635;" horiz-adv-x="1295" arabic-form="isolated" 
d="M737 664l158 139l20 -20c7.33301 -7.33301 14 -11 20 -11c12.667 -19.333 19 -42 19 -68v-506h-217v466zM351 -336l0.000976562 1079c0 151.333 -85.667 247 -257 287v-227c39.333 -20.667 59 -47 59 -79v-1129l80 -118h286l218 226v297h505
c-6.66699 0 -23.334 13.333 -50.001 40c-32.667 26 -49 52.333 -49 79v624c0 191.333 -102.333 287 -307 287l-139 -139c-79.333 79.333 -148.333 125.666 -207 138.999v-227c32.667 -20.667 49 -47 49 -79v-941l-89 -119h-99z" />
    <glyph glyph-name="afii57430" unicode="&#x636;" horiz-adv-x="1295" arabic-form="isolated" 
d="M737 664l158 139l20 -20c7.33301 -7.33301 14 -11 20 -11c12.667 -19.333 19 -42 19 -68v-506h-217v466zM351 -336l0.000976562 1079c0 151.333 -85.667 247 -257 287v-227c39.333 -20.667 59 -47 59 -79v-1129l80 -118h286l218 226v297h505
c-6.66699 0 -23.334 13.333 -50.001 40c-32.667 26 -49 52.333 -49 79v624c0 191.333 -102.333 287 -307 287l-139 -139c-79.333 79.333 -148.333 125.666 -207 138.999v-227c32.667 -20.667 49 -47 49 -79v-941l-89 -119h-99zM756.001 1287c66 0 99 -33 99 -99
s-33 -99 -99 -99s-99 33 -99 99s33 99 99 99z" />
    <glyph glyph-name="afii57431" unicode="&#x637;" horiz-adv-x="1056" arabic-form="isolated" 
d="M501 684l155 140.001c18 -12 33 -24 45 -36c12 -16.667 18 -36.334 18 -59.001v-531h-218v486zM1026 0.000976562c-56.667 30.667 -93.001 67.666 -109.001 110.999v643c0 208.667 -107 313 -321 313l-95 -122v306c0 154.667 -87 255.334 -261 302.001v-243
c40.667 -28.667 61 -57.334 61 -86.001v-1026c-18 12 -29.333 23.333 -34 34c0 18 -3.66699 27 -11 27h-225c30 -150 120 -236.333 270 -259c0 -92 49.333 -153 148 -183c28.667 -10.667 63.334 -16 104.001 -16h43c-12 0 -29.333 11.333 -52 34
c-28.667 22.667 -43 51.334 -43 86.001v79h525z" />
    <glyph glyph-name="afii57432" unicode="&#x638;" horiz-adv-x="1056" arabic-form="isolated" 
d="M501 684l155 140.001c18 -12 33 -24 45 -36c12 -16.667 18 -36.334 18 -59.001v-531h-218v486zM1026 0.000976562c-56.667 30.667 -93.001 67.666 -109.001 110.999v643c0 208.667 -107 313 -321 313l-95 -122v306c0 154.667 -87 255.334 -261 302.001v-243
c40.667 -28.667 61 -57.334 61 -86.001v-1026c-18 12 -29.333 23.333 -34 34c0 18 -3.66699 27 -11 27h-225c30 -150 120 -236.333 270 -259c0 -92 49.333 -153 148 -183c28.667 -10.667 63.334 -16 104.001 -16h43c-12 0 -29.333 11.333 -52 34
c-28.667 22.667 -43 51.334 -43 86.001v79h525zM676.999 1327c66 0 99 -33 99 -99s-33 -99 -99 -99s-99 33 -99 99s33 99 99 99z" />
    <glyph glyph-name="afii57433" unicode="&#x639;" horiz-adv-x="1166" arabic-form="isolated" 
d="M378 198l0.000976562 540l312 317c225.333 0 338 -105.667 338 -317v-362c0 -21.333 17 -48.333 51 -81c24 -24 39.333 -37.667 46 -41h-46c-40 6 -73.667 11.333 -101 16c-108 32.667 -162 95 -162 187v258c0 36.667 -28.333 71.334 -85 104.001l-142 -160v-461h142
c192 0 296.333 -88.667 313 -266h-228c-22.667 43.333 -56.334 65 -101.001 65h-126v-81c0 -32.667 16.667 -62 50 -88c23.333 -18 38.333 -29 45 -33h-45c-39.333 0 -72.666 5.33301 -99.999 16c-107.333 32.667 -161 94.667 -161 186h-84
c0 4.66699 -2.33301 -6.33301 -7 -33c-12 -27.333 -18 -56.666 -18 -87.999c27.333 -108 117.333 -189 270 -243c22.667 -10.667 47.667 -21.334 75 -32.001c22.667 -6 45 -11.333 67 -16l68 -9l-84 -17h-92c-40 -4.66699 -76.667 -4.66699 -110 0
c-202.667 22 -329.334 106 -380.001 252c-10.667 26.667 -19 58.667 -25 96v97c6 21.333 11.333 42.666 16 63.999l9 33l110 97h185z" />
    <glyph glyph-name="afii57434" unicode="&#x63a;" horiz-adv-x="1166" arabic-form="isolated" 
d="M378 198l0.000976562 540l312 317c225.333 0 338 -105.667 338 -317v-362c0 -21.333 17 -48.333 51 -81c24 -24 39.333 -37.667 46 -41h-46c-40 6 -73.667 11.333 -101 16c-108 32.667 -162 95 -162 187v258c0 36.667 -28.333 71.334 -85 104.001l-142 -160v-461h142
c192 0 296.333 -88.667 313 -266h-228c-22.667 43.333 -56.334 65 -101.001 65h-126v-81c0 -32.667 16.667 -62 50 -88c23.333 -18 38.333 -29 45 -33h-45c-39.333 0 -72.666 5.33301 -99.999 16c-107.333 32.667 -161 94.667 -161 186h-84
c0 4.66699 -2.33301 -6.33301 -7 -33c-12 -27.333 -18 -56.666 -18 -87.999c27.333 -108 117.333 -189 270 -243c22.667 -10.667 47.667 -21.334 75 -32.001c22.667 -6 45 -11.333 67 -16l68 -9l-84 -17h-92c-40 -4.66699 -76.667 -4.66699 -110 0
c-202.667 22 -329.334 106 -380.001 252c-10.667 26.667 -19 58.667 -25 96v97c6 21.333 11.333 42.666 16 63.999l9 33l110 97h185zM657.001 1321c72 0 108 -34.667 108 -104c0 -64.667 -36 -97 -108 -97c-66.667 0 -100 32.333 -100 97c0 69.333 33.333 104 100 104z" />
    <glyph glyph-name="afii57441" unicode="&#x641;" horiz-adv-x="1363" arabic-form="isolated" 
d="M803 684l159 139c45.333 -20.667 68 -53.667 68 -99v-229h-227v189zM1327 0c-6 0 -22 13.3311 -48 39.998c-34 26 -51 52.333 -51 79v644c0 198 -102 297 -306 297l-317 -297v-466h425v-99h-731v563c0 158.667 -85.667 261.334 -257 308.001v-248
c39.333 -19.333 59 -45.666 59 -78.999v-623l99 -119h1127zM949 1327c66 0 99 -33 99 -99c0 -72 -33 -108 -99 -108s-99 36 -99 108c0 66 33 99 99 99z" />
    <glyph glyph-name="afii57442" unicode="&#x642;" horiz-adv-x="1165" arabic-form="isolated" 
d="M685 198h203v472c0 45.333 -18.667 75.333 -56 90l-147 -146v-416zM593 1123c0 70 37.667 105 113 105c61.333 0 92 -35 92 -105c0 -67.333 -30.667 -101 -92 -101c-75.333 0 -113 33.667 -113 101zM820 1123c0 70 38.333 105 115 105c60 0 90 -35 90 -105
c0 -67.333 -30 -101 -90 -101c-76.667 0 -115 33.667 -115 101zM1083 -284l-204 -227h-682l-92 114v1067c0 52.667 -11.333 82.667 -34 90v226c151.333 -36.667 227 -130.667 227 -282v-1020h477l113 113v203h-385v691l272 295c205.333 0 308 -98.333 308 -295v-975z" />
    <glyph glyph-name="afii57443" unicode="&#x643;" horiz-adv-x="1583" arabic-form="isolated" 
d="M259 0l-110 119.001v623c0 20 -6.33301 36.667 -19 50c-6 0 -12.667 3 -20 9l-20 20v237c178.667 -52.667 268 -151.667 268 -297v-563h907v524c0 26 -13 56 -39 90c-32.667 32 -59 48 -79 48h-584v139l297 288c32.667 13.333 49 46.333 49 99l158 158
c92.667 -165.333 79.667 -297.333 -39 -396l-99 -90h218c210.667 0 316 -105.333 316 -316v-623c13.333 -46.667 50 -86.334 110 -119.001h-1314z" />
    <glyph glyph-name="afii57444" unicode="&#x644;" horiz-adv-x="798" arabic-form="isolated" 
d="M720 -307l-218 -237.999h-297l-79 119v1168c0 33.333 -23.333 59.666 -70 78.999v237c178.667 -39.333 268 -138.333 268 -297v-1108h99l99 119v1456c0 32 -19.667 58.333 -59 79v237c171.333 -39.333 257 -138.333 257 -297v-1554z" />
    <glyph glyph-name="afii57445" unicode="&#x645;" horiz-adv-x="1057" arabic-form="isolated" 
d="M690 198v526c0 39.333 -26.333 72.333 -79 99l-138 -159v-466h217zM980 0l-506.999 -0.00195312v-57c0 -152.667 -69.667 -262 -209 -328c-46 -26 -95.333 -42 -148 -48l-70 -11l31 20c32 20 58.333 39.667 79 59c32 33.333 58.333 66.333 79 99
c19.333 46.667 29 96.334 29 149.001v860l308 317c210.667 0 316 -105.667 316 -317v-624c0 -32.667 16.333 -62 49 -88c21.333 -17.333 35.666 -27.666 42.999 -30.999z" />
    <glyph glyph-name="afii57446" unicode="&#x646;" horiz-adv-x="803" arabic-form="isolated" 
d="M278 1327c66 0 99 -33 99 -99s-33 -99 -99 -99s-99 33 -99 99s33 99 99 99zM704 -297l-228 -247.997h-297l-80 130v1157c0 33.333 -19.667 59.666 -59 78.999v248c171.333 -52.667 257 -155.334 257 -308.001v-1097h99l110 119v959c0 33.333 -23.333 59.666 -70 78.999
v248c178.667 -39.333 268 -142 268 -308v-1058z" />
    <glyph glyph-name="afii57470" unicode="&#x647;" horiz-adv-x="878" arabic-form="isolated" 
d="M277 198h229v526c0 45.333 -20 78.333 -60 99l-169 -139v-486zM797 0h-619l-99 99v664l317 297c205.333 0 308 -99 308 -297v-644c0 -26.667 16 -53 48 -79c22.667 -22 37.667 -35.333 45 -40z" />
    <glyph glyph-name="afii57448" unicode="&#x648;" horiz-adv-x="694" arabic-form="isolated" 
d="M225 684l167 139c40 -7.33301 60 -37.333 60 -90v-524h-227v475zM650 763c0 204 -101.999 306 -305.999 306l-317 -306v-653l99 -110h326v-99c0 -52.667 -9.66699 -101.667 -29 -147c-20.667 -34 -47 -67 -79 -99c-52.667 -46.667 -92.334 -70 -119.001 -70h20
c19.333 0 35.333 3.33301 48 10c53.333 6 103.333 19.333 150 40c138 52.667 207 154.667 207 306v822z" />
    <glyph glyph-name="afii57449" unicode="&#x649;" horiz-adv-x="1325" arabic-form="isolated" 
d="M333 763c0 158.667 -85.668 257.668 -257.001 297.001v-237c39.333 -20.667 59 -47.334 59 -80.001v-624l99 -119h762c-6 -0 -22.333 13.333 -49 40c-33.333 26 -50 52.333 -50 79v387l-119 119v217h59l60 -19l158 -159v-99c0 -33.333 -16 -63.333 -48 -90
c-13.333 -6 -26.666 -15.667 -39.999 -29h-20l-11 -10h51c39.333 6.66699 72.333 13 99 19c45.333 13.333 78.333 33.333 99 60c32 33.333 48 76.333 48 129v99l-217 238c-138 151.333 -286.333 151.333 -445 0v-436l128 -118v-229h-366v565z" />
    <glyph glyph-name="afii57450" unicode="&#x64a;" horiz-adv-x="1325" arabic-form="isolated" 
d="M333 763c0 158.667 -85.668 257.668 -257.001 297.001v-237c39.333 -20.667 59 -47.334 59 -80.001v-624l99 -119h762c-6 -0 -22.333 13.333 -49 40c-33.333 26 -50 52.333 -50 79v387l-119 119v217h59l60 -19l158 -159v-99c0 -33.333 -16 -63.333 -48 -90
c-13.333 -6 -26.666 -15.667 -39.999 -29h-20l-11 -10h51c39.333 6.66699 72.333 13 99 19c45.333 13.333 78.333 33.333 99 60c32 33.333 48 76.333 48 129v99l-217 238c-138 151.333 -286.333 151.333 -445 0v-436l128 -118v-229h-366v565z" />
    <glyph glyph-name="afii57506" unicode="&#x67e;" horiz-adv-x="1079" arabic-form="isolated" 
d="M200 0l-99 119.002v623c0 33.333 -19.667 59.666 -59 78.999v248c171.333 -46.667 257 -149.334 257 -308.001v-563h486v544c0 46.667 -19.667 73 -59 79v248c171.333 -20 257 -122.667 257 -308v-644c13.333 -46.667 50 -85.667 110 -117h-893zM560 -168.998
c0 66 29 99 87 99c73.333 0 110 -33 110 -99c0 -65.333 -36.667 -98 -110 -98c-58 0 -87 32.667 -87 98zM439 -365.998c0 66 33 99 99 99c64.667 0 97 -33 97 -99c0 -65.333 -32.333 -98 -97 -98c-66 0 -99 32.667 -99 98zM329 -168.998c0 66 33.333 99 100 99
c64.667 0 97 -33 97 -99c0 -65.333 -32.333 -98 -97 -98c-66.667 0 -100 32.667 -100 98z" />
    <glyph glyph-name="afii57507" unicode="&#x686;" horiz-adv-x="885" arabic-form="isolated" 
d="M828 0l-539.999 -1c0 5.33301 -3 -5 -9 -31c-13.333 -26.667 -20 -59.667 -20 -99c26 -105.333 114.667 -187.666 266 -246.999l139 -39l70 -11l-90 -9c-26.667 -7.33301 -56 -11 -88 -11h-99c-198 20.667 -323.333 106.667 -376 258c-13.333 26 -23.666 59 -30.999 99
c0 26 3.66699 56 11 90c0 26 3 48.667 9 68l11 30l99 99h345v544c0 20 -6.66699 39.667 -20 59c-12.667 7.33301 -32.334 17.666 -59.001 30.999l-139 -150v-277c0 -39.333 17 -68.666 51 -87.999c20 -16.667 33.667 -27 41 -31h-41c-40 0 -73 3.66699 -99 11
c-46.667 13.333 -83.334 29.666 -110.001 48.999c-32.667 33.333 -49 73 -49 119v307l306 297c218.667 0 328 -99 328 -297v-653c0 -26.667 16.333 -53 49 -79c21.333 -22 36.333 -34.667 45 -38zM574.001 -138c0 43.333 19 65 57 65c48 0 72 -21.667 72 -65
c0 -42.667 -24 -64 -72 -64c-38 0 -57 21.333 -57 64zM494.001 -268c0 44 21.667 66 65 66s65 -22 65 -66c0 -42.667 -21.667 -64 -65 -64s-65 21.333 -65 64zM422.001 -138c0 43.333 21.667 65 65 65c42.667 0 64 -21.667 64 -65c0 -42.667 -21.333 -64 -64 -64
c-43.333 0 -65 21.333 -65 64z" />
    <glyph glyph-name="afii57508" unicode="&#x698;" horiz-adv-x="579" arabic-form="isolated" 
d="M509 -59c0 -152.667 -69.666 -258.333 -208.999 -317c-46 -20 -95.333 -33 -148 -39l-70 -11l40 20c26 12.667 52.333 29.334 79 50.001c33.333 32.667 56.666 65.667 69.999 99c26.667 45.333 40 98 40 158v841c0 33.333 -20 59.666 -60 78.999v237
c172 -26 258 -125 258 -297v-820zM392.001 1324c72.667 0 109 -32.333 109 -97c0 -66.667 -36.333 -100 -109 -100c-58 0 -87 33.333 -87 100c0 64.667 29 97 87 97zM283.001 1521c64.667 0 97 -32.333 97 -97c0 -66.667 -32.333 -100 -97 -100
c-66.667 0 -100 33.333 -100 100c0 64.667 33.333 97 100 97zM173.001 1324c65.333 0 98 -32.333 98 -97c0 -66.667 -32.667 -100 -98 -100c-66 0 -99 33.333 -99 100c0 64.667 33 97 99 97z" />
    <glyph glyph-name="afii57509" unicode="&#x6af;" horiz-adv-x="1583" arabic-form="isolated" 
d="M864 1447c7.33301 -38 -6.33301 -68.667 -41 -92l-125 -124l-138 -137v141l304 329v-117zM259.001 0l-110 119.001v623c0 20 -6.33301 36.667 -19 50c-6 0 -12.667 3 -20 9l-20 20v237c178.667 -52.667 268 -151.667 268 -297v-563h907v524c0 26 -13 56 -39 90
c-32.667 32 -59 48 -79 48h-584v139l297 288c32.667 13.333 49 46.333 49 99l158 158c92.667 -165.333 79.667 -297.333 -39 -396l-99 -90h218c210.667 0 316 -105.333 316 -316v-623c13.333 -46.667 50 -86.334 110 -119.001h-1314z" />
    <glyph glyph-name="uniFB57" unicode="&#x67e;" horiz-adv-x="1079" arabic-form="final" 
d="M983 -79c0 -26 16.333 -52.3311 49 -78.998l50 -40h-50c-32.667 0 -65.667 6.66699 -99 20c-45.333 13.333 -78.333 33.333 -99 60c-32.667 26 -49 65.333 -49 118h-585l-99 119v623c0 33.333 -19.667 59.666 -59 78.999v248c171.333 -46.667 257 -149.334 257 -308.001
v-564h486v545c0 46.667 -19.667 73 -59 79v248c171.333 -20 257 -122.667 257 -308v-564h108v-197h-108v-79zM524 -168.998c0 66 29 99 87 99c73.333 0 110 -33 110 -99c0 -65.333 -36.667 -98 -110 -98c-58 0 -87 32.667 -87 98zM403 -365.998c0 66 33 99 99 99
c64.667 0 97 -33 97 -99c0 -65.333 -32.333 -98 -97 -98c-66 0 -99 32.667 -99 98zM293 -168.998c0 66 33.333 99 100 99c64.667 0 97 -33 97 -99c0 -65.333 -32.333 -98 -97 -98c-66.667 0 -100 32.667 -100 98z" />
    <glyph glyph-name="uniFB58" unicode="&#x67e;" horiz-adv-x="597" arabic-form="initial" 
d="M557 0h-572v198h270v535c0 39.333 -19.667 68.666 -59 87.999v237c178.667 -52.667 268 -151.667 268 -297v-642c0 -26.667 16 -53 48 -79c23.333 -23.333 38.333 -36.666 45 -39.999zM244 -170c0 66.667 29 100 87 100c73.333 0 110 -33.333 110 -100
c0 -64.667 -36.667 -97 -110 -97c-58 0 -87 32.333 -87 97zM123 -367c0 66.667 33 100 99 100c64.667 0 97 -33.333 97 -100c0 -64.667 -32.333 -97 -97 -97c-66 0 -99 32.333 -99 97zM13 -170c0 66.667 33.333 100 100 100c64.667 0 97 -33.333 97 -100
c0 -64.667 -32.333 -97 -97 -97c-66.667 0 -100 32.333 -100 97z" />
    <glyph glyph-name="uniFB59" unicode="&#x67e;" horiz-adv-x="499" arabic-form="medial" 
d="M514 0h-529v198h212v554c0 34 -19.667 60.667 -59 80v237c171.333 -39.333 257 -138.333 257 -297v-574h119v-198zM244 -170c0 66.667 29 100 87 100c73.333 0 110 -33.333 110 -100c0 -64.667 -36.667 -97 -110 -97c-58 0 -87 32.333 -87 97zM123 -367
c0 66.667 33 100 99 100c64.667 0 97 -33.333 97 -100c0 -64.667 -32.333 -97 -97 -97c-66 0 -99 32.333 -99 97zM13 -170c0 66.667 33.333 100 100 100c64.667 0 97 -33.333 97 -100c0 -64.667 -32.333 -97 -97 -97c-66.667 0 -100 32.333 -100 97z" />
    <glyph glyph-name="uniFB7B" unicode="&#x686;" horiz-adv-x="848" arabic-form="final" 
d="M438 288l-41 -0.00195312c-32.667 0 -65.667 6.66699 -99 20c-45.333 6 -78.333 22 -99 48c-32.667 26.667 -49 63.334 -49 110.001v297l297 306c217.333 0 326 -102 326 -306v-565h99v-198h-543c0 7.33301 -3.66699 -2 -11 -28c-6 -26.667 -9 -56.667 -9 -90
c26 -106 111.667 -188.333 257 -247c46 -13.333 95.333 -26.666 148 -39.999l59 -10l-79 -9c-32.667 -7.33301 -62 -11 -88 -11c-40 0 -76.667 3.66699 -110 11c-190.667 18.667 -312.334 100.667 -365.001 246c-13.333 26.667 -23.666 59.667 -30.999 99
c0 26.667 3.66699 56.667 11 90c0 26 3 48.667 9 68l11 31l99 99h336v534c0 40 -26.333 66.667 -79 80l-139 -139v-277c0 -34 16.333 -64 49 -90c19.333 -16 33 -25.667 41 -29zM629 -138.002c0 43.333 19.333 65 58 65c48 0 72 -21.667 72 -65c0 -42.667 -24 -64 -72 -64
c-38.667 0 -58 21.333 -58 64zM549 -268.002c0 44 22 66 66 66c42.667 0 64 -22 64 -66c0 -42.667 -21.333 -64 -64 -64c-44 0 -66 21.333 -66 64zM477 -138.002c0 43.333 22 65 66 65c42.667 0 64 -21.667 64 -65c0 -42.667 -21.333 -64 -64 -64c-44 0 -66 21.333 -66 64z
" />
    <glyph glyph-name="uniFB7C" unicode="&#x686;" horiz-adv-x="866" arabic-form="initial" 
d="M831 0l-846 -0.000976562v198h554v524c0 46.667 -23.333 79.667 -70 99l-158 -139v-286c0 -33.333 23.333 -63.333 70 -90c22.667 -15.333 39 -25 49 -29h-40c-39.333 0 -75.333 6.66699 -108 20c-112.667 26.667 -169 79.334 -169 158.001v306l327 297
c198 0 297 -99 297 -297v-642c0 -26.667 16.333 -53 49 -79c21.333 -22 36.333 -35.333 45 -40zM442 -171.001c0 66 29 99 87 99c72.667 0 109 -33 109 -99c0 -64.667 -36.333 -97 -109 -97c-58 0 -87 32.333 -87 97zM320 -368.001c0 66.667 33.333 100 100 100
c64.667 0 97 -33.333 97 -100c0 -64.667 -32.333 -97 -97 -97c-66.667 0 -100 32.333 -100 97zM211 -171.001c0 66 33 99 99 99c65.333 0 98 -33 98 -99c0 -64.667 -32.667 -97 -98 -97c-66 0 -99 32.333 -99 97z" />
    <glyph glyph-name="uniFB7D" unicode="&#x686;" horiz-adv-x="842" arabic-form="medial" 
d="M737 198l119 -0.000976562v-198h-871v198h554v524c0 46.667 -19.667 79.667 -59 99l-167 -139v-277c0 -32.667 19.667 -62 59 -88c26.667 -20.667 38.167 -31 34.5 -31h-25.5c-39.333 0 -75.333 3.66699 -108 11c-105.333 26.667 -158 82.334 -158 167.001v297l325 308
c198 0 297 -102.667 297 -308v-563zM442 -171.001c0 66 29 99 87 99c72.667 0 109 -33 109 -99c0 -64.667 -36.333 -97 -109 -97c-58 0 -87 32.333 -87 97zM320 -368.001c0 66.667 33.333 100 100 100c64.667 0 97 -33.333 97 -100c0 -64.667 -32.333 -97 -97 -97
c-66.667 0 -100 32.333 -100 97zM211 -171.001c0 66 33 99 99 99c65.333 0 98 -33 98 -99c0 -64.667 -32.667 -97 -98 -97c-66 0 -99 32.333 -99 97z" />
    <glyph glyph-name="uniFB8B" unicode="&#x698;" horiz-adv-x="608" arabic-form="final" 
d="M509 198l154.001 0.000976562v-198h-154v-59c0 -152.667 -69.667 -258.334 -209 -317.001c-46 -20 -95.333 -33 -148 -39l-70 -11l40 20c26 12.667 52.333 29.334 79 50.001c33.333 32.667 56.666 65.667 69.999 99c26.667 45.333 40 98 40 158v841
c0 33.333 -20 59.666 -60 78.999v237c172 -26 258 -125 258 -297v-563zM392.001 1324c72.667 0 109 -32.333 109 -97c0 -66.667 -36.333 -100 -109 -100c-58 0 -87 33.333 -87 100c0 64.667 29 97 87 97zM283.001 1521c64.667 0 97 -32.333 97 -97
c0 -66.667 -32.333 -100 -97 -100c-66.667 0 -100 33.333 -100 100c0 64.667 33.333 97 100 97zM173.001 1324c65.333 0 98 -32.333 98 -97c0 -66.667 -32.667 -100 -98 -100c-66 0 -99 33.333 -99 100c0 64.667 33 97 99 97z" />
    <glyph glyph-name="uniFB8F" unicode="&#x6a9;" horiz-adv-x="1523" arabic-form="final" 
d="M259 0l-110 119v623c0 20 -6.33301 36.667 -19 50c-6 0 -12.667 3 -20 9l-20 20v237c178.667 -52.667 268 -151.667 268 -297v-563h879v524c0 33.333 -13.333 66.333 -40 99c-32.667 33.333 -59 50 -79 50h-583v139l297 277c26 13.333 39 46.333 39 99l168 167
c99.333 -171.333 86 -306.333 -40 -405l-108 -79h227c211.333 0 317 -105.667 317 -317v-554h127v-198h-127v-79c0 -33.333 16.667 -63.333 50 -90c18 -14 31.333 -23.667 40 -29h-40c-33.333 0 -70.833 3.33301 -112.5 10s-74.667 26.5 -99 59.5s-36.5 72.5 -36.5 118.5v10
h-978z" />
    <glyph glyph-name="uniFB90" unicode="&#x6a9;" horiz-adv-x="1155" arabic-form="initial" 
d="M798 198v524.001c0 26 -13.333 56 -40 90c-32.667 32 -59 48 -79 48h-583v139l297 288c32 13.333 48 46.333 48 99l159 158c92 -165.333 78.667 -297.333 -40 -396l-99 -90h218c211.333 0 317 -105.333 317 -316v-623c12.667 -46.667 49 -86.334 109 -119.001h-1148v198
h841z" />
    <glyph glyph-name="uniFB91" unicode="&#x6a9;" horiz-adv-x="1102" arabic-form="medial" 
d="M1094 -198h-40.001c-33.333 0 -70.666 3.33301 -111.999 10s-74.333 26.5 -99 59.5s-37 72.5 -37 118.5v10h-821v197h821v525c0 33.333 -13.333 66.333 -40 99c-32 33.333 -58.333 50 -79 50h-583v139l297 277c26 13.333 39 46.333 39 99l168 167
c99.333 -171.333 86 -306.333 -40 -405l-108 -79h227c211.333 0 317 -105.667 317 -317v-555h110v-197h-110v-79c0 -33.333 16.667 -63.333 50 -90c18 -14 31.333 -23.667 40 -29z" />
    <glyph glyph-name="uniFB93" unicode="&#x6af;" horiz-adv-x="1523" arabic-form="final" 
d="M259 0l-110 119v623c0 20 -6.33301 36.667 -19 50c-6 0 -12.667 3 -20 9l-20 20v237c178.667 -52.667 268 -151.667 268 -297v-563h879v524c0 33.333 -13.333 66.333 -40 99c-32.667 33.333 -59 50 -79 50h-583v139l297 277c26 13.333 39 46.333 39 99l168 167
c99.333 -171.333 86 -306.333 -40 -405l-108 -79h227c211.333 0 317 -105.667 317 -317v-554h127v-198h-127v-79c0 -33.333 16.667 -63.333 50 -90c18 -14 31.333 -23.667 40 -29h-40c-33.333 0 -70.833 3.33301 -112.5 10s-74.667 26.5 -99 59.5s-36.5 72.5 -36.5 118.5v10
h-978zM828 1447c7.33301 -38 -6.33301 -68.667 -41 -92l-125 -124l-138 -137v141l304 329v-117z" />
    <glyph glyph-name="uniFB94" unicode="&#x6af;" horiz-adv-x="1155" arabic-form="initial" 
d="M396 1447c6.66699 -38 -7 -68.667 -41 -92l-125 -124l-138 -136v139l304 331v-118zM-43 0v198.001h841v524c0 26 -13.333 56 -40 90c-32.667 32 -59 48 -79 48h-583v139l297 288c32 13.333 48 46.333 48 99l159 158c92 -165.333 78.667 -297.333 -40 -396l-99 -90h218
c211.333 0 317 -105.333 317 -316v-623c12.667 -46.667 49 -86.334 109 -119.001h-1148z" />
    <glyph glyph-name="uniFB95" unicode="&#x6af;" horiz-adv-x="1102" arabic-form="medial" 
d="M1094 -198h-40.001c-33.333 0 -70.666 3.33301 -111.999 10s-74.333 26.5 -99 59.5s-37 72.5 -37 118.5v10h-821v199h821v523c0 33.333 -13.333 66.333 -40 99c-32 33.333 -58.333 50 -79 50h-583v139l297 277c26 13.333 39 46.333 39 99l168 167
c99.333 -171.333 86 -306.333 -40 -405l-108 -79h227c211.333 0 317 -105.667 317 -317v-553h110v-199h-110v-79c0 -33.333 16.667 -63.333 50 -90c18 -14 31.333 -23.667 40 -29zM396.999 1447c6.66699 -38 -7 -68.667 -41 -92l-125 -124l-138 -136v139l304 331v-118z" />
    <glyph glyph-name="uniFBA5" unicode="&#x6c0;" horiz-adv-x="790" arabic-form="final" 
d="M280 198h218v524c0 46.667 -20 79.667 -60 99l-158 -139v-484zM793 -196l-47.001 -1.99902c-33.333 0 -69.833 6.66699 -109.5 20s-72.667 33.166 -99 59.499s-39.5 65.833 -39.5 118.5h-326l-90 99v662l317 297c198 0 297 -99 297 -297v-563h110v-198h-110v-79
c0 -26 16.667 -52.333 50 -79c20.667 -21.333 36.334 -34 47.001 -38zM167.999 1202c-23.333 0 -41.3311 18.333 -53.998 55c-10.667 23.333 -16 40.333 -16 51c2 -15.333 25.333 -27 70 -35v175l141 105c93.333 0 140 -46.667 140 -140v-70
c0 -10.667 5.33301 -27.667 16 -51l19 -19c0 -10.667 -23.333 -4.33398 -70 18.999c-46.667 10.667 -70 39.334 -70 86.001v35c0 23.333 -11.667 35 -35 35l-35 -35v-140h70c57.333 0 104 -35.333 140 -106h-105c-12.667 0 -24.334 6.33301 -35.001 19
c-12.667 10.667 -24.334 16 -35.001 16h-141z" />
    <glyph glyph-name="uniFBFD" unicode="&#x6cc;" horiz-adv-x="1334" arabic-form="final" 
d="M964 2c0 -1.33301 -2 -1.33301 -6 0h6zM958 0h-758l-99 119v623c0 39.333 -19.667 65.666 -59 78.999v248c171.333 -26 257 -128.667 257 -308v-563h368v227l-119 119v446c151.333 124.667 290 124.667 416 0l266 -268v-524h119v-198h-198l-119 119v504l-88 99l-99 99
c-26.667 13.333 -59.667 20 -99 20v-218l119 -119v-385c0 -26.667 16 -53 48 -79c22.667 -23.333 37.667 -36.666 45 -39.999z" />
    <glyph glyph-name="uniFBFE" unicode="&#x6cc;" horiz-adv-x="587" arabic-form="initial" 
d="M547 0h-590v198h288v535c0 39.333 -19.667 68.666 -59 87.999v237c178.667 -52.667 268 -151.667 268 -297v-642c0 -26.667 16 -53 48 -79c23.333 -23.333 38.333 -36.666 45 -39.999zM38 -175c0 70 37.667 105 113 105c61.333 0 92 -35 92 -105
c0 -66.667 -30.667 -100 -92 -100c-75.333 0 -113 33.333 -113 100zM265 -175c0 70 38.333 105 115 105c60 0 90 -35 90 -105c0 -66.667 -30 -100 -90 -100c-76.667 0 -115 33.333 -115 100z" />
    <glyph glyph-name="uniFBFF" unicode="&#x6cc;" horiz-adv-x="499" arabic-form="medial" 
d="M514 0h-547v198h230v554c0 34 -19.667 60.667 -59 80v237c171.333 -39.333 257 -138.333 257 -297v-574h119v-198zM28 -175c0 70 38 105 114 105c60.667 0 91 -35 91 -105c0 -66.667 -30.333 -100 -91 -100c-76 0 -114 33.333 -114 100zM255 -175
c0 70 38.333 105 115 105c60 0 90 -35 90 -105c0 -66.667 -30 -100 -90 -100c-76.667 0 -115 33.333 -115 100z" />
    <glyph glyph-name="uniFE82" unicode="&#x622;" horiz-adv-x="431" arabic-form="final" 
d="M328 198h155v-198h-254l-99 119v1109c0 32 -19.667 58.333 -59 79v237c171.333 -20 257 -119 257 -297v-1049zM43 1615c-16.667 0 -31.667 -10.999 -45 -32.999c-9.33301 -12 -15.666 -20.667 -18.999 -26v26c0 25.333 2 46.666 6 63.999
c8.66699 30.667 19.667 54.334 33 71.001c20.667 21.333 46.334 32 77.001 32h272c16.667 0 31.667 11 45 33c9.33301 11.333 15.666 19.666 18.999 24.999v-25c0 -26 -2 -47.667 -6 -65c-8.66699 -30 -19.667 -53.667 -33 -71c-20.667 -20.667 -46.334 -31 -77.001 -31
h-272z" />
    <glyph glyph-name="uniFE84" unicode="&#x623;" horiz-adv-x="431" arabic-form="final" 
d="M328 198h155v-198h-254l-99 119v1109c0 32 -20 58.333 -60 79v237c172 -20 258 -119 258 -297v-1049zM77 1616c-16 0 -28.332 12.334 -36.999 37.001c-7.33301 16 -11 27.667 -11 35c1.33301 -10 17.333 -18 48 -24v119l95 71c63.333 0 95 -31.667 95 -95v-48
c0 -6.66699 3.33301 -18 10 -34l13 -13c0 -7.33301 -15.667 -3 -47 13c-32 7.33301 -48 26.666 -48 57.999v24c0 16 -7.66699 24 -23 24l-24 -24v-95h47c39.333 0 71 -23.667 95 -71h-71c-8.66699 0 -16.667 4.33301 -24 13c-8.66699 6.66699 -16.334 10 -23.001 10h-95z
" />
    <glyph glyph-name="uniFE86" unicode="&#x624;" horiz-adv-x="784" arabic-form="final" 
d="M265 684l167 139c39.333 -7.33301 59 -37.333 59 -90v-524h-226v475zM689 763c0 204 -101.999 306 -305.999 306l-316 -306v-653l99 -110h325v-99c0 -52.667 -9.33301 -101.667 -28 -147c-20.667 -34 -47.334 -67 -80.001 -99c-52.667 -46.667 -92 -70 -118 -70h19
c19.333 0 35.666 3.33301 48.999 10c52.667 6 102.334 19.333 149.001 40c138 52.667 207 154.667 207 306v59h139v198h-139v565zM97.001 1292c-23.333 0 -41.3311 18.333 -53.998 55c-10.667 23.333 -16 40.333 -16 51c2 -15.333 25.333 -27 70 -35v175l141 105
c93.333 0 140 -46.667 140 -140v-70c0 -10.667 5.33301 -27.667 16 -51l19 -19c0 -10.667 -23.333 -4.33398 -70 18.999c-46.667 10.667 -70 39.334 -70 86.001v35c0 23.333 -11.667 35 -35 35l-35 -35v-140h70c57.333 0 104 -35.333 140 -106h-105
c-12.667 0 -24.334 6.33301 -35.001 19c-12.667 10.667 -24.334 16 -35.001 16h-141z" />
    <glyph glyph-name="uniFE88" unicode="&#x625;" horiz-adv-x="432" arabic-form="final" 
d="M328 198h155v-198h-254l-99 119v1109c0 32 -19.667 58.333 -59 79v237c171.333 -20 257 -119 257 -297v-1049zM156 -326c-15.333 0 -27.334 12.001 -36.001 36.001c-7.33301 16 -11 27.667 -11 35c1.33301 -10 17 -18 47 -24v119l95 71c63.333 0 95 -31.667 95 -95v-47
c0 -7.33301 3.66699 -19 11 -35l13 -13c0 -7.33301 -15.667 -3 -47 13c-32 7.33301 -48 26.666 -48 57.999v24c0 16 -8 24 -24 24l-23 -24v-95h47c38.667 0 70.334 -23.667 95.001 -71h-71c-8.66699 0 -16.667 4.33301 -24 13c-8.66699 7.33301 -16.667 11 -24 11h-95z" />
    <glyph glyph-name="uniFE8A" unicode="&#x626;" horiz-adv-x="1334" arabic-form="final" 
d="M964 2c0 -1.33301 -2 -1.33301 -6 0h6zM958 0h-758l-99 119v623c0 39.333 -19.667 65.666 -59 78.999v248c171.333 -26 257 -128.667 257 -308v-563h368v227l-119 119v446c151.333 124.667 290 124.667 416 0l266 -268v-524h119v-198h-198l-119 119v504l-88 99l-99 99
c-26.667 13.333 -59.667 20 -99 20v-218l119 -119v-385c0 -26.667 16 -53 48 -79c22.667 -23.333 37.667 -36.666 45 -39.999zM94 1103c-23.333 0 -41.3311 18.333 -53.998 55c-10.667 23.333 -16 40.333 -16 51c2 -15.333 25.333 -27 70 -35v175l141 105
c93.333 0 140 -46.667 140 -140v-70c0 -10.667 5.33301 -27.667 16 -51l19 -19c0 -10.667 -23.333 -4.33398 -70 18.999c-46.667 10.667 -70 39.334 -70 86.001v35c0 23.333 -11.667 35 -35 35l-35 -35v-140h70c57.333 0 104 -35.333 140 -106h-105
c-12.667 0 -24.334 6.33301 -35.001 19c-12.667 10.667 -24.334 16 -35.001 16h-141z" />
    <glyph glyph-name="uniFE8B" unicode="&#x626;" horiz-adv-x="636" arabic-form="initial" 
d="M596 0h-626v198h324v535c0 39.333 -19.667 68.666 -59 87.999v237c178.667 -52.667 268 -151.667 268 -297v-642c0 -26.667 16 -53 48 -79c23.333 -23.333 38.333 -36.666 45 -39.999zM78 1202c-23.333 0 -41.333 18.333 -54 55c-10.667 23.333 -16 40.333 -16 51
c2 -15.333 25.333 -27 70 -35v175l140 105c94 0 141 -46.667 141 -140v-70c0 -10.667 5.33301 -27.667 16 -51l19 -19c0 -10.667 -23.333 -4.33398 -70 18.999c-46.667 10.667 -70 39.334 -70 86.001v35c0 23.333 -12 35 -36 35l-35 -35v-140h71
c57.333 0 104 -35.333 140 -106h-105c-13.333 0 -25 6.33301 -35 19c-13.333 10.667 -25.333 16 -36 16h-140z" />
    <glyph glyph-name="uniFE8C" unicode="&#x626;" horiz-adv-x="558" arabic-form="medial" 
d="M573 0h-601v198h284v554c0 34 -19.667 60.667 -59 80v237c171.333 -39.333 257 -138.333 257 -297v-574h119v-198zM118 1202c-23.333 0 -41.3311 18.333 -53.998 55c-10.667 23.333 -16 40.333 -16 51c2 -15.333 25.333 -27 70 -35v175l140 105
c94 0 141 -46.667 141 -140v-70c0 -10.667 5.33301 -27.667 16 -51l19 -19c0 -10.667 -23.333 -4.33398 -70 18.999c-47.333 10.667 -71 39.334 -71 86.001v35c0 23.333 -11.667 35 -35 35l-35 -35v-140h70c57.333 0 104.333 -35.333 141 -106h-106
c-12.667 0 -24.334 6.33301 -35.001 19c-12.667 10.667 -24.334 16 -35.001 16h-140z" />
    <glyph glyph-name="uniFE8E" unicode="&#x627;" horiz-adv-x="432" arabic-form="final" 
d="M328 198h155v-198h-254l-99 119v1109c0 32 -19.667 58.333 -59 79v237c171.333 -20 257 -119 257 -297v-1049z" />
    <glyph glyph-name="uniFE90" unicode="&#x628;" horiz-adv-x="1079" arabic-form="final" 
d="M983 -79c0 -26 16.333 -52.3311 49 -78.998l50 -40h-50c-32.667 0 -65.667 6.66699 -99 20c-45.333 13.333 -78.333 33.333 -99 60c-32.667 26 -49 65.333 -49 118h-585l-99 119v623c0 33.333 -19.667 59.666 -59 78.999v248c171.333 -46.667 257 -149.334 257 -308.001
v-564h486v545c0 46.667 -19.667 73 -59 79v248c171.333 -20 257 -122.667 257 -308v-564h108v-197h-108v-79zM506 -70.998c73.333 0 110 -33 110 -99s-36.667 -99 -110 -99c-66 0 -99 33 -99 99s33 99 99 99z" />
    <glyph glyph-name="uniFE91" unicode="&#x628;" horiz-adv-x="528" arabic-form="initial" 
d="M488 0h-500v198h198v535c0 39.333 -19.667 68.666 -59 87.999v237c178.667 -52.667 268 -151.667 268 -297v-642c0 -26.667 16 -53 48 -79c23.333 -23.333 38.333 -36.666 45 -39.999zM218 -72c73.333 0 110 -33 110 -99s-36.667 -99 -110 -99c-66 0 -99 33 -99 99
s33 99 99 99z" />
    <glyph glyph-name="uniFE92" unicode="&#x628;" horiz-adv-x="450" arabic-form="medial" 
d="M465 0h-475v198h158v554c0 34 -19.667 60.667 -59 80v237c171.333 -39.333 257 -138.333 257 -297v-574h119v-198zM219 -72c72.667 0 109 -33 109 -99s-36.333 -99 -109 -99c-66 0 -99 33 -99 99s33 99 99 99z" />
    <glyph glyph-name="uniFE96" unicode="&#x62a;" horiz-adv-x="1079" arabic-form="final" 
d="M983 -79c0 -26 16.333 -52.3311 49 -78.998l50 -40h-50c-32.667 0 -65.667 6.66699 -99 20c-45.333 13.333 -78.333 33.333 -99 60c-32.667 26 -49 65.333 -49 118h-585l-99 119v623c0 33.333 -19.667 59.666 -59 78.999v248c171.333 -46.667 257 -149.334 257 -308.001
v-564h486v545c0 46.667 -19.667 73 -59 79v248c171.333 -20 257 -122.667 257 -308v-564h108v-197h-108v-79zM591 1336c66 0 99 -33 99 -99c0 -72 -33 -108 -99 -108c-73.333 0 -110 36 -110 108c0 66 36.667 99 110 99zM362 1336c66 0 99 -33 99 -99
c0 -72 -33 -108 -99 -108s-99 36 -99 108c0 66 33 99 99 99z" />
    <glyph glyph-name="uniFE97" unicode="&#x62a;" horiz-adv-x="528" arabic-form="initial" 
d="M488 0h-500v198h198v535c0 39.333 -19.667 68.666 -59 87.999v237c178.667 -52.667 268 -151.667 268 -297v-642c0 -26.667 16 -53 48 -79c23.333 -23.333 38.333 -36.666 45 -39.999zM371 1336c66 0 99 -33 99 -99c0 -72 -33 -108 -99 -108c-72.667 0 -109 36 -109 108
c0 66 36.333 99 109 99zM143 1336c66 0 99 -33 99 -99c0 -72 -33 -108 -99 -108s-99 36 -99 108c0 66 33 99 99 99z" />
    <glyph glyph-name="uniFE98" unicode="&#x62a;" horiz-adv-x="518" arabic-form="medial" 
d="M533 0h-565v198h248v554c0 34 -19.667 60.667 -59 80v237c171.333 -39.333 257 -138.333 257 -297v-574h119v-198zM368 1336c66 0 99 -33 99 -99c0 -72 -33 -108 -99 -108c-73.333 0 -110 36 -110 108c0 66 36.667 99 110 99zM139 1336c66 0 99 -33 99 -99
c0 -72 -33 -108 -99 -108s-99 36 -99 108c0 66 33 99 99 99z" />
    <glyph glyph-name="uniFE9A" unicode="&#x62b;" horiz-adv-x="1079" arabic-form="final" 
d="M983 -79c0 -26 16.333 -52.3311 49 -78.998l50 -40h-50c-32.667 0 -65.667 6.66699 -99 20c-45.333 13.333 -78.333 33.333 -99 60c-32.667 26 -49 65.333 -49 118h-585l-99 119v623c0 33.333 -19.667 59.666 -59 78.999v248c171.333 -46.667 257 -149.334 257 -308.001
v-564h486v545c0 46.667 -19.667 73 -59 79v248c171.333 -20 257 -122.667 257 -308v-564h108v-197h-108v-79zM536 1325c72.667 0 109 -32.333 109 -97c0 -66.667 -36.333 -100 -109 -100c-58.667 0 -88 33.333 -88 100c0 64.667 29.333 97 88 97zM426 1522
c65.333 0 98 -32.333 98 -97c0 -66.667 -32.667 -100 -98 -100c-66 0 -99 33.333 -99 100c0 64.667 33 97 99 97zM317 1325c64.667 0 97 -32.333 97 -97c0 -66.667 -32.333 -100 -97 -100c-66 0 -99 33.333 -99 100c0 64.667 33 97 99 97z" />
    <glyph glyph-name="uniFE9B" unicode="&#x62b;" horiz-adv-x="608" arabic-form="initial" 
d="M568 0h-608v198h306v535c0 39.333 -19.667 68.666 -59 87.999v237c178.667 -52.667 268 -151.667 268 -297v-642c0 -26.667 16 -53 48 -79c23.333 -23.333 38.333 -36.666 45 -39.999zM378 1326c72.667 0 109 -32.333 109 -97c0 -66.667 -36.333 -100 -109 -100
c-58 0 -87 33.333 -87 100c0 64.667 29 97 87 97zM269 1523c64.667 0 97 -32.333 97 -97c0 -66.667 -32.333 -100 -97 -100c-66.667 0 -100 33.333 -100 100c0 64.667 33.333 97 100 97zM159 1326c65.333 0 98 -32.333 98 -97c0 -66.667 -32.667 -100 -98 -100
c-66 0 -99 33.333 -99 100c0 64.667 33 97 99 97z" />
    <glyph glyph-name="uniFE9C" unicode="&#x62b;" horiz-adv-x="518" arabic-form="medial" 
d="M533 0h-565v198h248v554c0 34 -19.667 60.667 -59 80v237c171.333 -39.333 257 -138.333 257 -297v-574h119v-198zM373 1326c73.333 0 110 -32.333 110 -97c0 -66.667 -36.667 -100 -110 -100c-58 0 -87 33.333 -87 100c0 64.667 29 97 87 97zM264 1523
c65.333 0 98 -32.333 98 -97c0 -66.667 -32.667 -100 -98 -100c-66 0 -99 33.333 -99 100c0 64.667 33 97 99 97zM155 1326c64.667 0 97 -32.333 97 -97c0 -66.667 -32.333 -100 -97 -100c-66.667 0 -100 33.333 -100 100c0 64.667 33.333 97 100 97z" />
    <glyph glyph-name="uniFE9E" unicode="&#x62c;" horiz-adv-x="848" arabic-form="final" 
d="M438 288l-41 -0.00195312c-32.667 0 -65.667 6.66699 -99 20c-45.333 6 -78.333 22 -99 48c-32.667 26.667 -49 63.334 -49 110.001v297l297 306c217.333 0 326 -102 326 -306v-565h99v-198h-543c0 7.33301 -3.66699 -2 -11 -28c-6 -26.667 -9 -56.667 -9 -90
c26 -106 111.667 -188.333 257 -247c46 -13.333 95.333 -26.666 148 -39.999l59 -10l-79 -9c-32.667 -7.33301 -62 -11 -88 -11c-40 0 -76.667 3.66699 -110 11c-190.667 18.667 -312.334 100.667 -365.001 246c-13.333 26.667 -23.666 59.667 -30.999 99
c0 26.667 3.66699 56.667 11 90c0 26 3 48.667 9 68l11 31l99 99h336v534c0 40 -26.333 66.667 -79 80l-139 -139v-277c0 -34 16.333 -64 49 -90c19.333 -16 33 -25.667 41 -29zM581 -70.002c66 0 99 -36.667 99 -110c0 -66 -33 -99 -99 -99c-72 0 -108 33 -108 99
c0 73.333 36 110 108 110z" />
    <glyph glyph-name="uniFE9F" unicode="&#x62c;" horiz-adv-x="866" arabic-form="initial" 
d="M831 0l-846 -0.000976562v198h554v524c0 46.667 -23.333 79.667 -70 99l-158 -139v-286c0 -33.333 23.333 -63.333 70 -90c22.667 -15.333 39 -25 49 -29h-40c-39.333 0 -75.333 6.66699 -108 20c-112.667 26.667 -169 79.334 -169 158.001v306l327 297
c198 0 297 -99 297 -297v-642c0 -26.667 16.333 -53 49 -79c21.333 -22 36.333 -35.333 45 -40zM448 -70.001c66 0 99 -36.667 99 -110c0 -66 -33 -99 -99 -99c-72 0 -108 33 -108 99c0 73.333 36 110 108 110z" />
    <glyph glyph-name="uniFEA0" unicode="&#x62c;" horiz-adv-x="842" arabic-form="medial" 
d="M737 198l119 -0.000976562v-198h-871v198h554v524c0 46.667 -19.667 79.667 -59 99l-167 -139v-277c0 -32.667 19.667 -62 59 -88c26.667 -20.667 38.167 -31 34.5 -31h-25.5c-39.333 0 -75.333 3.66699 -108 11c-105.333 26.667 -158 82.334 -158 167.001v297l325 308
c198 0 297 -102.667 297 -308v-563zM448 -70.001c66 0 99 -36.667 99 -110c0 -66 -33 -99 -99 -99c-72 0 -108 33 -108 99c0 73.333 36 110 108 110z" />
    <glyph glyph-name="uniFEA2" unicode="&#x62d;" horiz-adv-x="848" arabic-form="final" 
d="M438 288l-41 -0.00195312c-32.667 0 -65.667 6.66699 -99 20c-45.333 6 -78.333 22 -99 48c-32.667 26.667 -49 63.334 -49 110.001v297l297 306c217.333 0 326 -102 326 -306v-565h99v-198h-543c0 7.33301 -3.66699 -2 -11 -28c-6 -26.667 -9 -56.667 -9 -90
c26 -106 111.667 -188.333 257 -247c46 -13.333 95.333 -26.666 148 -39.999l59 -10l-79 -9c-32.667 -7.33301 -62 -11 -88 -11c-40 0 -76.667 3.66699 -110 11c-190.667 18.667 -312.334 100.667 -365.001 246c-13.333 26.667 -23.666 59.667 -30.999 99
c0 26.667 3.66699 56.667 11 90c0 26 3 48.667 9 68l11 31l99 99h336v534c0 40 -26.333 66.667 -79 80l-139 -139v-277c0 -34 16.333 -64 49 -90c19.333 -16 33 -25.667 41 -29z" />
    <glyph glyph-name="uniFEA3" unicode="&#x62d;" horiz-adv-x="866" arabic-form="initial" 
d="M831 0l-846 -0.000976562v198h554v524c0 46.667 -23.333 79.667 -70 99l-158 -139v-286c0 -33.333 23.333 -63.333 70 -90c22.667 -15.333 39 -25 49 -29h-40c-39.333 0 -75.333 6.66699 -108 20c-112.667 26.667 -169 79.334 -169 158.001v306l327 297
c198 0 297 -99 297 -297v-642c0 -26.667 16.333 -53 49 -79c21.333 -22 36.333 -35.333 45 -40z" />
    <glyph glyph-name="uniFEA4" unicode="&#x62d;" horiz-adv-x="842" arabic-form="medial" 
d="M737 198l119 -0.000976562v-198h-871v198h554v524c0 46.667 -19.667 79.667 -59 99l-167 -139v-277c0 -32.667 19.667 -62 59 -88c26.667 -20.667 38.167 -31 34.5 -31h-25.5c-39.333 0 -75.333 3.66699 -108 11c-105.333 26.667 -158 82.334 -158 167.001v297l325 308
c198 0 297 -102.667 297 -308v-563z" />
    <glyph glyph-name="uniFEA6" unicode="&#x62e;" horiz-adv-x="848" arabic-form="final" 
d="M438 288l-41 -0.00195312c-32.667 0 -65.667 6.66699 -99 20c-45.333 6 -78.333 22 -99 48c-32.667 26.667 -49 63.334 -49 110.001v297l297 306c217.333 0 326 -102 326 -306v-565h99v-198h-543c0 7.33301 -3.66699 -2 -11 -28c-6 -26.667 -9 -56.667 -9 -90
c26 -106 111.667 -188.333 257 -247c46 -13.333 95.333 -26.666 148 -39.999l59 -10l-79 -9c-32.667 -7.33301 -62 -11 -88 -11c-40 0 -76.667 3.66699 -110 11c-190.667 18.667 -312.334 100.667 -365.001 246c-13.333 26.667 -23.666 59.667 -30.999 99
c0 26.667 3.66699 56.667 11 90c0 26 3 48.667 9 68l11 31l99 99h336v534c0 40 -26.333 66.667 -79 80l-139 -139v-277c0 -34 16.333 -64 49 -90c19.333 -16 33 -25.667 41 -29zM503 1337c66 0 99 -36.667 99 -110c0 -66 -33 -99 -99 -99c-72 0 -108 33 -108 99
c0 73.333 36 110 108 110z" />
    <glyph glyph-name="uniFEA7" unicode="&#x62e;" horiz-adv-x="866" arabic-form="initial" 
d="M831 0l-846 -0.000976562v198h554v524c0 46.667 -23.333 79.667 -70 99l-158 -139v-286c0 -33.333 23.333 -63.333 70 -90c22.667 -15.333 39 -25 49 -29h-40c-39.333 0 -75.333 6.66699 -108 20c-112.667 26.667 -169 79.334 -169 158.001v306l327 297
c198 0 297 -99 297 -297v-642c0 -26.667 16.333 -53 49 -79c21.333 -22 36.333 -35.333 45 -40zM503 1337c66 0 99 -36.667 99 -110c0 -66 -33 -99 -99 -99c-72 0 -108 33 -108 99c0 73.333 36 110 108 110z" />
    <glyph glyph-name="uniFEA8" unicode="&#x62e;" horiz-adv-x="842" arabic-form="medial" 
d="M737 198l119 -0.000976562v-198h-871v198h554v524c0 46.667 -19.667 79.667 -59 99l-167 -139v-277c0 -32.667 19.667 -62 59 -88c26.667 -20.667 38.167 -31 34.5 -31h-25.5c-39.333 0 -75.333 3.66699 -108 11c-105.333 26.667 -158 82.334 -158 167.001v297l325 308
c198 0 297 -102.667 297 -308v-563zM503 1337c66 0 99 -36.667 99 -110c0 -66 -33 -99 -99 -99c-72 0 -108 33 -108 99c0 73.333 36 110 108 110z" />
    <glyph glyph-name="uniFEAA" unicode="&#x62f;" horiz-adv-x="878" arabic-form="final" 
d="M82 286c8.66699 4 23.001 14.333 43.001 31c32.667 26 49 55.333 49 88v356c0 205.333 109 308 327 308l297 -308v-563h119v-198h-119v-79c0 -26 16.333 -52.333 49 -79c22.667 -21.333 37.667 -34 45 -38l-45 -2c-32.667 0 -68.667 6.66699 -108 20
s-72.333 33.166 -99 59.499s-40 65.833 -40 118.5h-118c-40 0 -76.667 -19.667 -110 -59h-238c46.667 171.333 145.667 257 297 257h169v484l-169 139l-29 -29c-20 -20.667 -30 -37.334 -30 -50.001v-278c0 -45.333 -13.167 -81.166 -39.5 -107.499
s-59.333 -44.666 -99 -54.999s-75.834 -15.5 -108.501 -15.5h-43z" />
    <glyph glyph-name="uniFEAC" unicode="&#x630;" horiz-adv-x="878" arabic-form="final" 
d="M82 286c8.66699 4 23.001 14.333 43.001 31c32.667 26 49 55.333 49 88v356c0 205.333 109 308 327 308l297 -308v-563h119v-198h-119v-79c0 -26 16.333 -52.333 49 -79c22.667 -21.333 37.667 -34 45 -38l-45 -2c-32.667 0 -68.667 6.66699 -108 20
s-72.333 33.166 -99 59.499s-40 65.833 -40 118.5h-118c-40 0 -76.667 -19.667 -110 -59h-238c46.667 171.333 145.667 257 297 257h169v484l-169 139l-29 -29c-20 -20.667 -30 -37.334 -30 -50.001v-278c0 -45.333 -13.167 -81.166 -39.5 -107.499
s-59.333 -44.666 -99 -54.999s-75.834 -15.5 -108.501 -15.5h-43zM451.001 1327c66 0 99 -33 99 -99c0 -73.333 -33 -110 -99 -110s-99 36.667 -99 110c0 66 33 99 99 99z" />
    <glyph glyph-name="uniFEAE" unicode="&#x631;" horiz-adv-x="608" arabic-form="final" 
d="M509 198l118.001 0.000976562v-198h-118v-59c0 -152.667 -69.667 -258.334 -209 -317.001c-46 -20 -95.333 -33 -148 -39l-70 -11l40 20c26 12.667 52.333 29.334 79 50.001c33.333 32.667 56.666 65.667 69.999 99c26.667 45.333 40 98 40 158v841
c0 33.333 -20 59.666 -60 78.999v237c172 -26 258 -125 258 -297v-563z" />
    <glyph glyph-name="uniFEB0" unicode="&#x632;" horiz-adv-x="608" arabic-form="final" 
d="M509 198l136.001 0.000976562v-198h-136v-59c0 -152.667 -69.667 -258.334 -209 -317.001c-46 -20 -95.333 -33 -148 -39l-70 -11l40 20c26 12.667 52.333 29.334 79 50.001c33.333 32.667 56.666 65.667 69.999 99c26.667 45.333 40 98 40 158v841
c0 33.333 -20 59.666 -60 78.999v237c172 -26 258 -125 258 -297v-563zM302.001 1337c66 0 99 -33 99 -99c0 -72.667 -33 -109 -99 -109s-99 36.333 -99 109c0 66 33 99 99 99z" />
    <glyph glyph-name="uniFEB2" unicode="&#x633;" horiz-adv-x="1603" arabic-form="final" 
d="M711 198l197 -0.000976562v523c0 37.333 -18.667 63.333 -56 78v240c168.667 -51.333 253 -150 253 -296v-545h197v523c0 22.667 -7.33301 41.334 -22 56.001c-8 0 -15.333 3.33301 -22 10l-12 12v240c168.667 -58 253 -156.667 253 -296v-545h142v-198h-930v-294
l-219 -241h-296l-75 119v1137c0 44 -18.667 70 -56 78v240c168.667 -43.333 253 -142 253 -296v-1081h97l99 119v940c0 37.333 -18.333 63.333 -55 78v240c168 -51.333 252 -150 252 -296v-545z" />
    <glyph glyph-name="uniFEB3" unicode="&#x633;" horiz-adv-x="1233" arabic-form="initial" 
d="M1115 114c14.667 -44.667 51 -82.667 109 -114h-1300v198h191v545c0 32.667 -20 59.334 -60 80.001v246c172 -39.333 258 -141.333 258 -306v-565h198v545c0 40 -20 66.667 -60 80v246c178 -39.333 267 -141.333 267 -306v-565h198v545
c0 19.333 -6.66699 35.666 -20 48.999c-6 0 -12.667 3.66699 -20 11l-20 20v246c172 -45.333 258 -147.333 258 -306v-565z" />
    <glyph glyph-name="uniFEB4" unicode="&#x633;" horiz-adv-x="1216" arabic-form="medial" 
d="M-58 0v198h173v545c0 32.667 -20 59.334 -60 80.001v246c172 -39.333 258 -141.333 258 -306v-565h198v545c0 40 -20 66.667 -60 80v246c178 -39.333 267 -141.333 267 -306v-565h198v545c0 19.333 -6.66699 35.666 -20 48.999c-6 0 -12.667 3.66699 -20 11l-20 20v246
c172 -45.333 258 -147.333 258 -306v-565h147v-198h-1319z" />
    <glyph glyph-name="uniFEB6" unicode="&#x634;" horiz-adv-x="1603" arabic-form="final" 
d="M1028 1327c73.333 0 110 -32.667 110 -98c0 -66 -36.667 -99 -110 -99c-58 0 -87 33 -87 99c0 65.333 29 98 87 98zM711 198l197 -0.000976562v523c0 37.333 -18.667 63.333 -56 78v240c168.667 -51.333 253 -150 253 -296v-545h197v523
c0 22.667 -7.33301 41.334 -22 56.001c-8 0 -15.333 3.33301 -22 10l-12 12v240c168.667 -58 253 -156.667 253 -296v-545h142v-198h-930v-294l-219 -241h-296l-75 119v1137c0 44 -18.667 70 -56 78v240c168.667 -43.333 253 -142 253 -296v-1081h97l99 119v940
c0 37.333 -18.333 63.333 -55 78v240c168 -51.333 252 -150 252 -296v-545zM919 1524c65.333 0 98 -32.667 98 -98c0 -66 -32.667 -99 -98 -99c-66 0 -99 33 -99 99c0 65.333 33 98 99 98zM810 1327c64.667 0 97 -32.667 97 -98c0 -66 -32.333 -99 -97 -99
c-66.667 0 -100 33 -100 99c0 65.333 33.333 98 100 98z" />
    <glyph glyph-name="uniFEB7" unicode="&#x634;" horiz-adv-x="1238" arabic-form="initial" 
d="M432 1327c66 0 99 -33 99 -99s-33 -99 -99 -99s-99 33 -99 99s33 99 99 99zM1115 114c14.667 -44.667 51 -82.667 109 -114h-1300v198h191v545c0 32.667 -20 59.334 -60 80.001v246c172 -39.333 258 -141.333 258 -306v-565h198v545c0 40 -20 66.667 -60 80v246
c178 -39.333 267 -141.333 267 -306v-565h198v545c0 19.333 -6.66699 35.666 -20 48.999c-6 0 -12.667 3.66699 -20 11l-20 20v246c172 -45.333 258 -147.333 258 -306v-565zM649 1327c72 0 108 -33 108 -99s-36 -99 -108 -99c-60 0 -90 33 -90 99s30 99 90 99zM540 1525
c66 0 99 -33 99 -99s-33 -99 -99 -99s-99 33 -99 99s33 99 99 99z" />
    <glyph glyph-name="uniFEB8" unicode="&#x634;" horiz-adv-x="1216" arabic-form="medial" 
d="M432 1327c66 0 99 -33 99 -99s-33 -99 -99 -99s-99 33 -99 99s33 99 99 99zM-58 0v198h173v545c0 32.667 -20 59.334 -60 80.001v246c172 -39.333 258 -141.333 258 -306v-565h198v545c0 40 -20 66.667 -60 80v246c178 -39.333 267 -141.333 267 -306v-565h198v545
c0 19.333 -6.66699 35.666 -20 48.999c-6 0 -12.667 3.66699 -20 11l-20 20v246c172 -45.333 258 -147.333 258 -306v-565h147v-198h-1319zM540 1525c66 0 99 -33 99 -99s-33 -99 -99 -99s-99 33 -99 99s33 99 99 99zM649 1327c72 0 108 -33 108 -99s-36 -99 -108 -99
c-60 0 -90 33 -90 99s30 99 90 99z" />
    <glyph glyph-name="uniFEBA" unicode="&#x635;" horiz-adv-x="1253" arabic-form="final" 
d="M737 198h217v506c0 26 -6.33301 48.667 -19 68c-6 0 -12.667 3.66699 -20 11l-20 20l-158 -139v-466zM450 -336l89 118.999v941c0 32 -16.333 58.333 -49 79v227c58.667 -13.333 127.667 -59.666 207 -138.999l139 139c204.667 0 307 -95.667 307 -287v-545h150v-198
h-556v-297l-218 -226h-286l-80 118v1129c0 32 -19.667 58.333 -59 79v227c171.333 -40 257 -135.667 257 -287v-1079h99z" />
    <glyph glyph-name="uniFEBB" unicode="&#x635;" horiz-adv-x="886" arabic-form="initial" 
d="M319 198h228v526c0 26 -6.33301 48.667 -19 68l-20 20l-20 11l-169 -139v-486zM121 743c0 32.667 -20 59.332 -60 79.999v246c66 -13.333 138.667 -59.333 218 -138l74 73l65 65c218 0 327 -102 327 -306v-633c0 -26.667 16.333 -56.667 49 -90
c22.667 -23.333 37.667 -36.666 45 -39.999h-520v-79c0 -26 16.667 -52.333 50 -79c22.667 -21.333 37 -34 43 -38l-43 -2c-33.333 0 -66.333 6.66699 -99 20c-46.667 13.333 -79.667 33.333 -99 60c-33.333 26 -50 65.333 -50 118h-128v198h128v545z" />
    <glyph glyph-name="uniFEBC" unicode="&#x635;" horiz-adv-x="827" arabic-form="medial" 
d="M320 198h216.999v526c0 18.667 -6.33301 38.334 -19 59.001c-7.33301 13.333 -20.666 26.666 -39.999 39.999l-158 -159v-466zM288.999 922l130 137.999c216.667 0 325 -105.667 325 -317v-545h119v-198h-543v-79c0 -32 16 -61.333 48 -88c22 -15.333 36.333 -25 43 -29
l-43 -2c-32 0 -65 6.66699 -99 20c-45.333 7.33301 -78.333 24.333 -99 51c-32 26 -48 62 -48 108v19h-130v198h130v545c0 32.667 -20 59.334 -60 80.001v246c66 -13.333 141.667 -62.333 227 -147z" />
    <glyph glyph-name="uniFEBE" unicode="&#x636;" horiz-adv-x="1253" arabic-form="final" 
d="M737 198h217v506c0 26 -6.33301 48.667 -19 68c-6 0 -12.667 3.66699 -20 11l-20 20l-158 -139v-466zM450 -336l89 118.999v941c0 32 -16.333 58.333 -49 79v227c58.667 -13.333 127.667 -59.666 207 -138.999l139 139c204.667 0 307 -95.667 307 -287v-545h150v-198
h-556v-297l-218 -226h-286l-80 118v1129c0 32 -19.667 58.333 -59 79v227c171.333 -40 257 -135.667 257 -287v-1079h99zM756 1287c66 0 99 -33 99 -99s-33 -99 -99 -99s-99 33 -99 99s33 99 99 99z" />
    <glyph glyph-name="uniFEBF" unicode="&#x636;" horiz-adv-x="886" arabic-form="initial" 
d="M319 198h228v526c0 26 -6.33301 48.667 -19 68l-20 20l-20 11l-169 -139v-486zM121 743c0 32.667 -20 59.332 -60 79.999v246c66 -13.333 138.667 -59.333 218 -138l74 73l65 65c218 0 327 -102 327 -306v-633c0 -26.667 16.333 -56.667 49 -90
c22.667 -23.333 37.667 -36.666 45 -39.999h-520v-79c0 -26 16.667 -52.333 50 -79c22.667 -21.333 37 -34 43 -38l-43 -2c-33.333 0 -66.333 6.66699 -99 20c-46.667 13.333 -79.667 33.333 -99 60c-33.333 26 -50 65.333 -50 118h-128v198h128v545zM398 1327
c66 0 99 -33 99 -99c0 -72 -33 -108 -99 -108s-99 36 -99 108c0 66 33 99 99 99z" />
    <glyph glyph-name="uniFEC0" unicode="&#x636;" horiz-adv-x="827" arabic-form="medial" 
d="M320 198h216.999v526c0 18.667 -6.33301 38.334 -19 59.001c-7.33301 13.333 -20.666 26.666 -39.999 39.999l-158 -159v-466zM398.999 1327c66 0 99 -33 99 -99c0 -72 -33 -108 -99 -108s-99 36 -99 108c0 66 33 99 99 99zM288.999 922l130 137.999
c216.667 0 325 -105.667 325 -317v-545h119v-198h-543v-79c0 -32 16 -61.333 48 -88c22 -15.333 36.333 -25 43 -29l-43 -2c-32 0 -65 6.66699 -99 20c-45.333 7.33301 -78.333 24.333 -99 51c-32 26 -48 62 -48 108v19h-130v198h130v545c0 32.667 -20 59.334 -60 80.001
v246c66 -13.333 141.667 -62.333 227 -147z" />
    <glyph glyph-name="uniFEC2" unicode="&#x637;" horiz-adv-x="1037" arabic-form="final" 
d="M500 685l156 139c18 -12 33 -23.667 45 -35c11.333 -16.667 17 -36.667 17 -60v-531h-218v487zM917 754c0 208.667 -107.001 313.001 -321.001 313.001l-96 -122v305c0 156 -87 257 -261 303v-243c41.333 -28 62 -57 62 -87v-1025c-18 12 -29.667 23.667 -35 35
c0 18 -3 27 -9 27h-226c29.333 -150.667 119.333 -237.334 270 -260.001c0 -92.667 49 -154 147 -184c29.333 -11.333 64 -17 104 -17h44c-11.333 0 -28.666 11.667 -51.999 35c-29.333 23.333 -44 52.333 -44 87v79h566v198h-149v556z" />
    <glyph glyph-name="uniFEC3" unicode="&#x637;" horiz-adv-x="878" arabic-form="initial" 
d="M338 198h217v535c0 26 -6.33301 49.333 -19 70c-6 0 -12.667 3 -20 9l-20 20l-158 -148v-486zM753 121c13.333 -47.333 50 -86.999 110 -118.999h-151v-2h-374v-79c0 -26 16.667 -52.333 50 -79l40 -40h-51c-32 0 -65 6.66699 -99 20
c-45.333 13.333 -78.333 33.333 -99 60c-32 26 -48 65.333 -48 118h-139v198h139v1030c0 33.333 -20 59.666 -60 78.999v237c178 -12.667 267 -111.667 267 -297v-277l90 99c216.667 0 325 -102 325 -306v-642z" />
    <glyph glyph-name="uniFEC4" unicode="&#x637;" horiz-adv-x="867" arabic-form="medial" 
d="M338 199h217v534c0 26 -6.33301 49.333 -19 70c-6 0 -12.667 3 -20 9l-20 20l-158 -148v-485zM338 -79c0 -26 16.667 -52.332 50 -78.999l40 -40h-51c-32 0 -65 6.66699 -99 20c-45.333 13.333 -78.333 33.333 -99 60c-32 26 -48 65.333 -48 118h-139v199h139v1029
c0 33.333 -20 59.666 -60 78.999v237c178 -12.667 267 -111.667 267 -297v-277l90 99c216.667 0 325 -102 325 -306v-564h139v-199h-554v-79z" />
    <glyph glyph-name="uniFEC6" unicode="&#x638;" horiz-adv-x="1037" arabic-form="final" 
d="M500 685l156 139c18 -12 33 -23.667 45 -35c11.333 -16.667 17 -36.667 17 -60v-531h-218v487zM917 754c0 208.667 -107.001 313.001 -321.001 313.001l-96 -122v305c0 156 -87 257 -261 303v-243c41.333 -28 62 -57 62 -87v-1025c-18 12 -29.667 23.667 -35 35
c0 18 -3 27 -9 27h-226c29.333 -150.667 119.333 -237.334 270 -260.001c0 -92.667 49 -154 147 -184c29.333 -11.333 64 -17 104 -17h44c-11.333 0 -28.666 11.667 -51.999 35c-29.333 23.333 -44 52.333 -44 87v79h566v198h-149v556zM676.999 1327c66 0 99 -33 99 -99
s-33 -99 -99 -99s-99 33 -99 99s33 99 99 99z" />
    <glyph glyph-name="uniFEC7" unicode="&#x638;" horiz-adv-x="878" arabic-form="initial" 
d="M338 198h217v535c0 26 -6.33301 49.333 -19 70c-6 0 -12.667 3 -20 9l-20 20l-158 -148v-486zM516 1327c66 0 99 -33 99 -99s-33 -99 -99 -99s-99 33 -99 99s33 99 99 99zM753 121c13.333 -47.333 50 -86.999 110 -118.999h-151v-2h-374v-79c0 -26 16.667 -52.333 50 -79
l40 -40h-51c-32 0 -65 6.66699 -99 20c-45.333 13.333 -78.333 33.333 -99 60c-32 26 -48 65.333 -48 118h-139v198h139v1030c0 33.333 -20 59.666 -60 78.999v237c178 -12.667 267 -111.667 267 -297v-277l90 99c216.667 0 325 -102 325 -306v-642z" />
    <glyph glyph-name="uniFEC8" unicode="&#x638;" horiz-adv-x="867" arabic-form="medial" 
d="M338 199h217v534c0 26 -6.33301 49.333 -19 70c-6 0 -12.667 3 -20 9l-20 20l-158 -148v-485zM516 1327c66 0 99 -33 99 -99s-33 -99 -99 -99s-99 33 -99 99s33 99 99 99zM338 -79c0 -26 16.667 -52.332 50 -78.999l40 -40h-51c-32 0 -65 6.66699 -99 20
c-45.333 13.333 -78.333 33.333 -99 60c-32 26 -48 65.333 -48 118h-139v199h139v1029c0 33.333 -20 59.666 -60 78.999v237c178 -12.667 267 -111.667 267 -297v-277l90 99c216.667 0 325 -102 325 -306v-564h139v-199h-554v-79z" />
    <glyph glyph-name="uniFECA" unicode="&#x639;" horiz-adv-x="999" arabic-form="final" 
d="M510 662l79.001 -463.999h40c7.33301 72 27 180.667 59 326c7.33301 46.667 17.666 92.667 30.999 138l9 60c0 20 -6.66699 39.667 -20 59c-6 13.333 -19 26.666 -39 39.999zM310.001 0.000976562c-6 -0.666992 -9.33203 -12.666 -9.99902 -35.999
c-12 -27.333 -18 -56.666 -18 -87.999c27.333 -108 117.333 -189 270 -243c22.667 -10.667 47.667 -21.334 75 -32.001c22.667 -6 45 -11.333 67 -16l68 -9l-84 -17h-92c-40 -4.66699 -76.667 -4.66699 -110 0c-202.667 22 -329.334 106 -380.001 252
c-10.667 26.667 -19 58.667 -25 96v97c6 21.333 11.333 42.666 16 63.999l9 33l110 97h185l-79 544l297 316c211.333 0 317 -105.333 317 -316l-99 -544h209v-198h-726z" />
    <glyph glyph-name="uniFECB" unicode="&#x639;" horiz-adv-x="867" arabic-form="initial" 
d="M814 277l-41 -0.000976562c-39.333 0 -72.333 6.66699 -99 20c-105.333 26.667 -158 79.334 -158 158.001v267c0 26 -6.66699 49.333 -20 70c-13.333 6 -33.333 15.667 -60 29l-138 -139v-484h138c185.333 0 288 -79 308 -237h-228c-26.667 26 -59.667 39 -99 39h-119
v-79c0 -26 16.667 -52.333 50 -79c20.667 -21.333 35 -34 43 -38l-43 -2c-33.333 0 -66.333 3 -99 9c-46.667 13.333 -79.667 33.333 -99 60c-33.333 33.333 -50 76.333 -50 129h-128v198h128v563l297 297c218 0 327 -99 327 -297v-385c0 -26 16.333 -49.333 49 -70
c19.333 -15.333 33 -25 41 -29z" />
    <glyph glyph-name="uniFECC" unicode="&#x639;" horiz-adv-x="748" arabic-form="medial" 
d="M254 662l79.001 -463.999h40c7.33301 72 27 180.667 59 326c7.33301 46.667 17.666 92.667 30.999 138l9 60c0 20 -6.66699 39.667 -20 59c-6 13.333 -19.333 26.666 -40 39.999zM780.001 0.000976562h-823v198h178l-79 544l297 316c211.333 0 317 -105.333 317 -316
l-99 -544h209v-198z" />
    <glyph glyph-name="uniFECE" unicode="&#x63a;" horiz-adv-x="999" arabic-form="final" 
d="M510 662l79.001 -463.999h40c7.33301 72 27 180.667 59 326c7.33301 46.667 17.666 92.667 30.999 138l9 60c0 20 -6.66699 39.667 -20 59c-6 13.333 -19 26.666 -39 39.999zM651.001 1316c60 0 90 -33 90 -99s-30 -99 -90 -99c-72 0 -108 33 -108 99s36 99 108 99z
M310.001 0.000976562c-6 -0.666992 -9.33203 -12.666 -9.99902 -35.999c-12 -27.333 -18 -56.666 -18 -87.999c27.333 -108 117.333 -189 270 -243c22.667 -10.667 47.667 -21.334 75 -32.001c22.667 -6 45 -11.333 67 -16l68 -9l-84 -17h-92
c-40 -4.66699 -76.667 -4.66699 -110 0c-202.667 22 -329.334 106 -380.001 252c-10.667 26.667 -19 58.667 -25 96v97c6 21.333 11.333 42.666 16 63.999l9 33l110 97h185l-79 544l297 316c211.333 0 317 -105.333 317 -316l-99 -544h209v-198h-726z" />
    <glyph glyph-name="uniFECF" unicode="&#x63a;" horiz-adv-x="867" arabic-form="initial" 
d="M814 277l-41 -0.000976562c-39.333 0 -72.333 6.66699 -99 20c-105.333 26.667 -158 79.334 -158 158.001v267c0 26 -6.66699 49.333 -20 70c-13.333 6 -33.333 15.667 -60 29l-138 -139v-484h138c185.333 0 288 -79 308 -237h-228c-26.667 26 -59.667 39 -99 39h-119
v-79c0 -26 16.667 -52.333 50 -79c20.667 -21.333 35 -34 43 -38l-43 -2c-33.333 0 -66.333 3 -99 9c-46.667 13.333 -79.667 33.333 -99 60c-33.333 33.333 -50 76.333 -50 129h-128v198h128v563l297 297c218 0 327 -99 327 -297v-385c0 -26 16.333 -49.333 49 -70
c19.333 -15.333 33 -25 41 -29zM460 1316c60 0 90 -33 90 -99s-30 -99 -90 -99c-72 0 -108 33 -108 99s36 99 108 99z" />
    <glyph glyph-name="uniFED0" unicode="&#x63a;" horiz-adv-x="748" arabic-form="medial" 
d="M254 662l79.001 -463.999h40c7.33301 72 27 180.667 59 326c7.33301 46.667 17.666 92.667 30.999 138l9 60c0 20 -6.66699 39.667 -20 59c-6 13.333 -19.333 26.666 -40 39.999zM780.001 0.000976562h-823v198h178l-79 544l297 316c211.333 0 317 -105.333 317 -316
l-99 -544h209v-198zM333.001 1316c60 0 90 -33 90 -99s-30 -99 -90 -99c-72 0 -108 33 -108 99s36 99 108 99z" />
    <glyph glyph-name="uniFED2" unicode="&#x641;" horiz-adv-x="1384" arabic-form="final" 
d="M850 198h218v526c0 18.667 -6.66699 38.334 -20 59.001c-7.33301 13.333 -20.333 26.666 -39 39.999l-159 -159v-466zM200 0l-98.999 119.003v623c0 33.333 -19.667 59.666 -59 78.999v248c171.333 -46.667 257 -149.334 257 -308.001v-563h342v545l308 317
c211.333 0 317 -105.667 317 -317v-545h146v-198h-562v-79c0 -32 16.333 -61.333 49 -88c21.333 -16.667 35.666 -27 42.999 -31h-43c-40 0 -78 5.16699 -114 15.5s-69 28.666 -99 54.999s-45 62.5 -45 108.5v19h-441zM987.001 1327c66 0 99 -33 99 -99
c0 -72 -33 -108 -99 -108s-99 36 -99 108c0 66 33 99 99 99z" />
    <glyph glyph-name="uniFED3" unicode="&#x641;" horiz-adv-x="847" arabic-form="initial" 
d="M296 684l158 139c45.333 -20.667 68 -53.667 68 -99v-229h-226v189zM819 0c-6 0 -22 13.333 -48 40c-34 26 -51 52.333 -51 79v644c0 198 -102 297 -306 297l-316 -297v-466h424v-99h-554v-198h851zM441 1327c66 0 99 -33 99 -99c0 -72 -33 -108 -99 -108s-99 36 -99 108
c0 66 33 99 99 99z" />
    <glyph glyph-name="uniFED4" unicode="&#x641;" horiz-adv-x="831" arabic-form="medial" 
d="M306 198h216.999v526c0 18.667 -6.33301 38.334 -19 59.001c-7.33301 13.333 -20.666 26.666 -39.999 39.999l-158 -159v-466zM396.999 -198l-43 0.000976562c-39.333 0 -77 5.16699 -113 15.5s-69 28.666 -99 54.999s-45 62.5 -45 108.5v19h-119v198h119v545l308 317
c210.667 0 316 -105.667 316 -317v-545h128v-198h-543v-79c0 -32 16 -61.333 48 -88c22 -16.667 36.333 -27 43 -31zM441.999 1327c66 0 99 -33 99 -99c0 -72 -33 -108 -99 -108s-99 36 -99 108c0 66 33 99 99 99z" />
    <glyph glyph-name="uniFED6" unicode="&#x642;" horiz-adv-x="1216" arabic-form="final" 
d="M685 198h203v472c0 45.333 -18.667 75.333 -56 90l-147 -146v-416zM593 1123c0 70 37.667 105 113 105c61.333 0 92 -35 92 -105c0 -67.333 -30.667 -101 -92 -101c-75.333 0 -113 33.667 -113 101zM820 1123c0 70 38.333 105 115 105c60 0 90 -35 90 -105
c0 -67.333 -30 -101 -90 -101c-76.667 0 -115 33.667 -115 101zM1083 0v-284l-204 -227h-682l-92 114v1067c0 52.667 -11.333 82.667 -34 90v226c151.333 -36.667 227 -130.667 227 -282v-1020h477l113 113v203h-385v691l272 295c205.333 0 308 -98.333 308 -295v-493h181
v-198h-181z" />
    <glyph glyph-name="uniFED7" unicode="&#x642;" horiz-adv-x="847" arabic-form="initial" 
d="M296 684l158 139c45.333 -20.667 68 -53.667 68 -99v-229h-226v189zM819 0c-6 0 -22 13.333 -48 40c-34 26 -51 52.333 -51 79v644c0 198 -102 297 -306 297l-316 -297v-466h424v-99h-554v-198h851zM285 1327c66 0 99 -36 99 -108c0 -66 -33 -99 -99 -99s-99 33 -99 99
c0 72 33 108 99 108zM513 1327c66 0 99 -36 99 -108c0 -66 -33 -99 -99 -99s-99 33 -99 99c0 72 33 108 99 108z" />
    <glyph glyph-name="uniFED8" unicode="&#x642;" horiz-adv-x="831" arabic-form="medial" 
d="M306 198h216.999v526c0 18.667 -6.33301 38.334 -19 59.001c-7.33301 13.333 -20.666 26.666 -39.999 39.999l-158 -159v-466zM396.999 -198l-43 0.000976562c-39.333 0 -77 5.16699 -113 15.5s-69 28.666 -99 54.999s-45 62.5 -45 108.5v19h-119v198h119v545l308 317
c210.667 0 316 -105.667 316 -317v-545h128v-198h-543v-79c0 -32 16 -61.333 48 -88c22 -16.667 36.333 -27 43 -31zM562.999 1327c66 0 99 -33 99 -99c0 -72 -33 -108 -99 -108c-73.333 0 -110 36 -110 108c0 66 36.667 99 110 99zM333.999 1327c66 0 99 -33 99 -99
c0 -72 -33 -108 -99 -108s-99 36 -99 108c0 66 33 99 99 99z" />
    <glyph glyph-name="uniFEDE" unicode="&#x644;" horiz-adv-x="818" arabic-form="final" 
d="M720 198l128 0.000976562v-198h-128v-307l-218 -238h-297l-79 119v1168c0 33.333 -23.333 59.666 -70 78.999v237c178.667 -39.333 268 -138.333 268 -297v-1108h99l99 119v1456c0 32 -19.667 58.333 -59 79v237c171.333 -39.333 257 -138.333 257 -297v-1049z" />
    <glyph glyph-name="uniFEDF" unicode="&#x644;" horiz-adv-x="518" arabic-form="initial" 
d="M491 0h-499v198h207v1030c0 32 -19.667 58.333 -59 79v246c171.333 -45.333 257 -147.333 257 -306v-1128c0 -26.667 14.333 -53 43 -79c25.333 -22 42.333 -35.333 51 -40z" />
    <glyph glyph-name="uniFEE0" unicode="&#x644;" horiz-adv-x="453" arabic-form="medial" 
d="M420 -199l-42.999 -2c-32.667 0 -68.667 5 -108 15s-72.333 28.333 -99 55s-40 62.667 -40 108v20h-149v201h149v1026c0 26.667 -19.667 53 -59 79v247c171.333 -40 257 -142 257 -306v-1046h148v-201h-148v-79c0 -32.667 16.333 -62.334 49 -89.001
c21.333 -15.333 35.666 -24.666 42.999 -27.999z" />
    <glyph glyph-name="uniFEE2" unicode="&#x645;" horiz-adv-x="992" arabic-form="final" 
d="M685 198v524c0 39.333 -26.667 72.333 -80 99l-138 -159v-464h218zM1010 198v-198h-543v-59c0 -145.333 -66 -251 -198 -317c-46.667 -26 -96.667 -42 -150 -48l-59 -11l31 20c26 12.667 52.333 32.334 79 59.001c26 26.667 48.667 59.667 68 99
c20.667 39.333 31 85.666 31 138.999v860l297 327c217.333 0 326 -109 326 -327v-544h118z" />
    <glyph glyph-name="uniFEE3" unicode="&#x645;" horiz-adv-x="906" arabic-form="initial" 
d="M538 198v526c0 39.333 -26.333 72.333 -79 99l-138 -159v-466h217zM405 -196l-44.999 -1.99902c-33.333 0 -69.833 6.66699 -109.5 20s-72.667 33.166 -99 59.499s-39.5 65.833 -39.5 118.5h-155v198h155v545l308 326c210.667 0 316 -108.667 316 -326v-624
c0 -19.333 16.333 -42.333 49 -69c7.33301 -12.667 17.666 -22.667 30.999 -30l19 -20h-514v-79c0 -26 16 -52.333 48 -79c18 -21.333 30 -34 36 -38z" />
    <glyph glyph-name="uniFEE4" unicode="&#x645;" horiz-adv-x="816" arabic-form="medial" 
d="M519 -59v781c0 39.333 -26.333 72.333 -79 99l-138 -159v-721h217zM717 198h128v-198h-128v-158l-99 -119h-426l-99 119v158h-119v198h119v544l297 325c218 0 327 -108.333 327 -325v-544z" />
    <glyph glyph-name="uniFEE6" unicode="&#x646;" horiz-adv-x="803" arabic-form="final" 
d="M278 1327c66 0 99 -33 99 -99s-33 -99 -99 -99s-99 33 -99 99s33 99 99 99zM704 198l119 0.00292969v-198h-119v-297l-228 -248h-297l-80 130v1157c0 33.333 -19.667 59.666 -59 78.999v248c171.333 -52.667 257 -155.334 257 -308.001v-1097h99l110 119v959
c0 33.333 -23.333 59.666 -70 78.999v248c178.667 -39.333 268 -142 268 -308v-563z" />
    <glyph glyph-name="uniFEE7" unicode="&#x646;" horiz-adv-x="528" arabic-form="initial" 
d="M488 0h-500v198h198v535c0 39.333 -19.667 68.666 -59 87.999v237c178.667 -52.667 268 -151.667 268 -297v-642c0 -26.667 16 -53 48 -79c23.333 -23.333 38.333 -36.666 45 -39.999zM179 1327c66 0 99 -33 99 -99s-33 -99 -99 -99s-99 33 -99 99s33 99 99 99z" />
    <glyph glyph-name="uniFEE8" unicode="&#x646;" horiz-adv-x="450" arabic-form="medial" 
d="M465 0h-475v198h158v554c0 34 -19.667 60.667 -59 80v237c171.333 -39.333 257 -138.333 257 -297v-574h119v-198zM179 1327c66 0 99 -33 99 -99s-33 -99 -99 -99s-99 33 -99 99s33 99 99 99z" />
    <glyph glyph-name="uniFEEA" unicode="&#x647;" horiz-adv-x="790" arabic-form="final" 
d="M280 198h218v524c0 46.667 -20 79.667 -60 99l-158 -139v-484zM793 -196l-47.001 -1.99902c-33.333 0 -69.833 6.66699 -109.5 20s-72.667 33.166 -99 59.499s-39.5 65.833 -39.5 118.5h-326l-90 99v662l317 297c198 0 297 -99 297 -297v-563h110v-198h-110v-79
c0 -26 16.667 -52.333 50 -79c20.667 -21.333 36.334 -34 47.001 -38z" />
    <glyph glyph-name="uniFEEB" unicode="&#x647;" horiz-adv-x="1264" arabic-form="initial" 
d="M705 209l217 0.000976562v524c0 46.667 -19.667 79.667 -59 99l-158 -148v-277c0 -34 16 -64 48 -90c34 -26.667 51 -36.334 51 -29.001c0 -20.667 -33 -20.667 -99 0v-79zM289 209.001h218v119c-13.333 26 -33.333 52.333 -60 79l-158 -159v-39zM382 -195.999
c-69.333 -1.33301 -137 7.99902 -203 27.999s-99 76 -99 168h-108v198h108v130l308 316c13.333 0 33 -3.33301 59 -10c26.667 -6 46.667 -9 60 -9v138l316 306c198 0 297 -102 297 -306v-633c19.333 -53.333 55.333 -96.666 108 -129.999h-939v-79c0 -26 16 -52.333 48 -79
c23.333 -21.333 38.333 -34 45 -38z" />
    <glyph glyph-name="uniFEEC" unicode="&#x647;" horiz-adv-x="1264" arabic-form="medial" 
d="M289 209h218v119c-13.333 26 -33.333 52.333 -60 79l-158 -159v-39zM705 209l217 0.000976562v524c0 46.667 -19.667 79.667 -59 99l-158 -148v-277c0 -34 16 -64 48 -90c34 -26.667 51 -36.334 51 -29.001c0 -20.667 -33 -20.667 -99 0v-79zM382 -195.999
c-69.333 -1.33301 -137 8 -203 28s-99 76 -99 168h-108v198h108v130l308 316c13.333 0 33 -3.33301 59 -10c26.667 -6 46.667 -9 60 -9v138l316 306c198 0 297 -102 297 -306v-565h152v-198h-983v-79c0 -26 16 -52.333 48 -79c23.333 -21.333 38.333 -34 45 -38z" />
    <glyph glyph-name="uniFEEE" unicode="&#x648;" horiz-adv-x="744" arabic-form="final" 
d="M225 684l167 139c40 -7.33301 60 -37.333 60 -90v-524h-227v475zM650 763c0 204 -101.999 306 -305.999 306l-317 -306v-653l99 -110h326v-99c0 -52.667 -9.66699 -101.667 -29 -147c-20.667 -34 -47 -67 -79 -99c-52.667 -46.667 -92.334 -70 -119.001 -70h20
c19.333 0 35.333 3.33301 48 10c53.333 6 103.333 19.333 150 40c138 52.667 207 154.667 207 306v59h138v198h-138v565z" />
    <glyph glyph-name="uniFEF0" unicode="&#x649;" horiz-adv-x="1334" arabic-form="final" 
d="M964 2c0 -1.33301 -2 -1.33301 -6 0h6zM958 0h-758l-99 119v623c0 39.333 -19.667 65.666 -59 78.999v248c171.333 -26 257 -128.667 257 -308v-563h368v227l-119 119v446c151.333 124.667 290 124.667 416 0l266 -268v-524h119v-198h-198l-119 119v504l-88 99l-99 99
c-26.667 13.333 -59.667 20 -99 20v-218l119 -119v-385c0 -26.667 16 -53 48 -79c22.667 -23.333 37.667 -36.666 45 -39.999z" />
    <glyph glyph-name="space" unicode=" " horiz-adv-x="254" 
 />
    <glyph glyph-name="exclam" unicode="!" horiz-adv-x="402" 
d="M109 1178c0 32 -19.667 58.333 -59 79v237c171.333 -26 257 -125 257 -297l-20 -901h-148zM303 227v-227h-187v227h187z" />
    <glyph glyph-name="percent" unicode="%" horiz-adv-x="1216" 
d="M845 531c44.667 0 88.166 -11.333 130.499 -34s75.5 -55.334 99.5 -98.001s36 -87 36 -133s-11.667 -90 -35 -132s-56.166 -74.667 -98.499 -98s-86.5 -35 -132.5 -35s-90 11.667 -132 35s-74.667 56 -98 98s-35 86 -35 132s11.833 90.333 35.5 133
s56.667 75.334 99 98.001s85.833 34 130.5 34zM798.999 347.5c-14.667 -8.33301 -26.334 -20 -35.001 -35s-13 -30.5 -13 -46.5c0 -16.667 4.16699 -32.334 12.5 -47.001s20 -26.167 35 -34.5s30.5 -12.5 46.5 -12.5c16.667 0 32.334 4.16699 47.001 12.5
s26.167 19.833 34.5 34.5s12.5 30.334 12.5 47.001c0 16 -4.16699 31.5 -12.5 46.5s-20 26.667 -35 35s-30.5 12.5 -46.5 12.5s-31.333 -4.16699 -46 -12.5zM889.999 1361c14.667 22 15.667 51.666 3 88.999s-21 60 -25 68c56.667 -37.333 106.667 -84.166 150 -140.499
s39.333 -122.833 -12 -199.5l-675 -1021c-14.667 -22 -15.667 -51.667 -3 -89s20.667 -60 24 -68c-56 37.333 -105.667 84 -149 140s-39.333 122.667 12 200zM372.999 986.999c-44.667 0 -88.1641 11.5 -130.497 34.5s-75.5 55.667 -99.5 98s-36 86.5 -36 132.5
c0 46.667 11.667 90.834 35 132.501s56.166 74.167 98.499 97.5s86.5 35 132.5 35c45.333 0 89.166 -11.667 131.499 -35s75.166 -55.833 98.499 -97.5s35 -85.834 35 -132.501c0 -46 -11.833 -90.167 -35.5 -132.5s-56.667 -75 -99 -98s-85.833 -34.5 -130.5 -34.5z
M418.502 1171c15 8 26.667 19.5 35 34.5s12.5 30.5 12.5 46.5c0 16.667 -4 32.334 -12 47.001s-19.5 26.167 -34.5 34.5s-30.5 12.5 -46.5 12.5c-16.667 0 -32.5 -4.16699 -47.5 -12.5s-26.5 -19.833 -34.5 -34.5s-12 -30.334 -12 -47.001c0 -16 4.16699 -31.5 12.5 -46.5
s20 -26.5 35 -34.5s30.5 -12 46.5 -12c15.333 0 30.5 4 45.5 12z" />
    <glyph glyph-name="parenleft" unicode="(" horiz-adv-x="618" 
d="M465 43c31.333 -24 50.666 -38.332 57.999 -42.999c-67.333 0 -134.666 11.333 -201.999 34s-129.333 150.667 -186 384s-56.667 467.666 0 702.999s118.667 364.333 186 387s134.666 34 201.999 34c-7.33301 -4.66699 -26.666 -19 -57.999 -43
s-75.333 -151.667 -132 -383s-56.667 -462 0 -692s100.667 -357 132 -381z" />
    <glyph glyph-name="parenright" unicode=")" horiz-adv-x="618" 
d="M240 1116c-56.667 231.333 -100.667 358.999 -132 382.999s-50.666 38.333 -57.999 43c67.333 0 134.666 -11.333 201.999 -34s129.333 -151.667 186 -387s56.667 -469.666 0 -702.999s-118.667 -361.333 -186 -384s-134.666 -34 -201.999 -34
c7.33301 4.66699 26.666 19 57.999 43s75.333 151 132 381s56.667 460.667 0 692z" />
    <glyph glyph-name="asterisk" unicode="*" horiz-adv-x="761" 
d="M666 887l-43 135l-194 -64v205h-141l2 -202l-195 63l-45 -135l197 -64l-121 -166l112 -81l119 163l121 -163l115 81l-121 166z" />
    <glyph glyph-name="plus" unicode="+" horiz-adv-x="1048" 
d="M601 550h352v-198h-352v-352h-198v352h-353v198h353v353h198v-353z" />
    <glyph glyph-name="comma" unicode="," horiz-adv-x="462" 
d="M158 514l76 -39c64 -33.333 103.667 -59.333 119 -78c13.333 -15.333 20 -41.666 20 -78.999c0 -44 -24 -110.333 -72 -199c-20.667 -38.667 -41 -70.334 -61 -95.001c-22 -26.667 -39.667 -40 -53 -40c-4.66699 0 -7 2 -7 6s4.33301 16.333 13 37l26 67
c12 29.333 21 52.333 27 69c8 22.667 12 38 12 46c0 28.667 -30.667 58.667 -92 90l-76 39z" />
    <glyph glyph-name="hyphen" unicode="-" horiz-adv-x="834" 
d="M749 229h-663v198h663v-198z" />
    <glyph glyph-name="period" unicode="." horiz-adv-x="364" 
d="M269 110c0 -73.333 -36 -110 -108 -110c-74 0 -111 36.667 -111 110c0 74 37 111 111 111c72 0 108 -37 108 -111z" />
    <glyph glyph-name="slash" unicode="/" horiz-adv-x="857" 
d="M253 113c-10 -24 -5.16699 -52.998 14.5 -86.998s32.5 -54.667 38.5 -62c-63.333 25.333 -121.833 61.166 -175.5 107.499s-63.167 112.166 -28.5 197.499l458 1136c10 24 5 53.167 -15 87.5s-32.333 54.833 -37 61.5c62 -25.333 119.833 -61 173.5 -107
s63.167 -112 28.5 -198z" />
    <glyph glyph-name="zero" unicode="0" horiz-adv-x="705" 
d="M363 819c44.667 0 88.1641 -11.5 130.497 -34.5s75.5 -55.667 99.5 -98s36 -86.833 36 -133.5c0 -46 -11.667 -90 -35 -132s-56.166 -74.667 -98.499 -98s-86.5 -35 -132.5 -35c-45.333 0 -89.166 11.667 -131.499 35s-75.166 56 -98.499 98s-35 86 -35 132
c0 46.667 11.833 91.167 35.5 133.5s56.667 75 99 98s85.833 34.5 130.5 34.5zM317.497 635c-15 -8 -26.667 -19.5 -35 -34.5s-12.5 -30.5 -12.5 -46.5c0 -16.667 4 -32.334 12 -47.001s19.5 -26.167 34.5 -34.5s30.5 -12.5 46.5 -12.5c16.667 0 32.5 4.16699 47.5 12.5
s26.5 19.833 34.5 34.5s12 30.334 12 47.001c0 16 -4.16699 31.5 -12.5 46.5s-20 26.5 -35 34.5s-30.5 12 -46.5 12c-15.333 0 -30.5 -4 -45.5 -12z" />
    <glyph glyph-name="zero" unicode="&#x6f0;" horiz-adv-x="705" 
d="M363 819c44.667 0 88.1641 -11.5 130.497 -34.5s75.5 -55.667 99.5 -98s36 -86.833 36 -133.5c0 -46 -11.667 -90 -35 -132s-56.166 -74.667 -98.499 -98s-86.5 -35 -132.5 -35c-45.333 0 -89.166 11.667 -131.499 35s-75.166 56 -98.499 98s-35 86 -35 132
c0 46.667 11.833 91.167 35.5 133.5s56.667 75 99 98s85.833 34.5 130.5 34.5zM317.497 635c-15 -8 -26.667 -19.5 -35 -34.5s-12.5 -30.5 -12.5 -46.5c0 -16.667 4 -32.334 12 -47.001s19.5 -26.167 34.5 -34.5s30.5 -12.5 46.5 -12.5c16.667 0 32.5 4.16699 47.5 12.5
s26.5 19.833 34.5 34.5s12 30.334 12 47.001c0 16 -4.16699 31.5 -12.5 46.5s-20 26.5 -35 34.5s-30.5 12 -46.5 12c-15.333 0 -30.5 -4 -45.5 -12z" />
    <glyph glyph-name="zero" unicode="&#x660;" horiz-adv-x="705" 
d="M363 819c44.667 0 88.1641 -11.5 130.497 -34.5s75.5 -55.667 99.5 -98s36 -86.833 36 -133.5c0 -46 -11.667 -90 -35 -132s-56.166 -74.667 -98.499 -98s-86.5 -35 -132.5 -35c-45.333 0 -89.166 11.667 -131.499 35s-75.166 56 -98.499 98s-35 86 -35 132
c0 46.667 11.833 91.167 35.5 133.5s56.667 75 99 98s85.833 34.5 130.5 34.5zM317.497 635c-15 -8 -26.667 -19.5 -35 -34.5s-12.5 -30.5 -12.5 -46.5c0 -16.667 4 -32.334 12 -47.001s19.5 -26.167 34.5 -34.5s30.5 -12.5 46.5 -12.5c16.667 0 32.5 4.16699 47.5 12.5
s26.5 19.833 34.5 34.5s12 30.334 12 47.001c0 16 -4.16699 31.5 -12.5 46.5s-20 26.5 -35 34.5s-30.5 12 -46.5 12c-15.333 0 -30.5 -4 -45.5 -12z" />
    <glyph glyph-name="one" unicode="1" horiz-adv-x="448" 
d="M155 1228c0 32 -19.667 58.334 -59 79.001v237c171.333 -26 257 -125 257 -297v-1040c0 -92.667 -33.667 -150.334 -101 -173.001s-134.666 -34 -201.999 -34c7.33301 4.66699 26.666 19 57.999 43s47 49.333 47 76v1109z" />
    <glyph glyph-name="one" unicode="&#x6f1;" horiz-adv-x="448" 
d="M155 1228c0 32 -19.667 58.334 -59 79.001v237c171.333 -26 257 -125 257 -297v-1040c0 -92.667 -33.667 -150.334 -101 -173.001s-134.666 -34 -201.999 -34c7.33301 4.66699 26.666 19 57.999 43s47 49.333 47 76v1109z" />
    <glyph glyph-name="one" unicode="&#x661;" horiz-adv-x="448" 
d="M155 1228c0 32 -19.667 58.334 -59 79.001v237c171.333 -26 257 -125 257 -297v-1040c0 -92.667 -33.667 -150.334 -101 -173.001s-134.666 -34 -201.999 -34c7.33301 4.66699 26.666 19 57.999 43s47 49.333 47 76v1109z" />
    <glyph glyph-name="two" unicode="2" horiz-adv-x="907" 
d="M812 688c-1.33301 -49.333 -17.667 -86.666 -49 -111.999c-20.667 -26.667 -53.667 -46.667 -99 -60c-33.333 -13.333 -66.333 -20 -99 -20h-50l50 40c32.667 26.667 49 53 49 79v79h-261v-487c0 -92.667 -33.667 -150.334 -101 -173.001s-134.666 -34 -201.999 -34
c7.33301 4.66699 26.666 19 57.999 43s47 49.333 47 76v1109c0 32 -19.667 58.333 -59 79v237c171.333 -26 257 -125 257 -297v-357h261v325c0 46.667 -19.667 73 -59 79v248c171.333 -20 257 -122.667 257 -308v-546z" />
    <glyph glyph-name="two" unicode="&#x6f2;" horiz-adv-x="907" 
d="M812 688c-1.33301 -49.333 -17.667 -86.666 -49 -111.999c-20.667 -26.667 -53.667 -46.667 -99 -60c-33.333 -13.333 -66.333 -20 -99 -20h-50l50 40c32.667 26.667 49 53 49 79v79h-261v-487c0 -92.667 -33.667 -150.334 -101 -173.001s-134.666 -34 -201.999 -34
c7.33301 4.66699 26.666 19 57.999 43s47 49.333 47 76v1109c0 32 -19.667 58.333 -59 79v237c171.333 -26 257 -125 257 -297v-357h261v325c0 46.667 -19.667 73 -59 79v248c171.333 -20 257 -122.667 257 -308v-546z" />
    </font>
</defs>
</svg>
