<?xml version="1.0" standalone="no"?>
<!DOCTYPE svg PUBLIC "-//W3C//DTD SVG 1.1//EN" "http://www.w3.org/Graphics/SVG/1.1/DTD/svg11.dtd" >
<svg>
<metadata>
Created by FontForge 20090914 at Wed Oct 19 01:56:42 2011
 By www-data
(c) by Abolfazl Seilsepour - +98 912 591 3420  -  seilsepor@yahoo.com
</metadata>
<defs>
<font id="FarTasmeem" horiz-adv-x="0" >
  <font-face 
    font-family="Far.Tasmeem "
    font-weight="400"
    font-stretch="normal"
    units-per-em="2048"
    panose-1="2 10 5 3 2 1 2 2 2 4"
    ascent="1638"
    descent="-410"
    bbox="-333 -761 2607 1862"
    underline-thickness="100"
    underline-position="-700"
    unicode-range="U+0020-U+FEFC"
  />
<missing-glyph horiz-adv-x="1024" 
d="M128 0v1278h768v-1278h-768zM256 128h512v1022h-512v-1022z" />
    <glyph glyph-name=".notdef" unicode="&#x652;&#x64b;" horiz-adv-x="1024" 
d="M128 0v1278h768v-1278h-768zM256 128h512v1022h-512v-1022z" />
    <glyph glyph-name="uniE818" unicode="&#x651;&#x64b;" 
d="M503 1395c0 -29.333 -7.66895 -53.668 -23.002 -73.001c-16.667 -21.333 -39.667 -32 -69 -32c-44 0 -75.667 13.333 -95 40c-22.667 -53.333 -61 -80 -115 -80c-61.333 0 -92 35 -92 105c0 29.333 14 73.333 42 132l64 -33c-15.333 -42 -23 -66 -23 -72
c0 -22.667 7 -34 21 -34c24 0 40 13 48 39c4.66699 14.667 6.33398 41.334 5.00098 80.001l82 43c0 -82 15.667 -123 47 -123c14.667 0 21.334 9.33301 20.001 28c-0.666992 12 -11.667 35.333 -33 70l64 47c18 -23.333 32.333 -50 43 -80
c9.33301 -25.333 14 -44.333 14 -57zM483.998 1723l-346 -86l-22 82l348 88zM487.998 1597l-346 -86l-22 82l348 89z" />
    <glyph glyph-name="uniFC5E" unicode="&#x651;&#x64c;" arabic-form="isolated" 
d="M497 1319c0 -28 -7.33203 -51.6641 -21.999 -70.9971c-16.667 -21.333 -39 -32 -67 -32c-44 0 -75.333 13 -94 39c-21.333 -52 -59 -78 -113 -78c-60 0 -90 34 -90 102c0 29.333 13.667 72.666 41 129.999l64 -33c-16 -40 -24 -63.333 -24 -70c0 -22.667 7 -34 21 -34
c24 0 39.667 12.667 47 38c4.66699 15.333 6.33398 41.666 5.00098 78.999l81 42c0 -80 15.333 -120 46 -120c14 0 20.333 9 19 27c-0.666992 12.667 -4.33398 24 -11.001 34c-2.66699 5.33301 -10 16.666 -22 33.999l63 48c17.333 -23.333 31.666 -49.666 42.999 -78.999
c8.66699 -24.667 13 -43.334 13 -56.001zM508.001 1733c0 -66 -39.333 -108.331 -118 -126.998l-245 -58l-27 73l28 13c22 10 33 24.667 33 44c0 8.66699 -2.66699 13 -8 13c-6.66699 0 -18.334 -6.33301 -35.001 -19l-34 49c24.667 33.333 50.667 49.666 78 48.999
c45.333 -0.666992 68 -23.334 68 -68.001c0 -24.667 -2.66699 -41 -8 -49l37 14c-10 16.667 -15 38 -15 64c0 32.667 14.333 60.667 43 84c25.333 20 50.333 30 75 30c32.667 0 61.334 -10.333 86.001 -31c28 -22 42 -49 42 -81zM430.001 1733
c0 20 -15.333 29.999 -46 29.999c-10 0 -19.5 -3.33301 -28.5 -10s-13.5 -15 -13.5 -25s4.5 -19.167 13.5 -27.5s19.167 -12.166 30.5 -11.499c29.333 2 44 16.667 44 44z" />
    <glyph glyph-name="uniFC5F" unicode="&#x651;&#x64d;" horiz-adv-x="1" arabic-form="isolated" 
d="M479 1477l-347 -86l-21 82l349 89zM490 1679c0 -28.667 -7.66699 -52.667 -23 -72c-16.667 -22 -39.667 -33 -69 -33c-44 0 -75.667 13.333 -95 40c-22.667 -52 -61 -78 -115 -78c-61.333 0 -92 34.667 -92 104c0 28.667 14 72.334 42 131.001l65 -32
c-16 -42 -24 -66 -24 -72c0 -23.333 7 -35 21 -35c25.333 0 41.666 12.667 48.999 38c4 15.333 5.33301 42.333 4 81c16 9.33301 43.333 23.666 82 42.999c0 -82 15.667 -123 47 -123c14.667 0 21.667 9.66699 21 29c-1.33301 12.667 -12.666 35.667 -33.999 69l64 48
c38 -50.667 57 -96.667 57 -138zM491 1340l-347 -86l-22 82l350 88z" />
    <glyph glyph-name="uniFC60" unicode="&#x651;&#x64e;" horiz-adv-x="14" arabic-form="isolated" 
d="M519 1475c0 -28 -7.33203 -51.6641 -21.999 -70.9971c-16.667 -21.333 -39 -32 -67 -32c-44 0 -75.333 13 -94 39c-21.333 -52 -59 -78 -113 -78c-60 0 -90 34 -90 102c0 29.333 13.667 72.666 41 129.999l64 -33c-16 -40 -24 -63.333 -24 -70c0 -22.667 7 -34 21 -34
c24 0 39.667 12.667 47 38c4.66699 15.333 6.33398 41.666 5.00098 78.999l81 42c0 -80 15.333 -120 46 -120c14 0 20.333 9 19 27c-0.666992 12.667 -4.33398 24 -11.001 34c-2.66699 5.33301 -10 16.666 -22 33.999l63 48c17.333 -23.333 31.666 -49.666 42.999 -78.999
c8.66699 -24.667 13 -43.334 13 -56.001zM476.001 1779l-340 -84l-22 80l342 87z" />
    <glyph glyph-name="uniFC61" unicode="&#x651;&#x64f;" horiz-adv-x="1" arabic-form="isolated" 
d="M507 1393c0 -29.333 -7.66699 -53.665 -23 -72.998c-16.667 -21.333 -39.667 -32 -69 -32c-44 0 -75.667 13.333 -95 40c-22.667 -53.333 -61 -80 -115 -80c-61.333 0 -92 35 -92 105c0 29.333 14 73.333 42 132l65 -33c-16 -42 -24 -66 -24 -72c0 -22.667 7 -34 21 -34
c25.333 0 41.666 13 48.999 39c4 14.667 5.33301 41 4 79c16 9.33301 43.333 24 82 44c0 -82 15.667 -123 47 -123c14.667 0 21.667 9.33301 21 28c-1.33301 13.333 -12.666 36.666 -33.999 69.999l64 47c18.667 -24.667 33 -51.334 43 -80.001
c9.33301 -24.667 14 -43.667 14 -57zM424 1694c0 20 -15.667 30 -47 30c-11.333 0 -21.333 -3.66699 -30 -11c-10 -7.33301 -15 -16 -15 -26c0 -10.667 5 -20 15 -28s20.667 -11.333 32 -10c30 2 45 17 45 45zM268 1629c-10.667 16.667 -16 36.668 -16 60.001
c0 33.333 14.667 62.333 44 87c25.333 21.333 51 32 77 32c32.667 0 62 -10.333 88 -31c28.667 -22.667 43 -50.334 43 -83.001c0 -68 -40.333 -111.333 -121 -130l-244 -57l-21 78c43.333 12 93.333 26.667 150 44z" />
    <glyph glyph-name="uniFC62" unicode="&#x651;&#x650;" horiz-adv-x="2" arabic-form="isolated" 
d="M487 1500l-347 -86l-21 82l349 88zM498 1702c0 -28.667 -7.66699 -52.667 -23 -72c-16.667 -21.333 -39.667 -32 -69 -32c-44 0 -75.667 13.333 -95 40c-22.667 -52.667 -61 -79 -115 -79c-61.333 0 -92 34.667 -92 104c0 29.333 14 73 42 131l65 -33
c-16 -41.333 -24 -65.333 -24 -72c0 -22 7 -33 21 -33c25.333 0 41.666 12.667 48.999 38c4 14.667 5.33301 41.334 4 80.001c16 9.33301 43.333 23.666 82 42.999c0 -82 15.667 -123 47 -123c14.667 0 21.667 9.33301 21 28c-1.33301 13.333 -12.666 36.666 -33.999 69.999
l64 49c38 -51.333 57 -97.666 57 -138.999z" />
    <glyph glyph-name="uniFD3F" unicode="&#x652;&#x64e;" horiz-adv-x="1135" 
d="M1079 553c0 -32 -34.668 -68.333 -104.001 -109c-7.33301 -104 -23.666 -156 -48.999 -156c-102 96 -178 144 -228 144c5.33301 -51.333 31.666 -99.833 78.999 -145.5s71 -71.5 71 -77.5c0 -10.667 -20.333 -22.667 -61 -36c-46 -14 -97.333 -22 -154 -24
c-48 -144.667 -113 -274 -195 -388c-63.333 -88.667 -131.333 -161.667 -204 -219c-58 -46 -99 -69 -123 -69c-14 0 -21 7 -21 21c0 6.66699 24.333 37.334 73 92.001c60 68 109.333 137.333 148 208c58.667 109.333 98.334 231 119.001 365
c-66.667 11.333 -100 26.333 -100 45c94 95.333 141 169.333 141 222c-48.667 0 -120.334 -49.333 -215.001 -148c-12.667 0 -25.167 17.5 -37.5 52.5s-19.5 72.167 -21.5 111.5c-71.333 37.333 -107 70.666 -107 99.999c0 25.333 33.333 57.666 100 96.999
c6.66699 106 25.334 159 56.001 159l68 -65c46 -45.333 97 -70.666 153 -75.999c0 48 -24.667 96 -74 144s-74 75.667 -74 83c0 15.333 36.333 30.333 109 45c-21.333 109.333 -64.833 221.666 -130.5 336.999s-138.167 207.333 -217.5 276c-14 12 -21 23 -21 33
c0 10.667 8.33301 16 25 16c50.667 0 127 -50 229 -150c134 -131.333 238.667 -297.666 314 -498.999c139.333 -2 209 -20.667 209 -56c-92 -96 -138 -170.333 -138 -223c41.333 0 86 24.667 134 74s75 74 81 74c25.333 0 44 -54.667 56 -164
c73.333 -36 110 -67.333 110 -94zM712.999 546c0 34.667 -12.667 64.167 -38 88.5s-55.666 36.5 -90.999 36.5s-65.666 -12.167 -90.999 -36.5s-38 -53.833 -38 -88.5c0 -35.333 12.667 -65.666 38 -90.999s55.666 -38 90.999 -38s65.666 12.667 90.999 38
s38 55.666 38 90.999z" />
    <glyph glyph-name="uniFDF2" unicode="&#xfedf;&#xfee0;&#xfeea;" horiz-adv-x="2682" arabic-form="isolated" 
d="M2525 14c-64.667 14.667 -118.002 50.3359 -160.002 107.003l-45 -121h-400c-89.333 0 -156 9.66699 -200 29c-41.333 18 -76.333 44.667 -105 80l-8 10l-45 -119h-399c-90 0 -157 9.66699 -201 29l-12 6c0 -1.33301 -1.33301 -0.666016 -4 2.00098
c-1.33301 0.666992 -2 1.33398 -2 2.00098c-24.667 13.333 -46 29 -64 47c-32.667 29.333 -62 67 -88 113l-59 -98c-7.33301 -12.667 -13 -21.667 -17 -27c-16 -24.667 -39.667 -41.667 -71 -51c-60 -19.333 -128.333 -29 -205 -29c-248.667 0 -373 58.667 -373 176
c0 34 11.667 92.667 35 176c27.333 99.333 50.333 169 69 209c17.333 36 41.333 64.667 72 86c16.667 12 42 27.667 76 47l33 17c4.66699 2 8.33398 4 11.001 6c18.667 9.33301 34 16.666 46 21.999l28 11l66 30c56.667 26 101.667 51.333 135 76l-34 68l96 153l29 -52
l24 -46c44.667 -90.667 82.334 -215 113.001 -373c15.333 -83.333 26.666 -138.333 33.999 -165c7.33301 -25.333 19 -53 35 -83c29.333 -54.667 70.333 -88.667 123 -102c16.667 -1.33301 51.667 -2 105 -2h303l-13 51c-2 18.667 -4 40 -6 64
c-2.66699 29.333 -4 53.666 -4 72.999l-10 488c-2 55.333 -6.66699 97 -14 125c-10 37.333 -25.667 71.333 -47 102l159 190l11 -18c10.667 -20 20.667 -39.667 30 -59c6.66699 -14.667 13 -30.334 19 -47.001c30.667 -83.333 45 -185.333 43 -306l-2 -299l4 -120
c6.66699 -64 29.667 -120 69 -168c33.333 -40 70.333 -64.667 111 -74c16.667 -1.33301 51.334 -2 104.001 -2h304l-13 51c-2 18.667 -4 40 -6 64c-2.66699 29.333 -4 53.666 -4 72.999l-10 488c-2.66699 55.333 -7.66699 97 -15 125c-10 37.333 -25.667 71.333 -47 102
l160 190l10 -18c11.333 -20 21.333 -39.667 30 -59c7.33301 -14.667 13.666 -30.334 19 -47.001c30.667 -83.333 45 -185.333 43 -306l-2 -299l5 -120c6 -64 29 -120 69 -168c40 -46.667 88 -72.667 144 -78zM754.998 395.002
c-11.333 78.667 -21.999 141.331 -31.999 187.998c-7.33301 36.667 -17.666 79.334 -30.999 128.001c-12.667 -30.667 -23 -52 -31 -64c-10.667 -16.667 -22.334 -29.667 -35.001 -39c-16.667 -13.333 -35 -25.333 -55 -36c-20 -11.333 -63.667 -33.333 -131 -66
c-98.667 -49.333 -161.667 -85.666 -189 -108.999c-24.667 -18 -37 -37.667 -37 -59c0 -26.667 27 -50.667 81 -72c53.333 -22 114 -33 182 -33c117.333 0 215.666 20 294.999 60zM1603 1790c31.333 -42.667 47.0049 -89.666 47.0049 -140.999v-47
c0 -47.333 16.333 -78.333 49 -93l-33 -90c-26.667 8 -48.334 26 -65.001 54l-21 -54c-6.66699 -1.33301 -14 -2 -22 -2c-47.333 0 -82.333 23.333 -105 70l-30 -72l-21 -2c-30 0 -56.667 13.667 -80 41c-18.667 22 -33.667 61 -45 117
c-4.66699 25.333 -11.334 43.666 -20.001 54.999l47 119c27.333 -33.333 43 -82.666 47 -147.999c1.33301 -39.333 6.66602 -64.333 15.999 -75c9.33301 -11.333 21.666 -17 36.999 -17c12 0 23.667 4.33301 35 13l-4 30c-2.66699 22.667 -6.66699 39.667 -12 51l49 121
c14 -30.667 21.333 -50.334 22 -59.001c5.33301 -14 9.66602 -42.667 12.999 -86c3.33301 -44 18.333 -66 45 -66l33 2l-5 52c-2 30.667 -9.33301 64 -22 100z" />
    <glyph glyph-name="uniFEF5" unicode="&#xfedf;&#xfe82;" horiz-adv-x="1048" arabic-form="isolated" 
d="M910 37c-24.667 7.33301 -43.667 14.667 -57 22c-22.667 12 -44.667 27.667 -66 47l2 -30c0 -87.333 -38.333 -165.666 -115 -234.999c-74 -64 -177 -120.667 -309 -170l-307 164c178.667 24.667 316.667 71 414 139c-12.667 113.333 -58.667 247 -138 401
c-74 144 -162 253 -264 327l82 259c125.333 -110.667 221 -248.667 287 -414c55.333 -138.667 95 -299 119 -481c27.333 56 41 115.333 41 178l-15 680c-2 52 -6.66699 93.667 -14 125c-10 37.333 -25.667 71.333 -47 102l160 190l10 -18c11.333 -20 21.333 -39.667 30 -59
c6.66699 -14.667 13 -30.334 19 -47.001c30.667 -83.333 45 -185.333 43 -306l-2 -299c0 -24 0.333008 -47.333 1 -70c0.666992 -18 1.66699 -34.667 3 -50c9.33301 -77.333 42 -141 98 -191c32 -27.333 66.333 -45 103 -53zM289 1110
c-54.667 -27.333 -107.667 -41 -159 -41c-35.333 0 -66.333 6 -93 18l-32 17c-8 2.66699 -14 4 -18 4c-42 0 -88.667 -35.667 -140 -107l25 150c41.333 40.667 82.333 61 123 61c18 0 37.667 -4.66699 59 -14l31 -14c15.333 -6.66699 36.333 -10 63 -10
c42.667 0 94 9.33301 154 28l80 27z" />
    <glyph glyph-name="uniFEF6" unicode="&#xfee0;&#xfe82;" horiz-adv-x="733" arabic-form="final" 
d="M944 37c-24 8 -42.333 15.334 -55 22.001c-22.667 12 -44.334 27.667 -65.001 47v-30c0 -88.667 -37.667 -167 -113 -235c-74 -64 -177 -120.667 -309 -170l-307 164c176 24.667 313.667 71 413 139c-12 108.667 -57.667 242.334 -137 401.001c-74 144 -162 253 -264 327
l82 259c124.667 -110.667 220 -248.667 286 -414c56.667 -140.667 95.667 -301 117 -481c28.667 55.333 43 114.666 43 177.999l-14 653c-0.666992 13.333 -1.33398 22.333 -2.00098 27c-2 59.333 -6.66699 101 -14 125c-7.33301 32 -22.666 66 -45.999 102l160 190l10 -18
c11.333 -20 21.333 -39.667 30 -59c7.33301 -14.667 14 -30.334 20 -47.001c27.333 -74.667 41 -176.667 41 -306v-369c0 -22 0.666992 -38.667 2 -50c8.66699 -77.333 41.334 -141 98.001 -191c32 -27.333 66 -45 102 -53zM387 1151
c-54.667 -27.333 -107.67 -41 -159.003 -41c-35.333 0 -66 6 -92 18l-35 17c-5.33301 2.66699 -11.666 4 -18.999 4c-41.333 0 -87.666 -35.667 -138.999 -107l25 150c42.667 40.667 84.334 61 125.001 61c18 0 37.667 -4.66699 59 -14l29 -14c18 -7.33301 39 -11 63 -11
c48.667 0 100.667 9.66699 156 29l80 27z" />
    <glyph glyph-name="uniFEF7" unicode="&#xfedf;&#xfe84;" horiz-adv-x="1067" arabic-form="isolated" 
d="M918 37c-24 8 -42.334 15.333 -55.001 22c-22.667 12 -44.667 27.667 -66 47v-30c0 -88.667 -37.667 -167 -113 -235c-74 -64 -177 -120.667 -309 -170l-307 164c176 24.667 314 71 414 139c-13.333 112 -55.666 239.333 -126.999 382
c-73.333 146.667 -150 251.334 -230 314.001l84 250c57.333 -59.333 106.666 -121 147.999 -185c32.667 -54 66 -123.667 100 -209c54.667 -139.333 89.667 -280.666 105 -423.999l4 -36c28.667 55.333 43 114.666 43 177.999l-15 653c0 13.333 -0.666992 22.333 -2 27
c-2 59.333 -6.66699 101 -14 125c-6.66699 32 -21.667 66 -45 102l160 190l10 -18c11.333 -20 21.333 -39.667 30 -59c6.66699 -14.667 13 -30.334 19 -47.001c27.333 -74.667 41 -176.667 41 -306v-369c0.666992 -22 1.33398 -38.667 2.00098 -50
c9.33301 -77.333 42 -141 98 -191c32 -27.333 66.333 -45 103 -53zM368.999 1327c-42.667 14 -75.999 21 -99.999 21c-79.333 0 -119 -29.333 -119 -88c0 -62 51 -93 153 -93h97l-25 -86l-302 -5h-7l-12 -1c-56 0 -93.667 24.667 -113 74v111
c15.333 -34.667 30.666 -58.667 45.999 -72c14.667 -12.667 37.667 -19 69 -19h57c-35.333 24 -53 55.667 -53 95c0 104.667 58 157 174 157c26 0 53.333 -4.66699 82 -14z" />
    <glyph glyph-name="uniFEF8" unicode="&#xfee0;&#xfe84;" horiz-adv-x="733" arabic-form="final" 
d="M289 1253c-41.333 18 -76 27 -104 27c-79.333 0 -119 -30 -119 -90c0 -58.667 44.333 -88 133 -88h123l-33 -90h-309c-56.667 0 -95.667 21.667 -117 65v107c26.667 -54.667 59.667 -82 99 -82h69c-32.667 28.667 -49 62.667 -49 102c0 101.333 56 152 168 152
c22.667 0 47.667 -4.33301 75 -13zM916 37c-24 8 -42.667 15.334 -56 22.001c-21.333 12 -43.666 27.667 -66.999 47l2 -18v-12c0 -88.667 -37.667 -167 -113 -235c-72.667 -62.667 -175.667 -119.334 -309 -170.001l-307 164c176 24.667 313.667 71 413 139
c-12.667 112 -55 239.333 -127 382c-72.667 146.667 -149 251.334 -229 314.001l84 250c58 -60 106.333 -121.667 145 -185c37.333 -60.667 71.666 -130.334 102.999 -209.001c54 -139.333 88.667 -280.666 104 -423.999l4 -36c28.667 55.333 43 114.666 43 177.999l-14 653
c-0.666992 13.333 -1.33398 22.333 -2.00098 27c-2 52 -6.66699 93.667 -14 125c-10 37.333 -25.667 71.333 -47 102l161 190l39 -76l19 -48c28.667 -72.667 43 -174.667 43 -306l-2 -299c0 -24 0.333008 -47.333 1 -70c0.666992 -18 1.66699 -34.667 3 -50
c8.66699 -77.333 41.334 -141 98.001 -191c32 -27.333 66 -45 102 -53z" />
    <glyph glyph-name="uniFEF9" unicode="&#xfedf;&#xfe88;" horiz-adv-x="890" arabic-form="isolated" 
d="M776 37c-24 8 -42.3301 15.335 -54.9971 22.002c-22.667 12 -44.334 27.667 -65.001 47v-32c0 -139.333 -99 -256 -297 -350l-275 145c90 17.333 175.333 52.333 256 105c-13.333 117.333 -59 249.666 -137 396.999c-84 163.333 -173.333 272.333 -268 327l84 263
c127.333 -114 223.333 -252 288 -414c55.333 -135.333 94.333 -295.666 117 -480.999c28.667 55.333 43 114.666 43 177.999l-14 653c-0.666992 13.333 -1.33398 22.333 -2.00098 27c-2 59.333 -7 101 -15 125c-6.66699 32 -21.667 66 -45 102l160 190l10 -18
c11.333 -20 21.333 -39.667 30 -59c7.33301 -14.667 13.666 -30.334 18.999 -47.001c27.333 -74.667 41 -176.667 41 -306l1 -369c0 -22 0.333008 -38.667 1 -50c9.33301 -77.333 42.333 -141 99 -191c32 -27.333 66 -45 102 -53zM289.003 -457.998
c-36.667 16 -71.667 24 -105 24c-78.667 0 -118 -30 -118 -90c0 -58.667 44.333 -88 133 -88h123l-33 -90h-256l-53 2c-58 2 -96.333 24 -115 66v106c25.333 -56 58.333 -84 99 -84h69c-34 32 -51 67 -51 105c0 100.667 56.667 151 170 151c14 0 38.333 -4 73 -12z" />
    <glyph glyph-name="uniFEFA" unicode="&#xfee0;&#xfe88;" horiz-adv-x="581" arabic-form="final" 
d="M781 37c-24.667 8 -44.0029 15.334 -58.0029 22.001c-20 12 -41.667 27.667 -65 47c0.666992 -6.66699 1.33398 -13 2.00098 -19v-13c0 -140 -99.667 -256.667 -299 -350l-273 145c91.333 17.333 176 52.333 254 105c-10.667 110 -55.667 242.333 -135 397
c-84 163.333 -173.333 272.333 -268 327l84 263c124.667 -111.333 221 -249.333 289 -414c54.667 -135.333 93.334 -295.666 116.001 -480.999c28.667 55.333 43 114.666 43 177.999l-16 680c-2 52 -6.66699 93.667 -14 125c-10 37.333 -25.667 71.333 -47 102l159 190
l11 -18c11.333 -20 21.333 -39.667 30 -59c6.66699 -14.667 13 -30.334 19 -47.001c30.667 -83.333 45 -185.333 43 -306l-2 -299c0 -24 0.333008 -47.333 1 -70c0.666992 -18 1.66699 -34.667 3 -50c6.66699 -75.333 39.334 -139 98.001 -191
c32 -27.333 66.333 -45 103 -53zM323.997 -478.999c-38 16.667 -72.667 24.999 -104 24.999c-79.333 0 -119 -30 -119 -90c0 -58.667 44.333 -88 133 -88h123l-33 -90h-256l-53 2c-57.333 1.33301 -96.333 23 -117 65v107c27.333 -56 60.333 -84 99 -84h69
c-32.667 30.667 -49 65.334 -49 104.001c0 101.333 56 152 168 152c15.333 0 40.333 -4.33301 75 -13z" />
    <glyph glyph-name="uniFEFB" unicode="&#xfedf;&#xfe8e;" horiz-adv-x="1060" arabic-form="isolated" 
d="M913 37c-24 8 -42.334 15.333 -55.001 22c-22.667 12 -44.667 27.667 -66 47v-30c0 -88.667 -37.667 -167 -113 -235c-74 -64 -177 -120.667 -309 -170l-307 164c176 24.667 314 71 414 139c-13.333 112 -55.666 239.333 -126.999 382
c-73.333 146.667 -150 251.334 -230 314.001l84 250c57.333 -59.333 106.666 -121 147.999 -185c32.667 -54 66 -123.667 100 -209c54.667 -139.333 89.667 -280.666 105 -423.999l4 -36c28.667 55.333 43 114.666 43 177.999l-15 653c0 13.333 -0.666992 22.333 -2 27
c-2 59.333 -6.66699 101 -14 125c-6.66699 32 -21.667 66 -45 102l160 190l10 -18c11.333 -20 21.333 -39.667 30 -59c6.66699 -14.667 13 -30.334 19 -47.001c27.333 -74.667 41 -176.667 41 -306v-369c0.666992 -22 1.33398 -38.667 2.00098 -50
c9.33301 -77.333 42 -141 98 -191c32 -27.333 66.333 -45 103 -53z" />
    <glyph glyph-name="uniFEFC" unicode="&#xfee0;&#xfe8e;" horiz-adv-x="733" arabic-form="final" 
d="M919 37c-24.667 8 -43.668 15.333 -57.001 22c-20.667 12 -42.667 27.667 -66 47l2 -18v-12c0 -89.333 -38.333 -167.666 -115 -234.999c-70 -62 -172.333 -118.667 -307 -170l-309 164c178 24.667 316 71 414 139c-11.333 110 -53 237.333 -125 382
c-73.333 146.667 -150 251.334 -230 314.001l84 250c58 -60 106.667 -121.667 146 -185c36.667 -60.667 70.667 -130.334 102 -209.001c54.667 -139.333 89.667 -280.666 105 -423.999l4 -36c28.667 55.333 43 114.666 43 177.999l-17 680c-1.33301 52 -6 93.667 -14 125
c-10 37.333 -25.667 71.333 -47 102l160 190l10 -18c11.333 -20 21.333 -39.667 30 -59c6.66699 -14.667 13 -30.334 19 -47.001c30.667 -83.333 45 -185.333 43 -306l-2 -299c0 -24 0.333008 -47.333 1 -70c0.666992 -18 1.66699 -34.667 3 -50
c6.66699 -75.333 39.334 -139 98.001 -191c32 -27.333 66.333 -45 103 -53z" />
    <glyph glyph-name="afii57410" unicode="&#x622;" horiz-adv-x="651" arabic-form="isolated" 
d="M497 18c-79.333 25.333 -136.668 67.6689 -172.001 127.002c-22.667 44.667 -37 83.667 -43 117c-8 47.333 -12 133.333 -12 258c0 119.333 -2.66699 195 -8 227c-5.33301 31.333 -22 73 -50 125l-6 11l162 196c19.333 -30.667 35 -61.334 47 -92.001
c22.667 -60 36.334 -106.333 41.001 -139c4 -34.667 6 -112 6 -232v-75c0 -186.667 40.333 -284.334 121 -293.001zM508.998 1225c-54.667 -27.333 -107.669 -41 -159.002 -41c-35.333 0 -66.333 6 -93 18l-32 17c-8.66699 2.66699 -15 4 -19 4
c-41.333 0 -87.666 -35.667 -138.999 -107l25 150c40.667 40.667 81.334 61 122.001 61c18.667 0 38.667 -4.66699 60 -14l31 -15c15.333 -6.66699 36.333 -10 63 -10c42.667 0 94 9.66699 154 29l80 26z" />
    <glyph glyph-name="afii57411" unicode="&#x623;" horiz-adv-x="606" arabic-form="isolated" 
d="M450 18c-80 24.667 -137.333 67 -172 127c-16 28.667 -28.333 61 -37 97l-16 97c-4 43.333 -6 101 -6 173l-2 123c-2 58.667 -6.33301 101 -13 127l170 205c26 -76 39 -183.333 39 -322v-139c0 -52 6.33301 -104 19 -156c15.333 -62 50 -96 104 -102zM456 1266
c-36.667 16 -68 24 -94 24c-74 0 -111 -27.333 -111 -82s41 -82 123 -82h113l-31 -84h-233l-50 2c-52.667 2 -88 22 -106 60v98c22.667 -50.667 52.667 -76 90 -76h64c-32 28 -48 59.667 -48 95c0 92.667 52.667 139 158 139c19.333 0 42 -3.33301 68 -10z" />
    <glyph glyph-name="afii57412" unicode="&#x624;" horiz-adv-x="1093" arabic-form="isolated" 
d="M728 1251c-48 15.333 -84.667 23 -110 23c-90 0 -135 -32.667 -135 -98c0 -22.667 10.667 -44 32 -64c30 -26 76.667 -39 140 -39h108l-28 -96l-359 -6c-60 0 -101.667 27.333 -125 82v123c17.333 -40 34.333 -66.667 51 -80c17.333 -14 43.333 -21 78 -21h62
c-38.667 26 -58 61 -58 105c0 117.333 65 176 195 176c30 0 60 -5 90 -15zM771 -247c-60.667 -147.333 -154 -221 -280 -221c-79.333 0 -171 37.333 -275 112c-54.667 40 -94.667 72.667 -120 98c-18 16 -27 29 -27 39s6 15 18 15l9 -1
c4.66699 -0.666992 8.66699 -1.66699 12 -3l47 -15c69.333 -20 133.666 -30 192.999 -30c138 0 253.333 84.333 346 253h-35c-136 0 -249.333 42 -340 126c-90 83.333 -135 188 -135 314c0 104 32 192.667 96 266c64 74 141 111 231 111c72.667 0 135 -32 187 -96
c40.667 -48 73.334 -126.667 98.001 -236c34 -147.333 109.667 -227 227 -239l-82 -232c-37.333 8 -70 23 -98 45c-17.333 -132.667 -41.333 -234.667 -72 -306zM597 414c-6 26.667 -10 44.999 -12 54.999c-3.33301 14.667 -10 32.334 -20 53.001c-14 30 -34.667 45 -62 45
c-68 0 -102 -44.333 -102 -133c0 -120 67.667 -180 203 -180c30 0 58.667 1.33301 86 4c-45.333 32 -76.333 84 -93 156z" />
    <glyph glyph-name="afii57413" unicode="&#x625;" horiz-adv-x="542" arabic-form="isolated" 
d="M245 1346c68 -115.333 102 -294.332 102 -536.999l-2 -166c0 -157.333 8.66699 -262 26 -314c16 -48 49 -75 99 -81l-86 -230c-80 25.333 -137.333 67.666 -172 126.999c-38 65.333 -58 204 -60 416l-2 191c-1.33301 198 -23 332.333 -65 403zM175 -187.999
c-35.333 15.333 -66.667 23 -94 23c-72 0 -108 -26.667 -108 -80c0 -54.667 40 -82 120 -82h111l-29 -80h-280c-52 0 -87 19.667 -105 59v97c23.333 -50.667 53 -76 89 -76h63c-30 28 -45 59.333 -45 94c0 91.333 51 137 153 137c18 0 40.667 -3.33301 68 -10z" />
    <glyph glyph-name="afii57414" unicode="&#x626;" horiz-adv-x="1431" arabic-form="isolated" 
d="M452 1028c-34 15.333 -65.333 23 -94 23c-71.333 0 -107 -26.667 -107 -80s39.667 -80 119 -80h113l-31 -82h-279c-51.333 0 -86 20.333 -104 61v95c22.667 -49.333 52 -74 88 -74h64c-30.667 26 -46 57.333 -46 94c0 90 51.333 135 154 135c20 0 42 -3.33301 66 -10z
M1277 18c-64.667 24 -115 60.333 -151 109c-25.333 32.667 -41 59.334 -47 80.001c-10 30 -19.667 91.333 -29 184c-8 75.333 -18.333 124 -31 146c-12 18.667 -34.333 28 -67 28c-62 0 -130.667 -29.333 -206 -88c-74.667 -58 -112 -109.667 -112 -155
c0 -26 40.333 -51.333 121 -76l68 -21c66.667 -20.667 100 -61.667 100 -123c0 -152 -43.667 -285.333 -131 -400c-88 -115.333 -189.667 -173 -305 -173c-118 0 -217 57 -297 171c-80.667 113.333 -121 252.333 -121 417c0 96 16 191.333 48 286
c30.667 92 59.667 138 87 138c11.333 0 17 -8.33301 17 -25c0 -3.33301 -3 -17.333 -9 -42c-0.666992 -2.66699 -1.66699 -5.66699 -3 -9c0 -0.666992 -0.333008 -2 -1 -4l-36 -169c-6 -36 -9 -65.667 -9 -89c0 -121.333 33 -222 99 -302c65.333 -81.333 147 -122 245 -122
c64 0 123 17 177 51c56.667 35.333 85 75.666 85 120.999c0 24.667 -36 46.334 -108 65.001l-53 15c-76.667 20.667 -127 41.334 -151 62.001c-21.333 18 -32 45.667 -32 83c0 137.333 66.667 278.666 200 423.999c132.667 144.667 262 217 388 217
c123.333 0 192.333 -92.667 207 -278c13.333 -154.667 60.333 -252.334 141 -293.001z" />
    <glyph glyph-name="afii57415" unicode="&#x627;" horiz-adv-x="520" arabic-form="isolated" 
d="M227 1346c68 -115.333 101.999 -294.332 101.999 -536.999l-2 -166c0 -86.667 1.33301 -148.667 4 -186c2.66699 -34.667 8.33398 -70.334 17.001 -107.001c16 -62 50.667 -96 104 -102l-86 -230c-80 25.333 -137.333 67.666 -172 126.999
c-38 65.333 -57.667 204 -59 416l-2 191c-2.66699 120.667 -7.66699 207.334 -15 260.001c-6 49.333 -23 97 -51 143z" />
    <glyph glyph-name="afii57416" unicode="&#x628;" horiz-adv-x="1439" arabic-form="isolated" 
d="M774 -315l-150 -151l-145 143l151 156zM1087 0l-671.999 -0.000976562c-93.333 0 -161.333 10.333 -204 31c-59.333 26 -110 77 -152 153v310c39.333 -101.333 96.666 -173 171.999 -215c36 -20.667 97.333 -31 184 -31h564c0 36 -2.33301 67.333 -7 94
c-10.667 65.333 -45.334 146.666 -104.001 243.999l-12 20l170 240c19.333 -29.333 37 -60.666 53 -93.999c21.333 -46 41 -109.667 59 -191c22.667 -106.667 53.334 -185 92.001 -235c40 -48 88 -74.667 144 -80l-80 -232c-64.667 14.667 -118 50.334 -160 107.001z" />
    <glyph glyph-name="afii57417" unicode="&#x629;" horiz-adv-x="1161" arabic-form="isolated" 
d="M1009 14c-40 8.66699 -79.001 29.334 -117.001 62.001c-40 34 -74 75 -102 123l-35 -62c-18 -29.333 -31.667 -50.333 -41 -63c-16 -24 -39 -41 -69 -51c-60 -19.333 -128.333 -29 -205 -29c-248.667 0 -373 58.667 -373 176c0 39.333 11 98 33 176
c24 88 47 157.667 69 209c16 34 40 62.667 72 86l37 24l84 46c18 9.33301 33 16.666 45 21.999l94 41c63.333 30.667 108.333 56 135 76c-10 24 -21.333 46.667 -34 68l96 153c17.333 -30 35 -62.667 53 -98c46.667 -95.333 85 -219.666 115 -372.999
c22.667 -124.667 45 -207.334 67 -248.001c34.667 -62.667 87.334 -98 158.001 -106zM752.999 395c-11.333 78.667 -22.001 141.331 -32.001 187.998c-7.33301 36.667 -17.666 79.334 -30.999 128.001c-12.667 -30.667 -23 -52 -31 -64c-4 -7.33301 -9 -14.666 -15 -21.999
l-18 -17c-22 -18 -84 -52 -186 -102c-99.333 -48.667 -163 -85 -191 -109c-24.667 -18 -37 -37.667 -37 -59c0 -26.667 27 -50.667 81 -72c53.333 -22 114 -33 182 -33c120 0 218 20 294 60zM527.998 1337c-42.667 14 -75.999 21 -99.999 21
c-79.333 0 -119 -29.333 -119 -88c0 -62 51 -93 153 -93h97l-25 -86l-302 -5h-7l-12 -1c-56 0 -93.667 24.667 -113 74v111c15.333 -34.667 30.666 -58.667 45.999 -72c14.667 -12.667 37.667 -19 69 -19h57c-35.333 24 -53 55.667 -53 95c0 104.667 58 157 174 157
c26 0 53.333 -4.66699 82 -14z" />
    <glyph glyph-name="afii57418" unicode="&#x62a;" horiz-adv-x="1439" arabic-form="isolated" 
d="M614 967l123 127l164 -162l-156 -160l-149 150l-123 -127l-164 166l158 157zM1087 0l-671.999 -0.000976562c-93.333 0 -161.333 10.333 -204 31c-59.333 26 -110 77 -152 153v310c39.333 -101.333 96.666 -173 171.999 -215c36 -20.667 97.333 -31 184 -31h564
c0 36 -2.33301 67.333 -7 94c-10.667 65.333 -45.334 146.666 -104.001 243.999l-12 20l170 240c19.333 -29.333 37 -60.666 53 -93.999c21.333 -46 41 -109.667 59 -191c22.667 -106.667 53.334 -185 92.001 -235c40 -48 88 -74.667 144 -80l-80 -232
c-64.667 14.667 -118 50.334 -160 107.001z" />
    <glyph glyph-name="afii57419" unicode="&#x62b;" horiz-adv-x="1439" arabic-form="isolated" 
d="M757 1202l-147 -155l-148 143l150 156zM610 967l123 127l164 -162l-156 -160l-150 150l-122 -127l-164 166l157 157zM1087 0l-671.999 -0.000976562c-93.333 0 -161.333 10.333 -204 31c-59.333 26 -110 77 -152 153v310c39.333 -101.333 96.666 -173 171.999 -215
c36 -20.667 97.333 -31 184 -31h564c0 36 -2.33301 67.333 -7 94c-10.667 65.333 -45.334 146.666 -104.001 243.999l-12 20l170 240c19.333 -29.333 37 -60.666 53 -93.999c21.333 -46 41 -109.667 59 -191c22.667 -106.667 53.334 -185 92.001 -235
c40 -48 88 -74.667 144 -80l-80 -232c-64.667 14.667 -118 50.334 -160 107.001z" />
    <glyph glyph-name="afii57420" unicode="&#x62c;" horiz-adv-x="1445" arabic-form="isolated" 
d="M808 -299l-161 -163l-170 161l161 162zM1298 14c-64.667 14.667 -117.998 50.334 -159.998 107.001l-47 -121h-668c-93.333 0 -161.333 10.333 -204 31c-59.333 26 -110 77 -152 153v310c39.333 -101.333 96.666 -173 171.999 -215c36 -20.667 97.333 -31 184 -31h609
c-38.667 58.667 -69.667 118.667 -93 180l-26 70c-50 130.667 -128 196 -234 196c-39.333 0 -74 -7.33301 -104 -22c-22 -12.667 -50.667 -39.334 -86 -80.001c-23.333 -28.667 -41 -43 -53 -43c-14 0 -21 9.66699 -21 29l1 13l3 15c17.333 68 48 131 92 189
c71.333 92.667 152.666 139 243.999 139c168.667 0 291 -114.667 367 -344l37 -111c48.667 -144 121.667 -221.667 219 -233z" />
    <glyph glyph-name="afii57421" unicode="&#x62d;" horiz-adv-x="1445" arabic-form="isolated" 
d="M1298 14c-64.667 14.667 -117.998 50.334 -159.998 107.001l-47 -121h-668c-93.333 0 -161.333 10.333 -204 31c-59.333 26 -110 77 -152 153v310c39.333 -101.333 96.666 -173 171.999 -215c36 -20.667 97.333 -31 184 -31h609c-38.667 58.667 -69.667 118.667 -93 180
l-26 70c-50 130.667 -128 196 -234 196c-39.333 0 -74 -7.33301 -104 -22c-22 -12.667 -50.667 -39.334 -86 -80.001c-23.333 -28.667 -41 -43 -53 -43c-14 0 -21 9.66699 -21 29l1 13l3 15c17.333 68 48 131 92 189c71.333 92.667 152.666 139 243.999 139
c168.667 0 291 -114.667 367 -344l37 -111c48.667 -144 121.667 -221.667 219 -233z" />
    <glyph glyph-name="afii57422" unicode="&#x62e;" horiz-adv-x="1445" arabic-form="isolated" 
d="M898 1202l-161 -162l-166 162l160 164zM1298 14c-64.667 14.667 -117.998 50.334 -159.998 107.001l-47 -121h-668c-93.333 0 -161.333 10.333 -204 31c-59.333 26 -110 77 -152 153v310c39.333 -101.333 96.666 -173 171.999 -215c36 -20.667 97.333 -31 184 -31h609
c-38.667 58.667 -69.667 118.667 -93 180l-26 70c-50 130.667 -128 196 -234 196c-39.333 0 -74 -7.33301 -104 -22c-22 -12.667 -50.667 -39.334 -86 -80.001c-23.333 -28.667 -41 -43 -53 -43c-14 0 -21 9.66699 -21 29l1 13l3 15c17.333 68 48 131 92 189
c71.333 92.667 152.666 139 243.999 139c168.667 0 291 -114.667 367 -344l37 -111c48.667 -144 121.667 -221.667 219 -233z" />
    <glyph glyph-name="afii57423" unicode="&#x62f;" horiz-adv-x="1060" arabic-form="isolated" 
d="M743 106c-17.333 -48.667 -30.3301 -78.666 -38.9971 -89.999c-8 -10.667 -21.667 -16 -41 -16h-357c-52.667 0 -96.334 4.66699 -131.001 14c-68 20 -102 67.333 -102 142c0 67.333 21 150.666 63 249.999c20.667 46 38 69 52 69c10.667 0 16 -8 16 -24l-4 -41
c-0.666992 -4 -1.33398 -9.66699 -2.00098 -17v-20c0 -51.333 18.333 -87 55 -107c21.333 -12 76.666 -18 165.999 -18h266c-4 11.333 -7.33301 23 -10 35l-24 107c-0.666992 2.66699 -1.66699 5.66699 -3 9c-12.667 50.667 -25.334 91 -38.001 121
c-20.667 52 -53.667 110 -99 174l94 260c83.333 -66.667 146.333 -203 189 -409l27 -117c12.667 -57.333 35 -101 67 -131c32.667 -30 68.334 -47 107.001 -51l-82 -232c-70 18 -124 56.333 -162 115z" />
    <glyph glyph-name="afii57424" unicode="&#x630;" horiz-adv-x="1060" arabic-form="isolated" 
d="M655 1198l-162 -172l-170 170l164 166zM743 106c-17.333 -48.667 -30.3301 -78.666 -38.9971 -89.999c-8 -10.667 -21.667 -16 -41 -16h-357c-52.667 0 -96.334 4.66699 -131.001 14c-68 20 -102 67.333 -102 142c0 67.333 21 150.666 63 249.999c20.667 46 38 69 52 69
c10.667 0 16 -8 16 -24l-4 -41c-0.666992 -4 -1.33398 -9.66699 -2.00098 -17v-20c0 -51.333 18.333 -87 55 -107c21.333 -12 76.666 -18 165.999 -18h266c-4 11.333 -7.33301 23 -10 35l-24 107c-0.666992 2.66699 -1.66699 5.66699 -3 9
c-12.667 50.667 -25.334 91 -38.001 121c-20.667 52 -53.667 110 -99 174l94 260c83.333 -66.667 146.333 -203 189 -409l27 -117c12.667 -57.333 35 -101 67 -131c32.667 -30 68.334 -47 107.001 -51l-82 -232c-70 18 -124 56.333 -162 115z" />
    <glyph glyph-name="afii57425" unicode="&#x631;" horiz-adv-x="833" arabic-form="isolated" 
d="M582 35c-32.667 -164.667 -68 -280.667 -106 -348c-58 -102 -142.667 -153 -254 -153c-86.667 0 -185 44.333 -295 133c-78 61.333 -117 100 -117 116c0 11.333 5.66699 17 17 17c5.33301 0 10 -0.666992 14 -2l43 -15c70 -22.667 137.333 -34 202 -34
c190.667 0 328.667 135.667 414 407c-6 10 -10.667 16.667 -14 20c-22.667 39.333 -44.667 83.666 -66 132.999c-27.333 65.333 -53.333 112 -78 140l97 264c22 -26.667 41 -59 57 -97l47 -112c67.333 -161.333 145.333 -247.333 234 -258l-82 -232
c-33.333 6.66699 -64 20.334 -92 41.001l-15 11z" />
    <glyph glyph-name="afii57426" unicode="&#x632;" horiz-adv-x="759" arabic-form="isolated" 
d="M500 1073l-161 -172l-174 164l163 168zM531 35c-32.667 -164.667 -68 -280.667 -106 -348c-58 -102 -142.667 -153 -254 -153c-86.667 0 -185 44.333 -295 133c-78 61.333 -117 100 -117 116c0 11.333 5.66699 17 17 17c5.33301 0 10 -0.666992 14 -2l43 -15
c70 -22.667 137.333 -34 202 -34c190.667 0 328.667 135.667 414 407c-6 10 -10.667 16.667 -14 20c-22.667 39.333 -44.667 83.666 -66 132.999c-27.333 65.333 -53.333 112 -78 140l97 264c22 -26.667 41 -59 57 -97l47 -112c67.333 -161.333 145.333 -247.333 234 -258
l-82 -232c-33.333 6.66699 -64 20.334 -92 41.001l-15 11z" />
    <glyph glyph-name="afii57427" unicode="&#x633;" horiz-adv-x="1433" arabic-form="isolated" 
d="M1128 956c25.333 -42 45.6699 -84.999 61.0029 -128.999c22.667 -68 38.334 -164.667 47.001 -290c5.33301 -74.667 13.666 -137 24.999 -187c14 -62 48.667 -96 104 -102l-88 -230c-76.667 26 -130.334 73.333 -161.001 142l-50 -131c-17.333 -4 -37.666 -6 -60.999 -6
c-118.667 0 -203.334 58.667 -254.001 176l-76 -172c-20 -7.33301 -39.667 -11 -59 -11c-82 0 -149 31.667 -201 95c-66 -68.667 -148 -103 -246 -103c-36.667 0 -71.334 5 -104.001 15l88 227l47 -2c54 0 98.333 11.667 133 35c-2 29.333 -5.33301 56.666 -10 81.999
c-16.667 84 -36.334 144.667 -59.001 182l116 299c30.667 -46.667 52.667 -87 66 -121c18.667 -44.667 31.667 -97.334 39 -158.001l12 -145c6 -71.333 20.333 -118.333 43 -141c24.667 -22 55.334 -33 92.001 -33c36 0 66.667 11.667 92 35l-43 194l125 307
c45.333 -111.333 70.666 -215.666 75.999 -312.999c4.66699 -83.333 13.667 -137.333 27 -162c19.333 -39.333 54 -59 104 -59c23.333 0 46 5.33301 68 16l-6 47l-2 43c-4 108 -24.667 203 -62 285z" />
    <glyph glyph-name="afii57428" unicode="&#x634;" horiz-adv-x="1433" arabic-form="isolated" 
d="M878 1231l-137 -152l-146 138l138 155zM985 995l-117 -137l-131 121l-103 -121l-133 127l117 135l129 -123l111 123zM1128 956c25.333 -42 45.6699 -84.999 61.0029 -128.999c22.667 -68 38.334 -164.667 47.001 -290c5.33301 -74.667 13.666 -137 24.999 -187
c14 -62 48.667 -96 104 -102l-88 -230c-76.667 26 -130.334 73.333 -161.001 142l-50 -131c-17.333 -4 -37.666 -6 -60.999 -6c-118.667 0 -203.334 58.667 -254.001 176l-76 -172c-20 -7.33301 -39.667 -11 -59 -11c-82 0 -149 31.667 -201 95
c-66 -68.667 -148 -103 -246 -103c-36.667 0 -71.334 5 -104.001 15l88 227l47 -2c54 0 98.333 11.667 133 35c-2 29.333 -5.33301 56.666 -10 81.999c-16.667 84 -36.334 144.667 -59.001 182l116 299c30.667 -46.667 52.667 -87 66 -121
c18.667 -44.667 31.667 -97.334 39 -158.001l12 -145c6 -71.333 20.333 -118.333 43 -141c24.667 -22 55.334 -33 92.001 -33c36 0 66.667 11.667 92 35l-43 194l125 307c45.333 -111.333 70.666 -215.666 75.999 -312.999c4.66699 -83.333 13.667 -137.333 27 -162
c19.333 -39.333 54 -59 104 -59c23.333 0 46 5.33301 68 16l-6 47l-2 43c-4 108 -24.667 203 -62 285z" />
    <glyph glyph-name="afii57429" unicode="&#x635;" horiz-adv-x="1439" arabic-form="isolated" 
d="M1284 18c-78 24.667 -131.998 66.332 -161.998 124.999l-27 -57c-26.667 -57.333 -60 -86 -100 -86h-574c-93.333 0 -161.333 10.333 -204 31c-59.333 26 -110 77 -152 153v310c21.333 -56 47.333 -102 78 -138c26 -30 57.333 -55.667 94 -77
c37.333 -20.667 88 -31 152 -31h30l-10 86c-5.33301 42 -12 82.333 -20 121c-8.66699 44.667 -17.667 82.667 -27 114l74 179c16.667 -41.333 31.667 -84.666 45 -129.999c11.333 -38.667 21.333 -89.667 30 -153c39.333 70.667 79.666 131.334 120.999 182.001
c101.333 121.333 210.666 182 327.999 182c102 0 177.667 -46.333 227 -139c16.667 -30.667 29 -65.334 37 -104.001c10.667 -47.333 21.667 -109 33 -185c16 -96.667 53.667 -147.667 113 -153zM1083 247.998c-12 30.667 -20.333 73.667 -25 129
c-8 116 -62.667 174 -164 174c-139.333 0 -256 -101 -350 -303h539z" />
    <glyph glyph-name="afii57430" unicode="&#x636;" horiz-adv-x="1439" arabic-form="isolated" 
d="M933 1202l-157 -170l-176 162l159 172zM1284 18c-78 24.667 -131.998 66.332 -161.998 124.999l-27 -57c-26.667 -57.333 -60 -86 -100 -86h-574c-93.333 0 -161.333 10.333 -204 31c-59.333 26 -110 77 -152 153v310c21.333 -56 47.333 -102 78 -138
c26 -30 57.333 -55.667 94 -77c37.333 -20.667 88 -31 152 -31h30l-10 86c-5.33301 42 -12 82.333 -20 121c-8.66699 44.667 -17.667 82.667 -27 114l74 179c16.667 -41.333 31.667 -84.666 45 -129.999c11.333 -38.667 21.333 -89.667 30 -153
c39.333 70.667 79.666 131.334 120.999 182.001c101.333 121.333 210.666 182 327.999 182c102 0 177.667 -46.333 227 -139c16.667 -30.667 29 -65.334 37 -104.001c10.667 -47.333 21.667 -109 33 -185c16 -96.667 53.667 -147.667 113 -153zM1083 247.998
c-12 30.667 -20.333 73.667 -25 129c-8 116 -62.667 174 -164 174c-139.333 0 -256 -101 -350 -303h539z" />
    <glyph glyph-name="afii57431" unicode="&#x637;" horiz-adv-x="1439" arabic-form="isolated" 
d="M1284 18c-78 24 -135.333 65.667 -172 125l-21 -57c-20 -57.333 -52 -86 -96 -86h-574c-93.333 -0 -161.333 10.333 -204 31c-59.333 26 -110 77 -152 153v310c39.333 -101.333 96.666 -173 171.999 -215c36.667 -19.333 90.667 -29.666 162 -30.999l-17 602
c-2 87.333 -6.66699 149.666 -14 186.999c-7.33301 35.333 -22.333 73.333 -45 114l156 190c44.667 -80.667 73.334 -155 86.001 -223c12 -67.333 18 -183.333 18 -348v-188l12 16c117.333 154 239 231 365 231c57.333 0 110 -18.333 158 -55
c60.667 -50 101.667 -140.667 123 -272l16 -101c16 -96.667 53.667 -147.667 113 -153zM1083 248c-12 30.667 -20.333 73.667 -25 129c-8 116 -62.667 174 -164 174c-139.333 0 -256 -101 -350 -303h539z" />
    <glyph glyph-name="afii57432" unicode="&#x638;" horiz-adv-x="1439" arabic-form="isolated" 
d="M1030 1204l-156 -174l-176 164l162 174zM1284 18c-78 24 -135.333 65.667 -172 125l-21 -57c-20 -57.333 -52 -86 -96 -86h-574c-93.333 -0 -161.333 10.333 -204 31c-59.333 26 -110 77 -152 153v310c39.333 -101.333 96.666 -173 171.999 -215
c36.667 -19.333 90.667 -29.666 162 -30.999l-17 602c-2 87.333 -6.66699 149.666 -14 186.999c-7.33301 35.333 -22.333 73.333 -45 114l156 190c44.667 -80.667 73.334 -155 86.001 -223c12 -67.333 18 -183.333 18 -348v-188l12 16c117.333 154 239 231 365 231
c57.333 0 110 -18.333 158 -55c60.667 -50 101.667 -140.667 123 -272l16 -101c16 -96.667 53.667 -147.667 113 -153zM1083 248c-12 30.667 -20.333 73.667 -25 129c-8 116 -62.667 174 -164 174c-139.333 0 -256 -101 -350 -303h539z" />
    <glyph glyph-name="afii57433" unicode="&#x639;" horiz-adv-x="1447" arabic-form="isolated" 
d="M1298 14c-64.667 14.667 -117.998 50.333 -159.998 107l-45 -121h-672c-93.333 -0 -161.333 10.333 -204 31c-59.333 26 -110 77 -152 153v310c39.333 -101.333 96.666 -173 171.999 -215c36 -20.667 97.333 -31 184 -31h142c-108 61.333 -162 154 -162 278
c0 120 48 222 144 306s213 126 351 126c72 0 144.667 -14.333 218 -43l151 -233c-88 45.333 -179.333 68 -274 68c-94 0 -173.667 -24 -239 -72c-64.667 -47.333 -97 -105.333 -97 -174c0 -68 34 -127 102 -177s150.667 -76.333 248 -79l90 248
c33.333 -76 71.666 -133.333 114.999 -172c49.333 -44 106 -70 170 -78z" />
    <glyph glyph-name="afii57434" unicode="&#x63a;" horiz-adv-x="1447" arabic-form="isolated" 
d="M819 1227l-162 -172l-146 139l162 174zM1298 14c-64.667 14.667 -117.998 50.333 -159.998 107l-45 -121h-672c-93.333 -0 -161.333 10.333 -204 31c-59.333 26 -110 77 -152 153v310c39.333 -101.333 96.666 -173 171.999 -215c36 -20.667 97.333 -31 184 -31h142
c-108 61.333 -162 154 -162 278c0 120 48 222 144 306s213 126 351 126c72 0 144.667 -14.333 218 -43l151 -233c-88 45.333 -179.333 68 -274 68c-94 0 -173.667 -24 -239 -72c-64.667 -47.333 -97 -105.333 -97 -174c0 -68 34 -127 102 -177s150.667 -76.333 248 -79
l90 248c33.333 -76 71.666 -133.333 114.999 -172c49.333 -44 106 -70 170 -78z" />
    <glyph glyph-name="afii57441" unicode="&#x641;" horiz-adv-x="1449" arabic-form="isolated" 
d="M1300 14c-64.667 14.667 -117.999 50.334 -159.999 107.001l-47 -121h-672c-93.333 0 -161.333 10.333 -204 31c-59.333 26 -110 77 -152 153v310c39.333 -101.333 96.666 -173 171.999 -215c36 -20.667 97.333 -31 184 -31h432
c-133.333 81.333 -200 185.666 -200 312.999c0 70 22 130.333 66 181c44 51.333 96.333 77 157 77c62.667 0 118.667 -26.667 168 -80c50.667 -52.667 91 -133.667 121 -243c22 -80 46.667 -136.667 74 -170c37.333 -48 85 -74.667 143 -80zM1019 1143l-161 -172l-170 168
l161 168zM939.001 509c-29.333 59.333 -62 89 -98 89c-36.667 0 -55 -22.667 -55 -68c0 -101.333 65.667 -175 197 -221c0 74 -14.667 140.667 -44 200z" />
    <glyph glyph-name="afii57442" unicode="&#x642;" horiz-adv-x="1449" arabic-form="isolated" 
d="M1300 14c-64.667 14.667 -117.999 50.334 -159.999 107.001l-47 -121h-672c-93.333 0 -161.333 10.333 -204 31c-59.333 26 -110 77 -152 153v310c39.333 -101.333 96.666 -173 171.999 -215c36 -20.667 97.333 -31 184 -31h432
c-133.333 81.333 -200 185.666 -200 312.999c0 70 22 130.333 66 181c44 51.333 96.333 77 157 77c62.667 0 118.667 -26.667 168 -80c50.667 -52.667 91 -133.667 121 -243c22 -80 46.667 -136.667 74 -170c37.333 -48 85 -74.667 143 -80zM688.001 1178l118 135l166 -154
l-151 -170l-154 139l-119 -129l-174 158l154 166zM939.001 509c-29.333 59.333 -62 89 -98 89c-36.667 0 -55 -22.667 -55 -68c0 -101.333 65.667 -175 197 -221c0 74 -14.667 140.667 -44 200z" />
    <glyph glyph-name="afii57443" unicode="&#x643;" horiz-adv-x="1445" arabic-form="isolated" 
d="M1296 14c-64.667 14.667 -117.999 50.334 -159.999 107.001l-47 -121h-668c-93.333 0 -161.333 10.333 -204 31c-59.333 26 -110 77 -152 153v310c39.333 -101.333 96.666 -173 171.999 -215c36 -20.667 97.333 -31 184 -31h613l-27 41l-22 41
c-29.333 52 -92.333 78 -189 78h-333l-76 4c-41.333 1.33301 -75 9.33301 -101 24l8 56c14.667 96 40.667 166 78 210c38.667 44.667 107 94 205 148l91 46l616 280l-179 -316l-360 -162c-35.333 -14 -60 -29 -74 -45h246c55.333 0 100.333 -10 135 -30
c22 -14.667 37.667 -28.334 47 -41.001c8.66699 -12 16.334 -24.333 23.001 -37c8 -15.333 20.333 -42 37 -80c29.333 -64.667 54.333 -111 75 -139c37.333 -47.333 84.666 -74 141.999 -80z" />
    <glyph glyph-name="afii57444" unicode="&#x644;" horiz-adv-x="1173" arabic-form="isolated" 
d="M1012 14c-65.333 14.667 -118.666 50.334 -159.999 107.001l-47 -121h-398c-93.333 0 -161.333 10.333 -204 31c-59.333 26 -110 77 -152 153v310c39.333 -101.333 96.666 -173 171.999 -215c36 -20.667 97.333 -31 184 -31h303l-8 30l-4 21
c-6.66699 34 -10 79.667 -10 137l-10 488c-2 49.333 -7.66699 91 -17 125c-6.66699 32 -21.667 66 -45 102l160 190l10 -18c11.333 -20 21.333 -39.667 30 -59c6.66699 -14.667 13 -30.334 19 -47.001c27.333 -74.667 41 -176.667 41 -306l3 -395c0.666992 -8 1 -16 1 -24
c6.66699 -64 30 -120 70 -168c40 -46.667 87.667 -72.667 143 -78z" />
    <glyph glyph-name="afii57445" unicode="&#x645;" horiz-adv-x="1447" arabic-form="isolated" 
d="M1298 14c-64.667 14.667 -118 50.3301 -160 106.997l-6 -19c-16.667 -48.667 -35.667 -97.667 -57 -147c-32.667 -80 -60 -120 -82 -120c-10.667 0 -27 7.33301 -49 22l-43 31c-26 18.667 -59 38.334 -99 59.001c-44 25.333 -82 43 -114 53h-230
c-52 0 -85.333 0.666992 -100 2c-58.667 2.66699 -105.667 12.334 -141 29.001c-59.333 26 -110 77 -152 153v310c39.333 -101.333 96.666 -173 171.999 -215c22.667 -11.333 42.334 -19 59.001 -23s38.667 -6 66 -6l82 -2l82 178l57 133
c43.333 100.667 81.333 168.334 114 203.001c32 35.333 73.333 53 124 53c52 0 99 -17 141 -51c64 -48.667 124 -136 180 -262c36.667 -84 68 -142.667 94 -176c40.667 -48 88.667 -74.667 144 -80zM968 298.996l-5.99805 29c-12.667 57.333 -27.334 104 -44.001 140
c-13.333 29.333 -31.333 57 -54 83c-28 30 -58 45 -90 45c-31.333 0 -57.333 -20.333 -78 -61c-22 -44 -52 -118 -90 -222c44 -13.333 98.667 -37 164 -71c51.333 -28.667 99.666 -58 144.999 -88z" />
    <glyph glyph-name="afii57446" unicode="&#x646;" horiz-adv-x="1439" arabic-form="isolated" 
d="M696 807l-135 -152l-146 140l138 151zM1087 0l-671.999 -0.000976562c-93.333 0 -161.333 10.333 -204 31c-59.333 26 -110 77 -152 153v310c39.333 -101.333 96.666 -173 171.999 -215c36 -20.667 97.333 -31 184 -31h564c0 36 -2.33301 67.333 -7 94
c-10.667 65.333 -45.334 146.666 -104.001 243.999l-12 20l170 240c19.333 -29.333 37 -60.666 53 -93.999c21.333 -46 41 -109.667 59 -191c22.667 -106.667 53.334 -185 92.001 -235c40 -48 88 -74.667 144 -80l-80 -232c-64.667 14.667 -118 50.334 -160 107.001z" />
    <glyph glyph-name="afii57470" unicode="&#x647;" horiz-adv-x="1161" arabic-form="isolated" 
d="M1009 14c-40 8.66699 -79.001 29.334 -117.001 62.001c-40 34 -74 75 -102 123l-35 -62c-18 -29.333 -31.667 -50.333 -41 -63c-16 -24 -39 -41 -69 -51c-60 -19.333 -128.333 -29 -205 -29c-248.667 0 -373 58.667 -373 176c0 39.333 11 98 33 176
c24 88 47 157.667 69 209c16 34 40 62.667 72 86l37 24l84 46c18 9.33301 33 16.666 45 21.999l94 41c63.333 30.667 108.333 56 135 76c-10 24 -21.333 46.667 -34 68l96 153c17.333 -30 35 -62.667 53 -98c46.667 -95.333 85 -219.666 115 -372.999
c22.667 -124.667 45 -207.334 67 -248.001c34.667 -62.667 87.334 -98 158.001 -106zM752.999 395c-11.333 78.667 -22.001 141.331 -32.001 187.998c-7.33301 36.667 -17.666 79.334 -30.999 128.001c-12.667 -30.667 -23 -52 -31 -64c-4 -7.33301 -9 -14.666 -15 -21.999
l-18 -17c-22 -18 -84 -52 -186 -102c-99.333 -48.667 -163 -85 -191 -109c-24.667 -18 -37 -37.667 -37 -59c0 -26.667 27 -50.667 81 -72c53.333 -22 114 -33 182 -33c120 0 218 20 294 60z" />
    <glyph glyph-name="afii57448" unicode="&#x648;" horiz-adv-x="1093" arabic-form="isolated" 
d="M771 -247c-60.667 -147.333 -154 -221 -280 -221c-79.333 0 -171 37.333 -275 112c-54.667 40 -94.667 72.667 -120 98c-18 16 -27 29 -27 39s6 15 18 15l9 -1c4.66699 -0.666992 8.66699 -1.66699 12 -3l47 -15c69.333 -20 133.666 -30 192.999 -30
c138 0 253.333 84.333 346 253h-35c-136 0 -249.333 42 -340 126c-90 83.333 -135 188 -135 314c0 104 32 192.667 96 266c64 74 141 111 231 111c72.667 0 135 -32 187 -96c40.667 -48 73.334 -126.667 98.001 -236c34 -147.333 109.667 -227 227 -239l-82 -232
c-37.333 8 -70 23 -98 45c-17.333 -132.667 -41.333 -234.667 -72 -306zM597 414c-6 26.667 -10 44.999 -12 54.999c-3.33301 14.667 -10 32.334 -20 53.001c-14 30 -34.667 45 -62 45c-68 0 -102 -44.333 -102 -133c0 -120 67.667 -180 203 -180c30 0 58.667 1.33301 86 4
c-45.333 32 -76.333 84 -93 156z" />
    <glyph glyph-name="afii57449" unicode="&#x649;" horiz-adv-x="1431" arabic-form="isolated" 
d="M1277 18c-64.667 24 -115.004 60.332 -151.004 108.999c-18.667 24.667 -33.667 52.667 -45 84c-10.667 28.667 -21 88.667 -31 180c-7.33301 71.333 -15.666 115 -24.999 131c-12.667 28.667 -37 43 -73 43c-61.333 0 -125.666 -25.333 -192.999 -76
c-83.333 -62 -125 -117.667 -125 -167c0 -26 40.333 -51.333 121 -76l68 -21c66.667 -20.667 100 -61.667 100 -123c0 -152 -43.667 -285.333 -131 -400c-88 -115.333 -189.667 -173 -305 -173c-118 0 -217 57 -297 171c-80.667 113.333 -121 252.333 -121 417
c0 112 17 211.667 51 299c31.333 83.333 59.333 125 84 125c11.333 0 17 -8.33301 17 -25c0 -7.33301 -1.66699 -16.666 -5 -27.999c-2.66699 -12 -8 -30 -16 -54c-24.667 -82.667 -37 -159.667 -37 -231c0 -121.333 33 -222 99 -302c65.333 -81.333 147 -122 245 -122
c76.667 0 144.334 22.667 203.001 68c39.333 32.667 59 67.334 59 104.001c0 26 -19.667 43.667 -59 53l-102 27c-73.333 18.667 -121.333 37 -144 55c-26 21.333 -39 51.333 -39 90c0 135.333 63 274 189 416c130.667 150 263.667 225 399 225
c64 0 115.333 -28.667 154 -86c28.667 -40.667 46.334 -104.667 53.001 -192c13.333 -154.667 60.333 -252.334 141 -293.001z" />
    <glyph glyph-name="afii57450" unicode="&#x64a;" horiz-adv-x="1431" arabic-form="isolated" 
d="M1277 18c-64.667 24 -115.004 60.332 -151.004 108.999c-18.667 24.667 -33.667 52.667 -45 84c-10.667 28.667 -21 88.667 -31 180c-7.33301 71.333 -15.666 115 -24.999 131c-12.667 28.667 -37 43 -73 43c-61.333 0 -125.666 -25.333 -192.999 -76
c-83.333 -62 -125 -117.667 -125 -167c0 -26 40.333 -51.333 121 -76l68 -21c66.667 -20.667 100 -61.667 100 -123c0 -152 -43.667 -285.333 -131 -400c-88 -115.333 -189.667 -173 -305 -173c-118 0 -217 57 -297 171c-80.667 113.333 -121 252.333 -121 417
c0 112 17 211.667 51 299c31.333 83.333 59.333 125 84 125c11.333 0 17 -8.33301 17 -25c0 -7.33301 -1.66699 -16.666 -5 -27.999c-2.66699 -12 -8 -30 -16 -54c-24.667 -82.667 -37 -159.667 -37 -231c0 -121.333 33 -222 99 -302c65.333 -81.333 147 -122 245 -122
c76.667 0 144.334 22.667 203.001 68c39.333 32.667 59 67.334 59 104.001c0 26 -19.667 43.667 -59 53l-102 27c-73.333 18.667 -121.333 37 -144 55c-26 21.333 -39 51.333 -39 90c0 135.333 63 274 189 416c130.667 150 263.667 225 399 225
c64 0 115.333 -28.667 154 -86c28.667 -40.667 46.334 -104.667 53.001 -192c13.333 -154.667 60.333 -252.334 141 -293.001z" />
    <glyph glyph-name="afii57506" unicode="&#x67e;" horiz-adv-x="1439" arabic-form="isolated" 
d="M1087 0l-671.999 -0.000976562c-93.333 0 -161.333 10.333 -204 31c-59.333 26 -110 77 -152 153v310c39.333 -101.333 96.666 -173 171.999 -215c36 -20.667 97.333 -31 184 -31h564c0 36 -2.33301 67.333 -7 94c-10.667 65.333 -45.334 146.666 -104.001 243.999
l-12 20l170 240c19.333 -29.333 37 -60.666 53 -93.999c21.333 -46 41 -109.667 59 -191c22.667 -106.667 53.334 -185 92.001 -235c40 -48 88 -74.667 144 -80l-80 -232c-64.667 14.667 -118 50.334 -160 107.001zM462.001 -571.001l148 156l145 -144l-147 -155z
M610.001 -335.001l-123 -127l-164 161l154 160l151 -149l121 127l166 -166l-158 -158z" />
    <glyph glyph-name="afii57507" unicode="&#x686;" horiz-adv-x="1445" arabic-form="isolated" 
d="M1298 14c-64.667 14.667 -117.998 50.334 -159.998 107.001l-47 -121h-668c-93.333 0 -161.333 10.333 -204 31c-59.333 26 -110 77 -152 153v310c39.333 -101.333 96.666 -173 171.999 -215c36 -20.667 97.333 -31 184 -31h609c-38.667 58.667 -69.667 118.667 -93 180
l-26 70c-50 130.667 -128 196 -234 196c-39.333 0 -74 -7.33301 -104 -22c-22 -12.667 -50.667 -39.334 -86 -80.001c-23.333 -28.667 -41 -43 -53 -43c-14 0 -21 9.66699 -21 29l1 13l3 15c17.333 68 48 131 92 189c71.333 92.667 152.666 139 243.999 139
c168.667 0 291 -114.667 367 -344l37 -111c48.667 -144 121.667 -221.667 219 -233zM487.002 -571l147 156l146 -144l-148 -155zM634.002 -335l-123 -127l-163 161l153 160l152 -149l121 127l165 -166l-157 -158z" />
    <glyph glyph-name="afii57508" unicode="&#x698;" horiz-adv-x="759" arabic-form="isolated" 
d="M531 35c-32.667 -164.667 -68 -280.667 -106 -348c-58 -102 -142.667 -153 -254 -153c-86.667 0 -185 44.333 -295 133c-78 61.333 -117 100 -117 116c0 11.333 5.66699 17 17 17c5.33301 0 10 -0.666992 14 -2l43 -15c70 -22.667 137.333 -34 202 -34
c190.667 0 328.667 135.667 414 407c-6 10 -10.667 16.667 -14 20c-22.667 39.333 -44.667 83.666 -66 132.999c-27.333 65.333 -53.333 112 -78 140l97 264c22 -26.667 41 -59 57 -97l47 -112c67.333 -161.333 145.333 -247.333 234 -258l-82 -232
c-33.333 6.66699 -64 20.334 -92 41.001l-15 11zM480 1321l-147 -156l-145 144l147 155zM333 1085l123 127l164 -161l-154 -160l-151 149l-121 -127l-166 166l157 158z" />
    <glyph glyph-name="afii57509" unicode="&#x6af;" horiz-adv-x="1445" arabic-form="isolated" 
d="M1296 14c-64.667 14.667 -117.999 50.334 -159.999 107.001l-47 -121h-668c-93.333 0 -161.333 10.333 -204 31c-59.333 26 -110 77 -152 153v310c39.333 -101.333 96.666 -173 171.999 -215c36 -20.667 97.333 -31 184 -31h613l-27 41l-22 41
c-29.333 52 -92.333 78 -189 78h-333l-76 4c-41.333 1.33301 -75 9.33301 -101 24l8 56c14.667 96 40.667 166 78 210c38.667 44.667 107 94 205 148l91 46l616 280l-179 -316l-360 -162c-35.333 -14 -60 -29 -74 -45h246c55.333 0 100.333 -10 135 -30
c22 -14.667 37.667 -28.334 47 -41.001c8.66699 -12 16.334 -24.333 23.001 -37c8 -15.333 20.333 -42 37 -80c29.333 -64.667 54.333 -111 75 -139c37.333 -47.333 84.666 -74 141.999 -80zM449.001 990c38.667 44.667 107 94 205 148l91 46l497 221l-98 -174l-758 -377
c15.333 58.667 36.333 104 63 136z" />
    <glyph glyph-name="uniFB57" unicode="&#x67e;" horiz-adv-x="1099" arabic-form="final" 
d="M1095 0h-671.998c-92 -0 -159.333 10.333 -202 31c-60.667 26.667 -112 77.667 -154 153v310c39.333 -101.333 96.666 -173 171.999 -215c38 -20.667 99.333 -31 184 -31h566c-2 36.667 -5 68 -9 94c-6.66699 41.333 -17 79.666 -31 114.999
c-16.667 42.667 -40.334 85.667 -71.001 129l-14 20l170 240c24 -36 41.667 -67.333 53 -94c21.333 -46 41 -109.667 59 -191c25.333 -110.667 57 -189 95 -235c37.333 -47.333 84.333 -74 141 -80l-80 -232c-64.667 14.667 -118 50.334 -160 107.001zM477.002 -571l147 156
l145 -144l-147 -155zM624.002 -335l-123 -127l-164 161l154 160l151 -149l121 127l166 -166l-157 -158z" />
    <glyph glyph-name="uniFB58" unicode="&#x67e;" horiz-adv-x="1384" arabic-form="initial" 
d="M1028 0h-671.998c-92 -0 -159.333 10.333 -202 31c-60.667 26.667 -112 77.667 -154 153v310c39.333 -101.333 96.666 -173 171.999 -215c38 -20.667 99.333 -31 184 -31h566c-2 36.667 -5 68 -9 94c-6.66699 41.333 -17 79.666 -31 114.999
c-16.667 42.667 -40.334 85.667 -71.001 129l-14 20l170 240c24 -36 41.667 -67.333 53 -94c21.333 -46 41 -109.667 59 -191c25.333 -110.667 57 -189 95 -235c37.333 -47.333 84.333 -74 141 -80l-80 -232c-64.667 14.667 -118 50.334 -160 107.001zM399.002 -571l148 156
l145 -144l-147 -155zM547.002 -335l-123 -127l-164 161l154 160l151 -149l121 127l166 -166l-158 -158z" />
    <glyph glyph-name="uniFB59" unicode="&#x67e;" horiz-adv-x="1032" arabic-form="medial" 
d="M1028 0h-671.998c-92 -0 -159.333 10.333 -202 31c-60.667 26.667 -112 77.667 -154 153v310c39.333 -101.333 96.666 -173 171.999 -215c38 -20.667 99.333 -31 184 -31h566c-2 36.667 -5 68 -9 94c-6.66699 41.333 -17 79.666 -31 114.999
c-16.667 42.667 -40.334 85.667 -71.001 129l-14 20l170 240c24 -36 41.667 -67.333 53 -94c21.333 -46 41 -109.667 59 -191c25.333 -110.667 57 -189 95 -235c37.333 -47.333 84.333 -74 141 -80l-80 -232c-64.667 14.667 -118 50.334 -160 107.001zM399.002 -571l148 156
l145 -144l-147 -155zM547.002 -335l-123 -127l-164 161l154 160l151 -149l121 127l166 -166l-158 -158z" />
    <glyph glyph-name="uniFB7B" unicode="&#x686;" horiz-adv-x="1095" arabic-form="final" 
d="M1298 14c-64.667 14.667 -117.998 50.334 -159.998 107.001l-47 -121h-668c-92 0 -159.333 10.333 -202 31c-60.667 26.667 -112 77.667 -154 153v310c39.333 -101.333 96.666 -173 171.999 -215c38 -20.667 99.333 -31 184 -31h609
c-38.667 58.667 -69.667 118.667 -93 180l-26 70c-50 130.667 -128 196 -234 196c-39.333 0 -74 -7.33301 -104 -22c-22.667 -13.333 -50.667 -40 -84 -80c-25.333 -28.667 -43 -43 -53 -43c-15.333 0 -23 9.66699 -23 29c0 3.33301 0.333008 7.66602 1 12.999l3 15
c18 70 49.333 133 94 189c71.333 92.667 152 139 242 139c163.333 0 285.666 -114.667 366.999 -344l39 -111c50.667 -144 123.667 -221.667 219 -233zM483.002 -571l147 156l146 -144l-148 -155zM630.002 -335l-123 -127l-164 161l154 160l152 -149l120 127l166 -166
l-157 -158z" />
    <glyph glyph-name="uniFB7C" unicode="&#x686;" horiz-adv-x="1380" arabic-form="initial" 
d="M1231 14c-64.667 14.667 -117.998 50.334 -159.998 107.001l-47 -121h-668c-92 0 -159.333 10.333 -202 31c-60.667 26.667 -112 77.667 -154 153v310c39.333 -101.333 96.666 -173 171.999 -215c38 -20.667 99.333 -31 184 -31h609
c-38.667 58.667 -69.667 118.667 -93 180l-26 70c-50 130.667 -128 196 -234 196c-39.333 0 -74 -7.33301 -104 -22c-22.667 -13.333 -50.667 -40 -84 -80c-25.333 -28.667 -43 -43 -53 -43c-15.333 0 -23 9.66699 -23 29c0 3.33301 0.333008 7.66602 1 12.999l3 15
c18 70 49.333 133 94 189c71.333 92.667 152 139 242 139c163.333 0 285.666 -114.667 366.999 -344l39 -111c50.667 -144 123.667 -221.667 219 -233zM428.002 -571l147 156l146 -144l-148 -155zM575.002 -335l-122 -127l-164 161l153 160l152 -149l121 127l166 -166
l-158 -158z" />
    <glyph glyph-name="uniFB7D" unicode="&#x686;" horiz-adv-x="1028" arabic-form="medial" 
d="M1231 14c-64.667 14.667 -117.998 50.334 -159.998 107.001l-47 -121h-668c-92 0 -159.333 10.333 -202 31c-60.667 26.667 -112 77.667 -154 153v310c39.333 -101.333 96.666 -173 171.999 -215c38 -20.667 99.333 -31 184 -31h609
c-38.667 58.667 -69.667 118.667 -93 180l-26 70c-50 130.667 -128 196 -234 196c-39.333 0 -74 -7.33301 -104 -22c-22.667 -13.333 -50.667 -40 -84 -80c-25.333 -28.667 -43 -43 -53 -43c-15.333 0 -23 9.66699 -23 29c0 3.33301 0.333008 7.66602 1 12.999l3 15
c18 70 49.333 133 94 189c71.333 92.667 152 139 242 139c163.333 0 285.666 -114.667 366.999 -344l39 -111c50.667 -144 123.667 -221.667 219 -233zM428.002 -571l147 156l146 -144l-148 -155zM575.002 -335l-122 -127l-164 161l153 160l152 -149l121 127l166 -166
l-158 -158z" />
    <glyph glyph-name="uniFB8B" unicode="&#x698;" horiz-adv-x="339" arabic-form="final" 
d="M441 35c-32.667 -164.667 -68.667 -280.667 -108 -348c-58 -102 -142.667 -153 -254 -153c-84 0 -182.333 44.333 -295 133c-78 63.333 -117 102 -117 116c0 11.333 6.33301 17 19 17c5.33301 0 10 -0.666992 14 -2l43 -15c70 -22.667 137 -34 201 -34
c192 0 329.667 135.667 413 407l-12 20c-22.667 39.333 -44.667 83.666 -66 132.999c-25.333 60.667 -51 107.334 -77 140.001l94 264c24.667 -30 44.334 -62.333 59.001 -97l47 -112c67.333 -161.333 144.666 -247.333 231.999 -258l-80 -232c-28 6 -59.333 19.667 -94 41
l-13 11zM368 1321l-147 -156l-145 144l147 155zM221 1085l123 127l163 -161l-153 -160l-152 149l-120 -127l-166 166l158 158z" />
    <glyph glyph-name="uniFB8F" unicode="&#x6a9;" horiz-adv-x="1095" arabic-form="final" 
d="M1298 14c-64.667 14.667 -117.995 50.334 -159.995 107.001l-45 -121h-670c-92 0 -159.333 10.333 -202 31c-60.667 26.667 -112 77.667 -154 153v310c39.333 -101.333 96.666 -173 171.999 -215c38 -20.667 99.333 -31 184 -31h613l-49 82
c-20.667 34 -41.334 55.333 -62.001 64c-21.333 9.33301 -63 14 -125 14h-334l-77 4c-40 1.33301 -73 9.33301 -99 24l6 56c10.667 90.667 36.667 160.667 78 210c38.667 44.667 107 94 205 148c71.333 36.667 131.333 66 180 88l529 238l-181 -316l-358 -162
c-36 -15.333 -61.333 -30.333 -76 -45h246c55.333 0 100.333 -10 135 -30c22 -14.667 37.667 -28.334 47 -41.001c9.33301 -12 17.666 -24.333 24.999 -37c7.33301 -14.667 19.666 -41.334 36.999 -80.001c31.333 -69.333 55.666 -115.666 72.999 -138.999
c35.333 -47.333 83.333 -74 144 -80z" />
    <glyph glyph-name="uniFB90" unicode="&#x6a9;" horiz-adv-x="1380" arabic-form="initial" 
d="M1231 14c-64.667 14.667 -117.995 50.334 -159.995 107.001l-45 -121h-670c-92 0 -159.333 10.333 -202 31c-60.667 26.667 -112 77.667 -154 153v310c39.333 -101.333 96.666 -173 171.999 -215c38 -20.667 99.333 -31 184 -31h613l-49 82
c-20.667 34 -41.334 55.333 -62.001 64c-21.333 9.33301 -63 14 -125 14h-334l-77 4c-40 1.33301 -73 9.33301 -99 24l6 56c10.667 90.667 36.667 160.667 78 210c38.667 44.667 107 94 205 148c71.333 36.667 131.333 66 180 88l529 238l-181 -316l-358 -162
c-36 -15.333 -61.333 -30.333 -76 -45h246c55.333 0 100.333 -10 135 -30c22 -14.667 37.667 -28.334 47 -41.001c9.33301 -12 17.666 -24.333 24.999 -37c7.33301 -14.667 19.666 -41.334 36.999 -80.001c31.333 -69.333 55.666 -115.666 72.999 -138.999
c35.333 -47.333 83.333 -74 144 -80z" />
    <glyph glyph-name="uniFB91" unicode="&#x6a9;" horiz-adv-x="1028" arabic-form="medial" 
d="M1231 14c-64.667 14.667 -117.995 50.334 -159.995 107.001l-45 -121h-670c-92 0 -159.333 10.333 -202 31c-60.667 26.667 -112 77.667 -154 153v310c39.333 -101.333 96.666 -173 171.999 -215c38 -20.667 99.333 -31 184 -31h613l-49 82
c-20.667 34 -41.334 55.333 -62.001 64c-21.333 9.33301 -63 14 -125 14h-334l-77 4c-40 1.33301 -73 9.33301 -99 24l6 56c10.667 90.667 36.667 160.667 78 210c38.667 44.667 107 94 205 148c71.333 36.667 131.333 66 180 88l529 238l-181 -316l-358 -162
c-36 -15.333 -61.333 -30.333 -76 -45h246c55.333 0 100.333 -10 135 -30c22 -14.667 37.667 -28.334 47 -41.001c9.33301 -12 17.666 -24.333 24.999 -37c7.33301 -14.667 19.666 -41.334 36.999 -80.001c31.333 -69.333 55.666 -115.666 72.999 -138.999
c35.333 -47.333 83.333 -74 144 -80z" />
    <glyph glyph-name="uniFB93" unicode="&#x6af;" horiz-adv-x="1095" arabic-form="final" 
d="M1298 14c-64.667 14.667 -117.995 50.334 -159.995 107.001l-45 -121h-670c-92 0 -159.333 10.333 -202 31c-60.667 26.667 -112 77.667 -154 153v310c39.333 -101.333 96.666 -173 171.999 -215c38 -20.667 99.333 -31 184 -31h613l-49 82
c-20.667 34 -41.334 55.333 -62.001 64c-21.333 9.33301 -63 14 -125 14h-334l-77 4c-40 1.33301 -73 9.33301 -99 24l6 56c10.667 90.667 36.667 160.667 78 210c38.667 44.667 107 94 205 148c71.333 36.667 131.333 66 180 88l529 238l-181 -316l-358 -162
c-36 -15.333 -61.333 -30.333 -76 -45h246c55.333 0 100.333 -10 135 -30c22 -14.667 37.667 -28.334 47 -41.001c9.33301 -12 17.666 -24.333 24.999 -37c7.33301 -14.667 19.666 -41.334 36.999 -80.001c31.333 -69.333 55.666 -115.666 72.999 -138.999
c35.333 -47.333 83.333 -74 144 -80zM449.005 990c38.667 44.667 107 94 205 148l91 46l497 221l-98 -174l-758 -377c15.333 58.667 36.333 104 63 136z" />
    <glyph glyph-name="uniFB94" unicode="&#x6af;" horiz-adv-x="1380" arabic-form="initial" 
d="M1231 14c-64.667 14.667 -117.995 50.334 -159.995 107.001l-45 -121h-670c-92 0 -159.333 10.333 -202 31c-60.667 26.667 -112 77.667 -154 153v310c39.333 -101.333 96.666 -173 171.999 -215c38 -20.667 99.333 -31 184 -31h613l-49 82
c-20.667 34 -41.334 55.333 -62.001 64c-21.333 9.33301 -63 14 -125 14h-334l-77 4c-40 1.33301 -73 9.33301 -99 24l6 56c10.667 90.667 36.667 160.667 78 210c38.667 44.667 107 94 205 148c71.333 36.667 131.333 66 180 88l529 238l-181 -316l-358 -162
c-36 -15.333 -61.333 -30.333 -76 -45h246c55.333 0 100.333 -10 135 -30c22 -14.667 37.667 -28.334 47 -41.001c9.33301 -12 17.666 -24.333 24.999 -37c7.33301 -14.667 19.666 -41.334 36.999 -80.001c31.333 -69.333 55.666 -115.666 72.999 -138.999
c35.333 -47.333 83.333 -74 144 -80zM384.005 990c38.667 44.667 107 94 205 148l91 46l497 221l-98 -174l-758 -377c15.333 58.667 36.333 104 63 136z" />
    <glyph glyph-name="uniFB95" unicode="&#x6af;" horiz-adv-x="1028" arabic-form="medial" 
d="M1231 14c-64.667 14.667 -117.995 50.334 -159.995 107.001l-45 -121h-670c-92 0 -159.333 10.333 -202 31c-60.667 26.667 -112 77.667 -154 153v310c39.333 -101.333 96.666 -173 171.999 -215c38 -20.667 99.333 -31 184 -31h613l-49 82
c-20.667 34 -41.334 55.333 -62.001 64c-21.333 9.33301 -63 14 -125 14h-334l-77 4c-40 1.33301 -73 9.33301 -99 24l6 56c10.667 90.667 36.667 160.667 78 210c38.667 44.667 107 94 205 148c71.333 36.667 131.333 66 180 88l529 238l-181 -316l-358 -162
c-36 -15.333 -61.333 -30.333 -76 -45h246c55.333 0 100.333 -10 135 -30c22 -14.667 37.667 -28.334 47 -41.001c9.33301 -12 17.666 -24.333 24.999 -37c7.33301 -14.667 19.666 -41.334 36.999 -80.001c31.333 -69.333 55.666 -115.666 72.999 -138.999
c35.333 -47.333 83.333 -74 144 -80zM384.005 990c38.667 44.667 107 94 205 148l91 46l497 221l-98 -174l-758 -377c15.333 58.667 36.333 104 63 136z" />
    <glyph glyph-name="uniFBA5" unicode="&#x6c0;" horiz-adv-x="808" arabic-form="final" 
d="M1011 14c-42 9.33301 -81.6689 30.001 -119.002 62.001c-36.667 31.333 -70 72.333 -100 123l-59 -98c-7.33301 -12.667 -13 -21.667 -17 -27c-16 -24.667 -39.667 -41.667 -71 -51c-60 -19.333 -128.333 -29 -205 -29c-248.667 0 -373 58.667 -373 176
c0 34 11.667 92.667 35 176c27.333 99.333 50.333 169 69 209c17.333 36 41.333 64.667 72 86c16.667 12 42 27.667 76 47l33 17c4.66699 2 8.33398 4 11.001 6c18.667 9.33301 34 16.666 46 21.999l28 11l66 30c56.667 26 101.667 51.333 135 76l-34 68l96 153l29 -52
l24 -46c44.667 -90.667 82.334 -215 113.001 -373c15.333 -83.333 26.666 -138.333 33.999 -165c7.33301 -25.333 19 -53 35 -83c34.667 -62.667 87.334 -98 158.001 -106zM754.998 395.001c-11.333 78.667 -21.999 141.331 -31.999 187.998
c-7.33301 36.667 -17.666 79.334 -30.999 128.001c-12.667 -30.667 -23 -52 -31 -64c-10.667 -16.667 -22.334 -29.667 -35.001 -39c-16.667 -13.333 -35 -25.333 -55 -36c-20 -11.333 -63.667 -33.333 -131 -66c-98.667 -49.333 -161.667 -85.666 -189 -108.999
c-24.667 -18 -37 -37.667 -37 -59c0 -26.667 27 -50.667 81 -72c53.333 -22 114 -33 182 -33c117.333 0 215.666 20 294.999 60zM527.999 1337c-42.667 14 -75.999 21 -99.999 21c-79.333 0 -119 -29.333 -119 -88c0 -62 51 -93 153 -93h97l-25 -86l-302 -5h-7l-12 -1
c-56 0 -93.667 24.667 -113 74v111c15.333 -34.667 30.666 -58.667 45.999 -72c14.667 -12.667 37.667 -19 69 -19h57c-35.333 24 -53 55.667 -53 95c0 104.667 58 157 174 157c26 0 53.333 -4.66699 82 -14z" />
    <glyph glyph-name="uniFBFD" unicode="&#x6cc;" horiz-adv-x="1073" arabic-form="final" 
d="M1242 18c-66.667 24.667 -117.002 60.999 -151.002 108.999c-21.333 28 -37 56 -47 84c-11.333 29.333 -21 89.333 -29 180c-7.33301 66.667 -15.666 110.334 -24.999 131.001c-12.667 28.667 -37 43 -73 43c-61.333 0 -125.666 -25.333 -192.999 -76
c-83.333 -62 -125 -117.667 -125 -167c0 -26 40.333 -51.333 121 -76l68 -21c65.333 -20.667 98 -61.667 98 -123c0 -152 -43.667 -285.333 -131 -400c-86.667 -115.333 -188.334 -173 -305.001 -173s-215.334 57 -296.001 171c-80 113.333 -120 252.333 -120 417
c0 109.333 16.333 209 49 299c31.333 83.333 60 125 86 125c11.333 0 17 -8.33301 17 -25c0 -8 -7 -35.333 -21 -82c-24.667 -82.667 -37 -159.667 -37 -231c0 -121.333 33 -222 99 -302c65.333 -81.333 147 -122 245 -122c77.333 0 144.333 22.667 201 68
c40.667 33.333 61 68 61 104c0 26 -20.333 43.667 -61 53l-100 27c-73.333 18.667 -121.333 37 -144 55c-27.333 22.667 -41 52.667 -41 90c0 133.333 63 272 189 416c130.667 150 264.334 225 401.001 225c62 0 113.333 -28.667 154 -86
c27.333 -38.667 44.333 -102.667 51 -192c12.667 -154 60.334 -251.667 143.001 -293z" />
    <glyph glyph-name="uniFBFE" unicode="&#x6cc;" horiz-adv-x="1384" arabic-form="initial" 
d="M553 -110l-150 -160l177 -155l114 129l154 -140l151 166l-170 160l-120 -137zM1075 121c42 -56.667 95.3311 -92.334 159.998 -107.001l80 232c-56.667 6 -103.667 32.667 -141 80c-38 46 -69.667 124.333 -95 235c-18 81.333 -37.667 145 -59 191
c-11.333 26.667 -29 58 -53 94l-170 -240l14 -20c30.667 -43.333 54.334 -86.333 71.001 -129c14 -35.333 24.333 -73.666 31 -114.999c4 -26 7 -57.333 9 -94h-566c-84.667 0 -146 10.333 -184 31c-75.333 42 -132.666 113.667 -171.999 215v-310
c42 -75.333 93.333 -126.333 154 -153c42.667 -20.667 110 -31 202 -31h672z" />
    <glyph glyph-name="uniFBFF" unicode="&#x6cc;" horiz-adv-x="1099" arabic-form="medial" 
d="M778 -247l121 137l170 -160l-151 -166l-154 140l-117 -129l-174 155l148 160zM1028 0h-671.998c-92 -0 -159.333 10.333 -202 31c-60.667 26.667 -112 77.667 -154 153v310c39.333 -101.333 96.666 -173 171.999 -215c38 -20.667 99.333 -31 184 -31h566
c-2 36.667 -5 68 -9 94c-6.66699 41.333 -17 79.666 -31 114.999c-16.667 42.667 -40.334 85.667 -71.001 129l-14 20l170 240c24 -36 41.667 -67.333 53 -94c21.333 -46 41 -109.667 59 -191c25.333 -110.667 57 -189 95 -235c37.333 -47.333 84.333 -74 141 -80l-80 -232
c-64.667 14.667 -118 50.334 -160 107.001z" />
    <glyph glyph-name="uniFE82" unicode="&#x622;" horiz-adv-x="315" arabic-form="final" 
d="M499 18c-80.667 24.667 -137.999 67.001 -171.999 127.001c-16 28.667 -28.333 61 -37 97c-12 43.333 -18.667 136 -20 278c0 116 -3.33301 191 -10 225c-6 37.333 -23.333 83.333 -52 138l162 196c19.333 -30.667 35 -61.334 47 -92.001
c14 -36.667 23.667 -67.334 29 -92.001c7.33301 -34 11.666 -66.667 12.999 -98c2 -31.333 3 -91.666 3 -180.999v-75c0 -80 6.33301 -143.667 19 -191c15.333 -62 50 -96 104 -102zM511.001 1225c-54.667 -27.333 -107.67 -41 -159.003 -41c-35.333 0 -66 6 -92 18l-35 17
c-5.33301 2.66699 -11.666 4 -18.999 4c-41.333 0 -87.666 -35.667 -138.999 -107l25 150c42.667 40.667 84.334 61 125.001 61c18 0 37.667 -4.66699 59 -14l29 -15c18 -6.66699 39 -10 63 -10c48.667 0 100.667 9.66699 156 29l80 26z" />
    <glyph glyph-name="uniFE84" unicode="&#x623;" horiz-adv-x="266" arabic-form="final" 
d="M452 18c-80 24.667 -137.333 66.999 -172 126.999c-17.333 26.667 -30.333 59 -39 97c-8 32.667 -13.333 65 -16 97c-2.66699 38.667 -4 96.334 -4 173.001l-2 123c-2 58.667 -6.33301 101 -13 127l170 205c22.667 -72 35 -179.333 37 -322
c0.666992 -36 1.33398 -69 2.00098 -99v-40c2 -66 7.66699 -118 17 -156c15.333 -62 50.666 -96 105.999 -102zM458 1266c-38.667 16 -70.667 24 -96 24c-72.667 0 -109 -27.333 -109 -82s40.333 -82 121 -82h115l-31 -84h-235l-50 2c-52.667 2 -88 22 -106 60v98
c24 -50.667 54 -76 90 -76h66c-31.333 28 -47 59.667 -47 95c0 92.667 51.667 139 155 139c19.333 0 42 -3.33301 68 -10z" />
    <glyph glyph-name="uniFE86" unicode="&#x624;" horiz-adv-x="739" arabic-form="final" 
d="M726 1251c-46.667 15.333 -82.666 23.001 -107.999 23.001c-90 0 -135 -32.667 -135 -98c0 -24.667 11 -46 33 -64c29.333 -26 75.666 -39 138.999 -39h106l-28 -96l-254 -3l-105 -3c-60 0 -101.667 27.333 -125 82v123c19.333 -40.667 37.333 -67.334 54 -80.001
c16.667 -14 41.667 -21 75 -21h64c-38.667 24.667 -58 59.667 -58 105c0 117.333 65 176 195 176c28.667 0 58 -5 88 -15zM769.001 -246.999c-60.667 -147.333 -153.336 -221.001 -278.003 -221.001c-79.333 0 -170.666 37.333 -273.999 112
c-46.667 32.667 -87.667 65.334 -123 98.001c-18 16 -27 29 -27 39s6 15 18 15l11 -1c4.66699 -0.666992 8.66699 -1.66699 12 -3l45 -15c64 -20 129 -30 195 -30c138 0 253.333 84.333 346 253h-37c-136 0 -249.333 42 -340 126c-90 83.333 -135 188 -135 314
c0 104 32 192.667 96 266c64.667 74 142.334 111 233.001 111c70.667 0 133 -32 187 -96c40.667 -48 73.334 -126.667 98.001 -236c34 -147.333 109.667 -227 227 -239l-82 -232c-38.667 8.66699 -72 23.667 -100 45c-17.333 -132.667 -41.333 -234.667 -72 -306z
M596.999 414l-14 55c-4 19.333 -10 37 -18 53c-14 30 -34.667 45 -62 45c-68 0 -102 -44.333 -102 -133c0 -120 67.667 -180 203 -180c30 0 58.667 1.33301 86 4c-45.333 30.667 -76.333 82.667 -93 156z" />
    <glyph glyph-name="uniFE88" unicode="&#x625;" horiz-adv-x="479" arabic-form="final" 
d="M454 -188c-35.333 15.333 -67.333 23.001 -96 23.001c-71.333 0 -107 -26.667 -107 -80c0 -54.667 40.333 -82 121 -82h111l-31 -80h-279c-50.667 0 -86 19.667 -106 59v97c23.333 -50.667 53.333 -76 90 -76h64c-32 29.333 -48 60.666 -48 93.999
c0 91.333 51.333 137 154 137c19.333 0 42 -3.33301 68 -10zM520 1346c69.333 -114.667 104.002 -293.666 104.002 -536.999l-2 -166c0 -86.667 1.33301 -148.667 4 -186c2.66699 -34.667 8 -70.334 16 -107.001c14.667 -62 49.667 -96 105 -102l-86 -230
c-80 24.667 -137.333 67 -172 127c-22.667 39.333 -38.334 87.666 -47.001 144.999c-8.66699 58 -13.667 148.333 -15 271l-6 343c-2.66699 50.667 -5.33398 86.667 -8.00098 108c-8 50.667 -25.667 98.334 -53 143.001z" />
    <glyph glyph-name="uniFE8A" unicode="&#x626;" horiz-adv-x="1073" arabic-form="final" 
d="M411 967c-34 14.667 -65.333 21.999 -94 21.999c-71.333 0 -107 -26.667 -107 -80s39.667 -80 119 -80h113l-31 -81h-279c-51.333 0 -86 20.333 -104 61v94c22.667 -49.333 52 -74 88 -74h64c-30.667 26.667 -46 58.334 -46 95.001c0 90 51.333 135 154 135
c20 0 42 -3.33301 66 -10zM1240 17.999c-66.667 24.667 -117.002 60.999 -151.002 108.999c-21.333 28 -37 56 -47 84c-11.333 29.333 -21 89.333 -29 180c-6.66699 66.667 -14.667 110.334 -24 131.001c-13.333 28.667 -38 43 -74 43
c-61.333 0 -125.666 -25.333 -192.999 -76c-83.333 -62 -125 -117.667 -125 -167c0 -26 40.333 -51.333 121 -76l68 -21c65.333 -20.667 98 -61.667 98 -123c0 -152 -43.333 -285.333 -130 -400c-87.333 -115.333 -189.333 -173 -306 -173s-215.334 57 -296.001 171
c-80 113.333 -120 252.333 -120 417c0 109.333 16.333 209 49 299c32 83.333 60.667 125 86 125c11.333 0 17 -8.33301 17 -25c0 -8 -7 -35.333 -21 -82c-24.667 -82.667 -37 -159.667 -37 -231c0 -121.333 33 -222 99 -302c65.333 -81.333 147 -122 245 -122
c78 0 145 22.667 201 68c41.333 33.333 62 68 62 104c0 26 -20.667 43.667 -62 53l-100 27c-73.333 18.667 -121.333 37 -144 55c-27.333 22.667 -41 52.667 -41 90c0 133.333 63 272 189 416c130.667 150 264.334 225 401.001 225c62 0 113.333 -28.667 154 -86
c27.333 -38.667 44.333 -102.667 51 -192c12.667 -154 60.334 -251.667 143.001 -293z" />
    <glyph glyph-name="uniFE8B" unicode="&#x626;" horiz-adv-x="1384" arabic-form="initial" 
d="M674 1034c-38.667 12.667 -68.666 19 -89.999 19c-72.667 0 -109 -26.667 -109 -80c0 -54.667 46.333 -82 139 -82h88l-24 -80l-272 -3c-2.66699 0 -6.33398 -0.333008 -11.001 -1h-6c-50 0 -84 22.333 -102 67v99c24.667 -54.667 58.667 -82 102 -82h53
c-31.333 21.333 -47 50 -47 86c0 95.333 52.667 143 158 143c23.333 0 47.333 -4 72 -12zM1028 0h-671.998c-92 -0 -159.333 10.333 -202 31c-60.667 26.667 -112 77.667 -154 153v310c39.333 -101.333 96.666 -173 171.999 -215c38 -20.667 99.333 -31 184 -31h566
c-2 36.667 -5 68 -9 94c-6.66699 41.333 -17 79.666 -31 114.999c-16.667 42.667 -40.334 85.667 -71.001 129l-14 20l170 240c24 -36 41.667 -67.333 53 -94c21.333 -46 41 -109.667 59 -191c25.333 -110.667 57 -189 95 -235c37.333 -47.333 84.333 -74 141 -80l-80 -232
c-64.667 14.667 -118 50.334 -160 107.001z" />
    <glyph glyph-name="uniFE8C" unicode="&#x626;" horiz-adv-x="1032" arabic-form="medial" 
d="M674 1034c-38.667 12.667 -68.666 19 -89.999 19c-72.667 0 -109 -26.667 -109 -80c0 -54.667 46.333 -82 139 -82h88l-24 -80l-272 -3c-2.66699 0 -6.33398 -0.333008 -11.001 -1h-6c-50 0 -84 22.333 -102 67v99c24.667 -54.667 58.667 -82 102 -82h53
c-31.333 21.333 -47 50 -47 86c0 95.333 52.667 143 158 143c23.333 0 47.333 -4 72 -12zM1028 0h-671.998c-92 -0 -159.333 10.333 -202 31c-60.667 26.667 -112 77.667 -154 153v310c39.333 -101.333 96.666 -173 171.999 -215c38 -20.667 99.333 -31 184 -31h566
c-2 36.667 -5 68 -9 94c-6.66699 41.333 -17 79.666 -31 114.999c-16.667 42.667 -40.334 85.667 -71.001 129l-14 20l170 240c24 -36 41.667 -67.333 53 -94c21.333 -46 41 -109.667 59 -191c25.333 -110.667 57 -189 95 -235c37.333 -47.333 84.333 -74 141 -80l-80 -232
c-64.667 14.667 -118 50.334 -160 107.001z" />
    <glyph glyph-name="uniFE8E" unicode="&#x627;" horiz-adv-x="184" arabic-form="final" 
d="M227 1346c69.333 -114.667 104.001 -293.666 104.001 -536.999l-2 -166c0 -86.667 1.33301 -148.667 4 -186c2.66699 -34.667 8.33398 -70.334 17.001 -107.001c14 -62 48.667 -96 104 -102l-86 -230c-80 24.667 -137.333 67 -172 127
c-22.667 39.333 -38.334 87.666 -47.001 144.999c-8.66699 58 -13.334 148.333 -14.001 271l-7 343c-2 50.667 -4.66699 86.667 -8 108c-8 50.667 -25.667 98.334 -53 143.001z" />
    <glyph glyph-name="uniFE90" unicode="&#x628;" horiz-adv-x="1099" arabic-form="final" 
d="M780 -315l-150 -151l-145 143l151 156zM1095 0h-671.998c-92 -0 -159.333 10.333 -202 31c-60.667 26.667 -112 77.667 -154 153v310c39.333 -101.333 96.666 -173 171.999 -215c38 -20.667 99.333 -31 184 -31h566c-2 36.667 -5 68 -9 94
c-6.66699 41.333 -17 79.666 -31 114.999c-16.667 42.667 -40.334 85.667 -71.001 129l-14 20l170 240c24 -36 41.667 -67.333 53 -94c21.333 -46 41 -109.667 59 -191c25.333 -110.667 57 -189 95 -235c37.333 -47.333 84.333 -74 141 -80l-80 -232
c-64.667 14.667 -118 50.334 -160 107.001z" />
    <glyph glyph-name="uniFE91" unicode="&#x628;" horiz-adv-x="1384" arabic-form="initial" 
d="M713 -315l-150 -151l-145 143l151 156zM1028 0h-671.998c-92 -0 -159.333 10.333 -202 31c-60.667 26.667 -112 77.667 -154 153v310c39.333 -101.333 96.666 -173 171.999 -215c38 -20.667 99.333 -31 184 -31h566c-2 36.667 -5 68 -9 94
c-6.66699 41.333 -17 79.666 -31 114.999c-16.667 42.667 -40.334 85.667 -71.001 129l-14 20l170 240c24 -36 41.667 -67.333 53 -94c21.333 -46 41 -109.667 59 -191c25.333 -110.667 57 -189 95 -235c37.333 -47.333 84.333 -74 141 -80l-80 -232
c-64.667 14.667 -118 50.334 -160 107.001z" />
    <glyph glyph-name="uniFE92" unicode="&#x628;" horiz-adv-x="1032" arabic-form="medial" 
d="M713 -315l-150 -151l-145 143l151 156zM1028 0h-671.998c-92 -0 -159.333 10.333 -202 31c-60.667 26.667 -112 77.667 -154 153v310c39.333 -101.333 96.666 -173 171.999 -215c38 -20.667 99.333 -31 184 -31h566c-2 36.667 -5 68 -9 94
c-6.66699 41.333 -17 79.666 -31 114.999c-16.667 42.667 -40.334 85.667 -71.001 129l-14 20l170 240c24 -36 41.667 -67.333 53 -94c21.333 -46 41 -109.667 59 -191c25.333 -110.667 57 -189 95 -235c37.333 -47.333 84.333 -74 141 -80l-80 -232
c-64.667 14.667 -118 50.334 -160 107.001z" />
    <glyph glyph-name="uniFE96" unicode="&#x62a;" horiz-adv-x="1099" arabic-form="final" 
d="M616 967l123 127l164 -162l-154 -160l-152 150l-120 -127l-166 166l157 157zM1095 0h-671.998c-92 -0 -159.333 10.333 -202 31c-60.667 26.667 -112 77.667 -154 153v310c39.333 -101.333 96.666 -173 171.999 -215c38 -20.667 99.333 -31 184 -31h566
c-2 36.667 -5 68 -9 94c-6.66699 41.333 -17 79.666 -31 114.999c-16.667 42.667 -40.334 85.667 -71.001 129l-14 20l170 240c24 -36 41.667 -67.333 53 -94c21.333 -46 41 -109.667 59 -191c25.333 -110.667 57 -189 95 -235c37.333 -47.333 84.333 -74 141 -80l-80 -232
c-64.667 14.667 -118 50.334 -160 107.001z" />
    <glyph glyph-name="uniFE97" unicode="&#x62a;" horiz-adv-x="1384" arabic-form="initial" 
d="M549 967l123 127l164 -162l-154 -160l-152 150l-120 -127l-166 166l157 157zM1028 0h-671.998c-92 -0 -159.333 10.333 -202 31c-60.667 26.667 -112 77.667 -154 153v310c39.333 -101.333 96.666 -173 171.999 -215c38 -20.667 99.333 -31 184 -31h566
c-2 36.667 -5 68 -9 94c-6.66699 41.333 -17 79.666 -31 114.999c-16.667 42.667 -40.334 85.667 -71.001 129l-14 20l170 240c24 -36 41.667 -67.333 53 -94c21.333 -46 41 -109.667 59 -191c25.333 -110.667 57 -189 95 -235c37.333 -47.333 84.333 -74 141 -80l-80 -232
c-64.667 14.667 -118 50.334 -160 107.001z" />
    <glyph glyph-name="uniFE98" unicode="&#x62a;" horiz-adv-x="1032" arabic-form="medial" 
d="M549 967l123 127l164 -162l-154 -160l-152 150l-120 -127l-166 166l157 157zM1028 0h-671.998c-92 -0 -159.333 10.333 -202 31c-60.667 26.667 -112 77.667 -154 153v310c39.333 -101.333 96.666 -173 171.999 -215c38 -20.667 99.333 -31 184 -31h566
c-2 36.667 -5 68 -9 94c-6.66699 41.333 -17 79.666 -31 114.999c-16.667 42.667 -40.334 85.667 -71.001 129l-14 20l170 240c24 -36 41.667 -67.333 53 -94c21.333 -46 41 -109.667 59 -191c25.333 -110.667 57 -189 95 -235c37.333 -47.333 84.333 -74 141 -80l-80 -232
c-64.667 14.667 -118 50.334 -160 107.001z" />
    <glyph glyph-name="uniFE9A" unicode="&#x62b;" horiz-adv-x="1099" arabic-form="final" 
d="M763 1202l-147 -155l-146 143l148 156zM616 967l123 127l164 -162l-154 -160l-152 150l-120 -127l-166 166l157 157zM1095 0h-671.998c-92 -0 -159.333 10.333 -202 31c-60.667 26.667 -112 77.667 -154 153v310c39.333 -101.333 96.666 -173 171.999 -215
c38 -20.667 99.333 -31 184 -31h566c-2 36.667 -5 68 -9 94c-6.66699 41.333 -17 79.666 -31 114.999c-16.667 42.667 -40.334 85.667 -71.001 129l-14 20l170 240c24 -36 41.667 -67.333 53 -94c21.333 -46 41 -109.667 59 -191c25.333 -110.667 57 -189 95 -235
c37.333 -47.333 84.333 -74 141 -80l-80 -232c-64.667 14.667 -118 50.334 -160 107.001z" />
    <glyph glyph-name="uniFE9B" unicode="&#x62b;" horiz-adv-x="1384" arabic-form="initial" 
d="M696 1202l-147 -155l-146 143l148 156zM549 967l123 127l164 -162l-154 -160l-152 150l-120 -127l-166 166l157 157zM1028 0h-671.998c-92 -0 -159.333 10.333 -202 31c-60.667 26.667 -112 77.667 -154 153v310c39.333 -101.333 96.666 -173 171.999 -215
c38 -20.667 99.333 -31 184 -31h566c-2 36.667 -5 68 -9 94c-6.66699 41.333 -17 79.666 -31 114.999c-16.667 42.667 -40.334 85.667 -71.001 129l-14 20l170 240c24 -36 41.667 -67.333 53 -94c21.333 -46 41 -109.667 59 -191c25.333 -110.667 57 -189 95 -235
c37.333 -47.333 84.333 -74 141 -80l-80 -232c-64.667 14.667 -118 50.334 -160 107.001z" />
    <glyph glyph-name="uniFE9C" unicode="&#x62b;" horiz-adv-x="1032" arabic-form="medial" 
d="M696 1202l-147 -155l-146 143l148 156zM549 967l123 127l164 -162l-154 -160l-152 150l-120 -127l-166 166l157 157zM1028 0h-671.998c-92 -0 -159.333 10.333 -202 31c-60.667 26.667 -112 77.667 -154 153v310c39.333 -101.333 96.666 -173 171.999 -215
c38 -20.667 99.333 -31 184 -31h566c-2 36.667 -5 68 -9 94c-6.66699 41.333 -17 79.666 -31 114.999c-16.667 42.667 -40.334 85.667 -71.001 129l-14 20l170 240c24 -36 41.667 -67.333 53 -94c21.333 -46 41 -109.667 59 -191c25.333 -110.667 57 -189 95 -235
c37.333 -47.333 84.333 -74 141 -80l-80 -232c-64.667 14.667 -118 50.334 -160 107.001z" />
    <glyph glyph-name="uniFE9E" unicode="&#x62c;" horiz-adv-x="1095" arabic-form="final" 
d="M808 -299l-161 -163l-170 161l161 162zM1298 14c-64.667 14.667 -117.998 50.334 -159.998 107.001l-47 -121h-668c-92 0 -159.333 10.333 -202 31c-60.667 26.667 -112 77.667 -154 153v310c39.333 -101.333 96.666 -173 171.999 -215c38 -20.667 99.333 -31 184 -31
h609c-38.667 58.667 -69.667 118.667 -93 180l-26 70c-50 130.667 -128 196 -234 196c-39.333 0 -74 -7.33301 -104 -22c-22.667 -13.333 -50.667 -40 -84 -80c-25.333 -28.667 -43 -43 -53 -43c-15.333 0 -23 9.66699 -23 29c0 3.33301 0.333008 7.66602 1 12.999l3 15
c18 70 49.333 133 94 189c71.333 92.667 152 139 242 139c163.333 0 285.666 -114.667 366.999 -344l39 -111c50.667 -144 123.667 -221.667 219 -233z" />
    <glyph glyph-name="uniFE9F" unicode="&#x62c;" horiz-adv-x="1380" arabic-form="initial" 
d="M741 -299l-161 -163l-170 161l161 162zM1231 14c-64.667 14.667 -117.998 50.334 -159.998 107.001l-47 -121h-668c-92 0 -159.333 10.333 -202 31c-60.667 26.667 -112 77.667 -154 153v310c39.333 -101.333 96.666 -173 171.999 -215c38 -20.667 99.333 -31 184 -31
h609c-38.667 58.667 -69.667 118.667 -93 180l-26 70c-50 130.667 -128 196 -234 196c-39.333 0 -74 -7.33301 -104 -22c-22.667 -13.333 -50.667 -40 -84 -80c-25.333 -28.667 -43 -43 -53 -43c-15.333 0 -23 9.66699 -23 29c0 3.33301 0.333008 7.66602 1 12.999l3 15
c18 70 49.333 133 94 189c71.333 92.667 152 139 242 139c163.333 0 285.666 -114.667 366.999 -344l39 -111c50.667 -144 123.667 -221.667 219 -233z" />
    <glyph glyph-name="uniFEA0" unicode="&#x62c;" horiz-adv-x="1028" arabic-form="medial" 
d="M741 -299l-161 -163l-170 161l161 162zM1231 14c-64.667 14.667 -117.998 50.334 -159.998 107.001l-47 -121h-668c-92 0 -159.333 10.333 -202 31c-60.667 26.667 -112 77.667 -154 153v310c39.333 -101.333 96.666 -173 171.999 -215c38 -20.667 99.333 -31 184 -31
h609c-38.667 58.667 -69.667 118.667 -93 180l-26 70c-50 130.667 -128 196 -234 196c-39.333 0 -74 -7.33301 -104 -22c-22.667 -13.333 -50.667 -40 -84 -80c-25.333 -28.667 -43 -43 -53 -43c-15.333 0 -23 9.66699 -23 29c0 3.33301 0.333008 7.66602 1 12.999l3 15
c18 70 49.333 133 94 189c71.333 92.667 152 139 242 139c163.333 0 285.666 -114.667 366.999 -344l39 -111c50.667 -144 123.667 -221.667 219 -233z" />
    <glyph glyph-name="uniFEA2" unicode="&#x62d;" horiz-adv-x="1095" arabic-form="final" 
d="M1298 14c-64.667 14.667 -117.998 50.334 -159.998 107.001l-47 -121h-668c-92 0 -159.333 10.333 -202 31c-60.667 26.667 -112 77.667 -154 153v310c39.333 -101.333 96.666 -173 171.999 -215c38 -20.667 99.333 -31 184 -31h609
c-38.667 58.667 -69.667 118.667 -93 180l-26 70c-50 130.667 -128 196 -234 196c-39.333 0 -74 -7.33301 -104 -22c-22.667 -13.333 -50.667 -40 -84 -80c-25.333 -28.667 -43 -43 -53 -43c-15.333 0 -23 9.66699 -23 29c0 3.33301 0.333008 7.66602 1 12.999l3 15
c18 70 49.333 133 94 189c71.333 92.667 152 139 242 139c163.333 0 285.666 -114.667 366.999 -344l39 -111c50.667 -144 123.667 -221.667 219 -233z" />
    <glyph glyph-name="uniFEA3" unicode="&#x62d;" horiz-adv-x="1380" arabic-form="initial" 
d="M1231 14c-64.667 14.667 -117.998 50.334 -159.998 107.001l-47 -121h-668c-92 0 -159.333 10.333 -202 31c-60.667 26.667 -112 77.667 -154 153v310c39.333 -101.333 96.666 -173 171.999 -215c38 -20.667 99.333 -31 184 -31h609
c-38.667 58.667 -69.667 118.667 -93 180l-26 70c-50 130.667 -128 196 -234 196c-39.333 0 -74 -7.33301 -104 -22c-22.667 -13.333 -50.667 -40 -84 -80c-25.333 -28.667 -43 -43 -53 -43c-15.333 0 -23 9.66699 -23 29c0 3.33301 0.333008 7.66602 1 12.999l3 15
c18 70 49.333 133 94 189c71.333 92.667 152 139 242 139c163.333 0 285.666 -114.667 366.999 -344l39 -111c50.667 -144 123.667 -221.667 219 -233z" />
    <glyph glyph-name="uniFEA4" unicode="&#x62d;" horiz-adv-x="1028" arabic-form="medial" 
d="M1231 14c-64.667 14.667 -117.998 50.334 -159.998 107.001l-47 -121h-668c-92 0 -159.333 10.333 -202 31c-60.667 26.667 -112 77.667 -154 153v310c39.333 -101.333 96.666 -173 171.999 -215c38 -20.667 99.333 -31 184 -31h609
c-38.667 58.667 -69.667 118.667 -93 180l-26 70c-50 130.667 -128 196 -234 196c-39.333 0 -74 -7.33301 -104 -22c-22.667 -13.333 -50.667 -40 -84 -80c-25.333 -28.667 -43 -43 -53 -43c-15.333 0 -23 9.66699 -23 29c0 3.33301 0.333008 7.66602 1 12.999l3 15
c18 70 49.333 133 94 189c71.333 92.667 152 139 242 139c163.333 0 285.666 -114.667 366.999 -344l39 -111c50.667 -144 123.667 -221.667 219 -233z" />
    <glyph glyph-name="uniFEA6" unicode="&#x62e;" horiz-adv-x="1095" arabic-form="final" 
d="M896 1202l-161 -162l-166 162l160 164zM1298 14c-64.667 14.667 -117.998 50.334 -159.998 107.001l-47 -121h-668c-92 0 -159.333 10.333 -202 31c-60.667 26.667 -112 77.667 -154 153v310c39.333 -101.333 96.666 -173 171.999 -215c38 -20.667 99.333 -31 184 -31
h609c-38.667 58.667 -69.667 118.667 -93 180l-26 70c-50 130.667 -128 196 -234 196c-39.333 0 -74 -7.33301 -104 -22c-22.667 -13.333 -50.667 -40 -84 -80c-25.333 -28.667 -43 -43 -53 -43c-15.333 0 -23 9.66699 -23 29c0 3.33301 0.333008 7.66602 1 12.999l3 15
c18 70 49.333 133 94 189c71.333 92.667 152 139 242 139c163.333 0 285.666 -114.667 366.999 -344l39 -111c50.667 -144 123.667 -221.667 219 -233z" />
    <glyph glyph-name="uniFEA7" unicode="&#x62e;" horiz-adv-x="1380" arabic-form="initial" 
d="M829 1202l-161 -162l-166 162l160 164zM1231 14c-64.667 14.667 -117.998 50.334 -159.998 107.001l-47 -121h-668c-92 0 -159.333 10.333 -202 31c-60.667 26.667 -112 77.667 -154 153v310c39.333 -101.333 96.666 -173 171.999 -215c38 -20.667 99.333 -31 184 -31
h609c-38.667 58.667 -69.667 118.667 -93 180l-26 70c-50 130.667 -128 196 -234 196c-39.333 0 -74 -7.33301 -104 -22c-22.667 -13.333 -50.667 -40 -84 -80c-25.333 -28.667 -43 -43 -53 -43c-15.333 0 -23 9.66699 -23 29c0 3.33301 0.333008 7.66602 1 12.999l3 15
c18 70 49.333 133 94 189c71.333 92.667 152 139 242 139c163.333 0 285.666 -114.667 366.999 -344l39 -111c50.667 -144 123.667 -221.667 219 -233z" />
    <glyph glyph-name="uniFEA8" unicode="&#x62e;" horiz-adv-x="1028" arabic-form="medial" 
d="M829 1202l-161 -162l-166 162l160 164zM1231 14c-64.667 14.667 -117.998 50.334 -159.998 107.001l-47 -121h-668c-92 0 -159.333 10.333 -202 31c-60.667 26.667 -112 77.667 -154 153v310c39.333 -101.333 96.666 -173 171.999 -215c38 -20.667 99.333 -31 184 -31
h609c-38.667 58.667 -69.667 118.667 -93 180l-26 70c-50 130.667 -128 196 -234 196c-39.333 0 -74 -7.33301 -104 -22c-22.667 -13.333 -50.667 -40 -84 -80c-25.333 -28.667 -43 -43 -53 -43c-15.333 0 -23 9.66699 -23 29c0 3.33301 0.333008 7.66602 1 12.999l3 15
c18 70 49.333 133 94 189c71.333 92.667 152 139 242 139c163.333 0 285.666 -114.667 366.999 -344l39 -111c50.667 -144 123.667 -221.667 219 -233z" />
    <glyph glyph-name="uniFEAA" unicode="&#x62f;" horiz-adv-x="706" arabic-form="final" 
d="M737 106c-32.667 -70.667 -59.335 -106.001 -80.002 -106.001h-354c-53.333 0 -97.333 4.66699 -132 14c-69.333 20 -104 67.333 -104 142c0 64.667 22 148 66 250c20 46 37 69 51 69c10.667 0 16 -8 16 -24l-4 -41c-2.66699 -11.333 -4 -23.666 -4 -36.999
c0 -52 19 -87.667 57 -107c22 -12 76.667 -18 164 -18h268c-9.33301 28 -16.666 54.667 -21.999 80l-14 71c-11.333 42 -25 82.333 -41 121c-22.667 56.667 -55 114.667 -97 174l92 260c82.667 -64.667 145.667 -201 189 -409l27 -117c14.667 -58 37.667 -101.667 69 -131
c30.667 -30 66.334 -47 107.001 -51l-82 -232c-70 18 -124 56.333 -162 115z" />
    <glyph glyph-name="uniFEAC" unicode="&#x630;" horiz-adv-x="706" arabic-form="final" 
d="M649 1198l-162 -172l-170 170l164 166zM737 106c-32.667 -70.667 -59.335 -106.001 -80.002 -106.001h-354c-53.333 0 -97.333 4.66699 -132 14c-69.333 20 -104 67.333 -104 142c0 64.667 22 148 66 250c20 46 37 69 51 69c10.667 0 16 -8 16 -24l-4 -41
c-2.66699 -11.333 -4 -23.666 -4 -36.999c0 -52 19 -87.667 57 -107c22 -12 76.667 -18 164 -18h268c-9.33301 28 -16.666 54.667 -21.999 80l-14 71c-11.333 42 -25 82.333 -41 121c-22.667 56.667 -55 114.667 -97 174l92 260c82.667 -64.667 145.667 -201 189 -409
l27 -117c14.667 -58 37.667 -101.667 69 -131c30.667 -30 66.334 -47 107.001 -51l-82 -232c-70 18 -124 56.333 -162 115z" />
    <glyph glyph-name="uniFEAE" unicode="&#x631;" horiz-adv-x="335" arabic-form="final" 
d="M441 35c-32.667 -164.667 -68.667 -280.667 -108 -348c-58 -102 -142.667 -153 -254 -153c-84 0 -182.333 44.333 -295 133c-78 63.333 -117 102 -117 116c0 11.333 6.33301 17 19 17c5.33301 0 10 -0.666992 14 -2l43 -15c70 -22.667 137 -34 201 -34
c192 0 329.667 135.667 413 407l-12 20c-22.667 39.333 -44.667 83.666 -66 132.999c-25.333 60.667 -51 107.334 -77 140.001l94 264c24.667 -30 44.334 -62.333 59.001 -97l47 -112c67.333 -161.333 144.666 -247.333 231.999 -258l-80 -232c-28 6 -59.333 19.667 -94 41
l-13 11z" />
    <glyph glyph-name="uniFEB0" unicode="&#x632;" horiz-adv-x="339" arabic-form="final" 
d="M374 1063l-164 -172l-172 164l164 168zM441 35c-32.667 -164.667 -68.667 -280.667 -108 -348c-58 -102 -142.667 -153 -254 -153c-84 0 -182.333 44.333 -295 133c-78 63.333 -117 102 -117 116c0 11.333 6.33301 17 19 17c5.33301 0 10 -0.666992 14 -2l43 -15
c70 -22.667 137 -34 201 -34c192 0 329.667 135.667 413 407l-12 20c-22.667 39.333 -44.667 83.666 -66 132.999c-25.333 60.667 -51 107.334 -77 140.001l94 264c24.667 -30 44.334 -62.333 59.001 -97l47 -112c67.333 -161.333 144.666 -247.333 231.999 -258l-80 -232
c-28 6 -59.333 19.667 -94 41l-13 11z" />
    <glyph glyph-name="uniFEB2" unicode="&#x633;" horiz-adv-x="1202" arabic-form="final" 
d="M1237 956c26 -42.667 45.667 -85.667 59 -129c24 -67.333 40.667 -164 50 -290c5.33301 -83.333 12.666 -145.666 21.999 -186.999c16 -62 51.667 -96 107 -102l-91 -230c-78 27.333 -131 74.666 -159 141.999l-49 -131c-18 -4 -39.333 -6 -64 -6
c-117.333 0 -201.333 58.667 -252 176l-78 -172c-18.667 -7.33301 -37.667 -11 -57 -11c-82 0 -149 31.667 -201 95c-68 -68.667 -150 -103 -246 -103c-36 0 -71.333 5 -106 15l90 227l45 -2c55.333 0 100.333 11.667 135 35
c-1.33301 29.333 -4.66602 56.666 -9.99902 81.999c-16.667 84 -36.334 144.667 -59.001 182l114 299c28 -40.667 50 -81 66 -121c20 -51.333 33 -104 39 -158l14 -145c6 -71.333 20.333 -118.333 43 -141c24.667 -22 55.334 -33 92.001 -33c37.333 0 67.333 11.667 90 35
l-41 194l123 307c47.333 -115.333 73.333 -219.666 78 -312.999c4.66699 -83.333 13.667 -137.333 27 -162c22 -39.333 56.667 -59 104 -59c24 0 46 5.33301 66 16l-6 90c-6 112.667 -26.667 207.667 -62 285z" />
    <glyph glyph-name="uniFEB3" unicode="&#x633;" horiz-adv-x="1476" arabic-form="initial" 
d="M1054 641c35.333 -77.333 56 -172.333 62 -285l6 -90c-20 -10.667 -42 -16 -66 -16c-47.333 0 -82 19.667 -104 59c-13.333 24.667 -22.333 78.667 -27 162c-4.66699 93.333 -30.667 197.666 -78 312.999l-123 -307l41 -194c-22.667 -23.333 -52.667 -35 -90 -35
c-36.667 0 -67.334 11 -92.001 33c-22.667 22.667 -37 69.667 -43 141l-14 145c-6 54 -19 106.667 -39 158c-16 40 -38 80.333 -66 121l-114 -299c22.667 -37.333 42.334 -98 59.001 -182c5.33301 -25.333 8.66602 -52.666 9.99902 -81.999
c-34.667 -23.333 -79.667 -35 -135 -35l-45 2l-90 -227c34.667 -10 70 -15 106 -15c96 0 178 34.333 246 103c52 -63.333 119 -95 201 -95c19.333 0 38.333 3.66699 57 11l78 172c50.667 -117.333 134.667 -176 252 -176c24.667 0 46 2 64 6l49 131
c28 -67.333 81 -114.666 159 -141.999l91 230c-55.333 6 -91 40 -107 102c-9.33301 41.333 -16.666 103.666 -21.999 186.999c-9.33301 126 -26 222.667 -50 290c-13.333 43.333 -33 86.333 -59 129z" />
    <glyph glyph-name="uniFEB4" unicode="&#x633;" horiz-adv-x="1202" arabic-form="medial" 
d="M1237 956c26 -42.667 45.667 -85.667 59 -129c24 -67.333 40.667 -164 50 -290c5.33301 -83.333 12.666 -145.666 21.999 -186.999c16 -62 51.667 -96 107 -102l-91 -230c-78 27.333 -131 74.666 -159 141.999l-49 -131c-18 -4 -39.333 -6 -64 -6
c-117.333 0 -201.333 58.667 -252 176l-78 -172c-18.667 -7.33301 -37.667 -11 -57 -11c-82 0 -149 31.667 -201 95c-68 -68.667 -150 -103 -246 -103c-36 0 -71.333 5 -106 15l90 227l45 -2c55.333 0 100.333 11.667 135 35
c-1.33301 29.333 -4.66602 56.666 -9.99902 81.999c-16.667 84 -36.334 144.667 -59.001 182l114 299c28 -40.667 50 -81 66 -121c20 -51.333 33 -104 39 -158l14 -145c6 -71.333 20.333 -118.333 43 -141c24.667 -22 55.334 -33 92.001 -33c37.333 0 67.333 11.667 90 35
l-41 194l123 307c47.333 -115.333 73.333 -219.666 78 -312.999c4.66699 -83.333 13.667 -137.333 27 -162c22 -39.333 56.667 -59 104 -59c24 0 46 5.33301 66 16l-6 90c-6 112.667 -26.667 207.667 -62 285z" />
    <glyph glyph-name="uniFEB6" unicode="&#x634;" horiz-adv-x="1202" arabic-form="final" 
d="M985 1231l-137 -152l-144 138l138 155zM1094 995l-117 -137l-133 121l-103 -121l-133 127l117 135l129 -123l111 123zM1237 956c26 -42.667 45.667 -85.667 59 -129c24 -67.333 40.667 -164 50 -290c5.33301 -83.333 12.666 -145.666 21.999 -186.999
c16 -62 51.667 -96 107 -102l-91 -230c-78 27.333 -131 74.666 -159 141.999l-49 -131c-18 -4 -39.333 -6 -64 -6c-117.333 0 -201.333 58.667 -252 176l-78 -172c-18.667 -7.33301 -37.667 -11 -57 -11c-82 0 -149 31.667 -201 95c-68 -68.667 -150 -103 -246 -103
c-36 0 -71.333 5 -106 15l90 227l45 -2c55.333 0 100.333 11.667 135 35c-1.33301 29.333 -4.66602 56.666 -9.99902 81.999c-16.667 84 -36.334 144.667 -59.001 182l114 299c28 -40.667 50 -81 66 -121c20 -51.333 33 -104 39 -158l14 -145
c6 -71.333 20.333 -118.333 43 -141c24.667 -22 55.334 -33 92.001 -33c37.333 0 67.333 11.667 90 35l-41 194l123 307c47.333 -115.333 73.333 -219.666 78 -312.999c4.66699 -83.333 13.667 -137.333 27 -162c22 -39.333 56.667 -59 104 -59c24 0 46 5.33301 66 16l-6 90
c-6 112.667 -26.667 207.667 -62 285z" />
    <glyph glyph-name="uniFEB7" unicode="&#x634;" horiz-adv-x="1542" arabic-form="initial" 
d="M985 1231l-137 -152l-144 138l138 155zM1094 995l-117 -137l-133 121l-103 -121l-133 127l117 135l129 -123l111 123zM1237 956c26 -42.667 45.667 -85.667 59 -129c24 -67.333 40.667 -164 50 -290c5.33301 -83.333 12.666 -145.666 21.999 -186.999
c16 -62 51.667 -96 107 -102l-91 -230c-78 27.333 -131 74.666 -159 141.999l-49 -131c-18 -4 -39.333 -6 -64 -6c-117.333 0 -201.333 58.667 -252 176l-78 -172c-18.667 -7.33301 -37.667 -11 -57 -11c-82 0 -149 31.667 -201 95c-68 -68.667 -150 -103 -246 -103
c-36 0 -71.333 5 -106 15l90 227l45 -2c55.333 0 100.333 11.667 135 35c-1.33301 29.333 -4.66602 56.666 -9.99902 81.999c-16.667 84 -36.334 144.667 -59.001 182l114 299c28 -40.667 50 -81 66 -121c20 -51.333 33 -104 39 -158l14 -145
c6 -71.333 20.333 -118.333 43 -141c24.667 -22 55.334 -33 92.001 -33c37.333 0 67.333 11.667 90 35l-41 194l123 307c47.333 -115.333 73.333 -219.666 78 -312.999c4.66699 -83.333 13.667 -137.333 27 -162c22 -39.333 56.667 -59 104 -59c24 0 46 5.33301 66 16l-6 90
c-6 112.667 -26.667 207.667 -62 285z" />
    <glyph glyph-name="uniFEB8" unicode="&#x634;" horiz-adv-x="1202" arabic-form="medial" 
d="M985 1231l-137 -152l-144 138l138 155zM1094 995l-117 -137l-133 121l-103 -121l-133 127l117 135l129 -123l111 123zM1237 956c26 -42.667 45.667 -85.667 59 -129c24 -67.333 40.667 -164 50 -290c5.33301 -83.333 12.666 -145.666 21.999 -186.999
c16 -62 51.667 -96 107 -102l-91 -230c-78 27.333 -131 74.666 -159 141.999l-49 -131c-18 -4 -39.333 -6 -64 -6c-117.333 0 -201.333 58.667 -252 176l-78 -172c-18.667 -7.33301 -37.667 -11 -57 -11c-82 0 -149 31.667 -201 95c-68 -68.667 -150 -103 -246 -103
c-36 0 -71.333 5 -106 15l90 227l45 -2c55.333 0 100.333 11.667 135 35c-1.33301 29.333 -4.66602 56.666 -9.99902 81.999c-16.667 84 -36.334 144.667 -59.001 182l114 299c28 -40.667 50 -81 66 -121c20 -51.333 33 -104 39 -158l14 -145
c6 -71.333 20.333 -118.333 43 -141c24.667 -22 55.334 -33 92.001 -33c37.333 0 67.333 11.667 90 35l-41 194l123 307c47.333 -115.333 73.333 -219.666 78 -312.999c4.66699 -83.333 13.667 -137.333 27 -162c22 -39.333 56.667 -59 104 -59c24 0 46 5.33301 66 16l-6 90
c-6 112.667 -26.667 207.667 -62 285z" />
    <glyph glyph-name="uniFEBA" unicode="&#x635;" horiz-adv-x="1101" arabic-form="final" 
d="M1288 18c-78.667 24 -133.331 65.6689 -163.998 125.002l-27 -57c-26.667 -57.333 -60 -86 -100 -86h-574c-92 0 -159.333 10.333 -202 31c-60.667 26.667 -112 77.667 -154 153v310c21.333 -56 47.333 -102 78 -138c30.667 -32.667 62 -58.334 94 -77.001
c37.333 -20.667 88.666 -31 153.999 -31h28l-8 86c-8.66699 82.667 -24.334 161 -47.001 235l74 179l24 -69l19 -61c11.333 -38.667 21.333 -89.667 30 -153c40 71.333 81 132 123 182c101.333 121.333 210 182 326 182c102 0 177.667 -46.333 227 -139
c16.667 -30.667 29 -65.334 37 -104.001c8 -36 19.667 -97.667 35 -185c16 -96.667 53.667 -147.667 113 -153zM1087 248.002c-13.333 30 -21.667 73 -25 129c-8 116 -63.333 174 -166 174c-139.333 0 -256 -101 -350 -303h541z" />
    <glyph glyph-name="uniFEBB" unicode="&#x635;" horiz-adv-x="1374" arabic-form="initial" 
d="M1221 18c-78.667 24 -133.331 65.6689 -163.998 125.002l-27 -57c-26.667 -57.333 -60 -86 -100 -86h-574c-92 0 -159.333 10.333 -202 31c-60.667 26.667 -112 77.667 -154 153v310c21.333 -56 47.333 -102 78 -138c30.667 -32.667 62 -58.334 94 -77.001
c37.333 -20.667 88.666 -31 153.999 -31h28l-8 86c-8.66699 82.667 -24.334 161 -47.001 235l74 179l24 -69l19 -61c11.333 -38.667 21.333 -89.667 30 -153c40 71.333 81 132 123 182c101.333 121.333 210 182 326 182c102 0 177.667 -46.333 227 -139
c16.667 -30.667 29 -65.334 37 -104.001c8 -36 19.667 -97.667 35 -185c16 -96.667 53.667 -147.667 113 -153zM1020 248.002c-13.333 30 -21.667 73 -25 129c-8 116 -63.333 174 -166 174c-139.333 0 -256 -101 -350 -303h541z" />
    <glyph glyph-name="uniFEBC" unicode="&#x635;" horiz-adv-x="1034" arabic-form="medial" 
d="M1221 18c-78.667 24 -133.331 65.6689 -163.998 125.002l-27 -57c-26.667 -57.333 -60 -86 -100 -86h-574c-92 0 -159.333 10.333 -202 31c-60.667 26.667 -112 77.667 -154 153v310c21.333 -56 47.333 -102 78 -138c30.667 -32.667 62 -58.334 94 -77.001
c37.333 -20.667 88.666 -31 153.999 -31h28l-8 86c-8.66699 82.667 -24.334 161 -47.001 235l74 179l24 -69l19 -61c11.333 -38.667 21.333 -89.667 30 -153c40 71.333 81 132 123 182c101.333 121.333 210 182 326 182c102 0 177.667 -46.333 227 -139
c16.667 -30.667 29 -65.334 37 -104.001c8 -36 19.667 -97.667 35 -185c16 -96.667 53.667 -147.667 113 -153zM1020 248.002c-13.333 30 -21.667 73 -25 129c-8 116 -63.333 174 -166 174c-139.333 0 -256 -101 -350 -303h541z" />
    <glyph glyph-name="uniFEBE" unicode="&#x636;" horiz-adv-x="1101" arabic-form="final" 
d="M935 1202l-157 -170l-174 162l159 172zM1288 18c-78.667 24 -133.331 65.6689 -163.998 125.002l-27 -57c-26.667 -57.333 -60 -86 -100 -86h-574c-92 0 -159.333 10.333 -202 31c-60.667 26.667 -112 77.667 -154 153v310c21.333 -56 47.333 -102 78 -138
c30.667 -32.667 62 -58.334 94 -77.001c37.333 -20.667 88.666 -31 153.999 -31h28l-8 86c-8.66699 82.667 -24.334 161 -47.001 235l74 179l24 -69l19 -61c11.333 -38.667 21.333 -89.667 30 -153c40 71.333 81 132 123 182c101.333 121.333 210 182 326 182
c102 0 177.667 -46.333 227 -139c16.667 -30.667 29 -65.334 37 -104.001c8 -36 19.667 -97.667 35 -185c16 -96.667 53.667 -147.667 113 -153zM1087 248.002c-13.333 30 -21.667 73 -25 129c-8 116 -63.333 174 -166 174c-139.333 0 -256 -101 -350 -303h541z" />
    <glyph glyph-name="uniFEBF" unicode="&#x636;" horiz-adv-x="1374" arabic-form="initial" 
d="M868 1202l-157 -170l-174 162l159 172zM1221 18c-78.667 24 -133.331 65.6689 -163.998 125.002l-27 -57c-26.667 -57.333 -60 -86 -100 -86h-574c-92 0 -159.333 10.333 -202 31c-60.667 26.667 -112 77.667 -154 153v310c21.333 -56 47.333 -102 78 -138
c30.667 -32.667 62 -58.334 94 -77.001c37.333 -20.667 88.666 -31 153.999 -31h28l-8 86c-8.66699 82.667 -24.334 161 -47.001 235l74 179l24 -69l19 -61c11.333 -38.667 21.333 -89.667 30 -153c40 71.333 81 132 123 182c101.333 121.333 210 182 326 182
c102 0 177.667 -46.333 227 -139c16.667 -30.667 29 -65.334 37 -104.001c8 -36 19.667 -97.667 35 -185c16 -96.667 53.667 -147.667 113 -153zM1020 248.002c-13.333 30 -21.667 73 -25 129c-8 116 -63.333 174 -166 174c-139.333 0 -256 -101 -350 -303h541z" />
    <glyph glyph-name="uniFEC0" unicode="&#x636;" horiz-adv-x="1034" arabic-form="medial" 
d="M868 1202l-157 -170l-174 162l159 172zM1221 18c-78.667 24 -133.331 65.6689 -163.998 125.002l-27 -57c-26.667 -57.333 -60 -86 -100 -86h-574c-92 0 -159.333 10.333 -202 31c-60.667 26.667 -112 77.667 -154 153v310c21.333 -56 47.333 -102 78 -138
c30.667 -32.667 62 -58.334 94 -77.001c37.333 -20.667 88.666 -31 153.999 -31h28l-8 86c-8.66699 82.667 -24.334 161 -47.001 235l74 179l24 -69l19 -61c11.333 -38.667 21.333 -89.667 30 -153c40 71.333 81 132 123 182c101.333 121.333 210 182 326 182
c102 0 177.667 -46.333 227 -139c16.667 -30.667 29 -65.334 37 -104.001c8 -36 19.667 -97.667 35 -185c16 -96.667 53.667 -147.667 113 -153zM1020 248.002c-13.333 30 -21.667 73 -25 129c-8 116 -63.333 174 -166 174c-139.333 0 -256 -101 -350 -303h541z" />
    <glyph glyph-name="uniFEC2" unicode="&#x637;" horiz-adv-x="1101" arabic-form="final" 
d="M1288 18c-80 24 -137.332 65.667 -171.999 125l-23 -57c-22 -57.333 -54 -86 -96 -86h-574c-92 -0 -159.333 10.333 -202 31c-60.667 26.667 -112 77.667 -154 153v310c39.333 -101.333 96.666 -173 171.999 -215c36.667 -19.333 90.667 -29.666 162 -30.999l-17 602
c-2.66699 138.667 -22.334 239 -59.001 301l156 190c44.667 -80.667 73.334 -155 86.001 -223c12 -67.333 18 -183.333 18 -348v-188l12 16c117.333 154 239 231 365 231c57.333 0 110 -18.333 158 -55c56.667 -46.667 97.667 -137.334 123 -272.001l18 -101
c17.333 -96.667 55 -147.667 113 -153zM1087 248c-13.333 30 -21.667 73 -25 129c-8 116 -63.333 174 -166 174c-139.333 0 -256 -101 -350 -303h541z" />
    <glyph glyph-name="uniFEC3" unicode="&#x637;" horiz-adv-x="1374" arabic-form="initial" 
d="M1221 18c-80 24 -137.332 65.667 -171.999 125l-23 -57c-22 -57.333 -54 -86 -96 -86h-574c-92 -0 -159.333 10.333 -202 31c-60.667 26.667 -112 77.667 -154 153v310c39.333 -101.333 96.666 -173 171.999 -215c36.667 -19.333 90.667 -29.666 162 -30.999l-17 602
c-2.66699 138.667 -22.334 239 -59.001 301l156 190c44.667 -80.667 73.334 -155 86.001 -223c12 -67.333 18 -183.333 18 -348v-188l12 16c117.333 154 239 231 365 231c57.333 0 110 -18.333 158 -55c56.667 -46.667 97.667 -137.334 123 -272.001l18 -101
c17.333 -96.667 55 -147.667 113 -153zM1020 248c-13.333 30 -21.667 73 -25 129c-8 116 -63.333 174 -166 174c-139.333 0 -256 -101 -350 -303h541z" />
    <glyph glyph-name="uniFEC4" unicode="&#x637;" horiz-adv-x="1034" arabic-form="medial" 
d="M1221 18c-80 24 -137.332 65.667 -171.999 125l-23 -57c-22 -57.333 -54 -86 -96 -86h-574c-92 -0 -159.333 10.333 -202 31c-60.667 26.667 -112 77.667 -154 153v310c39.333 -101.333 96.666 -173 171.999 -215c36.667 -19.333 90.667 -29.666 162 -30.999l-17 602
c-2.66699 138.667 -22.334 239 -59.001 301l156 190c44.667 -80.667 73.334 -155 86.001 -223c12 -67.333 18 -183.333 18 -348v-188l12 16c117.333 154 239 231 365 231c57.333 0 110 -18.333 158 -55c56.667 -46.667 97.667 -137.334 123 -272.001l18 -101
c17.333 -96.667 55 -147.667 113 -153zM1020 248c-13.333 30 -21.667 73 -25 129c-8 116 -63.333 174 -166 174c-139.333 0 -256 -101 -350 -303h541z" />
    </font>
</defs>
</svg>
