<?xml version="1.0" standalone="no"?>
<!DOCTYPE svg PUBLIC "-//W3C//DTD SVG 1.1//EN" "http://www.w3.org/Graphics/SVG/1.1/DTD/svg11.dtd" >
<svg>
<metadata>
Created by FontForge 20090914 at Wed Oct 19 01:57:55 2011
 By www-data
(c) by Abolfazl Seilsepour - +98 912 591 3420  -  seilsepor@yahoo.com
</metadata>
<defs>
<font id="FarTehran" horiz-adv-x="0" >
  <font-face 
    font-family="Far.Tehran"
    font-weight="400"
    font-stretch="normal"
    units-per-em="2048"
    panose-1="0 0 4 0 0 0 0 0 0 0"
    ascent="1638"
    descent="-410"
    bbox="-301.541 -1062 3001 2142"
    underline-thickness="100"
    underline-position="-850"
    unicode-range="U+0020-U+FEFC"
  />
<missing-glyph horiz-adv-x="1024" 
d="M128 -144v1167h768v-1167h-768zM256 -16h512v911h-512v-911z" />
    <glyph glyph-name="uniE818" unicode="&#x651;&#x64b;" 
d="M482 2142l-46 -120l-384 -189l48 114zM482 1987l-46 -120l-384 -188l48 114zM436 1663c0 -32.667 -9.99902 -63.334 -29.999 -92.001c-24 -34 -54 -51 -90 -51c-15.333 0 -25.666 1 -30.999 3c-32.667 -59.333 -77 -89 -133 -89c-50.667 0 -76 32.667 -76 98
c0 18.667 5 42.667 15 72c11.333 34 29.666 57 54.999 69l16 -25c-2 -17.333 -3 -32.666 -3 -45.999c0 -38 5 -57 15 -57c17.333 0 34.666 23 51.999 69l47 135c18 -20.667 30.667 -49 38 -85c4.66699 -20 10.667 -30 18 -30c9.33301 0 18.666 18.333 27.999 55
c6.66699 30 14.334 62.667 23.001 98c37.333 0 56 -41.333 56 -124z" />
    <glyph glyph-name="uniFC5E" unicode="&#x651;&#x64c;" arabic-form="isolated" 
d="M431 2014c0 -62 -18.667 -111.001 -56 -147.001l46 -21l-12 -100c-50.667 9.33301 -88.667 26.333 -114 51c-72 -58.667 -151.667 -95.667 -239 -111l-64 45c51.333 34.667 77 72.334 77 113.001c0 8.66699 -2 16 -6 22h-4c-10.667 0 -34.667 -10 -72 -30l-2 51
c38 41.333 73 62 105 62c47.333 0 71 -22.333 71 -67c0 -35.333 -6.66699 -64 -20 -86c5.33301 2 15.666 7.33301 30.999 16c28.667 14.667 46.334 26.667 53.001 36c-24.667 26 -37 57 -37 93c0 30 19 65 57 105s73 60 105 60c54 0 81 -30.667 81 -92zM385 1612
c0 -32.667 -9.66699 -63.333 -29 -92c-24.667 -34 -55 -51 -91 -51c-15.333 0 -25.666 1 -30.999 3c-33.333 -58.667 -77.666 -88 -132.999 -88c-50 0 -75 32 -75 96c0 19.333 4.33301 43.333 13 72c12 34 30.667 58 56 72l16 -26c-2 -18 -3 -34 -3 -48
c0 -37.333 5.33301 -56 16 -56c17.333 0 34.666 23 51.999 69l47 138c16.667 -22.667 29 -52 37 -88c5.33301 -20.667 11.333 -31 18 -31c9.33301 0 18.666 18.667 27.999 56c8 30.667 16 63.667 24 99c36.667 0 55 -41.667 55 -125zM334 2009
c-8 0 -19.001 -5.16699 -33.001 -15.5s-21 -19.833 -21 -28.5c0 -10 4.33301 -21.5 13 -34.5s15 -19.5 19 -19.5c4.66699 0 10.334 9 17.001 27c6 18 9 35 9 51c0 13.333 -1.33301 20 -4 20z" />
    <glyph glyph-name="uniFC5F" unicode="&#x651;&#x64d;" arabic-form="isolated" 
d="M394 1986c0 -32.667 -10 -63.333 -30 -92c-24 -34 -54 -51 -90 -51c-15.333 0 -25.333 1 -30 3c-33.333 -58.667 -77.666 -88 -132.999 -88c-51.333 0 -77 32 -77 96c0 19.333 4.66699 43.333 14 72c12 35.333 30.667 58.333 56 69l16 -22c-2 -18.667 -3 -34.667 -3 -48
c0 -38 5.33301 -57 16 -57c17.333 0 34.666 23 51.999 69l48 138c16.667 -22.667 29 -52 37 -88c4.66699 -20.667 10.334 -31 17.001 -31c9.33301 0 18.666 18.667 27.999 56l23 99c37.333 0 56 -41.667 56 -125zM413 1827l-47 -120l-382 -189l47 115zM413 1671l-47 -120
l-383 -188l48 114z" />
    <glyph glyph-name="uniFC60" unicode="&#x651;&#x64e;" arabic-form="isolated" 
d="M413 1946l-47 -120l-383 -189l48 114zM366 1612c0 -32.667 -9.66699 -63.333 -29 -92c-24.667 -34 -54.667 -51 -90 -51c-15.333 0 -25.666 1 -30.999 3c-33.333 -58.667 -77.666 -88 -132.999 -88c-50 0 -75 32 -75 96c0 20 4.33301 44 13 72c12 34 30.667 58 56 72
l16 -26c-2 -18.667 -3 -34.667 -3 -48c0 -37.333 5 -56 15 -56c17.333 0 34.666 23 51.999 69l48 138c16.667 -22.667 29 -52 37 -88c5.33301 -20.667 11 -31 17 -31c9.33301 0 18.666 18.667 27.999 56c8 30 16.333 63 25 99c36 0 54 -41.667 54 -125z" />
    <glyph glyph-name="uniFC61" unicode="&#x651;&#x64f;" arabic-form="isolated" 
d="M418 2019c0 -60 -18.6689 -108 -56.002 -144c4.66699 -4 19.334 -11.667 44.001 -23l-8 -99c-59.333 18 -99.333 36.667 -120 56c-88 -76 -169 -114 -243 -114c-36.667 0 -56 17 -58 51c117.333 40.667 196.333 78 237 112c-27.333 27.333 -41 57 -41 89
c0 30.667 19.333 65.667 58 105s74.334 59 107.001 59c53.333 0 80 -30.667 80 -92zM384.998 1612c0 -32.667 -9.66602 -63.333 -28.999 -92c-24 -34 -54.333 -51 -91 -51c-14.667 0 -25 1 -31 3c-32.667 -58.667 -77 -88 -133 -88c-50 0 -75 32 -75 96
c0 19.333 4.66699 43.333 14 72c11.333 34 29.666 58 54.999 72l17 -26c-2.66699 -18 -4 -34 -4 -48c0 -37.333 5.33301 -56 16 -56c18 0 35.667 23 53 69l46 138c16.667 -22.667 29 -52 37 -88c5.33301 -20.667 11.333 -31 18 -31c10 0 19.333 18.667 28 56l25 99
c36 0 54 -41.667 54 -125zM319.999 2015c-8.66699 0 -19.833 -5 -33.5 -15s-20.5 -19.667 -20.5 -29c0 -10.667 4.33301 -23 13 -37c8 -12 14 -18 18 -18c5.33301 0 11.333 9.33301 18 28c6 18 9 35 9 51c0 13.333 -1.33301 20 -4 20z" />
    <glyph glyph-name="uniFC62" unicode="&#x651;&#x650;" arabic-form="isolated" 
d="M385 1822c0 -32.667 -9.66699 -63.332 -29 -91.999c-24.667 -34 -55 -51 -91 -51c-15.333 0 -25.666 1 -30.999 3c-33.333 -58.667 -77.666 -88 -132.999 -88c-50 0 -75 32 -75 96c0 19.333 4.33301 43.333 13 72c11.333 33.333 30 57.333 56 72l16 -26
c-2 -18 -3 -34 -3 -48c0 -37.333 5.33301 -56 16 -56c17.333 0 34.666 22.667 51.999 68c12 37.333 27.667 83.666 47 138.999c16.667 -22.667 29 -52 37 -88c5.33301 -20.667 11.333 -31 18 -31c9.33301 0 18.666 18.667 27.999 56l24 98c36.667 0 55 -41.333 55 -124z
M413 1671l-47 -120l-383 -188l48 114z" />
    <glyph glyph-name="uniFDF2" unicode="&#xfedf;&#xfee0;&#xfeea;" horiz-adv-x="2533" arabic-form="isolated" 
d="M2293 4c46 1.33301 83.333 19.168 112 53.501s45.667 86.833 51 157.5l-16.5 496.5c-5.66699 163.667 -10.834 329.167 -15.5 496.5l-302 -106c13.333 -133.333 24.666 -266.833 34 -400.5l29 -401.5h-347c-3.33301 120.667 -7 242.5 -11 365.5s-6.66699 242.5 -8 358.5
l-302 -106c13.333 -97.333 23.833 -198.666 31.5 -303.999l22.5 -314h-248h-19h-2c0.666992 0 0.166992 0.166992 -1.5 0.5s-7.83398 1.16602 -18.501 2.49902c-22 5.33301 -39.5 19.833 -52.5 43.5s-23 52 -30 85s-12.333 69 -16 108l-11 113.5
c-3.66699 36.667 -8 69.834 -13 99.501s-12.833 52.167 -23.5 67.5c-75.333 22.667 -141.333 31.667 -198 27s-106.334 -18.5 -149.001 -41.5s-79.5 -53.167 -110.5 -90.5s-58 -77 -81 -119s-43.333 -84.5 -61 -127.5s-34.667 -81.667 -51 -116s-33.166 -62.333 -50.499 -84
s-37.333 -32.5 -60 -32.5c-20 0 -37.833 8.66699 -53.5 26s-29.5 40.166 -41.5 68.499s-22.333 60.666 -31 96.999s-15.667 73.666 -21 111.999s-9.16602 76 -11.499 113s-3.5 70.5 -3.5 100.5l-10.5 -9c-7 -6 -15.667 -13.833 -26 -23.5l-33.5 -31l-33.5 -31l-26 -25
c-7 -7 -10.5 -10.833 -10.5 -11.5c0 -82.667 6.33301 -158.834 19 -228.501s29.167 -132.167 49.5 -187.5s43.5 -103.333 69.5 -144s52 -73.5 78 -98.5s51.167 -41.833 75.5 -50.5s45.166 -8.66699 62.499 0c30.667 15.333 58 37.166 82 65.499s45.833 60 65.5 95
s37.834 72 54.501 111l50.5 114c17 37 34.5 71.5 52.5 103.5s37.833 58.5 59.5 79.5s46.167 34.833 73.5 41.5s58.666 3.33398 93.999 -9.99902c7.33301 -6.66699 12.5 -19.167 15.5 -37.5s5.5 -40.166 7.5 -65.499s4.83301 -53 8.5 -83s9.83398 -60.167 18.501 -90.5
s21 -59.666 37 -87.999s37.333 -53.5 64 -75.5s60 -39.5 100 -52.5s88.333 -19.5 145 -19.5zM1871 1505c11.333 -14 20.8311 -29.499 28.498 -46.499s14.5 -33.833 20.5 -50.5c8 -29.333 11.5 -59.5 10.5 -90.5s-6.66699 -59.333 -17 -85s-25.333 -47 -45 -64
s-43.834 -26.5 -72.501 -28.5c-24 -2 -42.667 0.5 -56 7.5s-27.666 16.5 -42.999 28.5c-5.33301 -10 -12 -21.167 -20 -33.5s-18.167 -24.333 -30.5 -36s-26.833 -22.167 -43.5 -31.5s-36 -15.333 -58 -18c-34.667 -5.33301 -62.667 -2.83301 -84 7.5s-37.666 25 -48.999 44
s-18.666 40.833 -21.999 65.5s-4 49 -2 73s5.83301 45.667 11.5 65s11.5 33.666 17.5 42.999c0 -2.66699 2.33301 -2 7 2l16 13.5c6 5 11.5 9.16699 16.5 12.5s7.5 3.66602 7.5 0.999023c-7.33301 -18.667 -12.666 -40 -15.999 -64s-3.16602 -46.5 0.500977 -67.5
s11.834 -38.167 24.501 -51.5s32 -18.666 58 -15.999c28 2 49.167 10.5 63.5 25.5s24.833 32.5 31.5 52.5s11.667 40.5 15 61.5s8 38.5 14 52.5c0.666992 -2.66699 3 -2.5 7 0.5s8.16699 6.83301 12.5 11.5s8.66602 8.66699 12.999 12s7.16602 3.66602 8.49902 0.999023
c-6 -26 -5.5 -50 1.5 -72s18 -39.5 33 -52.5s33.167 -20 54.5 -21s43.666 6.83301 66.999 23.5c5.33301 8.66699 7.33301 18.667 6 30s-4.5 23 -9.5 35s-11.333 23.833 -19 35.5s-15.167 21.834 -22.5 30.501l32.5 48.5z" />
    <glyph glyph-name="uniFEF5" unicode="&#xfedf;&#xfe82;" horiz-adv-x="1397" arabic-form="isolated" 
d="M999 1149c49.333 15.333 98.999 32.6719 148.999 52.0049s99.333 36.333 148 51l16 -487c1.33301 -46.667 1.83301 -90.167 1.5 -130.5s-3 -79.5 -8 -117.5s-13.5 -76 -25.5 -114s-29 -78.333 -51 -121c-24 -48.667 -52 -91.334 -84 -128.001s-70.333 -68.5 -115 -95.5
s-97.334 -49.667 -158.001 -68s-131.334 -33.5 -212.001 -45.5c-10.667 -1.33301 -27 -3.5 -49 -6.5l-76 -10c-28.667 -3.66699 -59.334 -7.33398 -92.001 -11.001s-65 -6.83398 -97 -9.50098s-62.5 -4.83398 -91.5 -6.50098s-53.667 -2.16699 -74 -1.5
s-35.5 2.66699 -45.5 6s-12 8.33301 -6 15c2.66699 2.66699 14.834 8.66699 36.501 18l85.5 36.5l120.5 53l141.5 67c49.333 24.333 99 50.333 149 78s97.333 56.834 142 87.501c-12 51.333 -27.833 96.833 -47.5 136.5s-41.334 74.334 -65.001 104.001
s-48.334 55.334 -74.001 77.001s-50.167 40 -73.5 55s-44.833 27.667 -64.5 38s-35.167 19.166 -46.5 26.499c0.666992 -11.333 0.333984 -22.666 -0.999023 -33.999c-1.33301 -9.33301 -3.16602 -19 -5.49902 -29s-6.16602 -18.333 -11.499 -25
c-4 -4.66699 -14 -5.83398 -30 -3.50098s-35 6.66602 -57 12.999s-45.667 14.333 -71 24s-49.166 19.334 -71.499 29.001s-41.833 19 -58.5 28s-27.667 16.5 -33 22.5c-20 22 -33.5 47.333 -40.5 76s-9 58 -6 88s9.83301 59.167 20.5 87.5s23.5 53 38.5 74
s31.333 37.167 49 48.5s34.834 15 51.501 11l140.5 -44.5c47 -15 93 -31.833 138 -50.5s88.5 -40.334 130.5 -65.001s81 -53.667 117 -87c32 -30.667 60.5 -65.667 85.5 -105s46.167 -80.833 63.5 -124.5s30.833 -87.834 40.5 -132.501s15.5 -87.667 17.5 -129
c28.667 28 52.5 56 71.5 84s31.167 56.333 36.5 85l-22.5 304.5c-7.66699 100.333 -16.5 202.166 -26.5 305.499zM46.999 1191.01c-1.33301 57.333 19.5 112.5 62.5 165.5s122.5 55.5 238.5 7.5s205 -31 267 51c-30 -172.667 -115.167 -230 -255.5 -172
s-244.5 40.667 -312.5 -52z" />
    <glyph glyph-name="uniFEF6" unicode="&#xfee0;&#xfe82;" horiz-adv-x="1767" arabic-form="final" 
d="M1783 1h-42.001c-86.667 0 -156.667 11.333 -210 34s-94.666 52.667 -123.999 90s-48.833 80.666 -58.5 129.999s-13.667 100.666 -12 153.999s6.5 107 14.5 161s15 104.667 21 152s8.66699 89.5 8 126.5s-9 65.5 -25 85.5l-4 -10c-20.667 -5.33301 -37.667 -22 -51 -50
s-25.833 -63.333 -37.5 -106s-23.834 -90.667 -36.501 -144s-28.667 -108.166 -48 -164.499s-43.5 -112.333 -72.5 -168s-65.667 -106.667 -110 -153s-97.666 -86.166 -159.999 -119.499s-136.833 -56.333 -223.5 -69c-14.667 -2 -39.334 -5.16699 -74.001 -9.5
s-73.667 -8.83301 -117 -13.5s-87.666 -9 -132.999 -13s-85.833 -6.5 -121.5 -7.5s-63.334 0.166992 -83.001 3.5s-25.167 9.66602 -16.5 18.999c3.33301 4.66699 15.833 12.667 37.5 24l83 42.5l115.5 58.5l136.5 72l146 83c49.667 29.333 97.167 59.666 142.5 90.999
c3.33301 66.667 1 124 -7 172s-19.333 88.667 -34 122s-31.5 60.833 -50.5 82.5s-38 39.834 -57 54.501s-36.833 27 -53.5 37s-30 20 -40 30c-9.33301 -12.667 -18.666 -24.667 -27.999 -36l-25 -29c-8.66699 -10 -16.667 -17.667 -24 -23
c-5.33301 -4.66699 -15.666 -4.16699 -30.999 1.5s-33.166 14.167 -53.499 25.5s-42 24.666 -65 39.999s-44.667 30.666 -65 45.999s-38 29.5 -53 42.5s-24.5 22.833 -28.5 29.5c-15.333 26 -24.5 54.333 -27.5 85s-1.33301 60.834 5 90.501s16.166 57.667 29.499 84
s28.333 48.666 45 66.999s34.167 31.333 52.5 39s35.5 7.5 51.5 -0.5l137.5 -75.5c48.333 -26.333 96 -54.5 143 -84.5s91.167 -62.333 132.5 -97s76.666 -72.667 105.999 -114c23.333 -35.333 40.833 -73.666 52.5 -114.999s19 -83.833 22 -127.5s2.5 -87.5 -1.5 -131.5
s-9.33301 -86.333 -16 -127c50 40.667 91.833 82.834 125.5 126.501s54.834 86.834 63.501 129.501c12 72 28.167 136.5 48.5 193.5s43 106.833 68 149.5s51.5 78.834 79.5 108.501s55.5 53.834 82.5 72.501s53.167 32.167 78.5 40.5s47.666 12.166 66.999 11.499v-6
c14 0.666992 27.667 -2.5 41 -9.5s25.333 -18.5 36 -34.5s20.167 -37.333 28.5 -64s14.5 -59.334 18.5 -98.001c2 -24 0.5 -52.5 -4.5 -85.5s-11.167 -68.333 -18.5 -106s-14.5 -76.5 -21.5 -116.5s-11.833 -79.167 -14.5 -117.5s-1.66699 -74.5 3 -108.5
s15 -63.833 31 -89.5s38.833 -46.167 68.5 -61.5s68.5 -23 116.5 -23h41v-299zM57.999 1321c-1.33301 57.333 19.5 112.5 62.5 165.5s122.5 55.5 238.5 7.5s205 -31 267 51c-30 -172.667 -115.167 -230 -255.5 -172s-244.5 40.667 -312.5 -52z" />
    <glyph glyph-name="uniFEF7" unicode="&#xfedf;&#xfe84;" horiz-adv-x="1397" arabic-form="isolated" 
d="M999 1149c49.333 15.333 98.999 32.6719 148.999 52.0049s99.333 36.333 148 51l16 -487c1.33301 -46.667 1.83301 -90.167 1.5 -130.5s-3 -79.5 -8 -117.5s-13.5 -76 -25.5 -114s-29 -78.333 -51 -121c-24 -48.667 -52 -91.334 -84 -128.001s-70.333 -68.5 -115 -95.5
s-97.334 -49.667 -158.001 -68s-131.334 -33.5 -212.001 -45.5c-10.667 -1.33301 -27 -3.5 -49 -6.5l-76 -10c-28.667 -3.66699 -59.334 -7.33398 -92.001 -11.001s-65 -6.83398 -97 -9.50098s-62.5 -4.83398 -91.5 -6.50098s-53.667 -2.16699 -74 -1.5
s-35.5 2.66699 -45.5 6s-12 8.33301 -6 15c2.66699 2.66699 14.834 8.66699 36.501 18l85.5 36.5l120.5 53l141.5 67c49.333 24.333 99 50.333 149 78s97.333 56.834 142 87.501c-12 51.333 -27.833 96.833 -47.5 136.5s-41.334 74.334 -65.001 104.001
s-48.334 55.334 -74.001 77.001s-50.167 40 -73.5 55s-44.833 27.667 -64.5 38s-35.167 19.166 -46.5 26.499c0.666992 -11.333 0.333984 -22.666 -0.999023 -33.999c-1.33301 -9.33301 -3.16602 -19 -5.49902 -29s-6.16602 -18.333 -11.499 -25
c-4 -4.66699 -14 -5.83398 -30 -3.50098s-35 6.66602 -57 12.999s-45.667 14.333 -71 24s-49.166 19.334 -71.499 29.001s-41.833 19 -58.5 28s-27.667 16.5 -33 22.5c-20 22 -33.5 47.333 -40.5 76s-9 58 -6 88s9.83301 59.167 20.5 87.5s23.5 53 38.5 74
s31.333 37.167 49 48.5s34.834 15 51.501 11l140.5 -44.5c47 -15 93 -31.833 138 -50.5s88.5 -40.334 130.5 -65.001s81 -53.667 117 -87c32 -30.667 60.5 -65.667 85.5 -105s46.167 -80.833 63.5 -124.5s30.833 -87.834 40.5 -132.501s15.5 -87.667 17.5 -129
c28.667 28 52.5 56 71.5 84s31.167 56.333 36.5 85l-22.5 304.5c-7.66699 100.333 -16.5 202.166 -26.5 305.499zM416.999 1430.01c-2 -17.333 -7.33594 -36.832 -16.0029 -58.499s-16.667 -40.5 -24 -56.5c-42 -18.667 -80 -36.834 -114 -54.501l-87 -45
c-24 -12.333 -42.5 -20.833 -55.5 -25.5s-19.833 -3 -20.5 5c0 7.33301 -0.333008 12.666 -1 15.999s-1 5.66602 -1 6.99902c0 7.33301 3 14.333 9 21s13.167 13.167 21.5 19.5s16.833 12.166 25.5 17.499s15.667 10 21 14c-26.667 10.667 -44.834 24.334 -54.501 41.001
s-13.5 34 -11.5 52s9 36 21 54s26.833 34.333 44.5 49s37.167 26.5 58.5 35.5s42 13.5 62 13.5c22 0 35.5 -4.66699 40.5 -14s5.33301 -19.5 1 -30.5s-11.666 -21.167 -21.999 -30.5s-19.833 -14 -28.5 -14c-3.33301 0 -6.66602 0.833008 -9.99902 2.5
s-6.66602 3.5 -9.99902 5.5s-6.83301 3.5 -10.5 4.5s-7.16699 0.833008 -10.5 -0.5c-16 -5.33301 -27.5 -12.5 -34.5 -21.5s-9.5 -17.833 -7.5 -26.5s8.16699 -16.167 18.5 -22.5s24.5 -9.66602 42.5 -9.99902s39.833 3.33398 65.5 11.001s54.834 21.5 87.501 41.5z" />
    <glyph glyph-name="uniFEF8" unicode="&#xfee0;&#xfe84;" horiz-adv-x="1767" arabic-form="final" 
d="M1783 1h-42.001c-86.667 0 -156.667 11.333 -210 34s-94.666 52.667 -123.999 90s-48.833 80.666 -58.5 129.999s-13.667 100.666 -12 153.999s6.5 107 14.5 161s15 104.667 21 152s8.66699 89.5 8 126.5s-9 65.5 -25 85.5l-4 -10c-20.667 -5.33301 -37.667 -22 -51 -50
s-25.833 -63.333 -37.5 -106s-23.834 -90.667 -36.501 -144s-28.667 -108.166 -48 -164.499s-43.5 -112.333 -72.5 -168s-65.667 -106.667 -110 -153s-97.666 -86.166 -159.999 -119.499s-136.833 -56.333 -223.5 -69c-14.667 -2 -39.334 -5.16699 -74.001 -9.5
s-73.667 -8.83301 -117 -13.5s-87.666 -9 -132.999 -13s-85.833 -6.5 -121.5 -7.5s-63.334 0.166992 -83.001 3.5s-25.167 9.66602 -16.5 18.999c3.33301 4.66699 15.833 12.667 37.5 24l83 42.5l115.5 58.5l136.5 72l146 83c49.667 29.333 97.167 59.666 142.5 90.999
c3.33301 66.667 1 124 -7 172s-19.333 88.667 -34 122s-31.5 60.833 -50.5 82.5s-38 39.834 -57 54.501s-36.833 27 -53.5 37s-30 20 -40 30c-9.33301 -12.667 -18.666 -24.667 -27.999 -36l-25 -29c-8.66699 -10 -16.667 -17.667 -24 -23
c-5.33301 -4.66699 -15.666 -4.16699 -30.999 1.5s-33.166 14.167 -53.499 25.5s-42 24.666 -65 39.999s-44.667 30.666 -65 45.999s-38 29.5 -53 42.5s-24.5 22.833 -28.5 29.5c-15.333 26 -24.5 54.333 -27.5 85s-1.33301 60.834 5 90.501s16.166 57.667 29.499 84
s28.333 48.666 45 66.999s34.167 31.333 52.5 39s35.5 7.5 51.5 -0.5l137.5 -75.5c48.333 -26.333 96 -54.5 143 -84.5s91.167 -62.333 132.5 -97s76.666 -72.667 105.999 -114c23.333 -35.333 40.833 -73.666 52.5 -114.999s19 -83.833 22 -127.5s2.5 -87.5 -1.5 -131.5
s-9.33301 -86.333 -16 -127c50 40.667 91.833 82.834 125.5 126.501s54.834 86.834 63.501 129.501c12 72 28.167 136.5 48.5 193.5s43 106.833 68 149.5s51.5 78.834 79.5 108.501s55.5 53.834 82.5 72.501s53.167 32.167 78.5 40.5s47.666 12.166 66.999 11.499v-6
c14 0.666992 27.667 -2.5 41 -9.5s25.333 -18.5 36 -34.5s20.167 -37.333 28.5 -64s14.5 -59.334 18.5 -98.001c2 -24 0.5 -52.5 -4.5 -85.5s-11.167 -68.333 -18.5 -106s-14.5 -76.5 -21.5 -116.5s-11.833 -79.167 -14.5 -117.5s-1.66699 -74.5 3 -108.5
s15 -63.833 31 -89.5s38.833 -46.167 68.5 -61.5s68.5 -23 116.5 -23h41v-299zM812.999 1508c-2 -17.333 -7.33594 -36.832 -16.0029 -58.499s-16.667 -40.5 -24 -56.5c-42 -18.667 -80 -36.834 -114 -54.501l-87 -45c-24 -12.333 -42.5 -20.833 -55.5 -25.5
s-19.833 -3 -20.5 5c0 7.33301 -0.333008 12.666 -1 15.999s-1 5.66602 -1 6.99902c0 7.33301 3 14.333 9 21s13.167 13.167 21.5 19.5s16.833 12.166 25.5 17.499s15.667 10 21 14c-26.667 10.667 -44.834 24.334 -54.501 41.001s-13.5 34 -11.5 52s9 36 21 54
s26.833 34.333 44.5 49s37 26.5 58 35.5s41.833 13.5 62.5 13.5c22 0 35.5 -4.66699 40.5 -14s5.33301 -19.5 1 -30.5s-11.666 -21.167 -21.999 -30.5s-19.833 -14 -28.5 -14c-3.33301 0 -6.66602 0.833008 -9.99902 2.5s-6.66602 3.5 -9.99902 5.5s-6.83301 3.5 -10.5 4.5
s-7.16699 0.833008 -10.5 -0.5c-16 -5.33301 -27.5 -12.5 -34.5 -21.5s-9.5 -17.833 -7.5 -26.5s8.16699 -16.167 18.5 -22.5s24.5 -9.66602 42.5 -9.99902s39.833 3.33398 65.5 11.001s54.834 21.5 87.501 41.5z" />
    <glyph glyph-name="uniFEF9" unicode="&#xfedf;&#xfe88;" horiz-adv-x="1397" arabic-form="isolated" 
d="M999 1149c49.333 15.333 98.999 32.6719 148.999 52.0049s99.333 36.333 148 51l16 -487c1.33301 -46.667 1.83301 -90.167 1.5 -130.5s-3 -79.5 -8 -117.5s-13.5 -76 -25.5 -114s-29 -78.333 -51 -121c-24 -48.667 -52 -91.334 -84 -128.001s-70.333 -68.5 -115 -95.5
s-97.334 -49.667 -158.001 -68s-131.334 -33.5 -212.001 -45.5c-10.667 -1.33301 -27 -3.5 -49 -6.5l-76 -10c-28.667 -3.66699 -59.334 -7.33398 -92.001 -11.001s-65 -6.83398 -97 -9.50098s-62.5 -4.83398 -91.5 -6.50098s-53.667 -2.16699 -74 -1.5
s-35.5 2.66699 -45.5 6s-12 8.33301 -6 15c2.66699 2.66699 14.834 8.66699 36.501 18l85.5 36.5l120.5 53l141.5 67c49.333 24.333 99 50.333 149 78s97.333 56.834 142 87.501c-12 51.333 -27.833 96.833 -47.5 136.5s-41.334 74.334 -65.001 104.001
s-48.334 55.334 -74.001 77.001s-50.167 40 -73.5 55s-44.833 27.667 -64.5 38s-35.167 19.166 -46.5 26.499c0.666992 -11.333 0.333984 -22.666 -0.999023 -33.999c-1.33301 -9.33301 -3.16602 -19 -5.49902 -29s-6.16602 -18.333 -11.499 -25
c-4 -4.66699 -14 -5.83398 -30 -3.50098s-35 6.66602 -57 12.999s-45.667 14.333 -71 24s-49.166 19.334 -71.499 29.001s-41.833 19 -58.5 28s-27.667 16.5 -33 22.5c-20 22 -33.5 47.333 -40.5 76s-9 58 -6 88s9.83301 59.167 20.5 87.5s23.5 53 38.5 74
s31.333 37.167 49 48.5s34.834 15 51.501 11l140.5 -44.5c47 -15 93 -31.833 138 -50.5s88.5 -40.334 130.5 -65.001s81 -53.667 117 -87c32 -30.667 60.5 -65.667 85.5 -105s46.167 -80.833 63.5 -124.5s30.833 -87.834 40.5 -132.501s15.5 -87.667 17.5 -129
c28.667 28 52.5 56 71.5 84s31.167 56.333 36.5 85l-22.5 304.5c-7.66699 100.333 -16.5 202.166 -26.5 305.499zM442.999 -294.994c-2 -17.333 -7.33594 -36.832 -16.0029 -58.499s-16.667 -40.5 -24 -56.5c-42 -18.667 -80 -36.834 -114 -54.501l-87 -45
c-24 -12.333 -42.5 -20.833 -55.5 -25.5s-19.833 -3 -20.5 5c0 7.33301 -0.333008 12.666 -1 15.999s-1 5.66602 -1 6.99902c0 7.33301 3 14.333 9 21s13.167 13.167 21.5 19.5s16.833 12.166 25.5 17.499s15.667 10 21 14c-26.667 10.667 -44.834 24.334 -54.501 41.001
s-13.5 34 -11.5 52s9 36 21 54s26.833 34.333 44.5 49s37.167 26.5 58.5 35.5s42 13.5 62 13.5c22 0 35.5 -4.66699 40.5 -14s5.33301 -19.5 1 -30.5s-11.666 -21.167 -21.999 -30.5s-19.833 -14 -28.5 -14c-3.33301 0 -6.66602 0.833008 -9.99902 2.5
s-6.66602 3.5 -9.99902 5.5s-6.83301 3.5 -10.5 4.5s-7.16699 0.833008 -10.5 -0.5c-16 -5.33301 -27.5 -12.5 -34.5 -21.5s-9.5 -17.833 -7.5 -26.5s8.16699 -16.167 18.5 -22.5s24.5 -9.66602 42.5 -9.99902s39.833 3.33398 65.5 11.001s54.834 21.5 87.501 41.5z" />
    <glyph glyph-name="uniFEFA" unicode="&#xfee0;&#xfe88;" horiz-adv-x="1767" arabic-form="final" 
d="M1783 1h-42.001c-86.667 0 -156.667 11.333 -210 34s-94.666 52.667 -123.999 90s-48.833 80.666 -58.5 129.999s-13.667 100.666 -12 153.999s6.5 107 14.5 161s15 104.667 21 152s8.66699 89.5 8 126.5s-9 65.5 -25 85.5l-4 -10c-20.667 -5.33301 -37.667 -22 -51 -50
s-25.833 -63.333 -37.5 -106s-23.834 -90.667 -36.501 -144s-28.667 -108.166 -48 -164.499s-43.5 -112.333 -72.5 -168s-65.667 -106.667 -110 -153s-97.666 -86.166 -159.999 -119.499s-136.833 -56.333 -223.5 -69c-14.667 -2 -39.334 -5.16699 -74.001 -9.5
s-73.667 -8.83301 -117 -13.5s-87.666 -9 -132.999 -13s-85.833 -6.5 -121.5 -7.5s-63.334 0.166992 -83.001 3.5s-25.167 9.66602 -16.5 18.999c3.33301 4.66699 15.833 12.667 37.5 24l83 42.5l115.5 58.5l136.5 72l146 83c49.667 29.333 97.167 59.666 142.5 90.999
c3.33301 66.667 1 124 -7 172s-19.333 88.667 -34 122s-31.5 60.833 -50.5 82.5s-38 39.834 -57 54.501s-36.833 27 -53.5 37s-30 20 -40 30c-9.33301 -12.667 -18.666 -24.667 -27.999 -36l-25 -29c-8.66699 -10 -16.667 -17.667 -24 -23
c-5.33301 -4.66699 -15.666 -4.16699 -30.999 1.5s-33.166 14.167 -53.499 25.5s-42 24.666 -65 39.999s-44.667 30.666 -65 45.999s-38 29.5 -53 42.5s-24.5 22.833 -28.5 29.5c-15.333 26 -24.5 54.333 -27.5 85s-1.33301 60.834 5 90.501s16.166 57.667 29.499 84
s28.333 48.666 45 66.999s34.167 31.333 52.5 39s35.5 7.5 51.5 -0.5l137.5 -75.5c48.333 -26.333 96 -54.5 143 -84.5s91.167 -62.333 132.5 -97s76.666 -72.667 105.999 -114c23.333 -35.333 40.833 -73.666 52.5 -114.999s19 -83.833 22 -127.5s2.5 -87.5 -1.5 -131.5
s-9.33301 -86.333 -16 -127c50 40.667 91.833 82.834 125.5 126.501s54.834 86.834 63.501 129.501c12 72 28.167 136.5 48.5 193.5s43 106.833 68 149.5s51.5 78.834 79.5 108.501s55.5 53.834 82.5 72.501s53.167 32.167 78.5 40.5s47.666 12.166 66.999 11.499v-6
c14 0.666992 27.667 -2.5 41 -9.5s25.333 -18.5 36 -34.5s20.167 -37.333 28.5 -64s14.5 -59.334 18.5 -98.001c2 -24 0.5 -52.5 -4.5 -85.5s-11.167 -68.333 -18.5 -106s-14.5 -76.5 -21.5 -116.5s-11.833 -79.167 -14.5 -117.5s-1.66699 -74.5 3 -108.5
s15 -63.833 31 -89.5s38.833 -46.167 68.5 -61.5s68.5 -23 116.5 -23h41v-299zM442.999 -295c-2 -17.333 -7.33594 -36.832 -16.0029 -58.499s-16.667 -40.5 -24 -56.5c-42 -18.667 -80 -36.834 -114 -54.501l-87 -45c-24 -12.333 -42.5 -20.833 -55.5 -25.5
s-19.833 -3 -20.5 5c0 7.33301 -0.333008 12.666 -1 15.999s-1 5.66602 -1 6.99902c0 7.33301 3 14.333 9 21s13.167 13.167 21.5 19.5s16.833 12.166 25.5 17.499s15.667 10 21 14c-26.667 10.667 -44.834 24.334 -54.501 41.001s-13.5 34 -11.5 52s9 36 21 54
s26.833 34.333 44.5 49s37.167 26.5 58.5 35.5s42 13.5 62 13.5c22 0 35.5 -4.66699 40.5 -14s5.33301 -19.5 1 -30.5s-11.666 -21.167 -21.999 -30.5s-19.833 -14 -28.5 -14c-3.33301 0 -6.66602 0.833008 -9.99902 2.5s-6.66602 3.5 -9.99902 5.5s-6.83301 3.5 -10.5 4.5
s-7.16699 0.833008 -10.5 -0.5c-16 -5.33301 -27.5 -12.5 -34.5 -21.5s-9.5 -17.833 -7.5 -26.5s8.16699 -16.167 18.5 -22.5s24.5 -9.66602 42.5 -9.99902s39.833 3.33398 65.5 11.001s54.834 21.5 87.501 41.5z" />
    <glyph glyph-name="uniFEFB" unicode="&#xfedf;&#xfe8e;" horiz-adv-x="1397" arabic-form="isolated" 
d="M999 1149c49.333 15.333 98.999 32.6719 148.999 52.0049s99.333 36.333 148 51l16 -487c1.33301 -46.667 1.83301 -90.167 1.5 -130.5s-3 -79.5 -8 -117.5s-13.5 -76 -25.5 -114s-29 -78.333 -51 -121c-24 -48.667 -52 -91.334 -84 -128.001s-70.333 -68.5 -115 -95.5
s-97.334 -49.667 -158.001 -68s-131.334 -33.5 -212.001 -45.5c-10.667 -1.33301 -27 -3.5 -49 -6.5l-76 -10c-28.667 -3.66699 -59.334 -7.33398 -92.001 -11.001s-65 -6.83398 -97 -9.50098s-62.5 -4.83398 -91.5 -6.50098s-53.667 -2.16699 -74 -1.5
s-35.5 2.66699 -45.5 6s-12 8.33301 -6 15c2.66699 2.66699 14.834 8.66699 36.501 18l85.5 36.5l120.5 53l141.5 67c49.333 24.333 99 50.333 149 78s97.333 56.834 142 87.501c-12 51.333 -27.833 96.833 -47.5 136.5s-41.334 74.334 -65.001 104.001
s-48.334 55.334 -74.001 77.001s-50.167 40 -73.5 55s-44.833 27.667 -64.5 38s-35.167 19.166 -46.5 26.499c0.666992 -11.333 0.333984 -22.666 -0.999023 -33.999c-1.33301 -9.33301 -3.16602 -19 -5.49902 -29s-6.16602 -18.333 -11.499 -25
c-4 -4.66699 -14 -5.83398 -30 -3.50098s-35 6.66602 -57 12.999s-45.667 14.333 -71 24s-49.166 19.334 -71.499 29.001s-41.833 19 -58.5 28s-27.667 16.5 -33 22.5c-20 22 -33.5 47.333 -40.5 76s-9 58 -6 88s9.83301 59.167 20.5 87.5s23.5 53 38.5 74
s31.333 37.167 49 48.5s34.834 15 51.501 11l140.5 -44.5c47 -15 93 -31.833 138 -50.5s88.5 -40.334 130.5 -65.001s81 -53.667 117 -87c32 -30.667 60.5 -65.667 85.5 -105s46.167 -80.833 63.5 -124.5s30.833 -87.834 40.5 -132.501s15.5 -87.667 17.5 -129
c28.667 28 52.5 56 71.5 84s31.167 56.333 36.5 85l-22.5 304.5c-7.66699 100.333 -16.5 202.166 -26.5 305.499z" />
    <glyph glyph-name="uniFEFC" unicode="&#xfee0;&#xfe8e;" horiz-adv-x="1767" arabic-form="final" 
d="M1783 1h-42.001c-86.667 0 -156.667 11.333 -210 34s-94.666 52.667 -123.999 90s-48.833 80.666 -58.5 129.999s-13.667 100.666 -12 153.999s6.5 107 14.5 161s15 104.667 21 152s8.66699 89.5 8 126.5s-9 65.5 -25 85.5l-4 -10c-20.667 -5.33301 -37.667 -22 -51 -50
s-25.833 -63.333 -37.5 -106s-23.834 -90.667 -36.501 -144s-28.667 -108.166 -48 -164.499s-43.5 -112.333 -72.5 -168s-65.667 -106.667 -110 -153s-97.666 -86.166 -159.999 -119.499s-136.833 -56.333 -223.5 -69c-14.667 -2 -39.334 -5.16699 -74.001 -9.5
s-73.667 -8.83301 -117 -13.5s-87.666 -9 -132.999 -13s-85.833 -6.5 -121.5 -7.5s-63.334 0.166992 -83.001 3.5s-25.167 9.66602 -16.5 18.999c3.33301 4.66699 15.833 12.667 37.5 24l83 42.5l115.5 58.5l136.5 72l146 83c49.667 29.333 97.167 59.666 142.5 90.999
c3.33301 66.667 1 124 -7 172s-19.333 88.667 -34 122s-31.5 60.833 -50.5 82.5s-38 39.834 -57 54.501s-36.833 27 -53.5 37s-30 20 -40 30c-9.33301 -12.667 -18.666 -24.667 -27.999 -36l-25 -29c-8.66699 -10 -16.667 -17.667 -24 -23
c-5.33301 -4.66699 -15.666 -4.16699 -30.999 1.5s-33.166 14.167 -53.499 25.5s-42 24.666 -65 39.999s-44.667 30.666 -65 45.999s-38 29.5 -53 42.5s-24.5 22.833 -28.5 29.5c-15.333 26 -24.5 54.333 -27.5 85s-1.33301 60.834 5 90.501s16.166 57.667 29.499 84
s28.333 48.666 45 66.999s34.167 31.333 52.5 39s35.5 7.5 51.5 -0.5l137.5 -75.5c48.333 -26.333 96 -54.5 143 -84.5s91.167 -62.333 132.5 -97s76.666 -72.667 105.999 -114c23.333 -35.333 40.833 -73.666 52.5 -114.999s19 -83.833 22 -127.5s2.5 -87.5 -1.5 -131.5
s-9.33301 -86.333 -16 -127c50 40.667 91.833 82.834 125.5 126.501s54.834 86.834 63.501 129.501c12 72 28.167 136.5 48.5 193.5s43 106.833 68 149.5s51.5 78.834 79.5 108.501s55.5 53.834 82.5 72.501s53.167 32.167 78.5 40.5s47.666 12.166 66.999 11.499v-6
c14 0.666992 27.667 -2.5 41 -9.5s25.333 -18.5 36 -34.5s20.167 -37.333 28.5 -64s14.5 -59.334 18.5 -98.001c2 -24 0.5 -52.5 -4.5 -85.5s-11.167 -68.333 -18.5 -106s-14.5 -76.5 -21.5 -116.5s-11.833 -79.167 -14.5 -117.5s-1.66699 -74.5 3 -108.5
s15 -63.833 31 -89.5s38.833 -46.167 68.5 -61.5s68.5 -23 116.5 -23h41v-299z" />
    <glyph glyph-name="afii57458_afii57454.liga" unicode="&#x652;&#x64e;" horiz-adv-x="1" 
d="M150 851c-2.66699 -10.667 -10.002 -26 -22.002 -46c-7.33301 -7.33301 -12.333 -10.666 -15 -9.99902c-3.33301 0 -4.66602 4.33301 -3.99902 13c2.66699 28 -2.33301 69.667 -15 125c-14 58.667 -21 93.667 -21 105c8.66699 10 21.667 22.667 39 38
c4.66699 3.33301 8.33398 5.33301 11.001 6c1.33301 -0.666992 2.33301 -3.33398 3 -8.00098c-0.666992 -6 -1 -12.667 -1 -20c0 -22.667 4.5 -56.5 13.5 -101.5s13.5 -73.833 13.5 -86.5c0 -6 -0.666992 -11 -2 -15z" />
    <glyph glyph-name="afii57458_afii57451.liga" unicode="&#x652;&#x64b;" horiz-adv-x="1" 
d="M461 596c0 -13.333 -32.666 -45.333 -97.999 -96c-20 24 -50.667 53 -92 87c-22 -23.333 -53.667 -54.666 -95 -93.999c-26.667 38 -59 70.667 -97 98l95 102c27.333 -14.667 60.666 -46.334 99.999 -95.001l87 95c20.667 -10 43 -27.333 67 -52
c22 -23.333 33 -38.333 33 -45z" />
    <glyph glyph-name="afii57458_afii57453.liga" unicode="&#x652;&#x64d;" horiz-adv-x="1" 
d="M703 -832c0 -13.333 -32.666 -45.333 -97.999 -96c-20 24 -50.667 53 -92 87c-22 -23.333 -53.667 -54.666 -95 -93.999c-26.667 38 -59 70.667 -97 98l95 102c27.333 -14.667 60.666 -46.334 99.999 -95.001l87 95c20.667 -10 43 -27.333 67 -52
c22 -23.333 33 -38.333 33 -45z" />
    <glyph glyph-name="afii57410" unicode="&#x622;" horiz-adv-x="548" arabic-form="isolated" 
d="M111 1102l150.5 53.0049l151.5 53c3.33301 -82.667 6 -165.167 8 -247.5s4.66699 -164.5 8 -246.5c3.33301 -82.667 6 -165.334 8 -248.001s4.66699 -166.334 8 -251.001c-2 -49.333 -11.333 -95.333 -28 -138s-37 -79.834 -61 -111.501s-49.667 -56.834 -77 -75.501
s-52.333 -28.334 -75 -29.001zM-10 1232c-1.33301 57.333 19.5 112.5 62.5 165.5s122.5 55.5 238.5 7.5s205 -31 267 51c-30 -172.667 -115.167 -230 -255.5 -172s-244.5 40.667 -312.5 -52z" />
    <glyph glyph-name="afii57411" unicode="&#x623;" horiz-adv-x="548" arabic-form="isolated" 
d="M111 1102l150.5 53.0049l151.5 53c3.33301 -82.667 6 -165.167 8 -247.5s4.66699 -164.5 8 -246.5c3.33301 -82.667 6 -165.334 8 -248.001s4.66699 -166.334 8 -251.001c-2 -49.333 -11.333 -95.333 -28 -138s-37 -79.834 -61 -111.501s-49.667 -56.834 -77 -75.501
s-52.333 -28.334 -75 -29.001zM417 1430c-2 -17.333 -7.33594 -36.832 -16.0029 -58.499s-16.667 -40.5 -24 -56.5c-42 -18.667 -80 -36.834 -114 -54.501l-87 -45c-24 -12.333 -42.5 -20.833 -55.5 -25.5s-19.833 -3 -20.5 5c0 7.33301 -0.333008 12.666 -1 15.999
s-1 5.66602 -1 6.99902c0 7.33301 3 14.333 9 21s13.167 13.167 21.5 19.5s16.833 12.166 25.5 17.499s15.667 10 21 14c-26.667 10.667 -44.834 24.334 -54.501 41.001s-13.5 34 -11.5 52s9 36 21 54s26.833 34.333 44.5 49s37.167 26.5 58.5 35.5s42 13.5 62 13.5
c22 0 35.5 -4.66699 40.5 -14s5.33301 -19.5 1 -30.5s-11.666 -21.167 -21.999 -30.5s-19.833 -14 -28.5 -14c-3.33301 0 -6.66602 0.833008 -9.99902 2.5s-6.66602 3.5 -9.99902 5.5s-6.83301 3.5 -10.5 4.5s-7.16699 0.833008 -10.5 -0.5
c-16 -5.33301 -27.5 -12.5 -34.5 -21.5s-9.5 -17.833 -7.5 -26.5s8.16699 -16.167 18.5 -22.5s24.5 -9.66602 42.5 -9.99902s39.833 3.33398 65.5 11.001s54.834 21.5 87.501 41.5z" />
    <glyph glyph-name="afii57412" unicode="&#x624;" horiz-adv-x="1022" arabic-form="isolated" 
d="M801 737c37.333 -52 67.1699 -106.329 89.5029 -162.996s37.666 -114.5 45.999 -173.5s10.333 -118.5 6 -178.5s-14.166 -119.333 -29.499 -178c-12 -34.667 -32.5 -70.5 -61.5 -107.5s-63.833 -73 -104.5 -108s-85.834 -68.167 -135.501 -99.5
s-101.167 -58.833 -154.5 -82.5s-107.333 -42.334 -162 -56.001s-107 -20.5 -157 -20.5c-14 0 -34.333 5.33301 -61 16s-55.834 23.834 -87.501 39.501s-63.5 32.5 -95.5 50.5s-60 34.833 -84 50.5s-41.833 28.5 -53.5 38.5s-13.167 14.667 -4.5 14
c23.333 -2 55.5 -1.83301 96.5 0.5s87.333 7.33301 139 15s107 18.167 166 31.5s118.667 30.333 179 51s119.333 45.334 177 74.001s110.834 62 159.501 100c-31.333 9.33301 -65.666 18.166 -102.999 26.499s-74.833 17.166 -112.5 26.499s-74.167 19.666 -109.5 30.999
s-66.833 25 -94.5 41s-49.834 34.833 -66.501 56.5s-25.334 47.5 -26.001 77.5c-0.666992 34 4.66602 71 15.999 111s27 80.167 47 120.5s43.667 79.166 71 116.499s57 70.666 89 99.999s65.833 53 101.5 71s71.667 27.667 108 29s72.5 -7.5 108.5 -26.5
s70.333 -50.5 103 -94.5zM688.004 1164c-2 -12 -5.66797 -25.0059 -11.001 -39.0059s-11.5 -28.167 -18.5 -42.5l-21.5 -42.5c-7.33301 -14 -13.666 -27 -18.999 -39c-71.333 -25.333 -135.833 -50.333 -193.5 -75l-148 -63c-41 -17.333 -72.667 -29.333 -95 -36
s-33.833 -4.66699 -34.5 6c0 5.33301 -0.166992 9.66602 -0.5 12.999s-0.5 6.33301 -0.5 9v8c0 10.667 5 20.834 15 30.501s21.833 19 35.5 28s27.834 17.5 42.501 25.5s26.667 15 36 21c-44.667 15.333 -75.5 34.5 -92.5 57.5s-23.667 47.167 -20 72.5
s15.834 50.833 36.501 76.5s46 48.834 76 69.501s63 37.334 99 50.001s71 19 105 19c25.333 0 43.833 -3.16699 55.5 -9.5s18.667 -14.166 21 -23.499s0.666016 -19.5 -5.00098 -30.5s-13.334 -21.167 -23.001 -30.5s-20.334 -17.166 -32.001 -23.499
s-22.834 -9.5 -33.501 -9.5c-5.33301 0 -10.666 1.16699 -15.999 3.5l-16.5 7.5c-5.66699 2.66699 -11.5 4.83398 -17.5 6.50098s-12 1.5 -18 -0.5c-27.333 -8 -46.666 -18.167 -57.999 -30.5s-15.5 -24.666 -12.5 -36.999s13.167 -22.833 30.5 -31.5
s41.5 -13.167 72.5 -13.5s68.333 5 112 16s93.5 30.167 149.5 57.5zM537.003 587.998c-14 3.33301 -28.334 0.669922 -43.001 -7.99707s-31 -20.667 -49 -36c-20.667 -19.333 -32.5 -36 -35.5 -50s0.333008 -26.333 10 -37s24.5 -19.834 44.5 -27.501s42.667 -14.667 68 -21
s52 -12 80 -17s55 -10.167 81 -15.5c0.666992 -0.666992 -0.333008 4.16602 -3 14.499s-7.16699 23.166 -13.5 38.499s-14.166 32.166 -23.499 50.499s-19.833 35.5 -31.5 51.5s-24.667 29.333 -39 40s-29.5 16.334 -45.5 17.001z" />
    <glyph glyph-name="afii57413" unicode="&#x625;" horiz-adv-x="548" arabic-form="isolated" 
d="M111 1102l150.5 53.0049l151.5 53c3.33301 -82.667 6 -165.167 8 -247.5s4.66699 -164.5 8 -246.5c3.33301 -82.667 6 -165.334 8 -248.001s4.66699 -166.334 8 -251.001c-2 -49.333 -11.333 -95.333 -28 -138s-37 -79.834 -61 -111.501s-49.667 -56.834 -77 -75.501
s-52.333 -28.334 -75 -29.001zM443 -294.995c-2 -17.333 -7.33594 -36.832 -16.0029 -58.499s-16.667 -40.5 -24 -56.5c-42 -18.667 -80 -36.834 -114 -54.501l-87 -45c-24 -12.333 -42.5 -20.833 -55.5 -25.5s-19.833 -3 -20.5 5c0 7.33301 -0.333008 12.666 -1 15.999
s-1 5.66602 -1 6.99902c0 7.33301 3 14.333 9 21s13.167 13.167 21.5 19.5s16.833 12.166 25.5 17.499s15.667 10 21 14c-26.667 10.667 -44.834 24.334 -54.501 41.001s-13.5 34 -11.5 52s9 36 21 54s26.833 34.333 44.5 49s37.167 26.5 58.5 35.5s42 13.5 62 13.5
c22 0 35.5 -4.66699 40.5 -14s5.33301 -19.5 1 -30.5s-11.666 -21.167 -21.999 -30.5s-19.833 -14 -28.5 -14c-3.33301 0 -6.66602 0.833008 -9.99902 2.5s-6.66602 3.5 -9.99902 5.5s-6.83301 3.5 -10.5 4.5s-7.16699 0.833008 -10.5 -0.5
c-16 -5.33301 -27.5 -12.5 -34.5 -21.5s-9.5 -17.833 -7.5 -26.5s8.16699 -16.167 18.5 -22.5s24.5 -9.66602 42.5 -9.99902s39.833 3.33398 65.5 11.001s54.834 21.5 87.501 41.5z" />
    <glyph glyph-name="afii57414" unicode="&#x626;" horiz-adv-x="1538" arabic-form="isolated" 
d="M1334 888c1.33301 0 9.33594 -0.331055 24.0029 -0.998047s30.834 -1.16699 48.501 -1.5s34 -0.833008 49 -1.5s23.167 -1 24.5 -1l-130 -279c-101.333 2.66699 -188 -6 -260 -26s-133 -54 -183 -102c57.333 -20 112 -37.667 164 -53s99.667 -30.833 143 -46.5
s81.5 -33.167 114.5 -52.5s59.167 -43.166 78.5 -71.499s31.166 -62.833 35.499 -103.5s-0.5 -90 -14.5 -148c-15.333 -46 -39.833 -86.833 -73.5 -122.5s-73.667 -66 -120 -91s-97.5 -45.167 -153.5 -60.5s-113.833 -25.833 -173.5 -31.5s-119.834 -7 -180.501 -4
s-119.167 10.167 -175.5 21.5s-108.666 26.666 -156.999 45.999s-90.166 42.333 -125.499 69c-55.333 41.333 -101.5 90.166 -138.5 146.499s-60 118.333 -69 186s-1.83301 140.667 21.5 219s67.666 160.166 132.999 245.499l121 9
c-33.333 -92.667 -46.5 -176.334 -39.5 -251.001s28.5 -139.667 64.5 -195s83.667 -100.5 143 -135.5s124.5 -59.167 195.5 -72.5s145 -15.333 222 -6s151.167 30.666 222.5 63.999c-7.33301 20.667 -21.333 38.167 -42 52.5s-45.334 27 -74.001 38s-60 21 -94 30l-101 27.5
c-33.333 9.33301 -65 19.833 -95 31.5s-55.333 25.334 -76 41.001s-35.334 34.5 -44.001 56.5s-8.33398 48 0.999023 78c25.333 64 55.666 120.5 90.999 169.5s73.666 91.333 114.999 127s84.5 65.5 129.5 89.5s89.833 43.667 134.5 59s87.834 26.833 129.501 34.5
s79.834 12.834 114.501 15.501zM646.003 1034c-2 -12 -5.66797 -25.0059 -11.001 -39.0059s-11.5 -28.167 -18.5 -42.5l-21.5 -42.5c-7.33301 -14 -13.666 -27 -18.999 -39c-71.333 -25.333 -135.833 -50.333 -193.5 -75l-148 -63c-41 -17.333 -72.667 -29.333 -95 -36
s-33.833 -4.66699 -34.5 6c0 5.33301 -0.166992 9.66602 -0.5 12.999s-0.5 6.33301 -0.5 9v8c0 10.667 5 20.834 15 30.501s21.833 19 35.5 28s27.834 17.5 42.501 25.5s26.667 15 36 21c-44.667 15.333 -75.5 34.5 -92.5 57.5s-23.667 47.167 -20 72.5
s15.834 50.833 36.501 76.5s46 48.834 76 69.501s63 37.334 99 50.001s71 19 105 19c25.333 0 43.833 -3.16699 55.5 -9.5s18.667 -14.166 21 -23.499s0.666016 -19.5 -5.00098 -30.5s-13.334 -21.167 -23.001 -30.5s-20.334 -17.166 -32.001 -23.499
s-22.834 -9.5 -33.501 -9.5c-5.33301 0 -10.666 1.16699 -15.999 3.5l-16.5 7.5c-5.66699 2.66699 -11.5 4.83398 -17.5 6.50098s-12 1.5 -18 -0.5c-27.333 -8 -46.666 -18.167 -57.999 -30.5s-15.5 -24.666 -12.5 -36.999s13.167 -22.833 30.5 -31.5
s41.5 -13.167 72.5 -13.5s68.333 5 112 16s93.5 30.167 149.5 57.5z" />
    <glyph glyph-name="afii57415" unicode="&#x627;" horiz-adv-x="548" arabic-form="isolated" 
d="M111 1102l150.5 53.0049l151.5 53c3.33301 -82.667 6 -165.167 8 -247.5s4.66699 -164.5 8 -246.5c3.33301 -82.667 6 -165.334 8 -248.001s4.66699 -166.334 8 -251.001c-2 -49.333 -11.333 -95.333 -28 -138s-37 -79.834 -61 -111.501s-49.667 -56.834 -77 -75.501
s-52.333 -28.334 -75 -29.001z" />
    <glyph glyph-name="afii57416" unicode="&#x628;" horiz-adv-x="1704" arabic-form="isolated" 
d="M1481 806c18.667 -24.667 37.499 -51.3389 56.499 -80.0059s36.333 -58.667 52 -90s28.834 -64.166 39.501 -98.499s17.334 -69.833 20.001 -106.5c2.66699 -41.333 0.833984 -84.166 -5.49902 -128.499s-21 -86.833 -44 -127.5s-56.167 -77.167 -99.5 -109.5
s-100.333 -56.833 -171 -73.5l-277.5 -42.5c-93.667 -14.333 -184.834 -25.5 -273.501 -33.5s-173 -11.5 -253 -10.5s-151.667 9.66699 -215 26s-116.5 42 -159.5 77s-71.833 82.167 -86.5 141.5s-13.5 132.333 3.5 219s53.833 190.334 110.5 311.001l114 47
c-7.33301 -10.667 -14.833 -27.667 -22.5 -51s-14.167 -50.166 -19.5 -80.499s-8.83301 -62.5 -10.5 -96.5s0 -66.167 5 -96.5s14.167 -57.5 27.5 -81.5s32 -41.667 56 -53c18.667 -9.33301 48.5 -15.666 89.5 -18.999s99.167 -3.66602 174.5 -0.999023
s170.666 8.16699 285.999 16.5s256.666 19.5 423.999 33.5c34.667 8 55.834 23.5 63.501 46.5s5.66699 49.667 -6 80s-30.5 62.5 -56.5 96.5s-55.333 66 -88 96zM912.999 -207.005l203 -203l-177 -177l-203 203z" />
    <glyph glyph-name="afii57417" unicode="&#x629;" horiz-adv-x="829" arabic-form="isolated" 
d="M334 -40c-32 0.666992 -63 5.00098 -93 13.001s-57.333 20 -82 36s-45.5 36.167 -62.5 60.5s-28.5 53.333 -34.5 87s-5.5 72.167 1.5 115.5s22.5 91.666 46.5 144.999c41.333 93.333 83.833 168.833 127.5 226.5s86.5 100.167 128.5 127.5s82.5 41.333 121.5 42
s75.167 -9 108.5 -29c28 -17.333 53.333 -41.5 76 -72.5s41.5 -66.833 56.5 -107.5s25.5 -85 31.5 -133s6.5 -98.167 1.5 -150.5s-16 -105.5 -33 -159.5s-40.833 -107 -71.5 -159zM610 299.001c-10 33.333 -21.168 61.8301 -33.501 85.4971s-25.666 43.334 -39.999 59.001
s-29.166 27.834 -44.499 36.501s-31 14.334 -47 17.001c-25.333 4 -49.5 1 -72.5 -9s-43.333 -23.833 -61 -41.5s-31.334 -37.334 -41.001 -59.001s-13.667 -42.167 -12 -61.5s10.167 -35.666 25.5 -48.999s39.333 -20 72 -20zM384.999 1185
c-2 -17.333 -7.33594 -36.832 -16.0029 -58.499s-16.667 -40.5 -24 -56.5c-42 -18.667 -80 -36.834 -114 -54.501l-87 -45c-24 -12.333 -42.5 -20.833 -55.5 -25.5s-19.833 -3 -20.5 5c0 7.33301 -0.333008 12.666 -1 15.999s-1 5.66602 -1 6.99902c0 7.33301 3 14.333 9 21
s13.167 13.167 21.5 19.5s16.833 12.166 25.5 17.499s15.667 10 21 14c-26.667 10.667 -44.834 24.334 -54.501 41.001s-13.5 34 -11.5 52s9 36 21 54s26.833 34.333 44.5 49s37.167 26.5 58.5 35.5s42 13.5 62 13.5c22 0 35.5 -4.66699 40.5 -14s5.33301 -19.5 1 -30.5
s-11.666 -21.167 -21.999 -30.5s-19.833 -14 -28.5 -14c-3.33301 0 -6.66602 0.833008 -9.99902 2.5s-6.66602 3.5 -9.99902 5.5s-6.83301 3.5 -10.5 4.5s-7.16699 0.833008 -10.5 -0.5c-16 -5.33301 -27.5 -12.5 -34.5 -21.5s-9.5 -17.833 -7.5 -26.5
s8.16699 -16.167 18.5 -22.5s24.5 -9.66602 42.5 -9.99902s39.833 3.33398 65.5 11.001s54.834 21.5 87.501 41.5z" />
    <glyph glyph-name="afii57418" unicode="&#x62a;" horiz-adv-x="1704" arabic-form="isolated" 
d="M1481 806c18.667 -24.667 37.499 -51.3389 56.499 -80.0059s36.333 -58.667 52 -90s28.834 -64.166 39.501 -98.499s17.334 -69.833 20.001 -106.5c2.66699 -41.333 0.833984 -84.166 -5.49902 -128.499s-21 -86.833 -44 -127.5s-56.167 -77.167 -99.5 -109.5
s-100.333 -56.833 -171 -73.5l-277.5 -42.5c-93.667 -14.333 -184.834 -25.5 -273.501 -33.5s-173 -11.5 -253 -10.5s-151.667 9.66699 -215 26s-116.5 42 -159.5 77s-71.833 82.167 -86.5 141.5s-13.5 132.333 3.5 219s53.833 190.334 110.5 311.001l114 47
c-7.33301 -10.667 -14.833 -27.667 -22.5 -51s-14.167 -50.166 -19.5 -80.499s-8.83301 -62.5 -10.5 -96.5s0 -66.167 5 -96.5s14.167 -57.5 27.5 -81.5s32 -41.667 56 -53c18.667 -9.33301 48.5 -15.666 89.5 -18.999s99.167 -3.66602 174.5 -0.999023
s170.666 8.16699 285.999 16.5s256.666 19.5 423.999 33.5c34.667 8 55.834 23.5 63.501 46.5s5.66699 49.667 -6 80s-30.5 62.5 -56.5 96.5s-55.333 66 -88 96zM633.999 1146l153 -153l154 153l195 -195l-170 -171l-153 153l-154 -153l-195 196z" />
    <glyph glyph-name="afii57419" unicode="&#x62b;" horiz-adv-x="1704" arabic-form="isolated" 
d="M1481 806c18.667 -24.667 37.499 -51.3389 56.499 -80.0059s36.333 -58.667 52 -90s28.834 -64.166 39.501 -98.499s17.334 -69.833 20.001 -106.5c2.66699 -41.333 0.833984 -84.166 -5.49902 -128.499s-21 -86.833 -44 -127.5s-56.167 -77.167 -99.5 -109.5
s-100.333 -56.833 -171 -73.5l-277.5 -42.5c-93.667 -14.333 -184.834 -25.5 -273.501 -33.5s-173 -11.5 -253 -10.5s-151.667 9.66699 -215 26s-116.5 42 -159.5 77s-71.833 82.167 -86.5 141.5s-13.5 132.333 3.5 219s53.833 190.334 110.5 311.001l114 47
c-7.33301 -10.667 -14.833 -27.667 -22.5 -51s-14.167 -50.166 -19.5 -80.499s-8.83301 -62.5 -10.5 -96.5s0 -66.167 5 -96.5s14.167 -57.5 27.5 -81.5s32 -41.667 56 -53c18.667 -9.33301 48.5 -15.666 89.5 -18.999s99.167 -3.66602 174.5 -0.999023
s170.666 8.16699 285.999 16.5s256.666 19.5 423.999 33.5c34.667 8 55.834 23.5 63.501 46.5s5.66699 49.667 -6 80s-30.5 62.5 -56.5 96.5s-55.333 66 -88 96zM657.999 1063l157 -141l159 141l201 -180l-175 -157l-158 140l-159 -140l-201 181zM781.999 1383l201 -180
l-175 -156l-201 180z" />
    <glyph glyph-name="afii57420" unicode="&#x62c;" horiz-adv-x="1256" arabic-form="isolated" 
d="M120 718c2.66699 12.667 8.49902 28.833 17.499 48.5l29 61c10.333 21 20.833 41.167 31.5 60.5s19 35 25 47c19.333 37.333 42.5 61.5 69.5 72.5s57.333 13 91 6s70.667 -21.333 111 -43s83.5 -46.667 129.5 -75l146.5 -88.5c51.667 -30.667 105.667 -59 162 -85
s114.833 -47.333 175.5 -64s123.334 -25 188.001 -25l-156 -297c-154 5.33301 -290.167 2 -408.5 -10s-214 -32.667 -287 -62s-120.5 -67.333 -142.5 -114s-13.667 -101.334 25 -164.001c17.333 -24.667 37.833 -51.334 61.5 -80.001l73 -86l72.5 -83l60 -71
c16.667 -20.667 28.834 -37.167 36.501 -49.5s7.83398 -18.5 0.500977 -18.5c-32 0 -69.5 4.33301 -112.5 13s-87.333 22.334 -133 41.001s-90.167 42.834 -133.5 72.501s-81.5 65.334 -114.5 107.001s-58.167 89.834 -75.5 144.501s-22.666 116.334 -15.999 185.001
c4.66699 57.333 22 106.166 52 146.499s68.333 76.333 115 108s99.334 61.167 158.001 88.5l180 88l-111.5 57.5c-37.667 20.333 -73.334 36.5 -107.001 48.5s-63.834 16.667 -90.501 14s-47.334 -18.334 -62.001 -47.001c-4 -8.66699 -9.5 -12.834 -16.5 -12.501
s-13.833 3.5 -20.5 9.5s-12.334 14 -17.001 24s-6.66699 20.667 -6 32zM724.999 163.999l203 -203l-177 -177l-203 203z" />
    <glyph glyph-name="afii57421" unicode="&#x62d;" horiz-adv-x="1256" arabic-form="isolated" 
d="M120 718c2.66699 12.667 8.49902 28.833 17.499 48.5l29 61c10.333 21 20.833 41.167 31.5 60.5s19 35 25 47c19.333 37.333 42.5 61.5 69.5 72.5s57.333 13 91 6s70.667 -21.333 111 -43s83.5 -46.667 129.5 -75l146.5 -88.5c51.667 -30.667 105.667 -59 162 -85
s114.833 -47.333 175.5 -64s123.334 -25 188.001 -25l-156 -297c-154 5.33301 -290.167 2 -408.5 -10s-214 -32.667 -287 -62s-120.5 -67.333 -142.5 -114s-13.667 -101.334 25 -164.001c17.333 -24.667 37.833 -51.334 61.5 -80.001l73 -86l72.5 -83l60 -71
c16.667 -20.667 28.834 -37.167 36.501 -49.5s7.83398 -18.5 0.500977 -18.5c-32 0 -69.5 4.33301 -112.5 13s-87.333 22.334 -133 41.001s-90.167 42.834 -133.5 72.501s-81.5 65.334 -114.5 107.001s-58.167 89.834 -75.5 144.501s-22.666 116.334 -15.999 185.001
c4.66699 57.333 22 106.166 52 146.499s68.333 76.333 115 108s99.334 61.167 158.001 88.5l180 88l-111.5 57.5c-37.667 20.333 -73.334 36.5 -107.001 48.5s-63.834 16.667 -90.501 14s-47.334 -18.334 -62.001 -47.001c-4 -8.66699 -9.5 -12.834 -16.5 -12.501
s-13.833 3.5 -20.5 9.5s-12.334 14 -17.001 24s-6.66699 20.667 -6 32z" />
    <glyph glyph-name="afii57422" unicode="&#x62e;" horiz-adv-x="1256" arabic-form="isolated" 
d="M120 718c2.66699 12.667 8.49902 28.833 17.499 48.5l29 61c10.333 21 20.833 41.167 31.5 60.5s19 35 25 47c19.333 37.333 42.5 61.5 69.5 72.5s57.333 13 91 6s70.667 -21.333 111 -43s83.5 -46.667 129.5 -75l146.5 -88.5c51.667 -30.667 105.667 -59 162 -85
s114.833 -47.333 175.5 -64s123.334 -25 188.001 -25l-156 -297c-154 5.33301 -290.167 2 -408.5 -10s-214 -32.667 -287 -62s-120.5 -67.333 -142.5 -114s-13.667 -101.334 25 -164.001c17.333 -24.667 37.833 -51.334 61.5 -80.001l73 -86l72.5 -83l60 -71
c16.667 -20.667 28.834 -37.167 36.501 -49.5s7.83398 -18.5 0.500977 -18.5c-32 0 -69.5 4.33301 -112.5 13s-87.333 22.334 -133 41.001s-90.167 42.834 -133.5 72.501s-81.5 65.334 -114.5 107.001s-58.167 89.834 -75.5 144.501s-22.666 116.334 -15.999 185.001
c4.66699 57.333 22 106.166 52 146.499s68.333 76.333 115 108s99.334 61.167 158.001 88.5l180 88l-111.5 57.5c-37.667 20.333 -73.334 36.5 -107.001 48.5s-63.834 16.667 -90.501 14s-47.334 -18.334 -62.001 -47.001c-4 -8.66699 -9.5 -12.834 -16.5 -12.501
s-13.833 3.5 -20.5 9.5s-12.334 14 -17.001 24s-6.66699 20.667 -6 32zM479.999 1493l203 -203l-177 -177l-203 203z" />
    <glyph glyph-name="afii57423" unicode="&#x62f;" horiz-adv-x="1100" arabic-form="isolated" 
d="M423 995c10.667 8.66699 27.499 11.498 50.499 8.49805s49.667 -10.833 80 -23.5s63.333 -29.834 99 -51.501s71 -46.334 106 -74.001s69 -58.167 102 -91.5s62 -68.166 87 -104.499s45.167 -73.833 60.5 -112.5s23 -77 23 -115c0 -28.667 -5.16699 -59.167 -15.5 -91.5
s-24.666 -64.166 -42.999 -95.499s-40 -61.333 -65 -90s-52 -54 -81 -76s-59 -39.667 -90 -53s-62.167 -20.333 -93.5 -21h-100v-3h-438v299h438v-2h141c28 0 46.5 6.33301 55.5 19s10.5 29.334 4.5 50.001s-18.167 44.167 -36.5 70.5s-40.833 53.333 -67.5 81
s-56.167 54.834 -88.5 81.501s-65.666 50.5 -99.999 71.5s-68.333 38 -102 51s-64.834 19.833 -93.501 20.5z" />
    <glyph glyph-name="afii57424" unicode="&#x630;" horiz-adv-x="1100" arabic-form="isolated" 
d="M423 995c10.667 8.66699 27.499 11.498 50.499 8.49805s49.667 -10.833 80 -23.5s63.333 -29.834 99 -51.501s71 -46.334 106 -74.001s69 -58.167 102 -91.5s62 -68.166 87 -104.499s45.167 -73.833 60.5 -112.5s23 -77 23 -115c0 -28.667 -5.16699 -59.167 -15.5 -91.5
s-24.666 -64.166 -42.999 -95.499s-40 -61.333 -65 -90s-52 -54 -81 -76s-59 -39.667 -90 -53s-62.167 -20.333 -93.5 -21h-100v-3h-438v299h438v-2h141c28 0 46.5 6.33301 55.5 19s10.5 29.334 4.5 50.001s-18.167 44.167 -36.5 70.5s-40.833 53.333 -67.5 81
s-56.167 54.834 -88.5 81.501s-65.666 50.5 -99.999 71.5s-68.333 38 -102 51s-64.834 19.833 -93.501 20.5zM488.999 1511l225 -178l-155 -196l-225 178z" />
    <glyph glyph-name="afii57425" unicode="&#x631;" horiz-adv-x="1022" arabic-form="isolated" 
d="M834 695c25.333 -47.333 46.1689 -98.165 62.502 -152.498s28 -110 35 -167s9 -113.833 6 -170.5s-11.167 -110.334 -24.5 -161.001c-12 -34.667 -32.5 -70.5 -61.5 -107.5s-63.833 -73 -104.5 -108s-85.834 -68.167 -135.501 -99.5s-101.167 -58.833 -154.5 -82.5
s-107.333 -42.334 -162 -56.001s-107 -20.5 -157 -20.5c-14 0 -34.333 5.33301 -61 16s-55.834 23.834 -87.501 39.501s-63.5 32.5 -95.5 50.5s-60 34.833 -84 50.5s-41.833 28.5 -53.5 38.5s-13.167 14.667 -4.5 14c22.667 -2 56.167 -1.16699 100.5 2.5
s94.833 10 151.5 19s117.167 21 181.5 36s127.333 33.333 189 55s119.834 47 174.501 76s101 61.5 139 97.5c4 14 5.16699 34.167 3.5 60.5s-6.83398 57.666 -15.501 93.999s-21.5 77.5 -38.5 123.5s-38.5 95.667 -64.5 149l130.5 101.5z" />
    <glyph glyph-name="afii57426" unicode="&#x632;" horiz-adv-x="1022" arabic-form="isolated" 
d="M834 695c25.333 -47.333 46.1689 -98.165 62.502 -152.498s28 -110 35 -167s9 -113.833 6 -170.5s-11.167 -110.334 -24.5 -161.001c-12 -34.667 -32.5 -70.5 -61.5 -107.5s-63.833 -73 -104.5 -108s-85.834 -68.167 -135.501 -99.5s-101.167 -58.833 -154.5 -82.5
s-107.333 -42.334 -162 -56.001s-107 -20.5 -157 -20.5c-14 0 -34.333 5.33301 -61 16s-55.834 23.834 -87.501 39.501s-63.5 32.5 -95.5 50.5s-60 34.833 -84 50.5s-41.833 28.5 -53.5 38.5s-13.167 14.667 -4.5 14c22.667 -2 56.167 -1.16699 100.5 2.5
s94.833 10 151.5 19s117.167 21 181.5 36s127.333 33.333 189 55s119.834 47 174.501 76s101 61.5 139 97.5c4 14 5.16699 34.167 3.5 60.5s-6.83398 57.666 -15.501 93.999s-21.5 77.5 -38.5 123.5s-38.5 95.667 -64.5 149l130.5 101.5zM537.003 1122l203 -203l-177 -177
l-203 203z" />
    <glyph glyph-name="afii57427" unicode="&#x633;" horiz-adv-x="2788" arabic-form="isolated" 
d="M1332 737c-15.333 -34.667 -27.832 -69.5068 -37.499 -104.507s-15.334 -68.667 -17.001 -101s1.33301 -62.5 9 -90.5s21.5 -52.5 41.5 -73.5s46.667 -37.5 80 -49.5s75 -18 125 -18h252c2 41.333 4.66699 74.833 8 100.5s7.5 47.667 12.5 66s10.667 35 17 50l21.5 53.5
l259 167c-15.333 -34.667 -27.833 -69.5 -37.5 -104.5s-15.5 -68.667 -17.5 -101s1 -62.5 9 -90.5s22 -52.5 42 -73.5s46.667 -37.5 80 -49.5s75 -18 125 -18l68 -2c30.667 0 51.667 9.5 63 28.5s14.833 42.5 10.5 70.5s-15.333 57.5 -33 88.5s-39.5 58.5 -65.5 82.5
l204 238c18.667 -24.667 37.5 -51.334 56.5 -80.001s36.333 -58.667 52 -90s28.834 -64.166 39.5 -98.499c10.667 -34.333 17.334 -69.833 20 -106.5c2 -28.667 -1.83301 -59.167 -11.5 -91.5s-23.834 -64.166 -42.5 -95.499c-18.667 -31.333 -40.667 -61.333 -66 -90
s-52.666 -54 -81.999 -76s-60 -39.667 -92 -53s-63.333 -20.333 -94 -21l-181 -3c-63.333 1.33301 -119.166 15.833 -167.499 43.5s-89.166 63.5 -122.499 107.5l-88 -151h-393c-36 0.666992 -69.5 5.83398 -100.5 15.501s-59.833 22.834 -86.5 39.501
c-39.333 -80 -85.833 -148.167 -139.5 -204.5s-111.167 -101.666 -172.5 -135.999s-124.666 -58.166 -189.999 -71.499s-129.166 -17.333 -191.499 -12s-121.333 19.5 -177 42.5s-104.334 53.833 -146.001 92.5s-74.834 84.834 -99.501 138.501s-37.334 113.5 -38.001 179.5
s12.833 137.833 40.5 215.5s72.5 160.167 134.5 247.5l112 12c-31.333 -69.333 -50.333 -134.333 -57 -195s-3.83398 -116 8.49902 -166s32.666 -94.167 60.999 -132.5s62 -69.166 101 -92.499s81.667 -39 128 -47s93.5 -6.83301 141.5 3.5s95.667 30.5 143 60.5
s91 71 131 123l0.5 3c0.333008 2 1.5 7.33301 3.5 16s4.83301 22.167 8.5 40.5l15.5 78l25.5 128l37.5 190.5z" />
    <glyph glyph-name="afii57428" unicode="&#x634;" horiz-adv-x="2788" arabic-form="isolated" 
d="M1332 737c-15.333 -34.667 -27.832 -69.5068 -37.499 -104.507s-15.334 -68.667 -17.001 -101s1.33301 -62.5 9 -90.5s21.5 -52.5 41.5 -73.5s46.667 -37.5 80 -49.5s75 -18 125 -18h252c2 41.333 4.66699 74.833 8 100.5s7.5 47.667 12.5 66s10.667 35 17 50l21.5 53.5
l259 167c-15.333 -34.667 -27.833 -69.5 -37.5 -104.5s-15.5 -68.667 -17.5 -101s1 -62.5 9 -90.5s22 -52.5 42 -73.5s46.667 -37.5 80 -49.5s75 -18 125 -18l68 -2c30.667 0 51.667 9.5 63 28.5s14.833 42.5 10.5 70.5s-15.333 57.5 -33 88.5s-39.5 58.5 -65.5 82.5
l204 238c18.667 -24.667 37.5 -51.334 56.5 -80.001s36.333 -58.667 52 -90s28.834 -64.166 39.5 -98.499c10.667 -34.333 17.334 -69.833 20 -106.5c2 -28.667 -1.83301 -59.167 -11.5 -91.5s-23.834 -64.166 -42.5 -95.499c-18.667 -31.333 -40.667 -61.333 -66 -90
s-52.666 -54 -81.999 -76s-60 -39.667 -92 -53s-63.333 -20.333 -94 -21l-181 -3c-63.333 1.33301 -119.166 15.833 -167.499 43.5s-89.166 63.5 -122.499 107.5l-88 -151h-393c-36 0.666992 -69.5 5.83398 -100.5 15.501s-59.833 22.834 -86.5 39.501
c-39.333 -80 -85.833 -148.167 -139.5 -204.5s-111.167 -101.666 -172.5 -135.999s-124.666 -58.166 -189.999 -71.499s-129.166 -17.333 -191.499 -12s-121.333 19.5 -177 42.5s-104.334 53.833 -146.001 92.5s-74.834 84.834 -99.501 138.501s-37.334 113.5 -38.001 179.5
s12.833 137.833 40.5 215.5s72.5 160.167 134.5 247.5l112 12c-31.333 -69.333 -50.333 -134.333 -57 -195s-3.83398 -116 8.49902 -166s32.666 -94.167 60.999 -132.5s62 -69.166 101 -92.499s81.667 -39 128 -47s93.5 -6.83301 141.5 3.5s95.667 30.5 143 60.5
s91 71 131 123l0.5 3c0.333008 2 1.5 7.33301 3.5 16s4.83301 22.167 8.5 40.5l15.5 78l25.5 128l37.5 190.5zM1728 1159.99l174 -140l176 140l222 -178l-194 -156l-174 139l-176 -139l-222 179zM1866 1476.99l222 -178l-194 -155l-222 178z" />
    <glyph glyph-name="afii57429" unicode="&#x635;" horiz-adv-x="2695" arabic-form="isolated" 
d="M1021 779c20.667 -22 43.1709 -50.1689 67.5039 -84.502s47.5 -72.5 69.5 -114.5s41.667 -86.667 59 -134s29 -95 35 -143h1l261 218c72.667 54 146.667 105.833 222 155.5s156.666 94.5 243.999 134.5c36.667 16.667 75.5 24.834 116.5 24.501
s82.167 -6.16602 123.5 -17.499s82.333 -26.833 123 -46.5s79 -40.834 115 -63.501c52.667 -34 92.5 -66 119.5 -96s43.667 -60 50 -90s4 -61.667 -7 -95s-27.833 -70.666 -50.5 -111.999c-20 -37.333 -46.333 -74 -79 -110s-69.5 -68.167 -110.5 -96.5
s-85.5 -51.5 -133.5 -69.5s-97.333 -28 -148 -30l-194 -7c-74.667 -2.66699 -153.167 -4.83398 -235.5 -6.50098s-165.5 -2.66699 -249.5 -3s-163 0.5 -237 2.5c-42 -72 -90.333 -132.667 -145 -182s-112.334 -88.5 -173.001 -117.5s-122.834 -48.333 -186.501 -58
s-125.334 -10.5 -185.001 -2.5s-116 24.333 -169 49s-99 56.667 -138 96s-69.833 85.5 -92.5 138.5s-33.5 112 -32.5 177s15.333 135.333 43 211s71.834 156.167 132.501 241.5l112 12c-31.333 -69.333 -50.333 -134.333 -57 -195s-3.83398 -116 8.49902 -166
s32.666 -94.167 60.999 -132.5s62 -69.166 101 -92.499s81.667 -39 128 -47s93.5 -6.83301 141.5 3.5s95.667 30.5 143 60.5s91 71 131 123c2 22 0.333008 46.333 -5 73s-13 54.167 -23 82.5s-21.833 56.333 -35.5 84s-28 53.667 -43 78s-29.667 46 -44 65
s-27.166 33.833 -38.499 44.5zM1974 511.998c-45.333 -7.33301 -88.332 -18.502 -128.999 -33.502s-79.667 -32.333 -117 -52s-73 -41 -107 -64l-99 -69.5h464c22 0 48.833 0.333008 80.5 1s63.5 3 95.5 7s61.5 10.167 88.5 18.5s47.167 20.166 60.5 35.499
c12.667 14.667 17.167 29.334 13.5 44.001s-13.167 28.334 -28.5 41.001c-22 17.333 -46.5 31.5 -73.5 42.5s-54.667 19.333 -83 25s-56.833 8.83398 -85.5 9.50098s-55.334 -1 -80.001 -5z" />
    <glyph glyph-name="afii57430" unicode="&#x636;" horiz-adv-x="2695" arabic-form="isolated" 
d="M1021 779c20.667 -22 43.1709 -50.1689 67.5039 -84.502s47.5 -72.5 69.5 -114.5s41.667 -86.667 59 -134s29 -95 35 -143h1l261 218c72.667 54 146.667 105.833 222 155.5s156.666 94.5 243.999 134.5c36.667 16.667 75.5 24.834 116.5 24.501
s82.167 -6.16602 123.5 -17.499s82.333 -26.833 123 -46.5s79 -40.834 115 -63.501c52.667 -34 92.5 -66 119.5 -96s43.667 -60 50 -90s4 -61.667 -7 -95s-27.833 -70.666 -50.5 -111.999c-20 -37.333 -46.333 -74 -79 -110s-69.5 -68.167 -110.5 -96.5
s-85.5 -51.5 -133.5 -69.5s-97.333 -28 -148 -30l-194 -7c-74.667 -2.66699 -153.167 -4.83398 -235.5 -6.50098s-165.5 -2.66699 -249.5 -3s-163 0.5 -237 2.5c-42 -72 -90.333 -132.667 -145 -182s-112.334 -88.5 -173.001 -117.5s-122.834 -48.333 -186.501 -58
s-125.334 -10.5 -185.001 -2.5s-116 24.333 -169 49s-99 56.667 -138 96s-69.833 85.5 -92.5 138.5s-33.5 112 -32.5 177s15.333 135.333 43 211s71.834 156.167 132.501 241.5l112 12c-31.333 -69.333 -50.333 -134.333 -57 -195s-3.83398 -116 8.49902 -166
s32.666 -94.167 60.999 -132.5s62 -69.166 101 -92.499s81.667 -39 128 -47s93.5 -6.83301 141.5 3.5s95.667 30.5 143 60.5s91 71 131 123c2 22 0.333008 46.333 -5 73s-13 54.167 -23 82.5s-21.833 56.333 -35.5 84s-28 53.667 -43 78s-29.667 46 -44 65
s-27.166 33.833 -38.499 44.5zM1974 511.998c-45.333 -7.33301 -88.332 -18.502 -128.999 -33.502s-79.667 -32.333 -117 -52s-73 -41 -107 -64l-99 -69.5h464c22 0 48.833 0.333008 80.5 1s63.5 3 95.5 7s61.5 10.167 88.5 18.5s47.167 20.166 60.5 35.499
c12.667 14.667 17.167 29.334 13.5 44.001s-13.167 28.334 -28.5 41.001c-22 17.333 -46.5 31.5 -73.5 42.5s-54.667 19.333 -83 25s-56.833 8.83398 -85.5 9.50098s-55.334 -1 -80.001 -5zM1429 1169l203 -203l-177 -177l-203 203z" />
    <glyph glyph-name="afii57431" unicode="&#x637;" horiz-adv-x="1954" arabic-form="isolated" 
d="M751 1208c3.33301 -82.667 5.99707 -165.172 7.99707 -247.505s4.66699 -164.5 8 -246.5c1.33301 -32 2.33301 -64 3 -96s1.66699 -64.333 3 -97c72.667 54 146.667 105.833 222 155.5s156.666 94.5 243.999 134.5c36.667 16.667 75.5 24.834 116.5 24.501
s82.167 -6.16602 123.5 -17.499s82.333 -26.833 123 -46.5s79 -40.834 115 -63.501c52.667 -34 92.5 -66 119.5 -96s43.667 -60 50 -90s4 -61.667 -7 -95s-27.833 -70.666 -50.5 -111.999c-10 -18.667 -21.167 -37.5 -33.5 -56.5s-26.166 -37.5 -41.499 -55.5
s-32.166 -34.833 -50.499 -50.5s-38.5 -29.5 -60.5 -41.5c-41.333 -22.667 -97 -42.167 -167 -58.5s-148.167 -29.666 -234.5 -39.999s-177.166 -17.666 -272.499 -21.999s-189.166 -5.66602 -281.499 -3.99902s-179.5 6.33398 -261.5 14.001s-152.667 18.5 -212 32.5
c-52 12 -90.333 33.333 -115 64s-38 67.667 -40 111s6.33301 91.5 25 144.5s45 108.167 79 165.5l87 26c-8 -49.333 -11.167 -89.333 -9.5 -120s11.5 -54.5 29.5 -71.5s46.333 -28.833 85 -35.5s91 -10.667 157 -12c-3.33301 50 -7 100.333 -11 151s-7.66699 101 -11 151
l-19.5 248c-6.33301 82 -13.5 164.333 -21.5 247c25.333 8 50.333 16.667 75 26l75 28c24 8.66699 49.167 17.167 75.5 25.5s51.833 17.166 76.5 26.499zM1233 511.995c-45.333 -7.33301 -88.332 -18.502 -128.999 -33.502s-79.667 -32.333 -117 -52s-73 -41 -107 -64
l-99 -69.5h464c22 0 48.833 0.333008 80.5 1s63.5 3 95.5 7s61.5 10.167 88.5 18.5s47.167 20.166 60.5 35.499c12.667 14.667 17.167 29.334 13.5 44.001s-13.167 28.334 -28.5 41.001c-22 17.333 -46.5 31.5 -73.5 42.5s-54.667 19.333 -83 25
s-56.833 8.83398 -85.5 9.50098s-55.334 -1 -80.001 -5z" />
    <glyph glyph-name="afii57432" unicode="&#x638;" horiz-adv-x="1954" arabic-form="isolated" 
d="M751 1208c3.33301 -82.667 5.99707 -165.172 7.99707 -247.505s4.66699 -164.5 8 -246.5c1.33301 -32 2.33301 -64 3 -96s1.66699 -64.333 3 -97c72.667 54 146.667 105.833 222 155.5s156.666 94.5 243.999 134.5c36.667 16.667 75.5 24.834 116.5 24.501
s82.167 -6.16602 123.5 -17.499s82.333 -26.833 123 -46.5s79 -40.834 115 -63.501c52.667 -34 92.5 -66 119.5 -96s43.667 -60 50 -90s4 -61.667 -7 -95s-27.833 -70.666 -50.5 -111.999c-10 -18.667 -21.167 -37.5 -33.5 -56.5s-26.166 -37.5 -41.499 -55.5
s-32.166 -34.833 -50.499 -50.5s-38.5 -29.5 -60.5 -41.5c-41.333 -22.667 -97 -42.167 -167 -58.5s-148.167 -29.666 -234.5 -39.999s-177.166 -17.666 -272.499 -21.999s-189.166 -5.66602 -281.499 -3.99902s-179.5 6.33398 -261.5 14.001s-152.667 18.5 -212 32.5
c-52 12 -90.333 33.333 -115 64s-38 67.667 -40 111s6.33301 91.5 25 144.5s45 108.167 79 165.5l87 26c-8 -49.333 -11.167 -89.333 -9.5 -120s11.5 -54.5 29.5 -71.5s46.333 -28.833 85 -35.5s91 -10.667 157 -12c-3.33301 50 -7 100.333 -11 151s-7.66699 101 -11 151
l-19.5 248c-6.33301 82 -13.5 164.333 -21.5 247c25.333 8 50.333 16.667 75 26l75 28c24 8.66699 49.167 17.167 75.5 25.5s51.833 17.166 76.5 26.499zM1233 511.995c-45.333 -7.33301 -88.332 -18.502 -128.999 -33.502s-79.667 -32.333 -117 -52s-73 -41 -107 -64
l-99 -69.5h464c22 0 48.833 0.333008 80.5 1s63.5 3 95.5 7s61.5 10.167 88.5 18.5s47.167 20.166 60.5 35.499c12.667 14.667 17.167 29.334 13.5 44.001s-13.167 28.334 -28.5 41.001c-22 17.333 -46.5 31.5 -73.5 42.5s-54.667 19.333 -83 25
s-56.833 8.83398 -85.5 9.50098s-55.334 -1 -80.001 -5zM1063 1257.99l203 -203l-177 -177l-203 203z" />
    <glyph glyph-name="afii57433" unicode="&#x639;" horiz-adv-x="1230" arabic-form="isolated" 
d="M1053 338c-140 2 -263.504 -4.00488 -370.504 -18.0049s-193 -35.667 -258 -65s-106.833 -66.5 -125.5 -111.5s-9.33398 -97.5 27.999 -157.5c17.333 -24.667 37.833 -51.334 61.5 -80.001l73 -86l72.5 -83l60 -71c16.667 -20.667 28.834 -37.167 36.501 -49.5
s7.83398 -18.5 0.500977 -18.5c-32 0 -69.5 4.33301 -112.5 13s-87.333 22.334 -133 41.001s-90.167 42.834 -133.5 72.501s-81.5 65.334 -114.5 107.001s-58.167 89.834 -75.5 144.501s-22.666 116.334 -15.999 185.001c4 48 15.167 90.667 33.5 128s43 71.166 74 101.499
s67.5 58.166 109.5 83.499s88 50.333 138 75c-26.667 23.333 -51.834 44.166 -75.501 62.499s-44.167 36.333 -61.5 54s-30.166 36.334 -38.499 56.001s-10.166 43 -5.49902 70s17.167 59 37.5 96s50.166 81.167 89.499 132.5c50.667 48.667 100.5 87.667 149.5 117
s96.333 51 142 65s89.167 21.333 130.5 22s79.5 -3.16602 114.5 -11.499s66.333 -20.166 94 -35.499s50.5 -31.666 68.5 -48.999c14.667 -14.667 22 -32 22 -52s-4.66699 -41.333 -14 -64s-21.666 -46 -36.999 -70l-45 -70c-22.667 12.667 -50.5 26.5 -83.5 41.5
s-70.167 26.167 -111.5 33.5s-86.666 8 -135.999 2s-102 -23.333 -158 -52c4.66699 -8.66699 13.5 -19.667 26.5 -33s28.5 -28 46.5 -44l59 -50.5l64 -52l61.5 -49l51.5 -41.5l386 4z" />
    <glyph glyph-name="afii57434" unicode="&#x63a;" horiz-adv-x="1230" arabic-form="isolated" 
d="M1053 338c-140 2 -263.504 -4.00488 -370.504 -18.0049s-193 -35.667 -258 -65s-106.833 -66.5 -125.5 -111.5s-9.33398 -97.5 27.999 -157.5c17.333 -24.667 37.833 -51.334 61.5 -80.001l73 -86l72.5 -83l60 -71c16.667 -20.667 28.834 -37.167 36.501 -49.5
s7.83398 -18.5 0.500977 -18.5c-32 0 -69.5 4.33301 -112.5 13s-87.333 22.334 -133 41.001s-90.167 42.834 -133.5 72.501s-81.5 65.334 -114.5 107.001s-58.167 89.834 -75.5 144.501s-22.666 116.334 -15.999 185.001c4 48 15.167 90.667 33.5 128s43 71.166 74 101.499
s67.5 58.166 109.5 83.499s88 50.333 138 75c-26.667 23.333 -51.834 44.166 -75.501 62.499s-44.167 36.333 -61.5 54s-30.166 36.334 -38.499 56.001s-10.166 43 -5.49902 70s17.167 59 37.5 96s50.166 81.167 89.499 132.5c50.667 48.667 100.5 87.667 149.5 117
s96.333 51 142 65s89.167 21.333 130.5 22s79.5 -3.16602 114.5 -11.499s66.333 -20.166 94 -35.499s50.5 -31.666 68.5 -48.999c14.667 -14.667 22 -32 22 -52s-4.66699 -41.333 -14 -64s-21.666 -46 -36.999 -70l-45 -70c-22.667 12.667 -50.5 26.5 -83.5 41.5
s-70.167 26.167 -111.5 33.5s-86.666 8 -135.999 2s-102 -23.333 -158 -52c4.66699 -8.66699 13.5 -19.667 26.5 -33s28.5 -28 46.5 -44l59 -50.5l64 -52l61.5 -49l51.5 -41.5l386 4zM286.996 1534l203 -203l-177 -177l-203 203z" />
    <glyph glyph-name="afii57441" unicode="&#x641;" horiz-adv-x="1684" arabic-form="isolated" 
d="M324 268c18.667 -9.33301 46.4951 -15.833 83.4951 -19.5s79.833 -5.5 128.5 -5.5c49.333 0 103 1.5 161 4.5s117.667 6.83301 179 11.5c-6 36 -5.5 75 1.5 117s19.167 83.833 36.5 125.5s39 82 65 121s54.667 73.833 86 104.5s64.833 55.667 100.5 75
s71.834 30.166 108.501 32.499s73 -5.33398 109 -23.001s70.333 -47.834 103 -90.501c48.667 -67.333 84.167 -138.666 106.5 -213.999s33.5 -151.333 33.5 -228l-6 -65c0.666992 -34.667 -5.66602 -65 -18.999 -91s-31.166 -48 -53.499 -66s-47.833 -32.333 -76.5 -43
s-58 -18 -88 -22l-280 -42.5c-95.333 -14.333 -188.666 -25.5 -279.999 -33.5s-178.666 -11.5 -261.999 -10.5s-158.5 9.66699 -225.5 26s-123.833 42 -170.5 77s-78.667 82.167 -96 141.5s-18.333 132.333 -3 219s51.333 190.334 108 311.001l114 47
c-7.33301 -10.667 -14.833 -27.667 -22.5 -51s-14.167 -50.166 -19.5 -80.499s-8.83301 -62.5 -10.5 -96.5s0 -66.167 5 -96.5s14.167 -57.5 27.5 -81.5s32 -41.667 56 -53zM1074 1268l203 -203l-177 -177l-203 203zM1232 578
c-13.333 3.33301 -27.168 0.834961 -41.501 -7.49805s-30.166 -20.5 -47.499 -36.5c-20.667 -22 -32 -42.833 -34 -62.5s2.16699 -37.834 12.5 -54.501s26 -31.834 47 -45.501s44.667 -25.5 71 -35.5s54 -18.167 83 -24.5s56.833 -10.5 83.5 -12.5
c-0.666992 3.33301 -3.16699 12.5 -7.5 27.5s-10.5 32.833 -18.5 53.5s-17.5 42.5 -28.5 65.5s-22.833 44.167 -35.5 63.5s-26.167 35.5 -40.5 48.5s-28.833 19.833 -43.5 20.5z" />
    <glyph glyph-name="afii57442" unicode="&#x642;" horiz-adv-x="1491" arabic-form="isolated" 
d="M1288 734c40 -55.333 71.1631 -112.669 93.4961 -172.002s37.166 -120 44.499 -182s7.66602 -124.667 0.999023 -188s-19.334 -126.333 -38.001 -189c-26.667 -55.333 -65 -106.833 -115 -154.5s-107.333 -90 -172 -127s-134.167 -67.833 -208.5 -92.5
s-148.833 -41.834 -223.5 -51.501s-147 -11.167 -217 -4.5s-133 22.834 -189 48.501s-102.833 61.5 -140.5 107.5s-61.334 103.667 -71.001 173s-3.16699 151 19.5 245s66.667 201.667 132 323l112 12c-40 -94.667 -63.333 -178.167 -70 -250.5s0.5 -133.5 21.5 -183.5
s55 -88.833 102 -116.5s104.5 -44.167 172.5 -49.5c72.667 -6 142.167 -5.83301 208.5 0.5s127 17.333 182 33s103.333 35.5 145 59.5s74.834 50.667 99.501 80c-30.667 10 -64.5 19.167 -101.5 27.5l-113 26.5c-38.333 9.33301 -75.5 19.666 -111.5 30.999
s-68.167 25 -96.5 41s-51.166 35.167 -68.499 57.5s-26.333 48.833 -27 79.5c0 32.667 5.33301 68.5 16 107.5s25.834 78.167 45.501 117.5s42.834 77.333 69.501 114s55.834 69.334 87.501 98.001s64.834 51.834 99.501 69.501s69.834 27 105.501 28
s70.834 -7.66699 105.501 -26s68 -49.166 100 -92.499zM380.996 1185l153 -153l154 153l195 -195l-170 -171l-153 153l-154 -153l-195 196zM1033 587.997c-15.333 3.33301 -30.1689 0.833984 -44.502 -7.49902s-30.166 -20.833 -47.499 -37.5
c-20.667 -18.667 -32.5 -34.834 -35.5 -48.501s0.333008 -25.667 10 -36s24.5 -19.333 44.5 -27s42.5 -14.667 67.5 -21s51.5 -12.166 79.5 -17.499s54.667 -10.666 80 -15.999c0.666992 0 -0.666016 5.16699 -3.99902 15.5s-8.16602 23.166 -14.499 38.499
s-14.166 32.166 -23.499 50.499s-19.833 35.166 -31.5 50.499s-24.334 28.333 -38.001 39s-27.834 16.334 -42.501 17.001z" />
    <glyph glyph-name="afii57443" unicode="&#x643;" horiz-adv-x="2475" arabic-form="isolated" 
d="M565 1c-83.333 1.33301 -158.502 10.168 -225.502 26.501s-123.833 42 -170.5 77s-78.667 82.167 -96 141.5s-18.333 132.333 -3 219s51.333 190.334 108 311.001l114 47c-7.33301 -10.667 -14.833 -27.667 -22.5 -51s-14.167 -50.166 -19.5 -80.499
s-8.83301 -62.5 -10.5 -96.5s0 -66.167 5 -96.5s14.167 -57.5 27.5 -81.5s32 -41.667 56 -53c20.667 -10 51.5 -21.667 92.5 -35s118.5 -23 232.5 -29l1386 -1c21.333 2.66699 39.666 8 55 16c15.333 8 27.333 17 36 27s13.834 20.667 15.5 32
c1.66699 11.333 -0.166016 22 -5.5 32c-5.33301 14.667 -13.5 24.834 -24.5 30.501s-23.833 9.16699 -38.5 10.5h-1109c-20.667 0 -43.334 4 -68.001 12s-47.167 20.167 -67.5 36.5s-36.333 37 -48 62s-14.834 54.5 -9.50098 88.5c14 74.667 41.333 142.5 82 203.5
s90.334 115.5 149.001 163.5s124.5 90 197.5 126s149 66.5 228 91.5s159 44.667 240 59s158.833 24.166 233.5 29.499l-219 -304c-24 0 -54 -2.83301 -90 -8.5s-75.167 -13.667 -117.5 -24s-85.833 -22.333 -130.5 -36s-87.167 -28.334 -127.5 -44.001
s-76.833 -31.834 -109.5 -48.501s-58 -33 -76 -49c-5.33301 -4.66699 -8.66602 -10 -9.99902 -16s-0.666016 -11.833 2.00098 -17.5s7.33398 -10.334 14.001 -14.001s15 -5.5 25 -5.5l-2 -6h1056c36 -0.666992 71.167 -7.33398 105.5 -20.001s64.5 -31.667 90.5 -57
s46.333 -57.5 61 -96.5s20.667 -85.167 18 -138.5c2 -29.333 -1.83301 -60.333 -11.5 -93s-23.834 -65 -42.5 -97c-18.667 -32 -41 -62.5 -67 -91.5s-53.833 -54.667 -83.5 -77s-60.834 -40.166 -93.5 -53.499c-32.667 -13.333 -64.667 -20.333 -96 -21h-1436z" />
    <glyph glyph-name="afii57444" unicode="&#x644;" horiz-adv-x="1230" arabic-form="isolated" 
d="M820 1102c25.333 8 50.3311 16.6699 74.998 26.0029l75 28c24 8.66699 49.167 17.167 75.5 25.5s51.833 17.166 76.5 26.499c3.33301 -82.667 6 -165.167 8 -247.5s4.66699 -164.5 8 -246.5c1.33301 -41.333 2.33301 -77.166 3 -107.499l2 -88.5l2 -89.5
c0.666992 -31 2 -67.5 4 -109.5c-1.33301 -14.667 -4.33301 -35.834 -9 -63.501s-10.334 -56.334 -17.001 -86.001s-13.667 -57.667 -21 -84s-14.666 -45.5 -21.999 -57.5c-36.667 -59.333 -79.667 -111.5 -129 -156.5s-102 -82.667 -158 -113s-113.667 -53.5 -173 -69.5
s-117 -24.667 -173 -26s-108.667 4.66699 -158 18s-92.166 33.833 -128.499 61.5s-64.333 62.834 -84 105.501s-28 92.5 -25 149.5s19.333 121.333 49 193s75.5 150.834 137.5 237.501l112 12c-52 -72.667 -84.5 -137.834 -97.5 -195.501s-11.333 -106.667 5 -147
s45 -71.333 86 -93s89.5 -32.5 145.5 -32.5s116.667 11.167 182 33.5s131 57.5 197 105.5c6.66699 13.333 11.334 32.166 14.001 56.499s3.66699 51.666 3 81.999s-2.16699 62.5 -4.5 96.5s-5 67.167 -8 99.5s-5.66699 62.5 -8 90.5s-3.5 51.667 -3.5 71l-19.5 248
c-6.33301 82 -13.5 164.333 -21.5 247z" />
    <glyph glyph-name="afii57445" unicode="&#x645;" horiz-adv-x="1126" arabic-form="isolated" 
d="M1012 96c-24.667 0 -58.167 4.66797 -100.5 14.001s-88.333 20.166 -138 32.499s-100.834 24.333 -153.501 36s-101.5 19.834 -146.5 24.501s-84 4.16699 -117 -1.5s-54.833 -20.167 -65.5 -43.5s-13.5 -49.5 -8.5 -78.5s14.5 -59.833 28.5 -92.5s31 -66.334 51 -101.001
l59 -103c19.333 -34 36.5 -67 51.5 -99s24.833 -61.333 29.5 -88l-72 -191l-365 671c-6.66699 24 -11.667 51.833 -15 83.5s-2.66602 64.167 2.00098 97.5s14 65.5 28 96.5s34.833 57.833 62.5 80.5s63.334 39.5 107.001 50.5s97.167 13.167 160.5 6.5l263 -34
c-17.333 42 -37.5 78.167 -60.5 108.5s-47.667 54 -74 71s-53.833 26.833 -82.5 29.5s-57.334 -3 -86.001 -17l-49 -29.5c-17.333 -10.333 -33.333 -19.333 -48 -27s-26.667 -12.5 -36 -14.5s-14 0.666992 -14 8c0 86.667 15.333 157.5 46 212.5s70.834 93.5 120.501 115.5
s106 27.5 169 16.5s126.5 -39.167 190.5 -84.5c68 -47.333 125.333 -98.166 172 -152.499s81.5 -112.5 104.5 -174.5s33.667 -128.333 32 -199s-16.834 -145.334 -45.501 -224.001z" />
    <glyph glyph-name="afii57446" unicode="&#x646;" horiz-adv-x="1272" arabic-form="isolated" 
d="M993 779c19.333 -21.333 38.8369 -47.332 58.5039 -77.999s38.167 -64.834 55.5 -102.501s33 -78.167 47 -121.5s25.167 -87.833 33.5 -133.5s13.166 -92 14.499 -139s-1.66699 -93.167 -9 -138.5c-9.33301 -54.667 -28.833 -103.667 -58.5 -147
s-66.667 -80.666 -111 -111.999s-94.5 -56.333 -150.5 -75s-115 -30.5 -177 -35.5s-125.167 -3 -189.5 6s-127.166 25.5 -188.499 49.5c-56.667 22 -103.5 50.667 -140.5 86s-65.5 74.833 -85.5 118.5s-31.833 90.5 -35.5 140.5s-0.166992 100.667 10.5 152
s28.167 102.5 52.5 153.5s54.166 99.5 89.499 145.5l112 12c-38.667 -87.333 -59.834 -164.5 -63.501 -231.5s6.16602 -123.833 29.499 -170.5s58.166 -82.834 104.499 -108.501s100.166 -40.5 161.499 -44.5s128.5 3 201.5 21s147.5 47.333 223.5 88
c2 22 0.333008 46.333 -5 73s-13 54.167 -23 82.5s-21.833 56.333 -35.5 84s-28 53.667 -43 78s-29.667 46 -44 65s-27.166 33.833 -38.499 44.5zM589.004 1117l203 -203l-177 -177l-203 203z" />
    <glyph glyph-name="afii57470" unicode="&#x647;" horiz-adv-x="829" arabic-form="isolated" 
d="M334 -40c-32 0.666992 -63 5.00098 -93 13.001s-57.333 20 -82 36s-45.5 36.167 -62.5 60.5s-28.5 53.333 -34.5 87s-5.5 72.167 1.5 115.5s22.5 91.666 46.5 144.999c41.333 93.333 83.833 168.833 127.5 226.5s86.5 100.167 128.5 127.5s82.5 41.333 121.5 42
s75.167 -9 108.5 -29c28 -17.333 53.333 -41.5 76 -72.5s41.5 -66.833 56.5 -107.5s25.5 -85 31.5 -133s6.5 -98.167 1.5 -150.5s-16 -105.5 -33 -159.5s-40.833 -107 -71.5 -159zM610 299.001c-10 33.333 -21.168 61.8301 -33.501 85.4971s-25.666 43.334 -39.999 59.001
s-29.166 27.834 -44.499 36.501s-31 14.334 -47 17.001c-25.333 4 -49.5 1 -72.5 -9s-43.333 -23.833 -61 -41.5s-31.334 -37.334 -41.001 -59.001s-13.667 -42.167 -12 -61.5s10.167 -35.666 25.5 -48.999s39.333 -20 72 -20z" />
    <glyph glyph-name="afii57448" unicode="&#x648;" horiz-adv-x="1022" arabic-form="isolated" 
d="M801 737c37.333 -52 67.1699 -106.329 89.5029 -162.996s37.666 -114.5 45.999 -173.5s10.333 -118.5 6 -178.5s-14.166 -119.333 -29.499 -178c-12 -34.667 -32.5 -70.5 -61.5 -107.5s-63.833 -73 -104.5 -108s-85.834 -68.167 -135.501 -99.5
s-101.167 -58.833 -154.5 -82.5s-107.333 -42.334 -162 -56.001s-107 -20.5 -157 -20.5c-14 0 -34.333 5.33301 -61 16s-55.834 23.834 -87.501 39.501s-63.5 32.5 -95.5 50.5s-60 34.833 -84 50.5s-41.833 28.5 -53.5 38.5s-13.167 14.667 -4.5 14
c23.333 -2 55.5 -1.83301 96.5 0.5s87.333 7.33301 139 15s107 18.167 166 31.5s118.667 30.333 179 51s119.333 45.334 177 74.001s110.834 62 159.501 100c-31.333 9.33301 -65.666 18.166 -102.999 26.499s-74.833 17.166 -112.5 26.499s-74.167 19.666 -109.5 30.999
s-66.833 25 -94.5 41s-49.834 34.833 -66.501 56.5s-25.334 47.5 -26.001 77.5c-0.666992 34 4.66602 71 15.999 111s27 80.167 47 120.5s43.667 79.166 71 116.499s57 70.666 89 99.999s65.833 53 101.5 71s71.667 27.667 108 29s72.5 -7.5 108.5 -26.5
s70.333 -50.5 103 -94.5zM537.004 588.004c-14 3.33301 -28.334 0.669922 -43.001 -7.99707s-31 -20.667 -49 -36c-20.667 -19.333 -32.5 -36 -35.5 -50s0.333008 -26.333 10 -37s24.5 -19.834 44.5 -27.501s42.667 -14.667 68 -21s52 -12 80 -17s55 -10.167 81 -15.5
c0.666992 -0.666992 -0.333008 4.16602 -3 14.499s-7.16699 23.166 -13.5 38.499s-14.166 32.166 -23.499 50.499s-19.833 35.5 -31.5 51.5s-24.667 29.333 -39 40s-29.5 16.334 -45.5 17.001z" />
    <glyph glyph-name="afii57449" unicode="&#x649;" horiz-adv-x="1538" arabic-form="isolated" 
d="M1334 888c1.33301 0 9.33594 -0.331055 24.0029 -0.998047s30.834 -1.16699 48.501 -1.5s34 -0.833008 49 -1.5s23.167 -1 24.5 -1l-130 -279c-101.333 2.66699 -188 -6 -260 -26s-133 -54 -183 -102c57.333 -20 112 -37.667 164 -53s99.667 -30.833 143 -46.5
s81.5 -33.167 114.5 -52.5s59.167 -43.166 78.5 -71.499s31.166 -62.833 35.499 -103.5s-0.5 -90 -14.5 -148c-15.333 -46 -39.833 -86.833 -73.5 -122.5s-73.667 -66 -120 -91s-97.5 -45.167 -153.5 -60.5s-113.833 -25.833 -173.5 -31.5s-119.834 -7 -180.501 -4
s-119.167 10.167 -175.5 21.5s-108.666 26.666 -156.999 45.999s-90.166 42.333 -125.499 69c-55.333 41.333 -101.5 90.166 -138.5 146.499s-60 118.333 -69 186s-1.83301 140.667 21.5 219s67.666 160.166 132.999 245.499l121 9
c-33.333 -92.667 -46.5 -176.334 -39.5 -251.001s28.5 -139.667 64.5 -195s83.667 -100.5 143 -135.5s124.5 -59.167 195.5 -72.5s145 -15.333 222 -6s151.167 30.666 222.5 63.999c-7.33301 20.667 -21.333 38.167 -42 52.5s-45.334 27 -74.001 38s-60 21 -94 30l-101 27.5
c-33.333 9.33301 -65 19.833 -95 31.5s-55.333 25.334 -76 41.001s-35.334 34.5 -44.001 56.5s-8.33398 48 0.999023 78c25.333 64 55.666 120.5 90.999 169.5s73.666 91.333 114.999 127s84.5 65.5 129.5 89.5s89.833 43.667 134.5 59s87.834 26.833 129.501 34.5
s79.834 12.834 114.501 15.501z" />
    <glyph glyph-name="afii57450" unicode="&#x64a;" horiz-adv-x="1538" arabic-form="isolated" 
d="M1334 888c1.33301 0 9.33594 -0.331055 24.0029 -0.998047s30.834 -1.16699 48.501 -1.5s34 -0.833008 49 -1.5s23.167 -1 24.5 -1l-130 -279c-101.333 2.66699 -188 -6 -260 -26s-133 -54 -183 -102c57.333 -20 112 -37.667 164 -53s99.667 -30.833 143 -46.5
s81.5 -33.167 114.5 -52.5s59.167 -43.166 78.5 -71.499s31.166 -62.833 35.499 -103.5s-0.5 -90 -14.5 -148c-15.333 -46 -39.833 -86.833 -73.5 -122.5s-73.667 -66 -120 -91s-97.5 -45.167 -153.5 -60.5s-113.833 -25.833 -173.5 -31.5s-119.834 -7 -180.501 -4
s-119.167 10.167 -175.5 21.5s-108.666 26.666 -156.999 45.999s-90.166 42.333 -125.499 69c-55.333 41.333 -101.5 90.166 -138.5 146.499s-60 118.333 -69 186s-1.83301 140.667 21.5 219s67.666 160.166 132.999 245.499l121 9
c-33.333 -92.667 -46.5 -176.334 -39.5 -251.001s28.5 -139.667 64.5 -195s83.667 -100.5 143 -135.5s124.5 -59.167 195.5 -72.5s145 -15.333 222 -6s151.167 30.666 222.5 63.999c-7.33301 20.667 -21.333 38.167 -42 52.5s-45.334 27 -74.001 38s-60 21 -94 30l-101 27.5
c-33.333 9.33301 -65 19.833 -95 31.5s-55.333 25.334 -76 41.001s-35.334 34.5 -44.001 56.5s-8.33398 48 0.999023 78c25.333 64 55.666 120.5 90.999 169.5s73.666 91.333 114.999 127s84.5 65.5 129.5 89.5s89.833 43.667 134.5 59s87.834 26.833 129.501 34.5
s79.834 12.834 114.501 15.501z" />
    <glyph glyph-name="afii57506" unicode="&#x67e;" horiz-adv-x="1704" arabic-form="isolated" 
d="M1481 806c18.667 -24.667 37.499 -51.3389 56.499 -80.0059s36.333 -58.667 52 -90s28.834 -64.166 39.501 -98.499s17.334 -69.833 20.001 -106.5c2.66699 -41.333 0.833984 -84.166 -5.49902 -128.499s-21 -86.833 -44 -127.5s-56.167 -77.167 -99.5 -109.5
s-100.333 -56.833 -171 -73.5l-277.5 -42.5c-93.667 -14.333 -184.834 -25.5 -273.501 -33.5s-173 -11.5 -253 -10.5s-151.667 9.66699 -215 26s-116.5 42 -159.5 77s-71.833 82.167 -86.5 141.5s-13.5 132.333 3.5 219s53.833 190.334 110.5 311.001l114 47
c-7.33301 -10.667 -14.833 -27.667 -22.5 -51s-14.167 -50.166 -19.5 -80.499s-8.83301 -62.5 -10.5 -96.5s0 -66.167 5 -96.5s14.167 -57.5 27.5 -81.5s32 -41.667 56 -53c18.667 -9.33301 48.5 -15.666 89.5 -18.999s99.167 -3.66602 174.5 -0.999023
s170.666 8.16699 285.999 16.5s256.666 19.5 423.999 33.5c34.667 8 55.834 23.5 63.501 46.5s5.66699 49.667 -6 80s-30.5 62.5 -56.5 96.5s-55.333 66 -88 96zM499.999 -386.005l201 181l159 -140l158 140l175 -157l-201 -180l-159 141l-157 -141zM624.999 -706.005
l201 180l175 -156l-201 -180z" />
    <glyph glyph-name="afii57507" unicode="&#x686;" horiz-adv-x="1256" arabic-form="isolated" 
d="M120 718c2.66699 12.667 8.49902 28.833 17.499 48.5l29 61c10.333 21 20.833 41.167 31.5 60.5s19 35 25 47c19.333 37.333 42.5 61.5 69.5 72.5s57.333 13 91 6s70.667 -21.333 111 -43s83.5 -46.667 129.5 -75l146.5 -88.5c51.667 -30.667 105.667 -59 162 -85
s114.833 -47.333 175.5 -64s123.334 -25 188.001 -25l-156 -297c-154 5.33301 -290.167 2 -408.5 -10s-214 -32.667 -287 -62s-120.5 -67.333 -142.5 -114s-13.667 -101.334 25 -164.001c17.333 -24.667 37.833 -51.334 61.5 -80.001l73 -86l72.5 -83l60 -71
c16.667 -20.667 28.834 -37.167 36.501 -49.5s7.83398 -18.5 0.500977 -18.5c-32 0 -69.5 4.33301 -112.5 13s-87.333 22.334 -133 41.001s-90.167 42.834 -133.5 72.501s-81.5 65.334 -114.5 107.001s-58.167 89.834 -75.5 144.501s-22.666 116.334 -15.999 185.001
c4.66699 57.333 22 106.166 52 146.499s68.333 76.333 115 108s99.334 61.167 158.001 88.5l180 88l-111.5 57.5c-37.667 20.333 -73.334 36.5 -107.001 48.5s-63.834 16.667 -90.501 14s-47.334 -18.334 -62.001 -47.001c-4 -8.66699 -9.5 -12.834 -16.5 -12.501
s-13.833 3.5 -20.5 9.5s-12.334 14 -17.001 24s-6.66699 20.667 -6 32zM539.999 51.999l161 145l127 -112l126 112l140 -125l-160 -144l-128 112l-125 -112zM639.999 -203.001l161 143l140 -124l-161 -144z" />
    <glyph glyph-name="afii57508" unicode="&#x698;" horiz-adv-x="1022" arabic-form="isolated" 
d="M834 695c25.333 -47.333 46.1689 -98.165 62.502 -152.498s28 -110 35 -167s9 -113.833 6 -170.5s-11.167 -110.334 -24.5 -161.001c-12 -34.667 -32.5 -70.5 -61.5 -107.5s-63.833 -73 -104.5 -108s-85.834 -68.167 -135.501 -99.5s-101.167 -58.833 -154.5 -82.5
s-107.333 -42.334 -162 -56.001s-107 -20.5 -157 -20.5c-14 0 -34.333 5.33301 -61 16s-55.834 23.834 -87.501 39.501s-63.5 32.5 -95.5 50.5s-60 34.833 -84 50.5s-41.833 28.5 -53.5 38.5s-13.167 14.667 -4.5 14c22.667 -2 56.167 -1.16699 100.5 2.5
s94.833 10 151.5 19s117.167 21 181.5 36s127.333 33.333 189 55s119.834 47 174.501 76s101 61.5 139 97.5c4 14 5.16699 34.167 3.5 60.5s-6.83398 57.666 -15.501 93.999s-21.5 77.5 -38.5 123.5s-38.5 95.667 -64.5 149l130.5 101.5zM396.003 1096l157 -141l159 141
l201 -180l-175 -157l-158 140l-159 -140l-201 181zM520.003 1416l201 -180l-175 -156l-201 180z" />
    <glyph glyph-name="afii57509" unicode="&#x6af;" horiz-adv-x="2475" arabic-form="isolated" 
d="M1648.5 1480c77.667 24.667 156.498 44.001 236.498 58.001s135.667 22.333 167 25l-110 -158c-14.667 0 -40.5 -2.83301 -77.5 -8.5s-76.833 -12.167 -119.5 -19.5s-87.5 -16.666 -134.5 -27.999s-109.167 -30 -186.5 -56s-138.166 -48.333 -182.499 -67
s-61.333 -17.834 -51 2.49902s34.5 44.166 72.5 71.499s92.333 58 163 92s144.834 63.333 222.501 88zM564.998 1.00098c-83.333 1.33301 -158.502 10.168 -225.502 26.501s-123.833 42 -170.5 77s-78.667 82.167 -96 141.5s-18.333 132.333 -3 219
s51.333 190.334 108 311.001l114 47c-7.33301 -10.667 -14.833 -27.667 -22.5 -51s-14.167 -50.166 -19.5 -80.499s-8.83301 -62.5 -10.5 -96.5s0 -66.167 5 -96.5s14.167 -57.5 27.5 -81.5s32 -41.667 56 -53c20.667 -10 51.5 -21.667 92.5 -35s118.5 -23 232.5 -29
l1386 -1c21.333 2.66699 39.666 8 55 16c15.333 8 27.333 17 36 27s13.834 20.667 15.5 32c1.66699 11.333 -0.166016 22 -5.5 32c-5.33301 14.667 -13.5 24.834 -24.5 30.501s-23.833 9.16699 -38.5 10.5h-1109c-20.667 0 -43.334 4 -68.001 12s-47.167 20.167 -67.5 36.5
s-36.333 37 -48 62s-14.834 54.5 -9.50098 88.5c14 74.667 41.333 142.5 82 203.5s90.334 115.5 149.001 163.5s124.5 90 197.5 126s149 66.5 228 91.5s159 44.667 240 59s158.833 24.166 233.5 29.499l-219 -304c-24 0 -54 -2.83301 -90 -8.5s-75.167 -13.667 -117.5 -24
s-85.833 -22.333 -130.5 -36s-87.167 -28.334 -127.5 -44.001s-76.833 -31.834 -109.5 -48.501s-58 -33 -76 -49c-5.33301 -4.66699 -8.66602 -10 -9.99902 -16s-0.666016 -11.833 2.00098 -17.5s7.33398 -10.334 14.001 -14.001s15 -5.5 25 -5.5l-2 -6h1056
c36 -0.666992 71.167 -7.33398 105.5 -20.001s64.5 -31.667 90.5 -57s46.333 -57.5 61 -96.5s20.667 -85.167 18 -138.5c2 -29.333 -1.83301 -60.333 -11.5 -93s-23.834 -65 -42.5 -97c-18.667 -32 -41 -62.5 -67 -91.5s-53.833 -54.667 -83.5 -77
s-60.834 -40.166 -93.5 -53.499c-32.667 -13.333 -64.667 -20.333 -96 -21h-1436z" />
    <glyph glyph-name="uniFB57" unicode="&#x67e;" horiz-adv-x="1918" arabic-form="final" 
d="M1162 300c7.33301 2 19.998 7.49707 37.998 16.4971s36.5 25 55.5 48s36.167 54.833 51.5 95.5s24.333 93 27 157l287 151c-10.667 -87.333 -14.667 -160.833 -12 -220.5s13.167 -107.834 31.5 -144.501s45 -63 80 -79s80.167 -24 135.5 -24h73v-299h-227
c-42 0 -78.5 5.33301 -109.5 16s-57 25.334 -78 44.001s-37.5 40.667 -49.5 66s-20.667 53 -26 83c-11.333 -24 -26.166 -48.5 -44.499 -73.5s-39 -47.833 -62 -68.5s-47.667 -38.5 -74 -53.5s-53.166 -24.5 -80.499 -28.5l-260.5 -38
c-86.333 -12.667 -169 -22.5 -248 -29.5s-153.167 -9.5 -222.5 -7.5s-130.666 11.333 -183.999 28s-97.333 42.334 -132 77.001s-57 81.334 -67 140.001s-6.33301 131 11 217s51.666 188.333 102.999 307l114 47c-7.33301 -10.667 -14.833 -27.667 -22.5 -51
s-14.167 -50.166 -19.5 -80.499s-8.83301 -62.5 -10.5 -96.5s0 -66.167 5 -96.5s14.167 -57.5 27.5 -81.5s32 -41.667 56 -53c12 -6 25.667 -10.667 41 -14s35.166 -5.5 59.499 -6.5s55.333 -0.5 93 1.5s85.334 5.16699 143.001 9.5s127.167 10 208.5 17zM430.998 -388.003
l201 181l159 -140l158 140l175 -157l-201 -180l-159 141l-157 -141zM555.998 -708.003l201 180l175 -156l-201 -180z" />
    <glyph glyph-name="uniFB58" unicode="&#x67e;" horiz-adv-x="812" arabic-form="initial" 
d="M575 806c18.667 -24.667 37.498 -51.335 56.498 -80.002s36.333 -58.667 52 -90s28.834 -64.166 39.501 -98.499s17.334 -69.833 20.001 -106.5c2 -28.667 -1.83301 -59.167 -11.5 -91.5s-23.834 -64.166 -42.501 -95.499s-40.667 -61.333 -66 -90
s-52.666 -54 -81.999 -76s-60 -39.667 -92 -53s-63.333 -20.333 -94 -21h-100v-3h-281v299h281v-2h141c30.667 0 51.667 9.5 63 28.5s14.833 42.5 10.5 70.5s-15.333 57.5 -33 88.5s-39.5 58.5 -65.5 82.5zM56.998 -388.001l201 181l159 -140l158 140l175 -157l-201 -180
l-159 141l-157 -141zM181.998 -708.001l201 180l175 -156l-201 -180z" />
    <glyph glyph-name="uniFB59" unicode="&#x67e;" horiz-adv-x="824" arabic-form="medial" 
d="M239 1h-255.002v299h268c-16 52 -24 104 -24 156s8 98.667 24 140l318 141c-23.333 -52 -36.166 -104 -38.499 -156s5 -98.833 22 -140.5s43.667 -75.5 80 -101.5s82.166 -39 137.499 -39h73v-299h-227c-63.333 1.33301 -119.166 15.833 -167.499 43.5
s-89.166 63.5 -122.499 107.5zM62.998 -387l201 181l159 -140l158 140l175 -157l-201 -180l-159 141l-157 -141zM187.998 -707l201 180l175 -156l-201 -180z" />
    <glyph glyph-name="uniFB7B" unicode="&#x686;" horiz-adv-x="1413" arabic-form="final" 
d="M1153 523c-36.667 1.33301 -72.166 2.16895 -106.499 2.50195s-67.833 0.166016 -100.5 -0.500977c0.666992 -16 0.5 -32.667 -0.5 -50s-0.333008 -34.333 2 -51s7.83301 -32.5 16.5 -47.5s22.834 -28.167 42.501 -39.5s46.167 -20.333 79.5 -27s76 -10 128 -10h210v-299
h-446l78 76c8.66699 15.333 8.66699 30.666 0 45.999l-178 160l-100 -84c-24 42 -36.333 88.333 -37 139s7 109.667 23 177c-60.667 -6 -116.334 -17.5 -167.001 -34.5s-95.334 -38.167 -134.001 -63.5s-70.834 -53.666 -96.501 -84.999s-44.5 -64.166 -56.5 -98.499
s-16.333 -68.833 -13 -103.5s15 -68 35 -100c17.333 -24.667 37.833 -51.334 61.5 -80.001l73 -86l72.5 -83l60 -71c16.667 -20.667 28.834 -37.167 36.501 -49.5s7.83398 -18.5 0.500977 -18.5c-32 0 -70.5 4 -115.5 12s-91.833 20.833 -140.5 38.5s-96.5 40.5 -143.5 68.5
s-88.5 62.333 -124.5 103s-63.667 88 -83 142s-25.666 115.333 -18.999 184c0.666992 51.333 9.33398 98.5 26.001 141.5s38.667 82.833 66 119.5s59 70.5 95 101.5s74.333 59.667 115 86s82.667 51 126 74l126 66.5l-111.5 57.5c-37.667 20.333 -73.334 36.5 -107.001 48.5
s-63.834 16.667 -90.501 14s-47.334 -18.334 -62.001 -47.001c-4 -8.66699 -9.5 -12.834 -16.5 -12.501s-13.833 3.5 -20.5 9.5s-12.334 14 -17.001 24s-6.66699 20.667 -6 32c2.66699 12.667 8.5 28.834 17.5 48.501l29 61c10.333 21 20.833 41.167 31.5 60.5s19 35 25 47
c19.333 37.333 42.5 61.5 69.5 72.5s57.333 13 91 6s70.667 -21.333 111 -43s83.5 -46.667 129.5 -75l146.5 -88.5c51.667 -30.667 105.667 -59 162 -85s114.833 -47.333 175.5 -64s123.334 -25 188.001 -25zM458.001 81.0029l161 145l127 -112l126 112l140 -125l-160 -144
l-128 112l-125 -112zM558.001 -173.997l161 143l140 -124l-161 -144z" />
    <glyph glyph-name="uniFB7C" unicode="&#x686;" horiz-adv-x="1678" arabic-form="initial" 
d="M-16 1l0.00488281 298.999l829 1l-187 134l-121.5 65c-39 20 -75.833 34.5 -110.5 43.5s-66.834 11 -96.501 6s-56.167 -20.833 -79.5 -47.5c-6 -8 -13.167 -11.333 -21.5 -10s-16 5.5 -23 12.5s-12.333 16.167 -16 27.5s-3.83398 23 -0.500977 35
c6.66699 12.667 18.667 29.834 36 51.501s36.166 44 56.499 67l59.5 65.5l45 48c48 21.333 97.167 28.833 147.5 22.5s101.666 -21.5 153.999 -45.5s105.166 -54.5 158.499 -91.5l161 -116l162 -119c54 -39 107.667 -72.333 161 -100s105.833 -47.667 157.5 -60
s102.167 -11.833 151.5 1.5l-142 -290h-1481zM314.005 -387.001l201 181l159 -140l158 140l175 -157l-201 -180l-159 141l-157 -141zM439.005 -707.001l201 180l175 -156l-201 -180z" />
    <glyph glyph-name="uniFB7D" unicode="&#x686;" horiz-adv-x="1678" arabic-form="medial" 
d="M-16 1l0.00292969 298.998h834l-181 161c-48 40 -91.833 69.833 -131.5 89.5s-76 31.334 -109 35.001s-63.167 0.166992 -90.5 -10.5s-53 -26.334 -77 -47.001c-6 -8 -13.167 -11.333 -21.5 -10s-16 5.5 -23 12.5s-12.333 16.167 -16 27.5s-3.83398 23 -0.500977 35
c6.66699 12.667 18.167 28.834 34.5 48.501s34.166 39.667 53.499 60l56.5 58.5l43.5 45c46 24.667 93 35.5 141 32.5s96.667 -15.167 146 -36.5s99.166 -49.5 149.499 -84.5s100.5 -72.167 150.5 -111.5l150.5 -117.5c50.333 -39 100 -73.5 149 -103.5
s97.333 -53.167 145 -69.5s94.167 -21.166 139.5 -14.499h162v-299h-1705zM314.003 -387.002l201 181l159 -140l158 140l175 -157l-201 -180l-159 141l-157 -141zM439.003 -707.002l201 180l175 -156l-201 -180z" />
    <glyph glyph-name="uniFB8B" unicode="&#x698;" horiz-adv-x="1063" arabic-form="final" 
d="M692 701c7.33301 -51.333 20.0029 -101 38.0029 -149s40.167 -90.667 66.5 -128s56.666 -67.333 90.999 -90s71.5 -34 111.5 -34h77v-299h-206c-10 -36.667 -29.167 -74.334 -57.5 -113.001s-62.833 -76.334 -103.5 -113.001s-86 -71.334 -136 -104.001
s-102.333 -61.167 -157 -85.5s-109.834 -43.5 -165.501 -57.5s-109.167 -21 -160.5 -21c-14 0 -34.333 5.33301 -61 16s-55.834 23.834 -87.501 39.501s-63.5 32.5 -95.5 50.5s-60 34.833 -84 50.5s-41.833 28.5 -53.5 38.5s-13.167 14.667 -4.5 14
c23.333 -2 59.333 -1.33301 108 2s103.5 9.83301 164.5 19.5s125.333 23 193 40s133 38.5 196 64.5s120.167 56.667 171.5 92s91.333 76.333 120 123l-51.5 80.5l-38 60.5c-11 18 -20.667 34.833 -29 50.5s-16.333 32.834 -24 51.501s-15.5 39.834 -23.5 63.501
s-17 52.5 -27 86.5zM436.003 1096l157 -141l159 141l201 -180l-175 -157l-158 140l-159 -140l-201 181zM560.003 1416l201 -180l-175 -156l-201 180z" />
    <glyph glyph-name="uniFB8F" unicode="&#x6a9;" horiz-adv-x="2492" arabic-form="final" 
d="M565 1c-83.333 1.33301 -158.502 10.1689 -225.502 26.502s-123.833 42 -170.5 77s-78.667 82.167 -96 141.5s-18.333 132.333 -3 219s51.333 190.334 108 311.001l114 47c-7.33301 -10.667 -14.833 -27.667 -22.5 -51s-14.167 -50.166 -19.5 -80.499
s-8.83301 -62.5 -10.5 -96.5s0 -66.167 5 -96.5s14.167 -57.5 27.5 -81.5s32 -41.667 56 -53c20.667 -10 51.5 -21.667 92.5 -35s118.5 -23 232.5 -29l1386 -1c18 2 34 6.33301 48 13l42 29l1 1c8.66699 10 13.834 20.667 15.5 32c1.66699 11.333 -0.166016 22 -5.5 32
c-5.33301 14.667 -13.5 24.834 -24.5 30.501s-23.833 9.16699 -38.5 10.5h-1109c-20.667 0 -43.334 4 -68.001 12s-47.167 20.167 -67.5 36.5s-36.333 37 -48 62s-14.834 54.5 -9.50098 88.5c14 74.667 41.333 142.5 82 203.5s90.334 115.5 149.001 163.5
s124.5 90 197.5 126s149 66.5 228 91.5s159 44.667 240 59s158.833 24.166 233.5 29.499l-219 -304c-24 0 -54 -2.83301 -90 -8.5s-75.167 -13.667 -117.5 -24s-85.833 -22.333 -130.5 -36s-87.167 -28.334 -127.5 -44.001s-76.833 -31.834 -109.5 -48.501s-58 -33 -76 -49
c-5.33301 -4.66699 -8.66602 -10 -9.99902 -16s-0.666016 -11.833 2.00098 -17.5s7.33398 -10.334 14.001 -14.001s15 -5.5 25 -5.5l-2 -6h1056c36 -0.666992 71.167 -7.33398 105.5 -20.001s64.5 -31.667 90.5 -57s46.333 -57.5 61 -96.5s20.667 -85.167 18 -138.5
c2 -29.333 -1.66699 -60.333 -11 -93c-4.66699 -14 -9.66699 -27.667 -15 -41h140v-299h-1944z" />
    <glyph glyph-name="uniFB90" unicode="&#x6a9;" horiz-adv-x="1793" arabic-form="initial" 
d="M-16 1l-0.000976562 299.003h180v-1h1205c21.333 2.66699 39.666 8 54.999 16s27.333 17 36 27s13.834 20.667 15.501 32s-0.166016 22 -5.49902 32c-5.33301 14.667 -13.5 24.834 -24.5 30.501s-23.833 9.16699 -38.5 10.5h-1109c-20.667 0 -43.334 4 -68.001 12
s-47.167 20.167 -67.5 36.5s-36.333 37 -48 62s-14.834 54.5 -9.50098 88.5c14 74.667 41.333 142.5 82 203.5s90.334 115.5 149.001 163.5s124.5 90 197.5 126s149 66.5 228 91.5s159 44.667 240 59s158.833 24.166 233.5 29.499l-219 -304c-24 0 -54 -2.83301 -90 -8.5
s-75.167 -13.667 -117.5 -24s-85.833 -22.333 -130.5 -36s-87.167 -28.334 -127.5 -44.001s-76.833 -31.834 -109.5 -48.501s-58 -33 -76 -49c-5.33301 -4.66699 -8.66602 -10 -9.99902 -16s-0.666016 -11.833 2.00098 -17.5s7.33398 -10.334 14.001 -14.001
s15 -5.5 25 -5.5l-2 -6h1056c36 -0.666992 71.167 -7.33398 105.5 -20.001s64.5 -31.667 90.5 -57s46.333 -57.5 61 -96.5s20.667 -85.167 18 -138.5c2 -29.333 -1.83301 -60.333 -11.5 -93s-23.834 -65 -42.501 -97s-41 -62.5 -67 -91.5s-53.833 -54.667 -83.5 -77
s-60.834 -40.166 -93.501 -53.499s-64.667 -20.333 -96 -21h-1347z" />
    <glyph glyph-name="uniFB91" unicode="&#x6a9;" horiz-adv-x="1835" arabic-form="medial" 
d="M-16 1l-0.00195312 299.002h180v-1h1205c21.333 2.66699 39.666 8 54.999 16s27.333 17 36 27s13.834 20.667 15.501 32s-0.166016 22 -5.49902 32c-5.33301 14.667 -13.5 24.834 -24.5 30.501s-23.833 9.16699 -38.5 10.5h-1109c-20.667 0 -43.334 4 -68.001 12
s-47.167 20.167 -67.5 36.5s-36.333 37 -48 62s-14.834 54.5 -9.50098 88.5c14 74.667 41.333 142.5 82 203.5s90.334 115.5 149.001 163.5s124.5 90 197.5 126s149 66.5 228 91.5s159 44.667 240 59s158.833 24.166 233.5 29.499l-219 -304c-24 0 -54 -2.83301 -90 -8.5
s-75.167 -13.667 -117.5 -24s-85.833 -22.333 -130.5 -36s-87.167 -28.334 -127.5 -44.001s-76.833 -31.834 -109.5 -48.501s-58 -33 -76 -49c-5.33301 -4.66699 -8.66602 -10 -9.99902 -16s-0.666016 -11.833 2.00098 -17.5s7.33398 -10.334 14.001 -14.001
s15 -5.5 25 -5.5l-2 -6h1056c36 -0.666992 71.167 -7.33398 105.5 -20.001s64.5 -31.667 90.5 -57s46.333 -57.5 61 -96.5s20.667 -85.167 18 -138.5c1.33301 -21.333 -0.333984 -43.166 -5.00098 -65.499s-11.667 -45.166 -21 -68.499h146v-299h-1861z" />
    <glyph glyph-name="uniFB93" unicode="&#x6af;" horiz-adv-x="2492" arabic-form="final" 
d="M565 1c-83.333 1.33301 -158.502 10.1689 -225.502 26.502s-123.833 42 -170.5 77s-78.667 82.167 -96 141.5s-18.333 132.333 -3 219s51.333 190.334 108 311.001l114 47c-7.33301 -10.667 -14.833 -27.667 -22.5 -51s-14.167 -50.166 -19.5 -80.499
s-8.83301 -62.5 -10.5 -96.5s0 -66.167 5 -96.5s14.167 -57.5 27.5 -81.5s32 -41.667 56 -53c20.667 -10 51.5 -21.667 92.5 -35s118.5 -23 232.5 -29l1386 -1c18 2 34 6.33301 48 13l42 29l1 1c8.66699 10 13.834 20.667 15.5 32c1.66699 11.333 -0.166016 22 -5.5 32
c-5.33301 14.667 -13.5 24.834 -24.5 30.501s-23.833 9.16699 -38.5 10.5h-1109c-20.667 0 -43.334 4 -68.001 12s-47.167 20.167 -67.5 36.5s-36.333 37 -48 62s-14.834 54.5 -9.50098 88.5c14 74.667 41.333 142.5 82 203.5s90.334 115.5 149.001 163.5
s124.5 90 197.5 126s149 66.5 228 91.5s159 44.667 240 59s158.833 24.166 233.5 29.499l-219 -304c-24 0 -54 -2.83301 -90 -8.5s-75.167 -13.667 -117.5 -24s-85.833 -22.333 -130.5 -36s-87.167 -28.334 -127.5 -44.001s-76.833 -31.834 -109.5 -48.501s-58 -33 -76 -49
c-5.33301 -4.66699 -8.66602 -10 -9.99902 -16s-0.666016 -11.833 2.00098 -17.5s7.33398 -10.334 14.001 -14.001s15 -5.5 25 -5.5l-2 -6h1056c36 -0.666992 71.167 -7.33398 105.5 -20.001s64.5 -31.667 90.5 -57s46.333 -57.5 61 -96.5s20.667 -85.167 18 -138.5
c2 -29.333 -1.66699 -60.333 -11 -93c-4.66699 -14 -9.66699 -27.667 -15 -41h140v-299h-1944zM1648.5 1480c77.667 24.667 156.498 44.001 236.498 58.001s135.667 22.333 167 25l-110 -158c-14.667 0 -40.5 -2.83301 -77.5 -8.5s-76.833 -12.167 -119.5 -19.5
s-87.5 -16.666 -134.5 -27.999s-109.167 -30 -186.5 -56s-138.166 -48.333 -182.499 -67s-61.333 -17.834 -51 2.49902s34.5 44.166 72.5 71.499s92.333 58 163 92s144.834 63.333 222.501 88z" />
    <glyph glyph-name="uniFB94" unicode="&#x6af;" horiz-adv-x="1793" arabic-form="initial" 
d="M-16 1l-0.000976562 299.003h180v-1h1205c21.333 2.66699 39.666 8 54.999 16s27.333 17 36 27s13.834 20.667 15.501 32s-0.166016 22 -5.49902 32c-5.33301 14.667 -13.5 24.834 -24.5 30.501s-23.833 9.16699 -38.5 10.5h-1109c-20.667 0 -43.334 4 -68.001 12
s-47.167 20.167 -67.5 36.5s-36.333 37 -48 62s-14.834 54.5 -9.50098 88.5c14 74.667 41.333 142.5 82 203.5s90.334 115.5 149.001 163.5s124.5 90 197.5 126s149 66.5 228 91.5s159 44.667 240 59s158.833 24.166 233.5 29.499l-219 -304c-24 0 -54 -2.83301 -90 -8.5
s-75.167 -13.667 -117.5 -24s-85.833 -22.333 -130.5 -36s-87.167 -28.334 -127.5 -44.001s-76.833 -31.834 -109.5 -48.501s-58 -33 -76 -49c-5.33301 -4.66699 -8.66602 -10 -9.99902 -16s-0.666016 -11.833 2.00098 -17.5s7.33398 -10.334 14.001 -14.001
s15 -5.5 25 -5.5l-2 -6h1056c36 -0.666992 71.167 -7.33398 105.5 -20.001s64.5 -31.667 90.5 -57s46.333 -57.5 61 -96.5s20.667 -85.167 18 -138.5c2 -29.333 -1.83301 -60.333 -11.5 -93s-23.834 -65 -42.501 -97s-41 -62.5 -67 -91.5s-53.833 -54.667 -83.5 -77
s-60.834 -40.166 -93.501 -53.499s-64.667 -20.333 -96 -21h-1347zM983.499 1479.5c77.667 24.333 156.498 43.668 236.498 58.001s135.667 22.5 167 24.5l-110 -157c-14.667 0 -40.5 -3 -77.5 -9l-119.5 -19.5c-42.667 -7 -87.5 -16.333 -134.5 -28
s-109.167 -30.334 -186.5 -56.001s-138.166 -48 -182.499 -67s-61.333 -18.167 -51 2.5s34.5 44.667 72.5 72s92.333 58 163 92s144.834 63.167 222.501 87.5z" />
    <glyph glyph-name="uniFB95" unicode="&#x6af;" horiz-adv-x="1835" arabic-form="medial" 
d="M1721 521c4 -26.667 5.33105 -55.665 3.99805 -86.998c1.33301 -21.333 -0.333984 -43.166 -5.00098 -65.499s-11.667 -45.166 -21 -68.499h146v-299h-1861v299h180v-1h1205c21.333 2.66699 39.666 8 54.999 16s27.333 17 36 27s13.834 20.667 15.501 32
s-0.166016 22 -5.49902 32c-5.33301 14.667 -13.5 24.834 -24.5 30.501s-23.833 9.16699 -38.5 10.5h-1109c-20.667 0 -43.334 4 -68.001 12s-47.167 20.167 -67.5 36.5s-36.333 37 -48 62s-14.834 54.5 -9.50098 88.5c14 74.667 41.333 142.5 82 203.5
s90.334 115.5 149.001 163.5s124.5 90 197.5 126s149 66.5 228 91.5s159 44.667 240 59s158.833 24.166 233.5 29.499l-219 -304c-24 0 -54 -2.83301 -90 -8.5s-75.167 -13.667 -117.5 -24s-85.833 -22.333 -130.5 -36s-87.167 -28.334 -127.5 -44.001
s-76.833 -31.834 -109.5 -48.501s-58 -33 -76 -49c-5.33301 -4.66699 -8.66602 -10 -9.99902 -16s-0.666016 -11.833 2.00098 -17.5s7.33398 -10.334 14.001 -14.001s15 -5.5 25 -5.5l-2 -6h1056c36 -0.666992 71.167 -7.33398 105.5 -20.001s64.5 -31.667 90.5 -57
s46.333 -57.333 61 -96c6 -16.667 10.667 -34 14 -52zM983.498 1479.5c77.667 24.333 156.498 43.668 236.498 58.001s135.667 22.5 167 24.5l-110 -157c-14.667 0 -40.5 -3 -77.5 -9l-119.5 -19.5c-42.667 -7 -87.5 -16.333 -134.5 -28s-109.167 -30.334 -186.5 -56.001
s-138.166 -48 -182.499 -67s-61.333 -18.167 -51 2.5s34.5 44.667 72.5 72s92.333 58 163 92s144.834 63.167 222.501 87.5z" />
    <glyph glyph-name="uniFBA5" unicode="&#x6c0;" horiz-adv-x="1475" arabic-form="final" 
d="M1228 342c-7.33301 20.667 -10.667 45.502 -10 74.502s4 60.5 10 94.5s11.333 67.167 16 99.5s7.16699 62 7.5 89s-4.83398 48.167 -15.501 63.5c-75.333 22.667 -142.5 32.834 -201.5 30.501s-111.667 -13 -158 -32s-87.333 -44.5 -123 -76.5s-67.5 -66.5 -95.5 -103.5
s-53.167 -74.333 -75.5 -112s-43.5 -71.834 -63.5 -102.501s-39.833 -55.5 -59.5 -74.5s-40.834 -28.5 -63.501 -28.5c-20 0 -38.667 8 -56 24s-33.166 37.167 -47.499 63.5s-27 56.5 -38 90.5s-20.333 69 -28 105s-13.5 71.833 -17.5 107.5s-6 68.5 -6 98.5l-10 -9.5
l-25 -24l-32.5 -32l-32.5 -32.5c-10 -10 -18.333 -18.667 -25 -26s-10 -11.333 -10 -12c0 -82.667 5.5 -158.834 16.5 -228.501s25.333 -132.167 43 -187.5s37.834 -103.333 60.501 -144s45.834 -73.5 69.501 -98.5s46.667 -41.833 69 -50.5s42.166 -8.66699 59.499 0
c40.667 20.667 77.667 50.167 111 88.5s64.666 79.833 93.999 124.5l86.5 133c28.333 44 58.166 81.833 89.499 113.5s65.5 54 102.5 67s79.167 10.833 126.5 -6.5c7.33301 -6.66699 11.833 -18 13.5 -34s2.5 -34.667 2.5 -56s0.333008 -44.5 1 -69.5
s3.83398 -50 9.50098 -75s15 -49 28 -72s31.833 -43.5 56.5 -61.5s56.334 -32.333 95.001 -43s86.334 -16 143.001 -16h141v299h-173h-19h-2c0.666992 0 0.166992 0.166992 -1.5 0.5s-7.83398 1.16602 -18.501 2.49902c-22 5.33301 -36.667 18.333 -44 39zM384.999 1185
c-2 -17.333 -7.33594 -36.832 -16.0029 -58.499s-16.667 -40.5 -24 -56.5c-42 -18.667 -80 -36.834 -114 -54.501l-87 -45c-24 -12.333 -42.5 -20.833 -55.5 -25.5s-19.833 -3 -20.5 5c0 7.33301 -0.333008 12.666 -1 15.999s-1 5.66602 -1 6.99902c0 7.33301 3 14.333 9 21
s13.167 13.167 21.5 19.5s16.833 12.166 25.5 17.499s15.667 10 21 14c-26.667 10.667 -44.834 24.334 -54.501 41.001s-13.5 34 -11.5 52s9 36 21 54s26.833 34.333 44.5 49s37.167 26.5 58.5 35.5s42 13.5 62 13.5c22 0 35.5 -4.66699 40.5 -14s5.33301 -19.5 1 -30.5
s-11.666 -21.167 -21.999 -30.5s-19.833 -14 -28.5 -14c-3.33301 0 -6.66602 0.833008 -9.99902 2.5s-6.66602 3.5 -9.99902 5.5s-6.83301 3.5 -10.5 4.5s-7.16699 0.833008 -10.5 -0.5c-16 -5.33301 -27.5 -12.5 -34.5 -21.5s-9.5 -17.833 -7.5 -26.5
s8.16699 -16.167 18.5 -22.5s24.5 -9.66602 42.5 -9.99902s39.833 3.33398 65.5 11.001s54.834 21.5 87.501 41.5z" />
    <glyph glyph-name="uniFBFD" unicode="&#x6cc;" horiz-adv-x="1506" arabic-form="final" 
d="M1428 1c-15.333 -46 -39.832 -86.8281 -73.499 -122.495s-73.667 -66 -120 -91s-97.5 -45.167 -153.5 -60.5s-113.833 -25.833 -173.5 -31.5s-119.834 -7 -180.501 -4s-119.167 10.167 -175.5 21.5s-108.666 26.666 -156.999 45.999s-90.166 42.333 -125.499 69
c-55.333 41.333 -101.5 90.166 -138.5 146.499s-60 118.333 -69 186s-1.83301 140.667 21.5 219s67.666 160.166 132.999 245.499l121 9c-33.333 -92.667 -46.5 -176.334 -39.5 -251.001s28.5 -139.667 64.5 -195s83.667 -100.5 143 -135.5s124.5 -59.167 195.5 -72.5
s145 -15.333 222 -6s151.167 30.666 222.5 63.999c-28.667 26 -58.834 46.833 -90.501 62.5s-63.5 28.5 -95.5 38.5s-63.333 17.833 -94 23.5l-86 16.5l107 303l514 -182h123v-299h-95z" />
    <glyph glyph-name="uniFBFE" unicode="&#x6cc;" horiz-adv-x="756" arabic-form="initial" 
d="M482 806c18.667 -24.667 37.498 -51.335 56.498 -80.002s36.333 -58.667 52 -90s28.834 -64.166 39.501 -98.499s17.334 -69.833 20.001 -106.5c2 -28.667 -1.83301 -59.167 -11.5 -91.5s-23.834 -64.166 -42.501 -95.499s-40.667 -61.333 -66 -90
s-52.666 -54 -81.999 -76s-60 -39.667 -92 -53s-63.333 -20.333 -94 -21h-100v-3h-188v299h188v-2h141c30.667 0 51.667 9.5 63 28.5s14.833 42.5 10.5 70.5s-15.333 57.5 -33 88.5s-39.5 58.5 -65.5 82.5zM239.998 -149.001l153 -153l154 153l195 -195l-170 -171l-153 153
l-154 -153l-195 196z" />
    <glyph glyph-name="uniFBFF" unicode="&#x6cc;" horiz-adv-x="824" arabic-form="medial" 
d="M239 1h-255.002v299h268c-16 52 -24 104 -24 156s8 98.667 24 140l318 141c-23.333 -52 -36.166 -104 -38.499 -156s5 -98.833 22 -140.5s43.667 -75.5 80 -101.5s82.166 -39 137.499 -39h73v-299h-227c-63.333 1.33301 -119.166 15.833 -167.499 43.5
s-89.166 63.5 -122.499 107.5zM239.998 -149l153 -153l154 153l195 -195l-170 -171l-153 153l-154 -153l-195 196z" />
    <glyph glyph-name="uniFE82" unicode="&#x622;" horiz-adv-x="615" arabic-form="final" 
d="M620 1l-213 0.00195312c-35.333 0 -66.333 4.66699 -93 14s-49.5 25.333 -68.5 48s-34 53.167 -45 91.5s-18.167 86.833 -21.5 145.5c-3.33301 51.333 -7 102.5 -11 153.5s-7.66699 102.167 -11 153.5l-19.5 248c-6.33301 82 -13.5 164.333 -21.5 247
c25.333 8 50.333 16.667 75 26l75 28c24 8.66699 49.167 17.167 75.5 25.5s51.833 17.166 76.5 26.499c3.33301 -82.667 6 -165.167 8 -247.5s4.66699 -164.5 8 -246.5c2.66699 -68.667 4.66699 -137.334 6 -206.001s3.33301 -138 6 -208h174v-299zM11 1222
c-1.33301 57.333 19.5 112.5 62.5 165.5s122.5 55.5 238.5 7.5s205 -31 267 51c-30 -172.667 -115.167 -230 -255.5 -172s-244.5 40.667 -312.5 -52z" />
    <glyph glyph-name="uniFE84" unicode="&#x623;" horiz-adv-x="615" arabic-form="final" 
d="M620 1l-213 0.00195312c-35.333 0 -66.333 4.66699 -93 14s-49.5 25.333 -68.5 48s-34 53.167 -45 91.5s-18.167 86.833 -21.5 145.5c-3.33301 51.333 -7 102.5 -11 153.5s-7.66699 102.167 -11 153.5l-19.5 248c-6.33301 82 -13.5 164.333 -21.5 247
c25.333 8 50.333 16.667 75 26l75 28c24 8.66699 49.167 17.167 75.5 25.5s51.833 17.166 76.5 26.499c3.33301 -82.667 6 -165.167 8 -247.5s4.66699 -164.5 8 -246.5c2.66699 -68.667 4.66699 -137.334 6 -206.001s3.33301 -138 6 -208h174v-299zM417 1430
c-2 -17.333 -7.33594 -36.832 -16.0029 -58.499s-16.667 -40.5 -24 -56.5c-42 -18.667 -80 -36.834 -114 -54.501l-87 -45c-24 -12.333 -42.5 -20.833 -55.5 -25.5s-19.833 -3 -20.5 5c0 7.33301 -0.333008 12.666 -1 15.999s-1 5.66602 -1 6.99902c0 7.33301 3 14.333 9 21
s13.167 13.167 21.5 19.5s16.833 12.166 25.5 17.499s15.667 10 21 14c-26.667 10.667 -44.834 24.334 -54.501 41.001s-13.5 34 -11.5 52s9 36 21 54s26.833 34.333 44.5 49s37.167 26.5 58.5 35.5s42 13.5 62 13.5c22 0 35.5 -4.66699 40.5 -14s5.33301 -19.5 1 -30.5
s-11.666 -21.167 -21.999 -30.5s-19.833 -14 -28.5 -14c-3.33301 0 -6.66602 0.833008 -9.99902 2.5s-6.66602 3.5 -9.99902 5.5s-6.83301 3.5 -10.5 4.5s-7.16699 0.833008 -10.5 -0.5c-16 -5.33301 -27.5 -12.5 -34.5 -21.5s-9.5 -17.833 -7.5 -26.5
s8.16699 -16.167 18.5 -22.5s24.5 -9.66602 42.5 -9.99902s39.833 3.33398 65.5 11.001s54.834 21.5 87.501 41.5z" />
    </font>
</defs>
</svg>
