<?xml version="1.0" standalone="no"?>
<!DOCTYPE svg PUBLIC "-//W3C//DTD SVG 1.1//EN" "http://www.w3.org/Graphics/SVG/1.1/DTD/svg11.dtd" >
<svg>
<metadata>
Created by FontForge 20090914 at Wed Oct 19 01:58:18 2011
 By www-data
(c) by Abolfazl Seilsepour - +98 912 591 3420  -  seilsepor@yahoo.com
</metadata>
<defs>
<font id="FarTextBold" horiz-adv-x="0" >
  <font-face 
    font-family="Far.Text Bold"
    font-weight="700"
    font-stretch="normal"
    units-per-em="2048"
    panose-1="2 10 5 3 2 1 2 2 2 4"
    ascent="1638"
    descent="-410"
    bbox="-183 -1017 2623 2372"
    underline-thickness="100"
    underline-position="-670"
    unicode-range="U+0020-U+FEFC"
  />
<missing-glyph horiz-adv-x="1024" 
d="M128 0v1278h768v-1278h-768zM256 128h512v1022h-512v-1022z" />
    <glyph glyph-name=".notdef" unicode="&#x652;&#x64d;" horiz-adv-x="1024" 
d="M128 0v1278h768v-1278h-768zM256 128h512v1022h-512v-1022z" />
    <glyph glyph-name="copyright" unicode="&#x652;&#x64b;" horiz-adv-x="1816" 
d="M862 1495c125.333 0 247.5 -32 366.5 -96s211.833 -155.5 278.5 -274.5s100 -243.167 100 -372.5s-32.833 -253.333 -98.5 -372s-157.667 -210.5 -276 -275.5s-241.833 -97.5 -370.5 -97.5c-129.333 0 -252.833 32.5 -370.5 97.5s-209.5 156.833 -275.5 275.5
s-99 242.667 -99 372s33.5 253.5 100.5 372.5s160 210.5 279 274.5s240.833 96 365.5 96zM862 1431c-114 0 -225.169 -29.333 -333.502 -88s-193.166 -142.334 -254.499 -251.001s-92 -222 -92 -340s30 -230.833 90 -338.5s144 -191.667 252 -252s220.667 -90.5 338 -90.5
s230 30.167 338 90.5s192.167 144.333 252.5 252s90.5 220.5 90.5 338.5s-30.667 231.333 -92 340s-146.166 192.334 -254.499 251.001s-219.833 88 -334.5 88zM1230 1230l22 -293.999h-41c-26 83.333 -66.167 145.5 -120.5 186.5s-120.166 61.5 -197.499 61.5
c-58 0 -109.333 -12 -154 -36s-81.334 -55.667 -110.001 -95c-21.333 -30.667 -39 -71 -53 -121s-21 -102 -21 -156c0 -148.667 32 -258.167 96 -328.5s148 -105.5 252 -105.5c136 0 245 56.667 327 170l39 -20c-97.333 -142 -231 -213 -401 -213
c-140.667 0 -257 45.333 -349 136s-138 200.667 -138 330c0 134 49 248.333 147 343s223 142 375 142c33.333 0 60.333 -2 81 -6s59 -15 115 -33c16.667 -6 29 -9 37 -9c11.333 0 21 3.16699 29 9.5s16 19.166 24 38.499h41z" />
    <glyph glyph-name="uniE818" unicode="&#x651;&#x64b;" 
d="M581 1602c0 -45.333 -12.3359 -83.332 -37.0029 -113.999c-26 -33.333 -61 -50 -105 -50c-71.333 0 -125.666 26.667 -162.999 80c-41.333 -97.333 -105 -146 -191 -146c-95.333 0 -143 54.333 -143 163c0 48 21 116.667 63 206l89 -45
c-24.667 -64.667 -37 -103 -37 -115c0 -46.667 16 -70 48 -70c46.667 0 77.334 24.667 92.001 74c8 27.333 11 71 9 131l114 60c0 -132.667 30.333 -199 91 -199c32.667 0 47.667 20 45 60c-1.33301 22 -18.666 60 -51.999 114l90 66c24.667 -32.667 46 -73.334 64 -122.001
c15.333 -41.333 23 -72.333 23 -93zM546.997 2162l-560 -139l-31 115l563 143zM553.997 1951l-560 -139l-31 115l563 143z" />
    <glyph glyph-name="uniFC5E" unicode="&#x651;&#x64c;" arabic-form="isolated" 
d="M586 1549c0 -44 -12.002 -81.3311 -36.002 -111.998c-25.333 -32.667 -59.666 -49 -102.999 -49c-70 0 -123.333 26 -160 78c-40 -95.333 -102.333 -143 -187 -143c-93.333 0 -140 53.333 -140 160c0 47.333 20.667 114.666 62 201.999l87 -45
c-24 -62.667 -36 -100 -36 -112c0 -45.333 15.667 -68 47 -68c46 0 76 23.667 90 71c8 27.333 11 70.666 9 129.999l111 58c0 -130 30 -195 90 -195c32 0 46.667 19.667 44 59c-1.33301 22.667 -7.66602 43 -18.999 61l-32 50l88 65c24 -31.333 45 -71 63 -119
c14.667 -40.667 22 -71 22 -91zM603.998 2057c0 -104 -63.333 -171 -190 -201l-402 -95l-38 102l38 18c40.667 18.667 61 46.667 61 84c0 22 -8.33301 33 -25 33c-14 0 -33 -8.66699 -57 -26l-44 65c35.333 48.667 74 72.334 116 71c68.667 -1.33301 103 -35.666 103 -103
c0 -38 -10.667 -73 -32 -105l109 41c-20 34 -30 71.333 -30 112c0 52 22.667 96.333 68 133c40 32.667 79.667 49 119 49c51.333 0 97.333 -16.667 138 -50c44 -35.333 66 -78 66 -128zM494.998 2057c0 41.333 -29.333 62 -88 62c-20 0 -38.667 -6.5 -56 -19.5
s-26 -29.5 -26 -49.5c0 -21.333 8.66699 -40 26 -56s37 -23.333 59 -22c56.667 4 85 32.333 85 85z" />
    <glyph glyph-name="uniFC5F" unicode="&#x651;&#x64d;" arabic-form="isolated" 
d="M537 1825l-560 -139l-31 115l563 143zM558 2156c0 -45.333 -12.333 -83.333 -37 -114c-26 -33.333 -61 -50 -105 -50c-70.667 0 -125 26.667 -163 80c-41.333 -96.667 -105 -145 -191 -145c-95.333 0 -143 54.333 -143 163c0 47.333 21 115.666 63 205l90 -45
c-25.333 -64.667 -38 -103 -38 -115c0 -46 16 -69 48 -69c48 0 79 24.333 93 73c7.33301 26 10.333 69.667 9 131c22.667 13.333 60.334 33.333 113.001 60c0 -132.667 30.333 -199 91 -199c33.333 0 48.666 20 45.999 60c-1.33301 24.667 -19 62.667 -53 114l90 67
c58 -77.333 87 -149.333 87 -216zM557 1595l-560 -139l-31 115l563 143z" />
    <glyph glyph-name="uniFC60" unicode="&#x651;&#x64e;" arabic-form="isolated" 
d="M585 1631c0 -44 -12.002 -81.3311 -36.002 -111.998c-25.333 -32.667 -59.666 -49 -102.999 -49c-70 0 -123.333 26 -160 78c-40 -95.333 -102.333 -143 -187 -143c-93.333 0 -140 53.333 -140 160c0 47.333 20.667 114.666 62 201.999l87 -45
c-24 -62.667 -36 -100 -36 -112c0 -45.333 15.667 -68 47 -68c46 0 76 23.667 90 71c8 27.333 11 70.666 9 129.999l111 58c0 -130 30 -195 90 -195c32 0 46.667 19.667 44 59c-1.33301 22.667 -7.66602 43 -18.999 61l-32 50l88 65c24 -31.333 45 -71 63 -119
c14.667 -40.667 22 -71 22 -91zM532.998 1946l-549 -137l-31 113l552 140z" />
    <glyph glyph-name="uniFC61" unicode="&#x651;&#x64f;" arabic-form="isolated" 
d="M587 1590c0 -45.333 -12.333 -83.333 -37 -114c-26 -33.333 -61 -50 -105 -50c-70.667 0 -125 26.667 -163 80c-41.333 -97.333 -105 -146 -191 -146c-95.333 0 -143 54.333 -143 163c0 48 21 116.667 63 206l90 -45c-25.333 -64.667 -38 -103 -38 -115
c0 -46.667 16 -70 48 -70c48 0 79 24.667 93 74c7.33301 26 10.333 69.667 9 131c22.667 12.667 60.334 32.667 113.001 60c0 -132.667 30.333 -199 91 -199c33.333 0 48.666 20 45.999 60c-1.33301 24.667 -19 62.667 -53 114l90 66c26 -34 47.667 -74.667 65 -122
c14.667 -40 22 -71 22 -93zM470 2096c0 41.333 -30.001 62 -90.001 62c-21.333 0 -40.666 -6.66699 -57.999 -20c-19.333 -14.667 -29 -32.334 -29 -53c0 -22 9.5 -40.5 28.5 -55.5s39.5 -21.833 61.5 -20.5c58 4 87 33 87 87zM213.999 1981
c-21.333 34 -32.002 69.667 -32.002 107c0 52.667 23 98.334 69 137c40.667 34 81.334 51 122.001 51c52.667 0 99.667 -16.667 141 -50c44.667 -35.333 67 -78.666 67 -130c0 -107.333 -64.667 -176 -194 -206l-399 -93l-28 108c64.667 18 149.334 43.333 254.001 76z" />
    <glyph glyph-name="uniFC62" unicode="&#x651;&#x650;" arabic-form="isolated" 
d="M550 1595l-560 -139l-31 115l563 143zM571 1926c0 -45.333 -12.333 -83.332 -37 -113.999c-26 -33.333 -61 -50 -105 -50c-70.667 0 -125 26.667 -163 80c-41.333 -96.667 -105 -145 -191 -145c-95.333 0 -143 54.333 -143 163c0 47.333 21 115.666 63 204.999l90 -45
c-25.333 -64.667 -38 -103 -38 -115c0 -46 16 -69 48 -69c48 0 79 24.333 93 73c7.33301 26 10.333 69.667 9 131c22.667 13.333 60.334 33.333 113.001 60c0 -132.667 30.333 -199 91 -199c33.333 0 48.666 20 45.999 60c-1.33301 24.667 -19 62.667 -53 114l90 67
c58 -77.333 87 -149.333 87 -216z" />
    <glyph glyph-name="uniFD3E" unicode="&#x652;&#x64e;" horiz-adv-x="1135" 
d="M1075 -612c0 -10 -8 -15 -24 -15c-50.667 0 -127 50.333 -229 151c-134 130.667 -238.667 297 -314 499c-139.333 2 -209 20.333 -209 55c91.333 96 137 170.333 137 223c-41.333 0 -85.833 -24.5 -133.5 -73.5s-74.834 -73.5 -81.501 -73.5
c-25.333 0 -43.666 54.333 -54.999 163c-74 36 -111 67.667 -111 95c0 30.667 35 66.667 105 108c7.33301 104 23.666 156 48.999 156c102 -96 177.667 -144 227 -144c-4.66699 51.333 -30.667 100 -78 146s-71 72 -71 78c0 10.667 20.333 22.334 61 35.001
c46 14 97.333 22 154 24c48 144.667 113 274 195 388c63.333 88.667 131.333 161.667 204 219c58 46 99 69 123 69c13.333 0 20 -7.66699 20 -23c0 -6.66699 -24.333 -37 -73 -91c-60 -67.333 -109 -136.666 -147 -207.999c-59.333 -109.333 -99 -230.666 -119 -363.999
c66.667 -10.667 100 -25.667 100 -45c-94 -94.667 -141 -168.334 -141 -221.001c48 0 119.667 49 215 147c12 0 24.333 -17.667 37 -53s20 -72.333 22 -111c70.667 -36.667 106 -70 106 -100c0 -24.667 -33.333 -56.667 -100 -96
c-5.33301 -106.667 -23.666 -160 -54.999 -160l-68 65c-46 45.333 -97 70.666 -153 75.999c0 -47.333 24.5 -95 73.5 -143s73.5 -76 73.5 -84c0 -15.333 -36 -30.333 -108 -45c21.333 -108.667 64.833 -220.834 130.5 -336.501s138.167 -207.834 217.5 -276.501
c13.333 -11.333 20 -22.666 20 -33.999zM680 418c0 35.333 -12.667 65.666 -38 90.999s-55.666 38 -90.999 38c-36 0 -66.5 -12.667 -91.5 -38s-37.5 -55.666 -37.5 -90.999c0 -34.667 12.5 -64.167 37.5 -88.5s55.5 -36.5 91.5 -36.5c35.333 0 65.666 12.167 90.999 36.5
s38 53.833 38 88.5z" />
    <glyph glyph-name="uniFDF2" unicode="&#xfedf;&#xfee0;&#xfeea;" horiz-adv-x="2330" arabic-form="isolated" 
d="M2260 287c0 -191.333 -103.665 -287.002 -310.998 -287.002h-256c-49.333 0 -94.333 13.667 -135 41c-30 20.667 -55.333 47.334 -76 80.001c-59.333 -80.667 -144 -121 -254 -121h-393c-76 0 -140.667 27.333 -194 82c-42.667 44 -65.334 85 -68.001 123h-189
c-57.333 0 -108 13.333 -152 40c-38 23.333 -70 56 -96 98c-22 34.667 -39 74 -51 118c-9.33301 36 -14 70 -14 102c0 128.667 38 226.334 114 293.001c60 53.333 131.333 80 214 80c71.333 0 127.333 -18.333 168 -55v55h284l2 -582c0 -65.333 30.667 -98 92 -98h201
c32 0 60.667 8.33301 86 25c30 20 45 46.333 45 79l-4 971h287l4 -893c0.666992 -58 19 -104.333 55 -139c29.333 -28.667 59.333 -43 90 -43h160c70 0 105 32.667 105 98l-4 490c-0.666992 106.667 -1.33398 205 -2.00098 295l-3 192h289zM1609 1530
c0 -28.667 -6.99805 -52.334 -20.998 -71.001c-19.333 -25.333 -49.333 -38 -90 -38c-42.667 0 -73.334 18.667 -92.001 56c-18 -37.333 -50 -56 -96 -56c-74 0 -111 36.333 -111 109v153h101v-141c0 -11.333 2.33301 -19 7 -23c2.66699 -2 7 -3 13 -3
c7.33301 0 14.666 3.66699 21.999 11c8.66699 10 13 24 13 42v114h96v-114c0 -35.333 13.667 -53 41 -53c0 -2.66699 3 -1.66699 9 3c5.33301 4.66699 8 12.334 8 23.001v141h100v-153zM567.004 638.998c-34 35.333 -71.6689 53 -113.002 53
c-61.333 0 -94.666 -42.333 -99.999 -127c-2.66699 -24 3 -49 17 -75c16.667 -32 40.334 -48 71.001 -48h127z" />
    <glyph glyph-name="uniFEF5" unicode="&#xfedf;&#xfe82;" horiz-adv-x="1026" arabic-form="isolated" 
d="M657 1630c-15.333 -113.333 -68.334 -170 -159.001 -170c-32 0 -72.333 9.66699 -121 29c-46 18 -80.333 27 -103 27c-36 0 -57.667 -21.333 -65 -64h-78c12.667 113.333 60.334 170 143.001 170c36 0 78.333 -9.66699 127 -29l54 -18c18 -5.33301 32.333 -8 43 -8
c46.667 0 71 21 73 63h86zM482.999 469c-22 -32 -52 -53.667 -90 -65c-28 -8.66699 -67.667 -13 -119 -13h-73l-13 940h285zM964.999 414c0 -123.333 -53.999 -223.667 -161.999 -301c-105.333 -75.333 -239.333 -113 -402 -113h-247v256h163
c39.333 0 77.666 3.66699 114.999 11c44 8.66699 83 21.667 117 39c84.667 43.333 127 110 127 200l-10 825h288z" />
    <glyph glyph-name="uniFEF6" unicode="&#xfee0;&#xfe82;" horiz-adv-x="1284" arabic-form="final" 
d="M595 1630c-15.333 -113.333 -68.334 -170 -159.001 -170c-32 0 -72.333 9.66699 -121 29c-46 18 -80.333 27 -103 27c-36 0 -57.667 -21.333 -65 -64h-78c12.667 113.333 60.334 170 143.001 170c36 0 78.333 -9.66699 127 -29l54 -18c18 -5.33301 32.333 -8 43 -8
c46.667 0 71 21 73 63h86zM1093 0c-56 0 -104.332 15.333 -144.999 46c-32.667 24.667 -63.667 62.667 -93 114c-104 -106.667 -255.333 -160 -454 -160h-248v256h164c39.333 0 77.666 3.66699 114.999 11c44 8.66699 82.667 21.667 116 39c84.667 43.333 127 110 127 200
l-10 825h289l10 -893c0.666992 -58 19 -104.333 55 -139c29.333 -28.667 59.333 -43 90 -43h195v-256h-211zM483 469c-22.667 -32.667 -55 -54.667 -97 -66c-30 -8 -73.667 -12 -131 -12h-55l-12 940h284z" />
    <glyph glyph-name="uniFEF7" unicode="&#xfedf;&#xfe84;" horiz-adv-x="1026" arabic-form="isolated" 
d="M535 1678l-51.999 -74.001c-9.33301 28.667 -27.666 43 -54.999 43c-30 0 -45 -15 -45 -45c0 -37.333 19 -56 57 -56h103v-133h-412l66 133h75l-12 22l-6 21c-0.666992 6 -1.33398 12.333 -2.00098 19v12c0 99.333 48.333 149 145 149c61.333 0 110.666 -25 147.999 -75
c0 -1.33301 -3.33301 -6.66602 -10 -15.999zM483.001 468.999c-22 -32 -52 -53.667 -90 -65c-28 -8.66699 -67.667 -13 -119 -13h-73l-13 940h285zM965.001 413.999c0 -123.333 -53.999 -223.667 -161.999 -301c-105.333 -75.333 -239.333 -113 -402 -113h-247v256h163
c39.333 0 77.666 3.66699 114.999 11c44 8.66699 83 21.667 117 39c84.667 43.333 127 110 127 200l-10 825h288z" />
    <glyph glyph-name="uniFEF8" unicode="&#xfee0;&#xfe84;" horiz-adv-x="1284" arabic-form="final" 
d="M514 1678l-51.999 -74.001c-9.33301 28.667 -27.666 43 -54.999 43c-30 0 -45 -15 -45 -45c0 -37.333 19 -56 57 -56h103v-133h-412l66 133h75l-12 22l-6 21c-0.666992 6 -1.33398 12.333 -2.00098 19v12c0 99.333 48.333 149 145 149c61.333 0 110.666 -25 147.999 -75
c0 -1.33301 -3.33301 -6.66602 -10 -15.999zM1093 -0.000976562c-56 0 -104.332 15.333 -144.999 46c-32.667 24.667 -63.667 62.667 -93 114c-104 -106.667 -255.333 -160 -454 -160h-248v256h164c39.333 0 77.666 3.66699 114.999 11c44 8.66699 82.667 21.667 116 39
c84.667 43.333 127 110 127 200l-10 825h289l10 -893c0.666992 -58 19 -104.333 55 -139c29.333 -28.667 59.333 -43 90 -43h195v-256h-211zM483.002 468.999c-22.667 -32.667 -55 -54.667 -97 -66c-30 -8 -73.667 -12 -131 -12h-55l-12 940h284z" />
    <glyph glyph-name="uniFEF9" unicode="&#xfedf;&#xfe88;" horiz-adv-x="1026" arabic-form="isolated" 
d="M497 -158l-50.9971 -75c-10 30 -28.333 45 -55 45c-30 0 -45 -15.667 -45 -47c0 -36.667 19 -55 57 -55h103v-131h-412l66 131h75l-12 21l-6 23c-0.666992 6 -1.33398 12.333 -2.00098 19v12c0 98.667 48.333 148 145 148c59.333 0 108.666 -24.667 147.999 -74
c-0.666992 -1.33301 -4.33398 -7 -11.001 -17zM483.003 469c-22.667 -32 -53 -53.667 -91 -65c-28 -8.66699 -67.333 -13 -118 -13h-74l-12 940h285zM964.003 414c0 -123.333 -53.666 -223.667 -160.999 -301c-105.333 -75.333 -239.333 -113 -402 -113h-248v256h164
c39.333 0 77.666 3.66699 114.999 11c44 8.66699 83 21.667 117 39c84.667 43.333 127 110 127 200l-11 825h289z" />
    <glyph glyph-name="uniFEFA" unicode="&#xfee0;&#xfe88;" horiz-adv-x="1284" arabic-form="final" 
d="M456 -158l-50.9971 -75c-10 30 -28.333 45 -55 45c-30 0 -45 -15.667 -45 -47c0 -36.667 19 -55 57 -55h103v-131h-412l66 131h75l-12 21l-6 23c-0.666992 6 -1.33398 12.333 -2.00098 19v12c0 98.667 48.333 148 145 148c59.333 0 108.666 -24.667 147.999 -74
c-0.666992 -1.33301 -4.33398 -7 -11.001 -17zM1093 0c-56 0 -104.328 15.333 -144.995 46c-32.667 24.667 -63.334 62.667 -92.001 114c-104.667 -106.667 -256.334 -160 -455.001 -160h-248v256h164c39.333 0 77.666 3.66699 114.999 11c44 8.66699 83 21.667 117 39
c84.667 43.333 127 110 127 200l-11 825h289l10 -893c1.33301 -58 19.666 -104.333 54.999 -139c29.333 -28.667 59.666 -43 90.999 -43h194v-256h-211zM483.008 469c-22 -32.667 -54.334 -54.667 -97.001 -66c-29.333 -8 -72.666 -12 -129.999 -12h-56l-12 940h285z" />
    <glyph glyph-name="uniFEFB" unicode="&#xfedf;&#xfe8e;" horiz-adv-x="1026" arabic-form="isolated" 
d="M483 469c-22.667 -32 -53 -53.667 -91 -65c-28 -8.66699 -67.333 -13 -118 -13h-74l-12 940h284zM964 414c0 -123.333 -53.999 -223.667 -161.999 -301c-105.333 -75.333 -239 -113 -401 -113h-248v256h164c39.333 0 77.666 3.66699 114.999 11
c44 8.66699 82.667 21.667 116 39c84.667 43.333 127 110 127 200l-10 825h289z" />
    <glyph glyph-name="uniFEFC" unicode="&#xfee0;&#xfe8e;" horiz-adv-x="1284" arabic-form="final" 
d="M1093 0c-56 0 -104.332 15.333 -144.999 46c-32.667 24.667 -63.667 62.667 -93 114c-104 -106.667 -255.333 -160 -454 -160h-248v256h164c39.333 0 77.666 3.66699 114.999 11c44 8.66699 82.667 21.667 116 39c84.667 43.333 127 110 127 200l-10 825h289l10 -893
c0.666992 -58 19 -104.333 55 -139c29.333 -28.667 59.333 -43 90 -43h195v-256h-211zM483.001 469c-22.667 -32.667 -55 -54.667 -97 -66c-30 -8 -73.667 -12 -131 -12h-55l-12 940h284z" />
    <glyph glyph-name="afii57410" unicode="&#x622;" horiz-adv-x="563" arabic-form="isolated" 
d="M579 1630c-15.333 -113.333 -68.334 -170 -159.001 -170c-32 0 -72.333 9.66699 -121 29c-46 18 -80.333 27 -103 27c-36 0 -57.667 -21.333 -65 -64h-78c12.667 113.333 60.334 170 143.001 170c36 0 78.333 -9.66699 127 -29l54 -18c18 -5.33301 32.333 -8 43 -8
c46.667 0 71 21 73 63h86zM214.999 0l-10 1331h286l11 -1331h-287z" />
    <glyph glyph-name="afii57411" unicode="&#x623;" horiz-adv-x="563" arabic-form="isolated" 
d="M520 1678l-51.999 -74.001c-9.33301 28.667 -27.666 43 -54.999 43c-30 0 -45 -15 -45 -45c0 -37.333 19 -56 57 -56h103v-133h-412l66 133h75l-12 22l-6 21c-0.666992 6 -1.33398 12.333 -2.00098 19v12c0 99.333 48.333 149 145 149c61.333 0 110.666 -25 147.999 -75
c0 -1.33301 -3.33301 -6.66602 -10 -15.999zM214.001 -0.000976562l-10 1331h287l10 -1331h-287z" />
    <glyph glyph-name="afii57412" unicode="&#x624;" horiz-adv-x="1058" arabic-form="isolated" 
d="M464 -152c88.667 42 153.669 92.666 195.002 151.999h-103c-104.667 0 -192.334 40.667 -263.001 122c-64.667 75.333 -97 161.666 -97 258.999c0 73.333 13.667 138 41 194c24.667 48.667 59 89.334 103 122.001c38.667 28.667 82.667 50.334 132 65.001
c43.333 12 86.666 18 129.999 18c8 0 17.667 -0.333008 29 -1c16 -1.33301 32 -3.66602 48 -6.99902c47.333 -8 90.333 -21.333 129 -40c51.333 -24.667 92.333 -57.334 123 -98.001c37.333 -49.333 58 -109 62 -179l2 -234c0 -176.667 -51 -325.667 -153 -447
c-106 -126 -248.333 -196.667 -427 -212l-138 157l-56 62c79.333 6 160.333 28.333 243 67zM708.002 472.999c0 66.667 -36.333 100 -109 100c-41.333 0 -74.333 -17.333 -99 -52c-22.667 -31.333 -34 -69 -34 -113c0 -101.333 41.667 -152 125 -152h117v217zM788.002 1168
c-6 -8 -14.001 -19.335 -24.001 -34.002l-36 -49c-12 34.667 -32.333 52 -61 52c-32.667 0 -49 -18 -49 -54c0 -15.333 4.33301 -28.666 13 -39.999c11.333 -14 28 -21 50 -21h115v-150h-459l74 150h84c-5.33301 6.66699 -9.66602 14.334 -12.999 23.001l-7 24
c-1.33301 6.66699 -2 13.667 -2 21l-1 14c0 110.667 53.333 166 160 166c67.333 0 123.333 -28 168 -84c-0.666992 -1.33301 -4.66699 -7.33301 -12 -18z" />
    <glyph glyph-name="afii57413" unicode="&#x625;" horiz-adv-x="563" arabic-form="isolated" 
d="M507 -158l-50.9971 -75c-10 30 -28.333 45 -55 45c-30 0 -45 -15.667 -45 -47c0 -36.667 19 -55 57 -55h103v-131h-412l66 131h75l-12 21l-6 23c-0.666992 6 -1.33398 12.333 -2.00098 19v12c0 98.667 48.333 148 145 148c59.333 0 108.666 -24.667 147.999 -74
c-0.666992 -1.33301 -4.33398 -7 -11.001 -17zM215.003 0l-11 1331h287l10 -1331h-286z" />
    <glyph glyph-name="afii57414" unicode="&#x626;" horiz-adv-x="1296" arabic-form="isolated" 
d="M431 881l-69.9971 -100.997c-14 38 -38 57.667 -72 59c-32.667 1.33301 -52.334 -13.334 -59.001 -44.001c-2 -8 -2.33301 -16.667 -1 -26c1.33301 -10.667 4.33301 -20.334 9 -29.001c12 -23.333 34 -35 66 -35h137v-179h-549l91 179h99
c-12 15.333 -20.333 34.333 -25 57l-3 43c0 54 18.333 100 55 138c38 40 85.667 59.333 143 58c79.333 -2 143.666 -35.333 192.999 -100c-0.666992 -0.666992 -5.33398 -7.33398 -14.001 -20.001zM1235 133.003c4.66699 -158.667 -50.3311 -295.001 -164.998 -409.001
c-114 -113.333 -251.333 -170 -412 -170c-160 0 -296.333 57 -409 171c-112.667 113.333 -169 250 -169 410l-8 271h285l4 -273c0.666992 -93.333 35 -169.333 103 -228c57.333 -49.333 120.666 -74 189.999 -74c76.667 0 143.667 25 201 75
c66 57.333 97.333 133.666 94 228.999v15h-430c-39.333 406.667 80.667 617.334 360 632.001c53.333 3.33301 102.666 -4 147.999 -22c36 -15.333 68.667 -37 98 -65c20.667 -20 38.667 -42.667 54 -68l18 -33l-211 -109c-13.333 48.667 -44.333 69.334 -93 62.001
c-34 -6.66699 -58 -23 -72 -49c-9.33301 -17.333 -17.333 -48 -24 -92h432z" />
    <glyph glyph-name="afii57415" unicode="&#x627;" horiz-adv-x="563" arabic-form="isolated" 
d="M214 0l-10 1331h287l10 -1331h-287z" />
    <glyph glyph-name="afii57416" unicode="&#x628;" horiz-adv-x="1585" arabic-form="isolated" 
d="M1523 219c0 -73.333 -22.333 -129.334 -67 -168.001c-39.333 -34 -91.333 -51 -156 -51h-637c-114.667 0 -213.667 24.333 -297 73c-73.333 43.333 -133.333 105.666 -180 186.999c-41.333 70.667 -71.333 154.334 -90 251.001c-16.667 82.667 -25 172.334 -25 269.001
h283c0 -157.333 22.667 -280 68 -368c54 -104 138.333 -156 253 -156h518c32.667 0 49 24.667 49 74l-10 450h287l4 -291v-270zM739 -397.001v238h245v-238h-245z" />
    <glyph glyph-name="afii57417" unicode="&#x629;" horiz-adv-x="966" arabic-form="isolated" 
d="M799 117c-75.333 -76.667 -179.333 -114.999 -312 -114.999s-236.334 38.333 -311.001 115c-70 72 -105 166.667 -105 284c0 118 35 213 105 285c74.667 76.667 178.334 115 311.001 115s236.667 -38.333 312 -115c70.667 -72.667 106 -167.667 106 -285
c0 -116.667 -35.333 -211.334 -106 -284.001zM595 519.001c-24 37.333 -60 55.999 -108 55.999c-48.667 0 -84.667 -18.667 -108 -56c-18 -30 -27 -69.333 -27 -118c0 -49.333 9 -89 27 -119c23.333 -38 59.333 -57 108 -57c48 0 84 19 108 57
c19.333 30.667 29 70.334 29 119.001c0 48 -9.66699 87.333 -29 118zM589 1285l-51.999 -74.001c-9.33301 28.667 -27.666 43 -54.999 43c-30 0 -45 -15 -45 -45c0 -37.333 19 -56 57 -56h103v-133h-412l66 133h75l-12 22l-6 21c-0.666992 6 -1.33398 12.333 -2.00098 19v12
c0 99.333 48.333 149 145 149c61.333 0 110.666 -25 147.999 -75c0 -1.33301 -3.33301 -6.66602 -10 -15.999z" />
    <glyph glyph-name="afii57418" unicode="&#x62a;" horiz-adv-x="1585" arabic-form="isolated" 
d="M849 827v238h248v-238h-248zM503 827v238h246v-238h-246zM1523 219c0 -73.333 -22.333 -129.334 -67 -168.001c-39.333 -34 -91.333 -51 -156 -51h-637c-114.667 0 -213.667 24.333 -297 73c-73.333 43.333 -133.333 105.666 -180 186.999
c-41.333 70.667 -71.333 154.334 -90 251.001c-16.667 82.667 -25 172.334 -25 269.001h283c0 -157.333 22.667 -280 68 -368c54 -104 138.333 -156 253 -156h518c32.667 0 49 24.667 49 74l-10 450h287l4 -291v-270z" />
    <glyph glyph-name="afii57419" unicode="&#x62b;" horiz-adv-x="1585" arabic-form="isolated" 
d="M677 1149v237h246v-237h-246zM851 829v238h248v-238h-248zM505 829v238h246v-238h-246zM1523 219c0 -73.333 -22.333 -129.334 -67 -168.001c-39.333 -34 -91.333 -51 -156 -51h-637c-114.667 0 -213.667 24.333 -297 73c-73.333 43.333 -133.333 105.666 -180 186.999
c-41.333 70.667 -71.333 154.334 -90 251.001c-16.667 82.667 -25 172.334 -25 269.001h283c0 -157.333 22.667 -280 68 -368c54 -104 138.333 -156 253 -156h518c32.667 0 49 24.667 49 74l-10 450h287l4 -291v-270z" />
    <glyph glyph-name="afii57420" unicode="&#x62c;" horiz-adv-x="1208" arabic-form="isolated" 
d="M536 178c-124 0 -185.998 -59.3311 -185.998 -177.998c0 -52 20 -95.667 60 -131c36.667 -32.667 78.667 -49 126 -49h305v-256h-352c-122.667 0 -223.667 42.667 -303 128c-76.667 82.667 -115 184.667 -115 306c0 116 37 216 111 300
c79.333 90.667 181.666 136 306.999 136h340c-17.333 84 -54.333 145 -111 183c-41.333 28 -89.666 42 -144.999 42c-48 -0.666992 -96.333 -14.334 -145 -41.001c-18 -9.33301 -35.333 -20.333 -52 -33l-35 -28l-104 213c0 1.33301 9 8.66602 27 21.999
c23.333 17.333 48.333 33.333 75 48c37.333 20 75.666 36 114.999 48c48.667 14 97 21 145 21c83.333 0 158 -15.333 224 -46c58.667 -27.333 109.667 -66.666 153 -117.999c38.667 -44.667 70 -97.334 94 -158.001c21.333 -53.333 35.666 -109 42.999 -167l33 -242h-610z
M558.002 -121.998v239h248v-239h-248z" />
    <glyph glyph-name="afii57421" unicode="&#x62d;" horiz-adv-x="1208" arabic-form="isolated" 
d="M536 178c-124 0 -185.998 -59.3311 -185.998 -177.998c0 -52 20 -95.667 60 -131c36.667 -32.667 78.667 -49 126 -49h305v-256h-352c-122.667 0 -223.667 42.667 -303 128c-76.667 82.667 -115 184.667 -115 306c0 116 37 216 111 300
c79.333 90.667 181.666 136 306.999 136h340c-17.333 84 -54.333 145 -111 183c-41.333 28 -89.666 42 -144.999 42c-48.667 -0.666992 -97.334 -14.334 -146.001 -41.001c-17.333 -9.33301 -34.666 -20.333 -51.999 -33l-34 -28l-104 213c0 1.33301 9 8.66602 27 21.999
c23.333 17.333 48.333 33.333 75 48c37.333 20 75.666 36 114.999 48c48.667 14 97 21 145 21c83.333 0 158 -15.333 224 -46c58.667 -27.333 109.667 -66.666 153 -117.999c38.667 -44.667 70 -97.334 94 -158.001c21.333 -53.333 35.666 -109 42.999 -167l33 -242h-610z
" />
    <glyph glyph-name="afii57422" unicode="&#x62e;" horiz-adv-x="1208" arabic-form="isolated" 
d="M495 1067v240h246v-240h-246zM536 178c-124 0 -185.998 -59.3311 -185.998 -177.998c0 -52 20 -95.667 60 -131c36.667 -32.667 78.667 -49 126 -49h305v-256h-352c-122.667 0 -223.667 42.667 -303 128c-76.667 82.667 -115 184.667 -115 306c0 116 37 216 111 300
c79.333 90.667 181.666 136 306.999 136h340c-17.333 84 -54.333 145 -111 183c-41.333 28 -89.666 42 -144.999 42c-48 -0.666992 -96.333 -14.334 -145 -41.001c-18 -9.33301 -35.333 -20.333 -52 -33l-35 -28l-104 213c0 1.33301 9 8.66602 27 21.999
c23.333 17.333 48.333 33.333 75 48c37.333 20 75.666 36 114.999 48c48.667 14 97 21 145 21c83.333 0 158 -15.333 224 -46c58.667 -27.333 109.667 -66.666 153 -117.999c38.667 -44.667 70 -97.334 94 -158.001c21.333 -53.333 35.666 -109 42.999 -167l33 -242h-610z
" />
    <glyph glyph-name="afii57423" unicode="&#x62f;" horiz-adv-x="1241" arabic-form="isolated" 
d="M184 0l139 256h549c-10 84 -47.333 153.333 -112 208c-55.333 47.333 -111.333 71 -168 71v243c391.333 0 587 -256.667 587 -770v-8h-995z" />
    <glyph glyph-name="afii57424" unicode="&#x630;" horiz-adv-x="1241" arabic-form="isolated" 
d="M598 936v240h248v-240h-248zM323 256h549c-10 84 -47.333 153.333 -112 208c-55.333 47.333 -111.333 71 -168 71v243c391.333 0 587 -256.667 587 -770v-8h-995z" />
    <glyph glyph-name="afii57425" unicode="&#x631;" horiz-adv-x="743" arabic-form="isolated" 
d="M227 -101c109.333 76.667 164 169.667 164 279l-2 602h285l8 -579c-7.33301 -179.333 -61.666 -326 -162.999 -440c-104.667 -117.333 -245.334 -183 -422.001 -197l-135 157l-58 62c119.333 9.33301 227 48 323 116z" />
    <glyph glyph-name="afii57426" unicode="&#x632;" horiz-adv-x="743" arabic-form="isolated" 
d="M402 938v240h245v-240h-245zM227 -101c109.333 76.667 164 169.667 164 279l-2 602h285l8 -579c-7.33301 -179.333 -61.666 -326 -162.999 -440c-104.667 -117.333 -245.334 -183 -422.001 -197l-135 157l-58 62c119.333 9.33301 227 48 323 116z" />
    <glyph glyph-name="afii57427" unicode="&#x633;" horiz-adv-x="2377" arabic-form="isolated" 
d="M2204 69c-56.667 -54.667 -134.999 -82.999 -234.999 -84.999c-52 0 -97.667 6.66699 -137 20c-53.333 19.333 -97.666 51.333 -132.999 96c-56 -72.667 -144 -111.334 -264 -116.001c-37.333 0 -71.333 3.66699 -102 11c-38.667 8.66699 -73.667 23.334 -105 44.001
c-20.667 -136.667 -85 -251.334 -193 -344.001c-108.667 -94 -234.667 -141 -378 -141c-160 0 -296.667 56.333 -410 169c-112 112 -168 246.667 -168 404l-8 424h285l4 -426c0.666992 -82.667 30 -153 88 -211c58 -58.667 127 -88 207 -88c81.333 0 151 29.667 209 89
c59.333 58.667 88 129.334 86 212.001l-9 594h287l4 -340c15.333 -92.667 66.666 -139 153.999 -139c60 0 90 32 90 96l-2 385h287l2 -303c1.33301 -118.667 53.666 -178 156.999 -178c60 0 90 32 90 96l-2 442l285 -2l6 -332c0 -35.333 -0.666992 -75.333 -2 -120
c-0.666992 -112.667 -31.667 -198.334 -93 -257.001z" />
    <glyph glyph-name="afii57428" unicode="&#x634;" horiz-adv-x="2377" arabic-form="isolated" 
d="M2204 69c-56.667 -54.667 -134.999 -82.999 -234.999 -84.999c-52 0 -97.667 6.66699 -137 20c-53.333 19.333 -97.666 51.333 -132.999 96c-56 -72.667 -144 -111.334 -264 -116.001c-37.333 0 -71.333 3.66699 -102 11c-38.667 8.66699 -73.667 23.334 -105 44.001
c-20.667 -136.667 -85 -251.334 -193 -344.001c-108.667 -94 -234.667 -141 -378 -141c-160 0 -296.667 56.333 -410 169c-112 112 -168 246.667 -168 404l-8 424h285l4 -426c0.666992 -82.667 30 -153 88 -211c58 -58.667 127 -88 207 -88c81.333 0 151 29.667 209 89
c59.333 58.667 88 129.334 86 212.001l-9 594h287l4 -340c15.333 -92.667 66.666 -139 153.999 -139c60 0 90 32 90 96l-2 385h287l2 -303c1.33301 -118.667 53.666 -178 156.999 -178c60 0 90 32 90 96l-2 442l285 -2l6 -332c0 -35.333 -0.666992 -75.333 -2 -120
c-0.666992 -112.667 -31.667 -198.334 -93 -257.001zM1312 940.001v238h248v-238h-248zM1486 1257v240h246v-237zM1660 940.001v238h246v-238h-246z" />
    <glyph glyph-name="afii57429" unicode="&#x635;" horiz-adv-x="2422" arabic-form="isolated" 
d="M1220 0c-28 -128 -94.334 -234.002 -199.001 -318.002c-106.667 -85.333 -228 -128 -364 -128c-160 0 -296.667 56.333 -410 169c-112 112 -168 246.667 -168 404l-8 424h285l4 -426c0.666992 -82.667 30 -153 88 -211c58 -58.667 127 -88 207 -88
c81.333 0 151 29.667 209 89c59.333 58.667 88 129.334 86 212.001l-9 426h289l2 -236c46 94 101 175 165 243c54.667 58 115.334 105.333 182.001 142c55.333 30.667 112 52.667 170 66c48 10.667 90.667 14 128 10c102 -9.33301 187 -40.666 255 -93.999
c60 -46.667 107.333 -110 142 -190c29.333 -68 49.666 -149 61 -243c5.33301 -39.333 9 -82 11 -128c1.33301 -36.667 2 -77.667 2 -123h-1128zM2056 255.998c-4 75.333 -22.333 137.333 -55 186c-41.333 62 -101 93 -179 93c-56 0 -115.333 -19.667 -178 -59
c-78 -48.667 -149.667 -122 -215 -220h627z" />
    <glyph glyph-name="afii57430" unicode="&#x636;" horiz-adv-x="2422" arabic-form="isolated" 
d="M1220 0c-28 -128 -94.334 -234.002 -199.001 -318.002c-106.667 -85.333 -228 -128 -364 -128c-160 0 -296.667 56.333 -410 169c-112 112 -168 246.667 -168 404l-8 424h285l4 -426c0.666992 -82.667 30 -153 88 -211c58 -58.667 127 -88 207 -88
c81.333 0 151 29.667 209 89c59.333 58.667 88 129.334 86 212.001l-9 426h289l2 -236c46 94 101 175 165 243c54.667 58 115.334 105.333 182.001 142c55.333 30.667 112 52.667 170 66c48 10.667 90.667 14 128 10c102 -9.33301 187 -40.666 255 -93.999
c60 -46.667 107.333 -110 142 -190c29.333 -68 49.666 -149 61 -243c5.33301 -39.333 9 -82 11 -128c1.33301 -36.667 2 -77.667 2 -123h-1128zM2056 255.998c-4 75.333 -22.333 137.333 -55 186c-41.333 62 -101 93 -179 93c-56 0 -115.333 -19.667 -178 -59
c-78 -48.667 -149.667 -122 -215 -220h627zM1752 939.998v240h248v-240h-248z" />
    <glyph glyph-name="afii57431" unicode="&#x637;" horiz-adv-x="1523" arabic-form="isolated" 
d="M71 0l92.001 255.999h156l-4 961h276l-12 -586c73.333 54.667 151.333 95 234 121c70 22 130 30.667 180 26c101.333 -9.33301 185.666 -40.666 252.999 -93.999c60 -46.667 107.333 -110 142 -190c28.667 -68 49 -149 61 -243c4.66699 -39.333 8 -82 10 -128
c2 -36.667 3 -77.667 3 -123h-1391zM1169 255.999c-4 76 -22 138 -54 186c-40.667 62 -100.667 93 -180 93c-55.333 0 -114.333 -19.667 -177 -59c-78.667 -48.667 -150.667 -122 -216 -220h627z" />
    <glyph glyph-name="afii57432" unicode="&#x638;" horiz-adv-x="1523" arabic-form="isolated" 
d="M859 938v240h248v-240h-248zM71 0l92.001 255.999h156l-4 961h276l-12 -586c73.333 54.667 151.333 95 234 121c70 22 130 30.667 180 26c101.333 -9.33301 185.666 -40.666 252.999 -93.999c60 -46.667 107.333 -110 142 -190c28.667 -68 49 -149 61 -243
c4.66699 -39.333 8 -82 10 -128c2 -36.667 3 -77.667 3 -123h-1391zM1169 255.999c-4 76 -22 138 -54 186c-40.667 62 -100.667 93 -180 93c-55.333 0 -114.333 -19.667 -177 -59c-78.667 -48.667 -150.667 -122 -216 -220h627z" />
    <glyph glyph-name="afii57433" unicode="&#x639;" horiz-adv-x="1122" arabic-form="isolated" 
d="M542 285c-128 0 -191.999 -60.335 -191.999 -181.002c0 -52 20 -95.667 60 -131c36.667 -32 78.667 -48 126 -48h338v-256h-352c-124.667 0 -231 41.667 -319 125c-88 84 -132 184.667 -132 302c0 102.667 27.667 194.334 83 275.001c60 87.333 140.333 142 241 164
c-15.333 24 -27.333 49 -36 75c-12 35.333 -18 73 -18 113c0 112 41.667 200.333 125 265c72 55.333 156.667 83 254 83c134 0 244.667 -53.333 332 -160l-152 -194c-24.667 36 -53.334 60.667 -86.001 74c-12 4.66699 -24.667 8 -38 10c-5.33301 0.666992 -11 1 -17 1
l-14 1c-9.33301 0 -19.333 -1.33301 -30 -4c-14 -3.33301 -27 -8.66602 -39 -15.999c-32 -19.333 -48 -50.333 -48 -93c0 -98 67.667 -147 203 -147h229v-258h-518z" />
    <glyph glyph-name="afii57434" unicode="&#x63a;" horiz-adv-x="1122" arabic-form="isolated" 
d="M595 1227v237h248v-237h-248zM542 285c-128 0 -191.999 -60.335 -191.999 -181.002c0 -52 20 -95.667 60 -131c36.667 -32 78.667 -48 126 -48h338v-256h-352c-124.667 0 -231 41.667 -319 125c-88 84 -132 184.667 -132 302c0 102.667 27.667 194.334 83 275.001
c60 87.333 140.333 142 241 164c-15.333 24 -27.333 49 -36 75c-12 35.333 -18 73 -18 113c0 112 41.667 200.333 125 265c72 55.333 156.667 83 254 83c134 0 244.667 -53.333 332 -160l-152 -194c-24.667 36 -53.334 60.667 -86.001 74c-12 4.66699 -24.667 8 -38 10
c-5.33301 0.666992 -11 1 -17 1l-14 1c-9.33301 0 -19.333 -1.33301 -30 -4c-14 -3.33301 -27 -8.66602 -39 -15.999c-32 -19.333 -48 -50.333 -48 -93c0 -98 67.667 -147 203 -147h229v-258h-518z" />
    <glyph glyph-name="afii57441" unicode="&#x641;" horiz-adv-x="1593" arabic-form="isolated" 
d="M1017 1286v240h248v-240h-248zM1531 203c2.66699 -135.333 -69.6689 -203.002 -217.002 -203.002h-651c-114.667 0 -213.667 24.333 -297 73c-73.333 43.333 -133.333 105.666 -180 186.999c-41.333 70.667 -71.333 154.334 -90 251.001
c-16.667 82.667 -25 172.334 -25 269.001h283c0 -157.333 22.667 -280 68 -368c54 -104 138.333 -156 253 -156h520c36 0 54 20.333 54 61v17h-146c-111.333 0 -202.666 40.333 -273.999 121c-66 74.667 -97.333 162 -94 262c4 127.333 47.667 228.333 131 303
c74.667 66.667 165.334 101.667 272.001 105c105.333 2.66699 195.333 -25.666 270 -84.999c81.333 -65.333 122.333 -154 123 -266v-571zM1249 585.998c-1.33301 43.333 -2.33301 77.668 -3 103.001c-0.666992 39.333 -1 74.666 -1 105.999c0 29.333 -7 54.333 -21 75
c-18 26 -45.333 39 -82 39c-84.667 0 -129 -53.667 -133 -161c-3.33301 -108 39 -162 127 -162h113z" />
    <glyph glyph-name="afii57442" unicode="&#x642;" horiz-adv-x="1374" arabic-form="isolated" 
d="M960 940v240h248v-240h-248zM614 940v240h246v-240h-246zM1310 211c0 -194 -51.333 -349.665 -154 -466.998c-109.333 -125.333 -262 -188 -458 -188c-180 0 -328.333 56.333 -445 169c-121.333 117.333 -182 271.666 -182 462.999l-2 277h274l2 -258
c1.33301 -106 36.333 -195 105 -267c68.667 -71.333 152 -107 250 -107c130.667 0 223.334 55.667 278.001 167h-96c-111.333 0 -202.333 39.667 -273 119c-65.333 73.333 -98 160.666 -98 261.999c0 129.333 41.667 231.333 125 306c74 66 165.667 99.333 275 100
c107.333 0 198.666 -31.667 273.999 -95c83.333 -70 125 -162.667 125 -278v-203zM1025 256.002l-1 101v12l-1 88c0 26 -8.33301 50.333 -25 73c-19.333 26 -45 39 -77 39c-84.667 0 -129 -52 -133 -156c-4 -104.667 37.667 -157 125 -157h112z" />
    <glyph glyph-name="afii57443" unicode="&#x643;" horiz-adv-x="1810" arabic-form="isolated" 
d="M1340 1432l197.003 -184.001l-254 -238c96.667 -8 181 -35.667 253 -83c65.333 -44 119.666 -103.667 162.999 -179c39.333 -68 68.666 -147.667 87.999 -239c12 -57.333 17.667 -154.333 17 -291c-13.333 -68.667 -35.333 -123.667 -66 -165
c-34 -35.333 -83.333 -53 -148 -53h-927c-114.667 0 -213.667 24.333 -297 73c-73.333 43.333 -133.333 105.666 -180 186.999c-41.333 70.667 -71.333 154.334 -90 251.001c-16.667 82.667 -25 172.334 -25 269.001h283c0 -157.333 22.667 -280 68 -368
c54 -104 138.333 -156 253 -156h808c46.667 -3.33301 61.667 60.667 45 192l-10 56c-30.667 134 -115.334 216.667 -254.001 248c-136 30.667 -271.667 0 -407 -92l-107 207z" />
    <glyph glyph-name="afii57444" unicode="&#x644;" horiz-adv-x="1296" arabic-form="isolated" 
d="M1234 125c0 -156.667 -56.334 -291.001 -169.001 -403.001s-248.667 -168 -408 -168c-160 0 -296.667 56.333 -410 169c-112 112 -168 246.667 -168 404l-8 424h285l4 -426c0.666992 -82.667 30 -153 88 -211c58 -58.667 127 -88 207 -88
c80.667 0 150.334 29.667 209.001 89c58 58.667 86.667 129.334 86 212.001l-9 1204h289z" />
    <glyph glyph-name="afii57445" unicode="&#x645;" horiz-adv-x="1445" arabic-form="isolated" 
d="M1281 116c-74.667 -77.333 -178.668 -116.001 -312.001 -116.001c-108.667 0 -199 27.333 -271 82c-67.333 51.333 -111.666 121 -132.999 209h-118c-58.667 0 -88 -43 -88 -129l10 -598h-287l-8 706c-2 102 26.667 177.333 86 226c51.333 42 122.333 63 213 63l205 -2
c58 160 188.333 240 391 240c134 0 238 -37.667 312 -113c70.667 -71.333 106 -165.666 106 -282.999s-35.333 -212.333 -106 -285zM1077 517.999c-23.333 36.667 -59.333 55 -108 55c-48 0 -83.667 -18.333 -107 -55c-18.667 -30 -28 -69 -28 -117
c0 -48.667 9.33301 -88.334 28 -119.001c23.333 -38 59 -57 107 -57c48.667 0 84.667 19 108 57c19.333 30.667 29 70.334 29 119.001c0 48 -9.66699 87 -29 117z" />
    <glyph glyph-name="afii57446" unicode="&#x646;" horiz-adv-x="1296" arabic-form="isolated" 
d="M528 971v235h245v-235h-245zM1234 125c1.33301 -156.667 -54.6689 -291.001 -168.002 -403.001s-249.666 -168 -408.999 -168c-160 0 -296.667 56.333 -410 169c-112 112 -168 246.667 -168 404l-8 651h285l4 -653c0.666992 -82.667 30 -153 88 -211
c58 -58.667 127 -88 207 -88c80.667 0 150.334 29.667 209.001 89c58 58.667 86.667 129.334 86 212.001l-9 653h289z" />
    <glyph glyph-name="afii57470" unicode="&#x647;" horiz-adv-x="966" arabic-form="isolated" 
d="M799 117c-75.333 -76.667 -179.333 -114.999 -312 -114.999s-236.334 38.333 -311.001 115c-70 72 -105 166.667 -105 284c0 118 35 213 105 285c74.667 76.667 178.334 115 311.001 115s236.667 -38.333 312 -115c70.667 -72.667 106 -167.667 106 -285
c0 -116.667 -35.333 -211.334 -106 -284.001zM595 519.001c-24 37.333 -60 55.999 -108 55.999c-48.667 0 -84.667 -18.667 -108 -56c-18 -30 -27 -69.333 -27 -118c0 -49.333 9 -89 27 -119c23.333 -38 59.333 -57 108 -57c48 0 84 19 108 57
c19.333 30.667 29 70.334 29 119.001c0 48 -9.66699 87.333 -29 118z" />
    <glyph glyph-name="afii57448" unicode="&#x648;" horiz-adv-x="1058" arabic-form="isolated" 
d="M464 -152c88.667 42 153.669 92.666 195.002 151.999h-103c-104.667 0 -192.334 40.667 -263.001 122c-64.667 75.333 -97 161.666 -97 258.999c0 73.333 13.667 138 41 194c24.667 48.667 59 89.334 103 122.001c38.667 28.667 82.667 50.334 132 65.001
c43.333 12 86.666 18 129.999 18l29 -1c16.667 -1.33301 33.667 -3.66602 51 -6.99902c48.667 -8 92.667 -21.333 132 -40c52.667 -24.667 94 -57.334 124 -98.001c36.667 -49.333 55 -109 55 -179l2 -234c0 -176.667 -51 -325.667 -153 -447
c-106 -126 -248.333 -196.667 -427 -212l-138 157l-56 62c79.333 6 160.333 28.333 243 67zM708.002 472.999c0 66.667 -36.333 100 -109 100c-41.333 0 -74.333 -17.333 -99 -52c-22.667 -31.333 -34 -69 -34 -113c0 -101.333 41.667 -152 125 -152h117v217z" />
    <glyph glyph-name="afii57449" unicode="&#x649;" horiz-adv-x="1296" arabic-form="isolated" 
d="M1234 133c4 -158.667 -51.3291 -295.001 -165.996 -409.001c-113.333 -113.333 -250.333 -170 -411 -170s-297.334 57 -410.001 171c-112 113.333 -168 250 -168 410l-8 271h285l4 -273c0.666992 -93.333 34.667 -169.333 102 -228c58 -49.333 121.667 -74 191 -74
c76.667 0 143.667 25 201 75c66 57.333 97.333 133.666 94 228.999v15h-431c-38.667 406.667 81.666 617.334 360.999 632.001c53.333 3.33301 102.666 -4 147.999 -22c36 -15.333 68.333 -37 97 -65c21.333 -20 39.666 -42.667 54.999 -68l17 -33l-211 -109
c-13.333 48.667 -44 69.334 -92 62.001c-34 -6.66699 -58 -23 -72 -49c-10 -17.333 -18 -48 -24 -92h432z" />
    <glyph glyph-name="afii57450" unicode="&#x64a;" horiz-adv-x="1296" arabic-form="isolated" 
d="M1234 133c4 -158.667 -51.3291 -295 -165.996 -409c-113.333 -113.333 -250.333 -170 -411 -170s-297.334 57 -410.001 171c-112 113.333 -168 250 -168 410l-8 271h285l4 -273c0.666992 -93.333 34.667 -169.333 102 -228c58 -49.333 121.667 -74 191 -74
c76.667 0 143.667 25 201 75c66 57.333 97.333 133.666 94 228.999v15h-431c-38.667 486.667 81.666 737.334 360.999 752.001c53.333 3.33301 102.666 -4 147.999 -22c36 -15.333 68.333 -37 97 -65c21.333 -20 39.666 -42.667 54.999 -68l17 -33l-145 -148
c-57.333 74.667 -110 108.334 -158 101.001c-34 -6.66699 -58 -23 -72 -49c-19.333 -38.667 -27.333 -109.334 -24 -212.001h432z" />
    <glyph glyph-name="afii57506" unicode="&#x67e;" horiz-adv-x="1585" arabic-form="isolated" 
d="M1523 219c0 -73.333 -22.333 -129.334 -67 -168.001c-39.333 -34 -91.333 -51 -156 -51h-637c-114.667 0 -213.667 24.333 -297 73c-73.333 43.333 -133.333 105.666 -180 186.999c-41.333 70.667 -71.333 154.334 -90 251.001c-16.667 82.667 -25 172.334 -25 269.001
h283c0 -157.333 22.667 -280 68 -368c54 -104 138.333 -156 253 -156h518c32.667 0 49 24.667 49 74l-10 450h287l4 -291v-270zM937 -376.001v215h224v-215h-224zM626 -376.001v215h221v-215h-221zM780 -663.001v213h221v-213h-221z" />
    <glyph glyph-name="afii57507" unicode="&#x686;" horiz-adv-x="1208" arabic-form="isolated" 
d="M726 16v125h131v-125h-131zM542 16v125h131v-125h-131zM634 -153v125h131v-125h-131zM536 178c-124 0 -185.998 -59.3311 -185.998 -177.998c0 -52 20 -95.667 60 -131c36.667 -32.667 78.667 -49 126 -49h305v-256h-352c-122.667 0 -223.667 42.667 -303 128
c-76.667 82.667 -115 184.667 -115 306c0 116 37 216 111 300c79.333 90.667 181.666 136 306.999 136h340c-17.333 84 -54.333 145 -111 183c-41.333 28 -89.666 42 -144.999 42c-48.667 -0.666992 -97.334 -14.334 -146.001 -41.001
c-17.333 -9.33301 -34.666 -20.333 -51.999 -33l-34 -28l-104 213c0 1.33301 9 8.66602 27 21.999c23.333 17.333 48.333 33.333 75 48c37.333 20 75.666 36 114.999 48c48.667 14 97 21 145 21c83.333 0 158 -15.333 224 -46c58.667 -27.333 109.667 -66.666 153 -117.999
c38.667 -44.667 70 -97.334 94 -158.001c21.333 -53.333 35.666 -109 42.999 -167l33 -242h-610z" />
    <glyph glyph-name="afii57508" unicode="&#x698;" horiz-adv-x="743" arabic-form="isolated" 
d="M280 1257v238h244v-238h-244zM454 938v240h248v-240h-248zM106 938v240h248v-240h-248zM227 -101c109.333 76.667 164.001 169.667 164.001 279l-2 602l295 1l6 -545c-12.667 -202.667 -69.667 -361 -171 -475c-104.667 -117.333 -245.334 -183 -422.001 -197l-135 157
l-58 62c119.333 9.33301 227 48 323 116z" />
    <glyph glyph-name="afii57509" unicode="&#x6af;" horiz-adv-x="1810" arabic-form="isolated" 
d="M1340 1432l197.003 -184.001l-254 -238c96.667 -8 181 -35.667 253 -83c65.333 -44 119.666 -103.667 162.999 -179c39.333 -68 68.666 -147.667 87.999 -239c12 -57.333 17.667 -154.333 17 -291c-13.333 -68.667 -35.333 -123.667 -66 -165
c-34 -35.333 -83.333 -53 -148 -53h-927c-114.667 0 -213.667 24.333 -297 73c-73.333 43.333 -133.333 105.666 -180 186.999c-41.333 70.667 -71.333 154.334 -90 251.001c-16.667 82.667 -25 172.334 -25 269.001h283c0 -157.333 22.667 -280 68 -368
c54 -104 138.333 -156 253 -156h808c46.667 -3.33301 61.667 60.667 45 192l-10 56c-30.667 134 -115.334 216.667 -254.001 248c-136 30.667 -271.667 0 -407 -92l-107 207zM1198 1567l95 -89l-579 -544l-61 111zM1198 1567l95 -89l-579 -544l-61 111z" />
    <glyph glyph-name="uniFB57" unicode="&#x67e;" horiz-adv-x="1851" arabic-form="final" 
d="M1683 0c-42 0 -80.667 9.33301 -116 28c-28 15.333 -52.667 36 -74 62c-40.667 -60 -104.334 -90 -191.001 -90h-641c-114.667 0 -213.667 25 -297 75c-74 44 -134.333 107 -181 189c-40.667 71.333 -70 155.666 -88 252.999c-16 82.667 -23 170.334 -21 263.001h282
c0 -72 5 -137.333 15 -196c10.667 -65.333 27.667 -121 51 -167c52.667 -107.333 136 -161 250 -161h524c31.333 0 47 24.667 47 74l-3 212l-5 238h286l5 -348c0.666992 -56 18.667 -101 54 -135c28.667 -27.333 58.334 -41 89.001 -41h203v-256h-189zM940 -376v215h223
v-215h-223zM629 -376v215h221v-215h-221zM782 -663v213h221v-213h-221z" />
    <glyph glyph-name="uniFB58" unicode="&#x67e;" horiz-adv-x="677" arabic-form="initial" 
d="M617 287c0 -191.333 -103.667 -287 -311 -287h-324v256h244c69.333 0 104 32.667 104 98l-4 424h287zM347 -399v238h247v-238h-247zM-1 -399v238h247v-238h-247zM175 -704v238h245v-238h-245z" />
    <glyph glyph-name="uniFB59" unicode="&#x67e;" horiz-adv-x="960" arabic-form="medial" 
d="M768 0c-49.333 0 -93.999 13.666 -133.999 40.999c-30 20.667 -55.667 47.334 -77 80.001c-59.333 -80.667 -143.666 -121 -252.999 -121h-322v256h240c32 0 60.667 8.33301 86 25c30 20 45 46.333 45 79l-4 420h286l4 -342c1.33301 -58 19.666 -104.333 54.999 -139
c29.333 -28.667 59.666 -43 90.999 -43h194v-256h-211zM551.001 -399.001v238h246v-238h-246zM203.001 -399.001v238h248v-238h-248zM377.001 -704.001v238h248v-238h-248z" />
    <glyph glyph-name="uniFB7B" unicode="&#x686;" horiz-adv-x="1378" arabic-form="final" 
d="M1240 0c-82 0 -150.998 18.001 -206.998 54.001c-45.333 29.333 -82 70.666 -110 123.999h-387c-124 0 -186 -59.333 -186 -178c0 -52 20 -95.667 60 -131c36.667 -32.667 78.667 -49 126 -49h305v-256h-352c-122.667 0 -223.667 42.667 -303 128
c-76.667 82.667 -115 184.667 -115 306c0 116 37 216 111 300c79.333 90.667 181.666 136 306.999 136h340c-17.333 84 -54.333 145 -111 183c-40 26.667 -88.333 40.667 -145 42c-44.667 0 -92 -13.333 -142 -40c-18 -10 -36 -21.333 -54 -34l-36 -28l-104 213
c0 1.33301 9 8.66602 27 21.999c23.333 17.333 48.333 33.333 75 48c37.333 20 75.666 36 114.999 48c48.667 14 97 21 145 21c83.333 0 157 -14.333 221 -43c57.333 -26 107 -63.333 149 -112c36.667 -43.333 67.334 -95.666 92.001 -156.999
c21.333 -52 38.666 -111 51.999 -177c25.333 -109.333 95 -164 209 -164h88l2 -256h-172zM726.002 16.001v125h131v-125h-131zM542.002 16.001v125h131v-125h-131zM634.002 -152.999v125h131v-125h-131z" />
    <glyph glyph-name="uniFB7C" unicode="&#x686;" horiz-adv-x="1261" arabic-form="initial" 
d="M-18 0l0.000976562 256h918c-50.667 178.667 -157.334 268 -320.001 268c-40 0 -79 -4.66699 -117 -14c-30 -8 -59 -18.667 -87 -32c-10.667 -5.33301 -21 -11 -31 -17l-23 -14c-12 -9.33301 -18 -14.333 -18 -15l-113 203l44 38c24.667 17.333 51.667 33 81 47
c36 18 74.333 31.667 115 41c48 11.333 97.667 17 149 17c106 0 200.667 -23.333 284 -70c75.333 -42.667 139.333 -103.667 192 -183c48 -72 84.333 -155.333 109 -250c23.333 -88 35.333 -179.667 36 -275h-1219zM639.001 -376v215h224v-215h-224zM328.001 -376v215h221
v-215h-221zM484.001 -663v213h221v-213h-221z" />
    <glyph glyph-name="uniFB7D" unicode="&#x686;" horiz-adv-x="1347" arabic-form="medial" 
d="M1364 0l-1382 0.000976562v256h899c-52 178.667 -158.333 268 -319 268c-42.667 0 -83 -4.66699 -121 -14c-30.667 -8 -59.667 -18.667 -87 -32c-10.667 -5.33301 -20.667 -11 -30 -17c-8 -4.66699 -15.333 -9.33398 -22 -14.001c-11.333 -8.66699 -17 -13.667 -17 -15
l-113 203l18 18l25 22c23.333 17.333 49.333 33 78 47c36 16.667 74.333 30 115 40c48.667 10.667 100 16 154 16c158.667 0 290.667 -52 396 -156c92 -91.333 156.333 -213.333 193 -366h213v-256zM625 -375.999v215h221v-215h-221zM312 -375.999v215h223v-215h-223z
M467 -662.999v213h224v-213h-224z" />
    <glyph glyph-name="uniFB8B" unicode="&#x698;" horiz-adv-x="1001" arabic-form="final" 
d="M807 0c-53.333 0 -99.667 15 -139 45c-60.667 -294.667 -251 -455 -571 -481l-135 157l-58 62c119.333 9.33301 227.333 48 324 116c110 77.333 164.333 170.333 163 279l-6 602h289l4 -346c1.33301 -56 20 -101.333 56 -136c30 -28 60.667 -42 92 -42h196v-256h-215z
M377.999 1257v238h244v-238h-244zM551.999 938v240h248v-240h-248zM203.999 938v240h248v-240h-248z" />
    <glyph glyph-name="uniFB8F" unicode="&#x6a9;" horiz-adv-x="2121" arabic-form="final" 
d="M1793 432l1.00293 -2.00098v-4c2.66699 -14 5 -28.333 7 -43c8 -34 24.333 -62.667 49 -86c28.667 -27.333 58.334 -41 89.001 -41h209v-256h-195c-42 0 -80.667 9.33301 -116 28c-28 15.333 -52.667 36 -74 62c-40.667 -60 -104.334 -90 -191.001 -90h-911
c-114.667 0 -213.667 25 -297 75c-74 44 -134.333 107 -181 189c-40.667 71.333 -70 155.666 -88 252.999c-16 82.667 -23 170.334 -21 263.001h282c0 -72 5 -137.333 15 -196c10.667 -65.333 27.667 -121 51 -167c52.667 -107.333 136 -161 250 -161h794
c26.667 4.66699 41.667 30.334 45 77.001l-1 161c-36.667 120 -119.334 194.667 -248.001 224c-136 30.667 -271.667 0 -407 -92l-107 207l590 565l197 -184l-254 -238c96.667 -8 181 -35.667 253 -83c65.333 -44 119.666 -103.667 162.999 -179
c39.333 -68 68.666 -147.667 87.999 -239c3.33301 -14 6 -28.333 8 -43z" />
    <glyph glyph-name="uniFB90" unicode="&#x6a9;" horiz-adv-x="1282" arabic-form="initial" 
d="M-18 0l0.00195312 256h944c-32 136.667 -117.333 220.667 -256 252c-136 30.667 -271.667 0 -407 -92l-107 207l590 565l197 -184l-254 -238c96.667 -8 181 -35.667 253 -83c65.333 -44 119.666 -103.667 162.999 -179c39.333 -68 68.666 -147.667 87.999 -239
c17.333 -82 26 -170.333 26 -265h-1237z" />
    <glyph glyph-name="uniFB91" unicode="&#x6a9;" horiz-adv-x="1437" arabic-form="medial" 
d="M1457 0l-1475 -0.00195312v256h971c-32.667 136.667 -115.334 220.334 -248.001 251.001c-130.667 30 -269.334 -0.333008 -416.001 -91l-106 207l590 565l196 -184l-254 -238c147.333 -11.333 265 -65.666 353 -162.999c77.333 -85.333 129.666 -201 156.999 -347h232
v-256z" />
    <glyph glyph-name="uniFB93" unicode="&#x6af;" horiz-adv-x="2121" arabic-form="final" 
d="M1793 432l1.00293 -2.00098v-4c2.66699 -14 5 -28.333 7 -43c8 -34 24.333 -62.667 49 -86c28.667 -27.333 58.334 -41 89.001 -41h209v-256h-195c-42 0 -80.667 9.33301 -116 28c-28 15.333 -52.667 36 -74 62c-40.667 -60 -104.334 -90 -191.001 -90h-911
c-114.667 0 -213.667 25 -297 75c-74 44 -134.333 107 -181 189c-40.667 71.333 -70 155.666 -88 252.999c-16 82.667 -23 170.334 -21 263.001h282c0 -72 5 -137.333 15 -196c10.667 -65.333 27.667 -121 51 -167c52.667 -107.333 136 -161 250 -161h794
c26.667 4.66699 41.667 30.334 45 77.001l-1 161c-36.667 120 -119.334 194.667 -248.001 224c-136 30.667 -271.667 0 -407 -92l-107 207l590 565l197 -184l-254 -238c96.667 -8 181 -35.667 253 -83c65.333 -44 119.666 -103.667 162.999 -179
c39.333 -68 68.666 -147.667 87.999 -239c3.33301 -14 6 -28.333 8 -43zM1198 1537l95 -89l-579 -544l-61 111z" />
    <glyph glyph-name="uniFB94" unicode="&#x6af;" horiz-adv-x="1282" arabic-form="initial" 
d="M746 1188l197.002 -184l-254 -238c96.667 -8 181 -35.667 253 -83c65.333 -44 119.666 -103.667 162.999 -179c39.333 -68 68.666 -147.667 87.999 -239c17.333 -82 26 -170.333 26 -265h-1237v256h944c-32 136.667 -117.333 220.667 -256 252
c-136 30.667 -271.667 0 -407 -92l-107 207zM608.002 1337l95 -89l-579 -544l-61 111z" />
    <glyph glyph-name="uniFB95" unicode="&#x6af;" horiz-adv-x="1437" arabic-form="medial" 
d="M1457 0l-1475 -0.00195312v256h971c-32.667 136.667 -115.334 220.334 -248.001 251.001c-130.667 30 -269.334 -0.333008 -416.001 -91l-106 207l590 565l196 -184l-254 -238c147.333 -11.333 265 -65.666 353 -162.999c77.333 -85.333 129.666 -201 156.999 -347h232
v-256zM618.003 1327l95 -89l-579 -544l-61 111z" />
    <glyph glyph-name="uniFBA5" unicode="&#x6c0;" horiz-adv-x="1161" arabic-form="final" 
d="M835 0c-76 0 -140.666 27.332 -193.999 81.999c-42.667 44 -65.334 85 -68.001 123h-189c-57.333 0 -108 13.333 -152 40c-38 23.333 -70 56 -96 98c-22 34.667 -39 74 -51 118c-9.33301 36 -14 70 -14 102c0 128.667 38 226.334 114 293.001
c60 53.333 131.333 80 214 80c71.333 0 127.333 -18.333 168 -55v55h284l2 -582c0 -65.333 30.667 -98 92 -98h234v-256h-344zM567.001 638.999c-34 35.333 -71.6689 53 -113.002 53c-61.333 0 -94.666 -42.333 -99.999 -127c-2.66699 -24 3 -49 17 -75
c16.667 -32 40.334 -48 71.001 -48h127zM588.999 1455l-51.999 -74.001c-9.33301 28.667 -27.666 43 -54.999 43c-30 0 -45 -15 -45 -45c0 -37.333 19 -56 57 -56h103v-133h-412l66 133h75l-12 22l-6 21c-0.666992 6 -1.33398 12.333 -2.00098 19v12
c0 99.333 48.333 149 145 149c61.333 0 110.666 -25 147.999 -75c0 -1.33301 -3.33301 -6.66602 -10 -15.999z" />
    <glyph glyph-name="uniFBFD" unicode="&#x6cc;" horiz-adv-x="1886" arabic-form="final" 
d="M1711 0c-83.333 0 -151.664 25.334 -204.997 76.001c-40 37.333 -77 96.666 -111 177.999c-36.667 88 -78.334 156 -125.001 204c-56 58.667 -118.667 87.667 -188 87c-98.667 0 -167.667 -46.333 -207 -139h379v-271c0 -160.667 -56.333 -297.667 -169 -411
s-249 -170 -409 -170s-296.333 57 -409 171c-112.667 113.333 -169.334 250 -170.001 410v110l-2 161h284c1.33301 -57.333 2 -112.333 2 -165v-106c0 -94 33.667 -170 101 -228c57.333 -49.333 120.666 -74 189.999 -74c77.333 0 144.666 24.667 201.999 74
c66.667 56.667 98.334 132.667 95.001 228v12l-438 3c0 216.667 50.333 384 151 502c95.333 111.333 225.333 167 390 167c80 0 151.667 -13 215 -39c56.667 -23.333 108.334 -57.666 155.001 -102.999c38.667 -38.667 77 -88.334 115 -149.001
c15.333 -24.667 31.666 -53 48.999 -85l47 -89c19.333 -34 36.333 -57.333 51 -70c22.667 -18.667 53.667 -28 93 -28h110v-256h-196z" />
    <glyph glyph-name="uniFBFE" unicode="&#x6cc;" horiz-adv-x="677" arabic-form="initial" 
d="M617 287c0 -191.333 -103.667 -287 -311 -287h-324v256h244c69.333 0 104 32.667 104 98l-4 424h287zM342 -401v240h246v-240h-246zM-5 -401v240h245v-240h-245z" />
    <glyph glyph-name="uniFBFF" unicode="&#x6cc;" horiz-adv-x="960" arabic-form="medial" 
d="M768 0c-49.333 0 -93.999 13.666 -133.999 40.999c-30 20.667 -55.667 47.334 -77 80.001c-59.333 -80.667 -143.666 -121 -252.999 -121h-322v256h240c32 0 60.667 8.33301 86 25c30 20 45 46.333 45 79l-4 420h286l4 -342c1.33301 -58 19.666 -104.333 54.999 -139
c29.333 -28.667 59.666 -43 90.999 -43h194v-256h-211zM553.001 -401.001v240h248v-240h-248zM205.001 -401.001v240h248v-240h-248z" />
    <glyph glyph-name="uniFE82" unicode="&#x622;" horiz-adv-x="774" arabic-form="final" 
d="M579 1630c-15.333 -113.333 -68.334 -170 -159.001 -170c-32 0 -72.333 9.66699 -121 29c-46 18 -80.333 27 -103 27c-36 0 -57.667 -21.333 -65 -64h-78c12.667 113.333 60.334 170 143.001 170c36 0 78.333 -9.66699 127 -29l54 -18c18 -5.33301 32.333 -8 43 -8
c46.667 0 71 21 73 63h86zM458.999 0c-67.333 0 -123.666 22 -168.999 66c-50.667 47.333 -76.334 112 -77.001 194l-8 1071h284l6 -983c0 -52 22.667 -82.667 68 -92h231v-256h-335z" />
    <glyph glyph-name="uniFE84" unicode="&#x623;" horiz-adv-x="774" arabic-form="final" 
d="M520 1678l-51.999 -74.001c-9.33301 28.667 -27.666 43 -54.999 43c-30 0 -45 -15 -45 -45c0 -37.333 19 -56 57 -56h103v-133h-412l66 133h75l-12 22l-6 21c-0.666992 6 -1.33398 12.333 -2.00098 19v12c0 99.333 48.333 149 145 149c61.333 0 110.666 -25 147.999 -75
c0 -1.33301 -3.33301 -6.66602 -10 -15.999zM458.001 -0.000976562c-66.667 0 -123 22 -169 66c-50 47.333 -75.667 112 -77 194l-8 1071h285l6 -983c0 -52 22.333 -82.667 67 -92h232v-256h-336z" />
    <glyph glyph-name="uniFE86" unicode="&#x624;" horiz-adv-x="1220" arabic-form="final" 
d="M968 0c-38 -122.667 -103.997 -222.668 -197.997 -300.001c-98 -80.667 -215.667 -126.667 -353 -138l-138 157l-56 62c79.333 6 160.333 28.333 243 67c88.667 42 153.667 92.667 195 152h-103c-104.667 0 -192.334 40.667 -263.001 122
c-64.667 75.333 -97 161.666 -97 258.999c0 73.333 13.667 138 41 194c24.667 48.667 59 89.334 103 122.001c38.667 28.667 82.667 50.334 132 65.001c43.333 12 86.666 18 129.999 18c7.33301 0 16.666 -0.333008 27.999 -1c16 -1.33301 32.333 -3.66602 49 -6.99902
c46.667 -8 89 -21.333 127 -40c51.333 -24.667 92.333 -57.334 123 -98.001c38 -49.333 59.333 -109 64 -179l2 -199h241v-256h-270zM710.003 423.999c0 45.333 -6.00098 79.333 -18.001 102c-16.667 31.333 -47 47 -91 47c-41.333 0 -74.666 -17.333 -99.999 -52
c-23.333 -31.333 -35 -69 -35 -113c0 -101.333 42.333 -152 127 -152h117v168zM790.002 1168c-6 -8 -14.001 -19.335 -24.001 -34.002l-36 -49c-12 34.667 -32.333 52 -61 52c-32.667 0 -49 -18 -49 -54c0 -15.333 4.33301 -28.666 13 -39.999c11.333 -14 28 -21 50 -21h115
v-150h-459l74 150h84c-5.33301 6.66699 -9.66602 14.334 -12.999 23.001l-7 24c-1.33301 6.66699 -2 13.667 -2 21l-1 14c0 110.667 53.333 166 160 166c67.333 0 123.333 -28 168 -84c-0.666992 -1.33301 -4.66699 -7.33301 -12 -18z" />
    <glyph glyph-name="uniFE88" unicode="&#x625;" horiz-adv-x="774" arabic-form="final" 
d="M589 -178l-50.998 -75c-10 30 -28.333 45 -55 45c-30 0 -45 -16 -45 -48c0 -36.667 19 -55 57 -55h103v-131h-412l66 131h75l-12 22c-2 6.66699 -4 14 -6 22l-2 20v12c0 98 48.333 147 145 147c59.333 0 108.666 -24.333 147.999 -73
c-0.666992 -1.33301 -4.33398 -7 -11.001 -17zM458.002 0c-66.667 0 -123 22 -169 66c-50 47.333 -75.333 112 -76 194l-9 1071h285l6 -983c0 -52 22.667 -82.667 68 -92h231v-256h-336z" />
    <glyph glyph-name="uniFE8A" unicode="&#x626;" horiz-adv-x="1886" arabic-form="final" 
d="M1711 0c-83.333 0 -151.664 25.334 -204.997 76.001c-40 37.333 -77 96.666 -111 177.999c-36.667 88 -78.334 156 -125.001 204c-56 58.667 -118.667 87.667 -188 87c-98.667 0 -167.667 -46.333 -207 -139h379v-271c0 -160.667 -56.333 -297.667 -169 -411
s-249 -170 -409 -170s-296.333 57 -409 171c-112.667 113.333 -169.334 250 -170.001 410v110l-2 161h284c1.33301 -57.333 2 -112.333 2 -165v-106c0 -94 33.667 -170 101 -228c57.333 -49.333 120.666 -74 189.999 -74c77.333 0 144.666 24.667 201.999 74
c66.667 56.667 98.334 132.667 95.001 228v12l-438 3c0 216.667 50.333 384 151 502c95.333 111.333 225.333 167 390 167c80 0 151.667 -13 215 -39c56.667 -23.333 108.334 -57.666 155.001 -102.999c38.667 -38.667 77 -88.334 115 -149.001
c15.333 -24.667 31.666 -53 48.999 -85l47 -89c19.333 -34 36.333 -57.333 51 -70c22.667 -18.667 53.667 -28 93 -28h110v-256h-196zM472.002 881.001l-67.9961 -100.998c-14 38 -38 57.667 -72 59c-32.667 1.33301 -52.334 -13.334 -59.001 -44.001
c-5.33301 -18 -3 -36.333 7 -55c12 -23.333 33.667 -35 65 -35h139v-179h-549l88 179h100c-11.333 15.333 -19 34.333 -23 57l-3 43c0 54 18 100 54 138c37.333 40 84.666 59.333 141.999 58c79.333 -2 143.666 -35.333 192.999 -100
c-0.666992 -0.666992 -5.33398 -7.33398 -14.001 -20.001z" />
    <glyph glyph-name="uniFE8B" unicode="&#x626;" horiz-adv-x="677" arabic-form="initial" 
d="M466 1292l-28.998 -40.001l-15 -22l-26 -36c-12.667 37.333 -36.334 56.666 -71.001 57.999c-33.333 0.666992 -53.333 -14.666 -60 -45.999c-2 -7.33301 -2.33301 -15.666 -1 -24.999c0.666992 -10.667 3.66699 -20.667 9 -30c12 -23.333 34 -35 66 -35h137v-178h-547
l88 178h100c-12 16 -20.333 35.667 -25 59l-3 42c0 54.667 18 101 54 139c38 40 85.333 59 142 57c78 0 143 -33.333 195 -100c-0.666992 -1.33301 -5.33398 -8.33301 -14.001 -21zM617.002 286.999c0 -191.333 -103.667 -287 -311 -287h-323v256h243
c69.333 0 104 32.667 104 98l-4 424h287z" />
    <glyph glyph-name="uniFE8C" unicode="&#x626;" horiz-adv-x="960" arabic-form="medial" 
d="M716 1293l-29 -41.002l-15 -21l-26 -37c-14 37.333 -38 57 -72 59c-33.333 1.33301 -53.333 -13.667 -60 -45c-1.33301 -7.33301 -1.66602 -15.666 -0.999023 -24.999c1.33301 -10.667 4.33301 -20.667 9 -30c12.667 -23.333 34.667 -35 66 -35h137v-178h-548l88 178h102
c-12 16 -20.333 35.333 -25 58l-4 43c0 53.333 18.333 99.333 55 138c38 40 85.333 59.333 142 58c80 -2 145 -35.333 195 -100c-0.666992 -1.33301 -5.33398 -8.66602 -14.001 -21.999zM768 -0.00195312c-49.333 0 -93.999 13.666 -133.999 40.999
c-30 20.667 -55.667 47.334 -77 80.001c-59.333 -80.667 -143.666 -121 -252.999 -121h-322v256h240c32 0 60.667 8.33301 86 25c30 20 45 46.333 45 79l-4 420h286l4 -342c1.33301 -58 19.666 -104.333 54.999 -139c29.333 -28.667 59.666 -43 90.999 -43h194v-256h-211z
" />
    <glyph glyph-name="uniFE8E" unicode="&#x627;" horiz-adv-x="774" arabic-form="final" 
d="M458 0c-66.667 0 -123 22 -169 66c-50 47.333 -75.667 112 -77 194l-8 1071h285l6 -983c0 -52 22.333 -82.667 67 -92h232v-256h-336z" />
    <glyph glyph-name="uniFE90" unicode="&#x628;" horiz-adv-x="1851" arabic-form="final" 
d="M1683 0c-42 0 -80.667 9.33301 -116 28c-28 15.333 -52.667 36 -74 62c-40.667 -60 -104.334 -90 -191.001 -90h-641c-114.667 0 -213.667 25 -297 75c-74 44 -134.333 107 -181 189c-40.667 71.333 -70 155.666 -88 252.999c-16 82.667 -23 170.334 -21 263.001h282
c0 -72 5 -137.333 15 -196c10.667 -65.333 27.667 -121 51 -167c52.667 -107.333 136 -161 250 -161h524c31.333 0 47 24.667 47 74l-3 212l-5 238h286l5 -348c0.666992 -56 18.667 -101 54 -135c28.667 -27.333 58.334 -41 89.001 -41h203v-256h-189zM741 -401v240h246
v-240h-246z" />
    <glyph glyph-name="uniFE91" unicode="&#x628;" horiz-adv-x="677" arabic-form="initial" 
d="M617 287c0 -191.333 -103.667 -287 -311 -287h-324v256h244c69.333 0 104 32.667 104 98l-4 424h287zM162 -401v240h248v-240h-248z" />
    <glyph glyph-name="uniFE92" unicode="&#x628;" horiz-adv-x="960" arabic-form="medial" 
d="M768 0c-49.333 0 -93.999 13.666 -133.999 40.999c-30 20.667 -55.667 47.334 -77 80.001c-59.333 -80.667 -143.666 -121 -252.999 -121h-322v256h240c32 0 60.667 8.33301 86 25c30 20 45 46.333 45 79l-4 420h286l4 -342c1.33301 -58 19.666 -104.333 54.999 -139
c29.333 -28.667 59.666 -43 90.999 -43h194v-256h-211zM373.001 -401.001v240h248v-240h-248z" />
    <glyph glyph-name="uniFE96" unicode="&#x62a;" horiz-adv-x="1851" arabic-form="final" 
d="M852 827v238h248v-238h-248zM506 827v238h245v-238h-245zM1683 0c-42 0 -80.667 9.33301 -116 28c-28 15.333 -52.667 36 -74 62c-40.667 -60 -104.334 -90 -191.001 -90h-641c-114.667 0 -213.667 25 -297 75c-74 44 -134.333 107 -181 189
c-40.667 71.333 -70 155.666 -88 252.999c-16 82.667 -23 170.334 -21 263.001h282c0 -72 5 -137.333 15 -196c10.667 -65.333 27.667 -121 51 -167c52.667 -107.333 136 -161 250 -161h524c31.333 0 47 24.667 47 74l-3 212l-5 238h286l5 -348
c0.666992 -56 18.667 -101 54 -135c28.667 -27.333 58.334 -41 89.001 -41h203v-256h-189z" />
    <glyph glyph-name="uniFE97" unicode="&#x62a;" horiz-adv-x="677" arabic-form="initial" 
d="M342 938v240h246v-240h-246zM-5 938v240h245v-240h-245zM617 287c0 -191.333 -103.667 -287 -311 -287h-324v256h244c69.333 0 104 32.667 104 98l-4 424h287z" />
    <glyph glyph-name="uniFE98" unicode="&#x62a;" horiz-adv-x="960" arabic-form="medial" 
d="M539 938v240h248v-238zM191 938v240h248v-240h-248zM768 0c-49.333 0 -93.999 13.666 -133.999 40.999c-30 20.667 -55.667 47.334 -77 80.001c-59.333 -80.667 -143.666 -121 -252.999 -121h-322v256h240c32 0 60.667 8.33301 86 25c30 20 45 46.333 45 79l-4 420h286
l4 -342c1.33301 -58 19.666 -104.333 54.999 -139c29.333 -28.667 59.666 -43 90.999 -43h194v-256h-211z" />
    <glyph glyph-name="uniFE9A" unicode="&#x62b;" horiz-adv-x="1851" arabic-form="final" 
d="M680 1149v237h246v-237h-246zM854 829v238h248v-238h-248zM508 829v238h245v-238h-245zM1683 0c-42 0 -80.667 9.33301 -116 28c-28 15.333 -52.667 36 -74 62c-40.667 -60 -104.334 -90 -191.001 -90h-641c-114.667 0 -213.667 25 -297 75c-74 44 -134.333 107 -181 189
c-40.667 71.333 -70 155.666 -88 252.999c-16 82.667 -23 170.334 -21 263.001h282c0 -72 5 -137.333 15 -196c10.667 -65.333 27.667 -121 51 -167c52.667 -107.333 136 -161 250 -161h524c31.333 0 47 24.667 47 74l-3 212l-5 238h286l5 -348
c0.666992 -56 18.667 -101 54 -135c28.667 -27.333 58.334 -41 89.001 -41h203v-256h-189z" />
    <glyph glyph-name="uniFE9B" unicode="&#x62b;" horiz-adv-x="677" arabic-form="initial" 
d="M166 1257v240h246v-240h-246zM342 938v240h246v-240h-246zM-5 938v240h245v-240h-245zM617 287c0 -191.333 -103.667 -287 -311 -287h-324v256h244c69.333 0 104 32.667 104 98l-4 424h287z" />
    <glyph glyph-name="uniFE9C" unicode="&#x62b;" horiz-adv-x="960" arabic-form="medial" 
d="M369 1257v238h244v-238h-244zM543 938v240h248v-240h-248zM195 938v240h248v-240h-248zM768 0c-49.333 0 -93.999 13.666 -133.999 40.999c-30 20.667 -55.667 47.334 -77 80.001c-59.333 -80.667 -143.666 -121 -252.999 -121h-322v256h240c32 0 60.667 8.33301 86 25
c30 20 45 46.333 45 79l-4 420h286l4 -342c1.33301 -58 19.666 -104.333 54.999 -139c29.333 -28.667 59.666 -43 90.999 -43h194v-256h-211z" />
    <glyph glyph-name="uniFE9E" unicode="&#x62c;" horiz-adv-x="1378" arabic-form="final" 
d="M1240 0c-82 0 -150.998 18.001 -206.998 54.001c-45.333 29.333 -82 70.666 -110 123.999h-387c-124 0 -186 -59.333 -186 -178c0 -52 20 -95.667 60 -131c36.667 -32.667 78.667 -49 126 -49h305v-256h-352c-122.667 0 -223.667 42.667 -303 128
c-76.667 82.667 -115 184.667 -115 306c0 116 37 216 111 300c79.333 90.667 181.666 136 306.999 136h340c-17.333 84 -54.333 145 -111 183c-40 26.667 -88.333 40.667 -145 42c-44.667 0 -92 -13.333 -142 -40c-18 -10 -36 -21.333 -54 -34l-36 -28l-104 213
c0 1.33301 9 8.66602 27 21.999c23.333 17.333 48.333 33.333 75 48c37.333 20 75.666 36 114.999 48c48.667 14 97 21 145 21c83.333 0 157 -14.333 221 -43c57.333 -26 107 -63.333 149 -112c36.667 -43.333 67.334 -95.666 92.001 -156.999
c21.333 -52 38.666 -111 51.999 -177c25.333 -109.333 95 -164 209 -164h88l2 -256h-172zM558.002 -121.999v239h248v-239h-248z" />
    <glyph glyph-name="uniFE9F" unicode="&#x62c;" horiz-adv-x="1261" arabic-form="initial" 
d="M-18 0l0.000976562 256h918c-50.667 178.667 -157.334 268 -320.001 268c-40 0 -79 -4.66699 -117 -14c-30 -8 -59 -18.667 -87 -32c-10.667 -5.33301 -21 -11 -31 -17l-23 -14c-12 -9.33301 -18 -14.333 -18 -15l-113 203l44 38c24.667 17.333 51.667 33 81 47
c36 18 74.333 31.667 115 41c48 11.333 97.667 17 149 17c106 0 200.667 -23.333 284 -70c75.333 -42.667 139.333 -103.667 192 -183c48 -72 84.333 -155.333 109 -250c23.333 -88 35.333 -179.667 36 -275h-1219zM500.001 -397v236h248v-236h-248z" />
    <glyph glyph-name="uniFEA0" unicode="&#x62c;" horiz-adv-x="1347" arabic-form="medial" 
d="M1364 0l-1382 0.000976562v256h899c-52 178.667 -158.333 268 -319 268c-42.667 0 -83 -4.66699 -121 -14c-30.667 -8 -59.667 -18.667 -87 -32c-10.667 -5.33301 -20.667 -11 -30 -17c-8 -4.66699 -15.333 -9.33398 -22 -14.001c-11.333 -8.66699 -17 -13.667 -17 -15
l-113 203l18 18l25 22c23.333 17.333 49.333 33 78 47c36 16.667 74.333 30 115 40c48.667 10.667 100 16 154 16c158.667 0 290.667 -52 396 -156c92 -91.333 156.333 -213.333 193 -366h213v-256zM451 -400.999v240h248v-240h-248z" />
    <glyph glyph-name="uniFEA2" unicode="&#x62d;" horiz-adv-x="1378" arabic-form="final" 
d="M1240 0c-82 0 -150.998 18.001 -206.998 54.001c-45.333 29.333 -82 70.666 -110 123.999h-387c-124 0 -186 -59.333 -186 -178c0 -52 20 -95.667 60 -131c36.667 -32.667 78.667 -49 126 -49h305v-256h-352c-122.667 0 -223.667 42.667 -303 128
c-76.667 82.667 -115 184.667 -115 306c0 116 37 216 111 300c79.333 90.667 181.666 136 306.999 136h340c-17.333 84 -54.333 145 -111 183c-40 26.667 -88.333 40.667 -145 42c-44.667 0 -92 -13.333 -142 -40c-18 -10 -36 -21.333 -54 -34l-36 -28l-104 213
c0 1.33301 9 8.66602 27 21.999c23.333 17.333 48.333 33.333 75 48c37.333 20 75.666 36 114.999 48c48.667 14 97 21 145 21c83.333 0 157 -14.333 221 -43c57.333 -26 107 -63.333 149 -112c36.667 -43.333 67.334 -95.666 92.001 -156.999
c21.333 -52 38.666 -111 51.999 -177c25.333 -109.333 95 -164 209 -164h88l2 -256h-172z" />
    <glyph glyph-name="uniFEA3" unicode="&#x62d;" horiz-adv-x="1261" arabic-form="initial" 
d="M-18 0l0.000976562 256h918c-50.667 178.667 -157.334 268 -320.001 268c-40 0 -79 -4.66699 -117 -14c-30 -8 -59 -18.667 -87 -32c-10.667 -5.33301 -21 -11 -31 -17l-23 -14c-12 -9.33301 -18 -14.333 -18 -15l-113 203l44 38c24.667 17.333 51.667 33 81 47
c36 18 74.333 31.667 115 41c48 11.333 97.667 17 149 17c106 0 200.667 -23.333 284 -70c75.333 -42.667 139.333 -103.667 192 -183c48 -72 84.333 -155.333 109 -250c23.333 -88 35.333 -179.667 36 -275h-1219z" />
    <glyph glyph-name="uniFEA4" unicode="&#x62d;" horiz-adv-x="1347" arabic-form="medial" 
d="M1364 0l-1382 0.000976562v256h899c-52 178.667 -158.333 268 -319 268c-42.667 0 -83 -4.66699 -121 -14c-30.667 -8 -59.667 -18.667 -87 -32c-10.667 -5.33301 -20.667 -11 -30 -17c-8 -4.66699 -15.333 -9.33398 -22 -14.001c-11.333 -8.66699 -17 -13.667 -17 -15
l-113 203l18 18l25 22c23.333 17.333 49.333 33 78 47c36 16.667 74.333 30 115 40c48.667 10.667 100 16 154 16c158.667 0 290.667 -52 396 -156c92 -91.333 156.333 -213.333 193 -366h213v-256z" />
    <glyph glyph-name="uniFEA6" unicode="&#x62e;" horiz-adv-x="1378" arabic-form="final" 
d="M495 1069v240h246v-240h-246zM1240 0c-82 0 -150.998 18.001 -206.998 54.001c-45.333 29.333 -82 70.666 -110 123.999h-387c-124 0 -186 -59.333 -186 -178c0 -52 20 -95.667 60 -131c36.667 -32.667 78.667 -49 126 -49h305v-256h-352
c-122.667 0 -223.667 42.667 -303 128c-76.667 82.667 -115 184.667 -115 306c0 116 37 216 111 300c79.333 90.667 181.666 136 306.999 136h340c-17.333 84 -54.333 145 -111 183c-40 26.667 -88.333 40.667 -145 42c-44.667 0 -92 -13.333 -142 -40
c-18 -10 -36 -21.333 -54 -34l-36 -28l-104 213c0 1.33301 9 8.66602 27 21.999c23.333 17.333 48.333 33.333 75 48c37.333 20 75.666 36 114.999 48c48.667 14 97 21 145 21c83.333 0 157 -14.333 221 -43c57.333 -26 107 -63.333 149 -112
c36.667 -43.333 67.334 -95.666 92.001 -156.999c21.333 -52 38.666 -111 51.999 -177c25.333 -109.333 95 -164 209 -164h88l2 -256h-172z" />
    <glyph glyph-name="uniFEA7" unicode="&#x62e;" horiz-adv-x="1261" arabic-form="initial" 
d="M455 936v238h248v-238h-248zM-18 0l0.000976562 256h918c-50.667 178.667 -157.334 268 -320.001 268c-40 0 -79 -4.66699 -117 -14c-30 -8 -59 -18.667 -87 -32c-10.667 -5.33301 -21 -11 -31 -17l-23 -14c-12 -9.33301 -18 -14.333 -18 -15l-113 203l44 38
c24.667 17.333 51.667 33 81 47c36 18 74.333 31.667 115 41c48 11.333 97.667 17 149 17c106 0 200.667 -23.333 284 -70c75.333 -42.667 139.333 -103.667 192 -183c48 -72 84.333 -155.333 109 -250c23.333 -88 35.333 -179.667 36 -275h-1219z" />
    <glyph glyph-name="uniFEA8" unicode="&#x62e;" horiz-adv-x="1347" arabic-form="medial" 
d="M435 940v240h247v-240h-247zM1364 0l-1382 0.000976562v256h899c-52 178.667 -158.333 268 -319 268c-42.667 0 -83 -4.66699 -121 -14c-30.667 -8 -59.667 -18.667 -87 -32c-10.667 -5.33301 -20.667 -11 -30 -17c-8 -4.66699 -15.333 -9.33398 -22 -14.001
c-11.333 -8.66699 -17 -13.667 -17 -15l-113 203l18 18l25 22c23.333 17.333 49.333 33 78 47c36 16.667 74.333 30 115 40c48.667 10.667 100 16 154 16c158.667 0 290.667 -52 396 -156c92 -91.333 156.333 -213.333 193 -366h213v-256z" />
    <glyph glyph-name="uniFEAA" unicode="&#x62f;" horiz-adv-x="1366" arabic-form="final" 
d="M184 0l139 256h549c-10 84 -47.333 153.333 -112 208c-55.333 47.333 -111.333 71 -168 71v243c315.333 0 504.333 -174 567 -522h227v-256h-1202z" />
    <glyph glyph-name="uniFEAC" unicode="&#x630;" horiz-adv-x="1366" arabic-form="final" 
d="M598 938v240h248v-240h-248zM184 0l139 256h549c-10 84 -47.333 153.333 -112 208c-55.333 47.333 -111.333 71 -168 71v243c315.333 0 504.333 -174 567 -522h227v-256h-1202z" />
    <glyph glyph-name="uniFEAE" unicode="&#x631;" horiz-adv-x="1001" arabic-form="final" 
d="M807 0c-53.333 0 -99.667 15 -139 45c-60.667 -294.667 -251 -455 -571 -481l-135 157l-58 62c119.333 9.33301 227.333 48 324 116c110 77.333 164.333 170.333 163 279l-6 602h289l4 -346c1.33301 -56 20 -101.333 56 -136c30 -28 60.667 -42 92 -42h196v-256h-215z
" />
    <glyph glyph-name="uniFEB0" unicode="&#x632;" horiz-adv-x="1001" arabic-form="final" 
d="M404 938v240h248v-238zM807 0c-53.333 0 -99.667 15 -139 45c-60.667 -294.667 -251 -455 -571 -481l-135 157l-58 62c119.333 9.33301 227.333 48 324 116c110 77.333 164.333 170.333 163 279l-6 602h289l4 -346c1.33301 -56 20 -101.333 56 -136
c30 -28 60.667 -42 92 -42h196v-256h-215z" />
    <glyph glyph-name="uniFEB2" unicode="&#x633;" horiz-adv-x="2600" arabic-form="final" 
d="M2428 0c-42 0 -81.6689 10.668 -119.002 32.001c-27.333 16 -53 38 -77 66c-52.667 -71.333 -138.667 -109.333 -258 -114c-53.333 0 -99.666 6.66699 -138.999 20c-53.333 18.667 -98.666 50.667 -135.999 96c-56 -72.667 -143.333 -111.334 -262 -116.001
c-38 0 -72.667 3.66699 -104 11c-38.667 8.66699 -73.667 23.334 -105 44.001c-20.667 -136.667 -85 -251.334 -193 -344.001c-108.667 -94 -234.667 -141 -378 -141c-160 0 -296.667 56.333 -410 169c-112 112 -168 246.667 -168 404l-8 424h285l4 -426
c0.666992 -82.667 30 -153 88 -211c58 -58.667 127 -88 207 -88c81.333 0 151 29.667 209 89c59.333 58.667 88 129.334 86 212.001l-9 594h289v-324c9.33301 -103.333 61.333 -155 156 -155c61.333 0 92 32 92 96c0 55.333 -0.333008 119.333 -1 192
c-0.666992 53.333 -1.66699 117.666 -3 192.999h287l6 -303c0 -118.667 51.667 -178 155 -178c60.667 0 91 32 91 96c0 142 -1.66699 289.333 -5 442l289 -2c0 -154 0.666992 -266.667 2 -338v-2c2 -58 21 -104.333 57 -139c29.333 -28.667 59.666 -43 91 -43h176v-256h-195
z" />
    <glyph glyph-name="uniFEB3" unicode="&#x633;" horiz-adv-x="1722" arabic-form="initial" 
d="M1566 69c-56.667 -54.667 -134.667 -82.998 -234 -84.998c-52.667 0 -98.667 6.66699 -138 20c-53.333 19.333 -97.666 51.333 -132.999 96c-56 -72.667 -144 -111.334 -264 -116.001c-36.667 0 -70.334 3.66699 -101.001 11c-38 8 -72.667 22 -104 42v-37h-610v256h324
l-2 465h286v-301c4 -118.667 56.667 -178 158 -178c60 0 90 32 90 96l-2 385h287l2 -303c2 -118.667 54.333 -178 157 -178c60.667 0 91 32 91 96l-2 442l284 -2l6 -332c0 -35.333 -0.666992 -75.333 -2 -120c-0.666992 -112.667 -31.667 -198.334 -93 -257.001z" />
    <glyph glyph-name="uniFEB4" unicode="&#x633;" horiz-adv-x="1968" arabic-form="medial" 
d="M1788 0c-42 0 -81.667 10.6689 -119 32.002c-27.333 16 -53 38 -77 66c-52.667 -71.333 -138.667 -109.333 -258 -114c-53.333 0 -99.666 6.66699 -138.999 20c-53.333 18.667 -98.666 50.667 -135.999 96c-56 -72.667 -143.333 -111.334 -262 -116.001
c-36.667 0 -70.334 3.66699 -101.001 11c-38 8 -72.667 22 -104 42v-37h-610v256h324l-5 465h289l-1 -175c0 -43.333 0.333008 -85.333 1 -126c2 -118.667 54 -178 156 -178c61.333 0 92 32 92 96c0 55.333 -0.333008 119.333 -1 192
c-0.666992 53.333 -1.66699 117.666 -3 192.999h287l6 -303c0 -118.667 51.667 -178 155 -178c60.667 0 91 32 91 96c0 142 -1.66699 289.333 -5 442l289 -2c0 -154 0.666992 -266.667 2 -338v-2c2 -58 21 -104.333 57 -139c29.333 -28.667 59.666 -43 90.999 -43h176v-256
h-195z" />
    <glyph glyph-name="uniFEB6" unicode="&#x634;" horiz-adv-x="2600" arabic-form="final" 
d="M2428 0c-42 0 -81.6689 10.668 -119.002 32.001c-27.333 16 -53 38 -77 66c-52.667 -71.333 -138.667 -109.333 -258 -114c-53.333 0 -99.666 6.66699 -138.999 20c-53.333 18.667 -98.666 50.667 -135.999 96c-56 -72.667 -143.333 -111.334 -262 -116.001
c-38 0 -72.667 3.66699 -104 11c-38.667 8.66699 -73.667 23.334 -105 44.001c-20.667 -136.667 -85 -251.334 -193 -344.001c-108.667 -94 -234.667 -141 -378 -141c-160 0 -296.667 56.333 -410 169c-112 112 -168 246.667 -168 404l-8 424h285l4 -426
c0.666992 -82.667 30 -153 88 -211c58 -58.667 127 -88 207 -88c81.333 0 151 29.667 209 89c59.333 58.667 88 129.334 86 212.001l-9 594h289v-324c9.33301 -103.333 61.333 -155 156 -155c61.333 0 92 32 92 96c0 55.333 -0.333008 119.333 -1 192
c-0.666992 53.333 -1.66699 117.666 -3 192.999h287l6 -303c0 -118.667 51.667 -178 155 -178c60.667 0 91 32 91 96c0 142 -1.66699 289.333 -5 442l289 -2c0 -154 0.666992 -266.667 2 -338v-2c2 -58 21 -104.333 57 -139c29.333 -28.667 59.666 -43 91 -43h176v-256h-195
zM1664 938.001v240h246v-240h-246zM1488 1257v240h246v-240h-246zM1316 938.001v240h246v-240h-246z" />
    <glyph glyph-name="uniFEB7" unicode="&#x634;" horiz-adv-x="1722" arabic-form="initial" 
d="M1566 69c-56.667 -54.667 -134.667 -82.998 -234 -84.998c-52.667 0 -98.667 6.66699 -138 20c-53.333 19.333 -97.666 51.333 -132.999 96c-56 -72.667 -144 -111.334 -264 -116.001c-36.667 0 -70.334 3.66699 -101.001 11c-38 8 -72.667 22 -104 42v-37h-610v256h324
l-2 465h286v-301c4 -118.667 56.667 -178 158 -178c60 0 90 32 90 96l-2 385h287l2 -303c2 -118.667 54.333 -178 157 -178c60.667 0 91 32 91 96l-2 442l284 -2l6 -332c0 -35.333 -0.666992 -75.333 -2 -120c-0.666992 -112.667 -31.667 -198.334 -93 -257.001z
M674 940.002v238h248v-238h-248zM848 1257v240h246v-237zM1022 940.002v238h246v-238h-246z" />
    <glyph glyph-name="uniFEB8" unicode="&#x634;" horiz-adv-x="1968" arabic-form="medial" 
d="M1788 0c-42 0 -81.667 10.6689 -119 32.002c-27.333 16 -53 38 -77 66c-52.667 -71.333 -138.667 -109.333 -258 -114c-53.333 0 -99.666 6.66699 -138.999 20c-53.333 18.667 -98.666 50.667 -135.999 96c-56 -72.667 -143.333 -111.334 -262 -116.001
c-36.667 0 -70.334 3.66699 -101.001 11c-38 8 -72.667 22 -104 42v-37h-610v256h324l-5 465h289l-1 -175c0 -43.333 0.333008 -85.333 1 -126c2 -118.667 54 -178 156 -178c61.333 0 92 32 92 96c0 55.333 -0.333008 119.333 -1 192
c-0.666992 53.333 -1.66699 117.666 -3 192.999h287l6 -303c0 -118.667 51.667 -178 155 -178c60.667 0 91 32 91 96c0 142 -1.66699 289.333 -5 442l289 -2c0 -154 0.666992 -266.667 2 -338v-2c2 -58 21 -104.333 57 -139c29.333 -28.667 59.666 -43 90.999 -43h176v-256
h-195zM1024 938.002v240h246v-240h-246zM848 1257v240h246v-240h-246zM676 938.002v240h246v-240h-246z" />
    <glyph glyph-name="uniFEBA" unicode="&#x635;" horiz-adv-x="2568" arabic-form="final" 
d="M1220 0c-28 -128 -94.333 -234 -199 -318c-106.667 -85.333 -228 -128 -364 -128c-160 0 -296.667 56.333 -410 169c-112 112 -168 246.667 -168 404l-8 424h285l4 -426c0.666992 -82.667 30 -153 88 -211c58 -58.667 127 -88 207 -88c81.333 0 151 29.667 209 89
c59.333 58.667 88 129.334 86 212.001l-9 426h289l2 -236c46 94 101 175 165 243c54.667 58 115.334 105.333 182.001 142c55.333 30.667 112 52.667 170 66c48 10.667 90.667 14 128 10c147.333 -14 259.333 -73 335.999 -177c33.333 -44.667 60.333 -98.334 81 -161.001
c18 -54 31.333 -115.333 40 -184h260v-256h-1374zM2056 256c-4 75.333 -22.333 137.333 -55 186c-41.333 62 -101 93 -179 93c-56 0 -115.333 -19.667 -178 -59c-78 -48.667 -149.667 -122 -215 -220h627z" />
    <glyph glyph-name="uniFEBB" unicode="&#x635;" horiz-adv-x="1796" arabic-form="initial" 
d="M-18 0l0.00195312 255.999h324l-2 348h284l2 -317c46 100 101.333 186 166 258c56 62.667 118 113.667 186 153c57.333 32.667 115.666 55.667 174.999 69c49.333 11.333 93.666 15 132.999 11c101.333 -9.33301 186.333 -40.666 255 -93.999
c60 -46.667 107.333 -110 142 -190c28.667 -68 49 -149 61 -243c4.66699 -39.333 8 -82 10 -128c2 -36.667 3 -77.667 3 -123h-1739zM1428 255.999c-4 75.333 -22.332 137.333 -54.999 186c-40.667 62 -100.334 93 -179.001 93c-56 0 -115.333 -19.667 -178 -59
c-78 -48.667 -149.667 -122 -215 -220h627z" />
    <glyph glyph-name="uniFEBC" unicode="&#x635;" horiz-adv-x="1931" arabic-form="medial" 
d="M-18 0l0.000976562 256.001h324l-2 348h284l2 -317c46 100 101.333 186 166 258c56 62.667 118 113.667 186 153c57.333 32.667 115.666 55.667 174.999 69c49.333 11.333 93.666 15 132.999 11c146.667 -14 258.667 -73 336 -177
c32.667 -44.667 59.334 -98.334 80.001 -161.001c18 -54 31.333 -115.333 40 -184h261v-256h-1985zM1428 256.001c-4 75.333 -22.332 137.333 -54.999 186c-40.667 62 -100.334 93 -179.001 93c-56 0 -115.333 -19.667 -178 -59c-78 -48.667 -149.667 -122 -215 -220h627z
" />
    <glyph glyph-name="uniFEBE" unicode="&#x636;" horiz-adv-x="2568" arabic-form="final" 
d="M1220 0c-28 -128 -94.333 -234 -199 -318c-106.667 -85.333 -228 -128 -364 -128c-160 0 -296.667 56.333 -410 169c-112 112 -168 246.667 -168 404l-8 424h285l4 -426c0.666992 -82.667 30 -153 88 -211c58 -58.667 127 -88 207 -88c81.333 0 151 29.667 209 89
c59.333 58.667 88 129.334 86 212.001l-9 426h289l2 -236c46 94 101 175 165 243c54.667 58 115.334 105.333 182.001 142c55.333 30.667 112 52.667 170 66c48 10.667 90.667 14 128 10c147.333 -14 259.333 -73 335.999 -177c33.333 -44.667 60.333 -98.334 81 -161.001
c18 -54 31.333 -115.333 40 -184h260v-256h-1374zM2056 256c-4 75.333 -22.333 137.333 -55 186c-41.333 62 -101 93 -179 93c-56 0 -115.333 -19.667 -178 -59c-78 -48.667 -149.667 -122 -215 -220h627zM1730 940v240h246v-240h-246z" />
    <glyph glyph-name="uniFEBF" unicode="&#x636;" horiz-adv-x="1796" arabic-form="initial" 
d="M-18 0l0.00195312 255.999h324l-2 348h284l2 -317c46 100 101.333 186 166 258c56 62.667 118 113.667 186 153c57.333 32.667 115.666 55.667 174.999 69c49.333 11.333 93.666 15 132.999 11c101.333 -9.33301 186.333 -40.666 255 -93.999
c60 -46.667 107.333 -110 142 -190c28.667 -68 49 -149 61 -243c4.66699 -39.333 8 -82 10 -128c2 -36.667 3 -77.667 3 -123h-1739zM1428 255.999c-4 75.333 -22.332 137.333 -54.999 186c-40.667 62 -100.334 93 -179.001 93c-56 0 -115.333 -19.667 -178 -59
c-78 -48.667 -149.667 -122 -215 -220h627zM1125 939.999v240h248v-240h-248z" />
    <glyph glyph-name="uniFEC0" unicode="&#x636;" horiz-adv-x="1931" arabic-form="medial" 
d="M-18 0l0.000976562 256.001h324l-2 348h284l2 -317c46 100 101.333 186 166 258c56 62.667 118 113.667 186 153c57.333 32.667 115.666 55.667 174.999 69c49.333 11.333 93.666 15 132.999 11c146.667 -14 258.667 -73 336 -177
c32.667 -44.667 59.334 -98.334 80.001 -161.001c18 -54 31.333 -115.333 40 -184h261v-256h-1985zM1428 256.001c-4 75.333 -22.332 137.333 -54.999 186c-40.667 62 -100.334 93 -179.001 93c-56 0 -115.333 -19.667 -178 -59c-78 -48.667 -149.667 -122 -215 -220h627z
M1102 940.001v240h246v-240h-246z" />
    <glyph glyph-name="uniFEC2" unicode="&#x637;" horiz-adv-x="1687" arabic-form="final" 
d="M1705 0l-1634 0.000976562l92 256h156l-4 961h276l-12 -586c73.333 54.667 151.333 95 234 121c70 22 130 30.667 180 26c146 -14 257.333 -73 334 -177c32.667 -44.667 59.334 -98.334 80.001 -161.001c18 -54 31.333 -115.333 40 -184h258v-256zM1169 256.001
c-4 76 -22 138 -54 186c-40.667 62 -100.667 93 -180 93c-55.333 0 -114.333 -19.667 -177 -59c-78.667 -48.667 -150.667 -122 -216 -220h627z" />
    <glyph glyph-name="uniFEC3" unicode="&#x637;" horiz-adv-x="1462" arabic-form="initial" 
d="M-16 0v255.999h274l-4 961h275l-10 -586c72 54.667 149.667 95 233 121c70 22 130 30.667 180 26c101.333 -9.33301 186 -40.666 254 -93.999c59.333 -46.667 106 -110 140 -190c28.667 -68 48.667 -149 60 -243c5.33301 -39.333 9 -82 11 -128
c1.33301 -36.667 2 -77.667 2 -123h-1415zM1108 255.999c-3.33301 75.333 -21.334 137.333 -54.001 186c-42 62 -102.333 93 -181 93c-55.333 0 -114.333 -19.667 -177 -59c-77.333 -48.667 -148.666 -122 -213.999 -220h626z" />
    <glyph glyph-name="uniFEC4" unicode="&#x637;" horiz-adv-x="1619" arabic-form="medial" 
d="M1643 0l-1661 0.000976562v256h326l-4 961h274l-10 -586c72 54.667 149.667 95 233 121c70.667 22 130.667 30.667 180 26c146.667 -14 258.334 -73 335.001 -177c32.667 -44.667 59.334 -98.334 80.001 -161.001c18 -54 31.333 -115.333 40 -184h207v-256zM1158 256.001
c-4 75.333 -22.334 137.333 -55.001 186c-41.333 62 -101.666 93 -180.999 93c-55.333 0 -114 -19.667 -176 -59c-78 -48.667 -149.667 -122 -215 -220h627z" />
    <glyph glyph-name="uniFEC6" unicode="&#x638;" horiz-adv-x="1687" arabic-form="final" 
d="M859 940v240h248v-240h-248zM1705 0l-1634 0.000976562l92 256h156l-4 961h276l-12 -586c73.333 54.667 151.333 95 234 121c70 22 130 30.667 180 26c146 -14 257.333 -73 334 -177c32.667 -44.667 59.334 -98.334 80.001 -161.001c18 -54 31.333 -115.333 40 -184h258
v-256zM1169 256.001c-4 76 -22 138 -54 186c-40.667 62 -100.667 93 -180 93c-55.333 0 -114.333 -19.667 -177 -59c-78.667 -48.667 -150.667 -122 -216 -220h627z" />
    <glyph glyph-name="uniFEC7" unicode="&#x638;" horiz-adv-x="1454" arabic-form="initial" 
d="M754 940v238h246v-238h-246zM-16 0v255.999h274l-4 961h275l-10 -586c72 54.667 149.667 95 233 121c70 22 130 30.667 180 26c101.333 -9.33301 186 -40.666 254 -93.999c59.333 -46.667 106 -110 140 -190c28.667 -68 48.667 -149 60 -243
c5.33301 -39.333 9 -82 11 -128c1.33301 -36.667 2 -77.667 2 -123h-1415zM1108 255.999c-3.33301 75.333 -21.334 137.333 -54.001 186c-42 62 -102.333 93 -181 93c-55.333 0 -114.333 -19.667 -177 -59c-77.333 -48.667 -148.666 -122 -213.999 -220h626z" />
    <glyph glyph-name="uniFEC8" unicode="&#x638;" horiz-adv-x="1619" arabic-form="medial" 
d="M840 940v240h248v-240h-248zM1643 0l-1661 0.000976562v256h326l-4 961h274l-10 -586c72 54.667 149.667 95 233 121c70.667 22 130.667 30.667 180 26c146.667 -14 258.334 -73 335.001 -177c32.667 -44.667 59.334 -98.334 80.001 -161.001
c18 -54 31.333 -115.333 40 -184h207v-256zM1158 256.001c-4 75.333 -22.334 137.333 -55.001 186c-41.333 62 -101.666 93 -180.999 93c-55.333 0 -114 -19.667 -176 -59c-78 -48.667 -149.667 -122 -215 -220h627z" />
    <glyph glyph-name="uniFECA" unicode="&#x639;" horiz-adv-x="1312" arabic-form="final" 
d="M1111 0c-90 0 -163.667 29.999 -221 89.999c-49.333 52 -79.333 117 -90 195h-258c-128 0 -192 -60.333 -192 -181c0 -52 20 -95.667 60 -131c36.667 -32 78.667 -48 126 -48h338v-256h-352c-124.667 0 -231 41.667 -319 125c-88 84 -132 184.667 -132 302
c0 102.667 27.667 194.334 83 275.001c60 87.333 140.333 142 241 164c-15.333 24 -27.333 49 -36 75c-12 35.333 -18 73 -18 113c0 112 41.667 200.333 125 265c72 55.333 156.667 83 254 83c134 0 244.667 -53.333 332 -160l-152 -194
c-29.333 35.333 -59.333 59.666 -90 72.999c-19.333 8.66699 -41 13 -65 13c-9.33301 0 -19.333 -1.33301 -30 -4c-14 -3.33301 -27 -8.66602 -39 -15.999c-32 -19.333 -48 -50.333 -48 -93c0 -47.333 21.667 -84.333 65 -111c39.333 -24 89.333 -36 150 -36h211v-174
c0 -75.333 33.333 -113 100 -113h177v-256h-220z" />
    <glyph glyph-name="uniFECB" unicode="&#x639;" horiz-adv-x="1101" arabic-form="initial" 
d="M-18 0l0.00195312 255.997h303c-16 25.333 -29.333 53.333 -40 84c-14 38.667 -20.333 76.334 -19 113.001c5.33301 108 48.666 191 129.999 249c69.333 49.333 153 74 251 74c117.333 0 226.333 -50.333 327 -151l-149 -193c-42.667 56.667 -94 86 -154 88
c-6.66699 0.666992 -16 -0.666016 -28 -3.99902c-13.333 -3.33301 -26 -8.66602 -38 -15.999c-32.667 -19.333 -51 -46 -55 -80c-4 -50 13 -90.333 51 -121c35.333 -28.667 80.666 -43 135.999 -43h252l90 -256h-1057z" />
    <glyph glyph-name="uniFECC" unicode="&#x639;" horiz-adv-x="1503" arabic-form="medial" 
d="M1008 0c-43.333 0 -86 9.66992 -128 29.0029c-32 14 -61 32.333 -87 55c-118.667 -56 -234 -84 -346 -84h-465v256h463c68 0 126.667 6.66699 176 20c-60.667 66 -120 115.333 -178 148c-73.333 41.333 -155.333 64.666 -246 69.999v202
c95.333 65.333 199 111.666 311 138.999c104.667 26 211.334 34.333 320.001 25c216.667 -18.667 396.667 -94.334 540 -227.001c-80.667 -143.333 -184.334 -269 -311.001 -377h465v-256h-514zM836 609.003c-76.667 10.667 -149.667 7.66699 -219 -9
c42.667 -20 86 -48 130 -84c37.333 -30.667 73 -65.334 107 -104.001c60 46.667 108.667 96.334 146 149.001c-46 23.333 -100.667 39.333 -164 48z" />
    <glyph glyph-name="uniFECE" unicode="&#x63a;" horiz-adv-x="1312" arabic-form="final" 
d="M595 1225v239h248v-239h-248zM1111 0c-90 0 -163.667 29.999 -221 89.999c-49.333 52 -79.333 117 -90 195h-258c-128 0 -192 -60.333 -192 -181c0 -52 20 -95.667 60 -131c36.667 -32 78.667 -48 126 -48h338v-256h-352c-124.667 0 -231 41.667 -319 125
c-88 84 -132 184.667 -132 302c0 102.667 27.667 194.334 83 275.001c60 87.333 140.333 142 241 164c-15.333 24 -27.333 49 -36 75c-12 35.333 -18 73 -18 113c0 112 41.667 200.333 125 265c72 55.333 156.667 83 254 83c134 0 244.667 -53.333 332 -160l-152 -194
c-29.333 35.333 -59.333 59.666 -90 72.999c-19.333 8.66699 -41 13 -65 13c-9.33301 0 -19.333 -1.33301 -30 -4c-14 -3.33301 -27 -8.66602 -39 -15.999c-32 -19.333 -48 -50.333 -48 -93c0 -47.333 21.667 -84.333 65 -111c39.333 -24 89.333 -36 150 -36h211v-174
c0 -75.333 33.333 -113 100 -113h177v-256h-220z" />
    <glyph glyph-name="uniFECF" unicode="&#x63a;" horiz-adv-x="1101" arabic-form="initial" 
d="M474 936v240h247v-240h-247zM-18 0l0.00195312 255.997h303c-16 25.333 -29.333 53.333 -40 84c-14 38.667 -20.333 76.334 -19 113.001c5.33301 108 48.666 191 129.999 249c69.333 49.333 153 74 251 74c117.333 0 226.333 -50.333 327 -151l-149 -193
c-42.667 56.667 -94 86 -154 88c-6.66699 0.666992 -16 -0.666016 -28 -3.99902c-13.333 -3.33301 -26 -8.66602 -38 -15.999c-32.667 -19.333 -51 -46 -55 -80c-4 -50 13 -90.333 51 -121c35.333 -28.667 80.666 -43 135.999 -43h252l90 -256h-1057z" />
    <glyph glyph-name="uniFED0" unicode="&#x63a;" horiz-adv-x="1503" arabic-form="medial" 
d="M666 1020v237h248v-237h-248zM1008 0c-43.333 0 -86 9.66992 -128 29.0029c-32 14 -61 32.333 -87 55c-118.667 -56 -234 -84 -346 -84h-465v256h463c68 0 126.667 6.66699 176 20c-60.667 66 -120 115.333 -178 148c-73.333 41.333 -155.333 64.666 -246 69.999v202
c95.333 65.333 199 111.666 311 138.999c104.667 26 211.334 34.333 320.001 25c216.667 -18.667 396.667 -94.334 540 -227.001c-80.667 -143.333 -184.334 -269 -311.001 -377h465v-256h-514zM836 609.003c-76.667 10.667 -149.667 7.66699 -219 -9
c42.667 -20 86 -48 130 -84c37.333 -30.667 73 -65.334 107 -104.001c60 46.667 108.667 96.334 146 149.001c-46 23.333 -100.667 39.333 -164 48z" />
    <glyph glyph-name="uniFED2" unicode="&#x641;" horiz-adv-x="1884" arabic-form="final" 
d="M1189 1057v239h248v-239h-248zM1660 0c-116.667 0 -230.001 20.332 -340.001 60.999c-110 -40.667 -221.333 -61 -334 -61h-323c-114.667 0 -213.667 24.333 -297 73c-73.333 43.333 -133.333 105.666 -180 186.999c-41.333 70.667 -71.333 154.334 -90 251.001
c-16.667 82.667 -25 172.334 -25 269.001h283c0 -157.333 22.667 -280 68 -368c54 -104 138.333 -156 253 -156h250c16 0 33.333 1 52 3l48 5c-76 88 -114 178.333 -114 271c0 112.667 41.667 202.667 125 270c76.667 61.333 171.334 92 284.001 92
c112 0 206.333 -30.667 283 -92c84.667 -67.333 127 -157.333 127 -270c0 -92 -37.667 -182.333 -113 -271c42 -5.33301 93.333 -8 154 -8h133v-256h-244zM1320 685.999c-86 0 -129 -48.334 -129 -145.001c0 -54 20 -104 60 -150l23 -24l21 -17
c12.667 -9.33301 21 -14 25 -14s12.333 4.66699 25 14c7.33301 4.66699 14.333 10.334 21 17.001l24 23c40.667 46 61 96.333 61 151c0 96.667 -43.667 145 -131 145z" />
    <glyph glyph-name="uniFED3" unicode="&#x641;" horiz-adv-x="1003" arabic-form="initial" 
d="M428 1286v240h246v-240h-246zM943 203c2 -135.333 -70.6699 -203 -218.003 -203h-743v256h625c35.333 0 53 20.333 53 61v17h-146c-111.333 0 -202.666 40.333 -273.999 121c-67.333 75.333 -98.666 162.666 -93.999 261.999c4 127.333 47.333 228.333 130 303
c74.667 66.667 165.334 101.667 272.001 105c105.333 2.66699 195.333 -25.666 270 -84.999c81.333 -65.333 123 -154 125 -266v-571zM657.997 586l-1 103l-1 106c0 29.333 -7 54.333 -21 75c-18.667 26 -46 39 -82 39c-84.667 0 -129 -53.667 -133 -161
c-4 -108 37.667 -162 125 -162h113z" />
    <glyph glyph-name="uniFED4" unicode="&#x641;" horiz-adv-x="1179" arabic-form="medial" 
d="M461 1057v239h248v-239h-248zM932 0c-114 0 -227.332 20.333 -339.999 61c-110 -40.667 -221 -61 -333 -61h-279v256h168c59.333 0 109.666 2.66699 150.999 8c-76 86 -114 176.333 -114 271c0 112.667 41.333 202.667 124 270c76.667 61.333 171 92 283 92
c112.667 0 207 -30.667 283 -92c83.333 -67.333 125 -157.333 125 -270c0 -94 -37.667 -184.333 -113 -271c26 -4 52.333 -6.66699 79 -8h235v-256h-269zM592.001 686c-86 0 -129.001 -48.334 -129.001 -145.001c0 -54 20.667 -104 62 -150l23 -24l21 -17
c12.667 -9.33301 20.334 -14 23.001 -14c4 0 12.333 4.66699 25 14c6.66699 4.66699 13.667 10.334 21 17.001c8 7.33301 15.667 15 23 23c40 46 60 96.333 60 151c0 96.667 -43 145 -129 145z" />
    <glyph glyph-name="uniFED6" unicode="&#x642;" horiz-adv-x="1542" arabic-form="final" 
d="M976 948v238h248v-238h-248zM628 948v238h248v-238h-248zM1292 0c-33.333 -126 -101.999 -230.331 -205.999 -312.998c-110 -87.333 -237.333 -131 -382 -131c-180 0 -329 56.333 -447 169c-122.667 117.333 -184.667 271.666 -186 462.999l-4 279h287l2 -260
c0.666992 -104.667 35.334 -192.334 104.001 -263.001c68 -70 150 -105 246 -105c135.333 0 226.666 53.667 273.999 161h-92c-113.333 0 -204.666 38 -273.999 114c-65.333 71.333 -98 160.333 -98 267c0 124.667 42 225 126 301c75.333 68.667 167.666 105 276.999 109
c109.333 4.66699 201.666 -24 276.999 -86c84 -68.667 126 -163.667 126 -285v-164h236v-256h-266zM1030 256.002c-2 46 -2.99902 79.334 -2.99902 100.001c-1.33301 36.667 -2 69.667 -2 99c0 25.333 -7.33301 48.666 -22 69.999c-18.667 25.333 -43.334 38 -74.001 38
c-83.333 0 -127 -51 -131 -153c-4.66699 -102.667 36.333 -154 123 -154h109z" />
    <glyph glyph-name="uniFED7" unicode="&#x642;" horiz-adv-x="1003" arabic-form="initial" 
d="M600 1288v240h246v-240h-246zM252 1288v240h246v-240h-246zM943 203c2 -135.333 -70.6699 -203 -218.003 -203h-743v256h625c35.333 0 53 20.333 53 61v17h-146c-111.333 0 -202.666 40.333 -273.999 121c-67.333 75.333 -98.666 162.666 -93.999 261.999
c4 127.333 47.333 228.333 130 303c74.667 66.667 165.334 101.667 272.001 105c105.333 2.66699 195.333 -25.666 270 -84.999c81.333 -65.333 123 -154 125 -266v-571zM657.997 586l-1 103l-1 106c0 29.333 -7 54.333 -21 75c-18.667 26 -46 39 -82 39
c-84.667 0 -129 -53.667 -133 -161c-4 -108 37.667 -162 125 -162h113z" />
    <glyph glyph-name="uniFED8" unicode="&#x642;" horiz-adv-x="1179" arabic-form="medial" 
d="M639 1057v239h244v-239h-244zM291 1057v239h244v-239h-244zM932 0c-114 0 -227.332 20.333 -339.999 61c-110 -40.667 -221 -61 -333 -61h-279v256h168c59.333 0 109.666 2.66699 150.999 8c-76 86 -114 176.333 -114 271c0 112.667 41.333 202.667 124 270
c76.667 61.333 171 92 283 92c112.667 0 207 -30.667 283 -92c83.333 -67.333 125 -157.333 125 -270c0 -94 -37.667 -184.333 -113 -271c26 -4 52.333 -6.66699 79 -8h235v-256h-269zM592.001 686c-86 0 -129.001 -48.334 -129.001 -145.001c0 -54 20.667 -104 62 -150
l23 -24l21 -17c12.667 -9.33301 20.334 -14 23.001 -14c4 0 12.333 4.66699 25 14c6.66699 4.66699 13.667 10.334 21 17.001c8 7.33301 15.667 15 23 23c40 46 60 96.333 60 151c0 96.667 -43 145 -129 145z" />
    <glyph glyph-name="uniFEDE" unicode="&#x644;" horiz-adv-x="1554" arabic-form="final" 
d="M356 551c0 -26 0.333008 -61.668 1 -107.001l3 -319c0 -82 29.333 -152.333 88 -211c58 -58.667 127 -88 207 -88c80.667 0 150.334 29.667 209.001 89c58 58.667 86.667 129.334 86 212.001l-9 1204h289l2 -903c0 -54.667 18 -98.667 54 -132
c28.667 -26.667 58.667 -40 90 -40h194v-256h-211c-53.333 0 -97 13 -131 39c-19.333 -138 -83 -253 -191 -345c-108.667 -93.333 -235.334 -140 -380.001 -140c-160 0 -296.667 56.333 -410 169c-112 112 -168 246.667 -168 404l-8 424h285z" />
    <glyph glyph-name="uniFEDF" unicode="&#x644;" horiz-adv-x="677" arabic-form="initial" 
d="M617 287c0 -191.333 -103.667 -287 -311 -287h-324v256h244c69.333 0 104 32.667 104 98l-3 490c-1.33301 106.667 -2.33301 205 -3 295l-2 192h289z" />
    <glyph glyph-name="uniFEE0" unicode="&#x644;" horiz-adv-x="960" arabic-form="medial" 
d="M768 0c-49.333 0 -93.999 13.666 -133.999 40.999c-30 20.667 -55.667 47.334 -77 80.001c-59.333 -80.667 -143.666 -121 -252.999 -121h-322v256h240c32 0 60.667 8.33301 86 25c30 20 45 46.333 45 79l-4 971h286l4 -893c1.33301 -58 19.666 -104.333 54.999 -139
c29.333 -28.667 59.666 -43 90.999 -43h194v-256h-211z" />
    <glyph glyph-name="uniFEE2" unicode="&#x645;" horiz-adv-x="1675" arabic-form="final" 
d="M1696 0l-32.999 -0.000976562c-160 -1.33301 -279.333 47 -358 145c-76 -95.333 -188 -143 -336 -143c-222 0 -356.667 96.333 -404 289h-118c-58.667 0 -88 -43 -88 -129l10 -598h-287l-8 706c-2 102.667 26.667 178.334 86 227.001c50.667 41.333 121.667 62 213 62
h205c59.333 161.333 189.666 242 390.999 242c228.667 0 366.667 -110.667 414 -332c30.667 -144 135 -215 313 -213v-256zM1077 518.999c-23.333 37.333 -59.333 56 -108 56c-48 0 -83.667 -18.667 -107 -56c-18.667 -30 -28 -69.333 -28 -118s9.33301 -88.334 28 -119.001
c23.333 -38 59 -57 107 -57c48.667 0 84.667 19 108 57c19.333 30.667 29 70.334 29 119.001s-9.66699 88 -29 118z" />
    <glyph glyph-name="uniFEE3" unicode="&#x645;" horiz-adv-x="1093" arabic-form="initial" 
d="M928 115c-74.667 -76.667 -178.335 -115.001 -311.002 -115.001h-635v256h240c-14 42.667 -21 89.667 -21 141c0 118.667 35 213.667 105 285c74.667 76.667 178.334 115 311.001 115s236.334 -38.333 311.001 -115c70 -71.333 105 -165.666 105 -282.999
s-35 -212 -105 -284zM724.999 517.999c-24 36.667 -60 55 -108 55c-48.667 0 -85 -18.333 -109 -55c-18.667 -30.667 -28 -71 -28 -121c0 -48 9.33301 -86.667 28 -116c24 -37.333 60.333 -56 109 -56c48 0 84 18.667 108 56c19.333 30 29 68.667 29 116
c0 50 -9.66699 90.333 -29 121z" />
    <glyph glyph-name="uniFEE4" unicode="&#x645;" horiz-adv-x="1163" arabic-form="medial" 
d="M951 0c-68 -133.333 -192.333 -199.999 -373 -199.999s-305 66.667 -373 200h-223v256h182c12 102 52.667 183.667 122 245c74 64.667 171.333 97 292 97c121.333 0 219 -32.333 293 -97c68.667 -60.667 109 -142.334 121 -245.001h188v-256h-229zM686 316.001
c-24 38 -60 56.999 -108 56.999s-83.667 -19 -107 -57c-18.667 -30 -28 -69 -28 -117c0 -49.333 9.33301 -89 28 -119c23.333 -36.667 59 -55 107 -55s84 18.333 108 55c19.333 30.667 29 70.334 29 119.001c0 47.333 -9.66699 86.333 -29 117z" />
    <glyph glyph-name="uniFEE6" unicode="&#x646;" horiz-adv-x="1554" arabic-form="final" 
d="M528 971v235h245v-235h-245zM1359 0c-43.333 0 -87 12.999 -131 38.999c-19.333 -138 -83 -253 -191 -345c-108.667 -93.333 -235.334 -140 -380.001 -140c-160 0 -296.667 56.333 -410 169c-112 112 -168 246.667 -168 404l-8 651h285l4 -653
c0.666992 -82.667 30 -153 88 -211c58 -58.667 127 -88 207 -88c80.667 0 150.334 29.667 209.001 89c58 58.667 86.667 129.334 86 212.001l-9 653h289l2 -352c0 -54.667 18 -98.667 54 -132c28.667 -26.667 58.667 -40 90 -40h194v-256h-211z" />
    <glyph glyph-name="uniFEE7" unicode="&#x646;" horiz-adv-x="677" arabic-form="initial" 
d="M342 938v240h248v-240h-248zM617 287c0 -191.333 -103.667 -287 -311 -287h-324v256h244c69.333 0 104 32.667 104 98l-4 424h287z" />
    <glyph glyph-name="uniFEE8" unicode="&#x646;" horiz-adv-x="960" arabic-form="medial" 
d="M363 938v240h248v-240h-248zM768 0c-49.333 0 -93.999 13.666 -133.999 40.999c-30 20.667 -55.667 47.334 -77 80.001c-59.333 -80.667 -143.666 -121 -252.999 -121h-322v256h240c32 0 60.667 8.33301 86 25c30 20 45 46.333 45 79l-4 420h286l4 -342
c1.33301 -58 19.666 -104.333 54.999 -139c29.333 -28.667 59.666 -43 90.999 -43h194v-256h-211z" />
    <glyph glyph-name="uniFEEA" unicode="&#x647;" horiz-adv-x="1161" arabic-form="final" 
d="M835 0c-76 0 -140.666 27.332 -193.999 81.999c-42.667 44 -65.334 85 -68.001 123h-189c-57.333 0 -108 13.333 -152 40c-38 23.333 -70 56 -96 98c-22 34.667 -39 74 -51 118c-9.33301 36 -14 70 -14 102c0 128.667 38 226.334 114 293.001
c60 53.333 131.333 80 214 80c71.333 0 127.333 -18.333 168 -55v55h284l2 -582c0 -65.333 30.667 -98 92 -98h234v-256h-344zM567.001 638.999c-34 35.333 -71.6689 53 -113.002 53c-61.333 0 -94.666 -42.333 -99.999 -127c-2.66699 -24 3 -49 17 -75
c16.667 -32 40.334 -48 71.001 -48h127z" />
    <glyph glyph-name="uniFEEB" unicode="&#x647;" horiz-adv-x="1603" arabic-form="initial" 
d="M-18 0l-0.000976562 256.001h428c-84.667 97.333 -103 216 -55 356c-38.667 -12.667 -72 -25.667 -100 -39c-20.667 -9.33301 -31 -14.666 -31 -15.999l-74 207c2 0.666992 5 2 9 4l53 25c40 18 80.667 33.667 122 47c56.667 19.333 113.334 34.333 170.001 45
c70 12.667 139 18.667 207 18c151.333 -0.666992 284.666 -31.334 399.999 -92.001c101.333 -53.333 186.333 -128.333 255 -225c60.667 -84.667 106.334 -182.334 137.001 -293.001c26.667 -96 40 -193.667 40 -293h-1561zM1260 256.001
c-32.667 130.667 -88.667 225 -168 283c32.667 -114 17 -208.333 -47 -283h215zM710.999 664.001c-90 0 -135 -60.333 -135 -181c0 -55.333 15.333 -100 46 -134c27.333 -30.667 59 -46 95 -46c90 0 135 60 135 180c0 120.667 -47 181 -141 181z" />
    <glyph glyph-name="uniFEEC" unicode="&#x647;" horiz-adv-x="1703" arabic-form="medial" 
d="M1723 0l-1741 -0.000976562v256h428c-84.667 97.333 -103 216 -55 356c-38.667 -12.667 -72 -25.667 -100 -39c-20.667 -9.33301 -31 -14.666 -31 -15.999l-74 207c2 0.666992 5 2 9 4l53 25c40 18 80.667 33.667 122 47c56.667 19.333 113.334 34.333 170.001 45
c70 12.667 139 18.667 207 18c120 -0.666992 228.333 -20 325 -58c88.667 -34.667 166.667 -84 234 -148c61.333 -58 113 -127 155 -207c38 -71.333 67 -149.333 87 -234h211v-256zM1260 255.999c-32.667 130.667 -88.667 225 -168 283c32.667 -114 17 -208.333 -47 -283
h215zM710.999 663.999c-90 0 -135 -60.333 -135 -181c0 -55.333 15.333 -100 46 -134c27.333 -30.667 59 -46 95 -46c90 0 135 60 135 180c0 120.667 -47 181 -141 181z" />
    <glyph glyph-name="uniFEEE" unicode="&#x648;" horiz-adv-x="1220" arabic-form="final" 
d="M968 0c-38 -122.667 -103.997 -222.668 -197.997 -300.001c-98 -80.667 -215.667 -126.667 -353 -138l-138 157l-56 62c79.333 6 160.333 28.333 243 67c88.667 42 153.667 92.667 195 152h-103c-104.667 0 -192.334 40.667 -263.001 122
c-64.667 75.333 -97 161.666 -97 258.999c0 73.333 13.667 138 41 194c24.667 48.667 59 89.334 103 122.001c38.667 28.667 82.667 50.334 132 65.001c43.333 12 86.666 18 129.999 18c7.33301 0 16.666 -0.333008 27.999 -1c16 -1.33301 32.333 -3.66602 49 -6.99902
c46.667 -8 89 -21.333 127 -40c51.333 -24.667 92.333 -57.334 123 -98.001c38 -49.333 59.333 -109 64 -179l2 -199h241v-256h-270zM710.003 423.999c0 45.333 -6.00098 79.333 -18.001 102c-16.667 31.333 -47 47 -91 47c-41.333 0 -74.666 -17.333 -99.999 -52
c-23.333 -31.333 -35 -69 -35 -113c0 -101.333 42.333 -152 127 -152h117v168z" />
    <glyph glyph-name="uniFEF0" unicode="&#x649;" horiz-adv-x="1886" arabic-form="final" 
d="M1674 2l-0.000976562 -19.999c0 -160.667 -56.333 -297.667 -169 -411s-248.667 -170 -408 -170c-207.333 0 -367.333 57 -480 171c-112 113.333 -168.667 250 -170 410v110l-2 161h285c0.666992 -57.333 1 -112.333 1 -165l1 -106c0 -94 33.667 -170 101 -228
c56.667 -52 143.334 -76.667 260.001 -74c76.667 0 143.667 24.667 201 74c66.667 56.667 98.334 132.667 95.001 228v12h-431c-4.66699 97.333 1.66602 184.666 18.999 261.999h934v-256h-201c-12 0 -24 0.666992 -36 2z" />
    <glyph glyph-name="space" unicode=" " horiz-adv-x="434" 
 />
    <glyph glyph-name="exclam" unicode="!" horiz-adv-x="522" 
d="M77 342l-6 989h258l6 -989h-258zM79 0v242h258v-242h-258z" />
    <glyph glyph-name="percent" unicode="%" horiz-adv-x="827" 
d="M114 979v258h276v-258h-276zM243 -12l-172 86l512 1206l172 -86zM454 72v258h274v-258h-274z" />
    <glyph glyph-name="parenleft" unicode="(" horiz-adv-x="620" 
d="M586 1249c-97.333 -96 -174.001 -200.999 -230.001 -314.999c-62.667 -126.667 -94 -253 -94 -379c0 -109.333 32 -225.333 96 -348c26.667 -51.333 59.334 -104 98.001 -158c32.667 -46 69.667 -93.667 111 -143l-198 -80c-100.667 115.333 -177.667 229.333 -231 342
c-62 132.667 -93 265.667 -93 399c0 150 31 288.333 93 415c28.667 57.333 64.667 116.333 108 177c37.333 51.333 84.333 108.666 141 171.999z" />
    <glyph glyph-name="parenright" unicode=")" horiz-adv-x="655" 
d="M517 168c-52.667 -113.333 -129 -227.334 -229 -342.001l-201 80c42 49.333 79.333 97 112 143c38 54 70.667 106.667 98 158c64 122.667 96 238.667 96 348c0 126 -31.333 252.333 -94 379c-56 114 -132 219 -228 315l197 82c56 -63.333 102.667 -120.666 140 -171.999
c44 -60.667 80 -119.667 108 -177c62.667 -126.667 94 -265 94 -415c0 -133.333 -31 -266.333 -93 -399z" />
    <glyph glyph-name="asterisk" unicode="*" horiz-adv-x="1179" 
d="M955 1385c-69.333 -52.667 -153 -90.334 -251 -113.001c26 108.667 64 189.667 114 243c16 18.667 38 28 66 28c60.667 0 91 -32.333 91 -97c0 -25.333 -6.66699 -45.666 -20 -60.999zM699 1553c0 -12.667 -7.66699 -39.333 -23 -80
c-15.333 -58.667 -40.333 -116 -75 -172c-63.333 102.667 -95 185 -95 247c0 61.333 33.333 92 100 92c22 0 43 -8.5 63 -25.5s30 -37.5 30 -61.5zM1096 1153c0 -63.333 -32.667 -95 -98 -95c-56.667 0 -138.667 30 -246 90c98 64.667 178.333 97 241 97
c68.667 0 103 -30.667 103 -92zM247 1365c-18.667 19.333 -27.999 42.667 -27.999 70c0 66 34.333 99 103 99c24.667 0 45 -6.33301 61 -19c50.667 -68.667 87 -154.334 109 -257.001c-110.667 28.667 -192.334 64.334 -245.001 107.001zM695.001 1148
c-6.66699 -62.667 -36.333 -94 -89 -94c-70 0 -105 33 -105 99c0 61.333 35 92 105 92c59.333 0 89 -32.333 89 -97zM950.002 929.002c19.333 -16.667 29.001 -36.999 29.001 -60.999c0 -65.333 -31.667 -98 -95 -98c-40.667 0 -78.334 32.667 -113.001 98
c-16 27.333 -38.333 84.666 -67 171.999c116.667 -27.333 198.667 -64.333 246 -111zM699.003 756.003c0 -62 -31 -92.999 -93 -92.999c-25.333 0 -47.5 8.66699 -66.5 26s-28.5 39.666 -28.5 66.999c0 68 31.667 150.333 95 247c62 -96.667 93 -179 93 -247zM441.003 1153
c-101.333 -63.333 -183.667 -95 -247 -95c-62.667 0 -94 31.667 -94 95c0 21.333 8.66699 42 26 62s38.666 30 63.999 30c50.667 0 134.334 -30.667 251.001 -92zM379.002 803.004c-19.333 -18 -40 -26.999 -62 -26.999c-59.333 0 -89 30.667 -89 92
c0 27.333 6.33301 50.666 19 69.999c68.667 49.333 150.334 86.333 245.001 111c-24.667 -112 -62.334 -194 -113.001 -246z" />
    </font>
</defs>
</svg>
