<?xml version="1.0" standalone="no"?>
<!DOCTYPE svg PUBLIC "-//W3C//DTD SVG 1.1//EN" "http://www.w3.org/Graphics/SVG/1.1/DTD/svg11.dtd" >
<svg>
<metadata>
Created by FontForge 20090914 at Wed Oct 19 02:00:28 2011
 By www-data
(c) by Abolfazl Seilsepour - +98 912 591 3420  -  seilsepor@yahoo.com
</metadata>
<defs>
<font id="FarTwoLight" horiz-adv-x="1" >
  <font-face 
    font-family="Far.Two Light"
    font-weight="300"
    font-stretch="normal"
    units-per-em="2048"
    panose-1="2 10 5 3 2 1 2 2 2 4"
    ascent="1638"
    descent="-410"
    bbox="-241 -635 2615 2310"
    underline-thickness="60"
    underline-position="-690"
    unicode-range="U+0020-U+FEFC"
  />
<missing-glyph horiz-adv-x="1024" 
d="M128 0v1278h768v-1278h-768zM256 128h512v1022h-512v-1022z" />
    <glyph glyph-name=".notdef" unicode="&#x652;&#x64d;" horiz-adv-x="1024" 
d="M128 0v1278h768v-1278h-768zM256 128h512v1022h-512v-1022z" />
    <glyph glyph-name="copyright" unicode="&#x652;&#x64b;" horiz-adv-x="1816" 
d="M862 1495c125.333 0 247.5 -32 366.5 -96s211.833 -155.5 278.5 -274.5s100 -243.167 100 -372.5s-32.833 -253.333 -98.5 -372s-157.667 -210.5 -276 -275.5s-241.833 -97.5 -370.5 -97.5c-129.333 0 -252.833 32.5 -370.5 97.5s-209.5 156.833 -275.5 275.5
s-99 242.667 -99 372s33.5 253.5 100.5 372.5s160 210.5 279 274.5s240.833 96 365.5 96zM862 1431c-114 0 -225.169 -29.333 -333.502 -88s-193.166 -142.334 -254.499 -251.001s-92 -222 -92 -340s30 -230.833 90 -338.5s144 -191.667 252 -252s220.667 -90.5 338 -90.5
s230 30.167 338 90.5s192.167 144.333 252.5 252s90.5 220.5 90.5 338.5s-30.667 231.333 -92 340s-146.166 192.334 -254.499 251.001s-219.833 88 -334.5 88zM1230 1230l22 -293.999h-41c-26 83.333 -66.167 145.5 -120.5 186.5s-120.166 61.5 -197.499 61.5
c-58 0 -109.333 -12 -154 -36s-81.334 -55.667 -110.001 -95c-21.333 -30.667 -39 -71 -53 -121s-21 -102 -21 -156c0 -148.667 32 -258.167 96 -328.5s148 -105.5 252 -105.5c136 0 245 56.667 327 170l39 -20c-97.333 -142 -231 -213 -401 -213
c-140.667 0 -257 45.333 -349 136s-138 200.667 -138 330c0 134 49 248.333 147 343s223 142 375 142c33.333 0 60.333 -2 81 -6s59 -15 115 -33c16.667 -6 29 -9 37 -9c11.333 0 21 3.16699 29 9.5s16 19.166 24 38.499h41z" />
    <glyph glyph-name="uniE818" unicode="&#x651;&#x64b;" 
d="M488 1795c0 -32 -8.33301 -58.3301 -25 -78.9971c-18 -23.333 -42.333 -35 -73 -35c-48.667 0 -86 18.333 -112 55c-28.667 -66.667 -72.334 -100 -131.001 -100c-66 0 -99 37.333 -99 112c0 33.333 14.667 80.666 44 141.999l61 -31c-16.667 -44.667 -25 -71 -25 -79
c0 -32 10.667 -48 32 -48c32.667 0 54 16.667 64 50c5.33301 19.333 7.33301 49.666 6 90.999l78 41c0 -91.333 21 -137 63 -137c22 0 32.333 13.667 31 41c-0.666992 15.333 -12.667 41.666 -36 78.999l62 45c16.667 -22 31.334 -50 44.001 -84c10.667 -28 16 -49 16 -63z
M465 2180l-386 -95l-21 78l387 99zM470 2035l-386 -96l-21 79l387 99z" />
    <glyph glyph-name="uniFC5E" unicode="&#x651;&#x64c;" horiz-adv-x="0" arabic-form="isolated" 
d="M482 1702c0 -30 -8.33301 -55.668 -25 -77.001c-17.333 -22.667 -41 -34 -71 -34c-48 0 -84.667 18 -110 54c-27.333 -65.333 -70.333 -98 -129 -98c-64 0 -96 36.667 -96 110c0 32.667 14.333 78.667 43 138l60 -30c-16.667 -43.333 -25 -69.333 -25 -78
c0 -30.667 10.667 -46 32 -46c32 0 52.667 16.333 62 49c6 18.667 8 48.334 6 89.001l77 40c0 -89.333 20.667 -134 62 -134c22 0 32 13.667 30 41c-0.666992 15.333 -5 29.333 -13 42c-4.66699 6 -12 17.333 -22 34l61 45c16 -22 30.333 -49.333 43 -82
c10 -28 15 -49 15 -63zM494 2187c0 -72 -43.668 -117.999 -131.001 -137.999l-276 -66l-26 70l26 13c27.333 12.667 41 32 41 58c0 15.333 -5.33301 23 -16 23c-10 0 -23 -6.33301 -39 -19l-31 45c24.667 33.333 51.334 49.666 80.001 49
c47.333 -0.666992 71 -24.334 71 -71.001c0 -26 -7.33301 -50 -22 -72l74 28c-13.333 23.333 -20 49 -20 77c0 36 15.667 66.667 47 92c28 22.667 55.333 34 82 34c35.333 0 67 -11.667 95 -35c30 -24.667 45 -54 45 -88zM418.999 2187c0 28 -20 42 -60 42
c-14 0 -27 -4.33301 -39 -13s-18 -20 -18 -34c0 -14.667 6 -27.5 18 -38.5s25.667 -16.167 41 -15.5c38.667 3.33301 58 23 58 59z" />
    <glyph glyph-name="uniFC5F" unicode="&#x651;&#x64d;" horiz-adv-x="2" arabic-form="isolated" 
d="M456 1905l-385 -96l-22 79l388 99zM471 2133c0 -31.333 -8.33203 -57.666 -24.999 -79c-18 -23.333 -42.333 -35 -73 -35c-48.667 0 -86 18.667 -112 56c-28.667 -66.667 -72.334 -100 -131.001 -100c-66 0 -99 37.333 -99 112c0 32.667 14.667 79.667 44 141l62 -31
c-17.333 -44.667 -26 -71 -26 -79c0 -31.333 10.667 -47 32 -47c33.333 0 54.666 16.667 63.999 50c5.33301 18 7.66602 48 6.99902 90c15.333 8.66699 41 22.334 77 41c0 -91.333 21 -137 63 -137c22.667 0 33.334 13.667 32.001 41
c-1.33301 17.333 -13.666 43.666 -36.999 79l62 46c40 -52.667 60 -102 60 -148zM470.001 1746l-385 -95l-22 79l388 98z" />
    <glyph glyph-name="uniFC60" unicode="&#x651;&#x64e;" horiz-adv-x="12" arabic-form="isolated" 
d="M499 1668c0 -30 -8.33301 -55.668 -25 -77.001c-17.333 -22.667 -41 -34 -71 -34c-48 0 -84.667 18 -110 54c-27.333 -65.333 -70.333 -98 -129 -98c-64 0 -96 36.667 -96 110c0 32.667 14.333 78.667 43 138l60 -30c-16.667 -43.333 -25 -69.333 -25 -78
c0 -30.667 10.667 -46 32 -46c32 0 52.667 16.333 62 49c6 18.667 8 48.334 6 89.001l77 40c0 -89.333 20.667 -134 62 -134c22 0 32 13.667 30 41c-0.666992 15.333 -5 29.333 -13 42c-4.66699 6 -12 17.333 -22 34l61 45c16 -22 30.333 -49.333 43 -82
c10 -28 15 -49 15 -63zM452 1881l-378 -94l-21 78l380 96z" />
    <glyph glyph-name="uniFC61" unicode="&#x651;&#x64f;" horiz-adv-x="2" arabic-form="isolated" 
d="M492 1763c0 -32 -8.33203 -58.332 -24.999 -78.999c-18 -23.333 -42.333 -35 -73 -35c-48.667 0 -86 18.333 -112 55c-28.667 -66.667 -72.334 -100 -131.001 -100c-66 0 -99 37.333 -99 112c0 33.333 14.667 80.666 44 141.999l62 -31c-17.333 -44.667 -26 -71 -26 -79
c0 -32 10.667 -48 32 -48c33.333 0 54.666 16.667 63.999 50c5.33301 18 7.66602 48.333 6.99902 91c15.333 8.66699 41 22.334 77 41.001c0 -91.333 21 -137 63 -137c22.667 0 33.334 13.667 32.001 41c-1.33301 17.333 -13.666 43.666 -36.999 78.999l62 45
c18 -23.333 33 -51.333 45 -84c10 -27.333 15 -48.333 15 -63zM412.001 2111c0 28.667 -20.668 42.999 -62.001 42.999c-15.333 0 -28.666 -4.66699 -39.999 -14c-13.333 -10.667 -20 -23 -20 -37c0 -15.333 6.5 -28.166 19.5 -38.499s27.167 -14.833 42.5 -13.5
c40 2.66699 60 22.667 60 60zM235 2032c-14.667 22.667 -22 47 -22 73c0 36.667 16 68 48 94c28 24 56 36 84 36c36 0 68 -11.667 96 -35c31.333 -24.667 47 -54.334 47 -89c0 -74 -44.667 -121.333 -134 -142l-274 -64l-20 74c44.667 12 103 29.667 175 53z" />
    <glyph glyph-name="uniFC62" unicode="&#x651;&#x650;" horiz-adv-x="2" arabic-form="isolated" 
d="M467 1746l-385 -95l-22 79l388 98zM482 1974c0 -30.667 -8.33203 -56.666 -24.999 -77.999c-18 -23.333 -42.333 -35 -73 -35c-48.667 0 -86 18.333 -112 55c-28.667 -66 -72.334 -99 -131.001 -99c-66 0 -99 37 -99 111c0 32.667 14.667 80 44 142l62 -31
c-17.333 -44.667 -26 -71 -26 -79c0 -32 10.667 -48 32 -48c33.333 0 54.666 17 63.999 51c5.33301 18 7.66602 47.667 6.99902 89c15.333 9.33301 41 23.333 77 42c0 -91.333 21 -137 63 -137c22.667 0 33.334 13.667 32.001 41
c-1.33301 17.333 -13.666 43.666 -36.999 78.999l62 46c40 -53.333 60 -103 60 -149z" />
    <glyph glyph-name="uniFD3E" unicode="&#x652;&#x64e;" horiz-adv-x="1135" 
d="M1075 -412c0 -10 -8 -15 -24 -15c-50.667 0 -127 50.333 -229 151c-134 130.667 -238.667 297 -314 499c-139.333 2 -209 20.333 -209 55c91.333 96 137 170.333 137 223c-41.333 0 -85.833 -24.5 -133.5 -73.5s-74.834 -73.5 -81.501 -73.5
c-25.333 0 -43.666 54.333 -54.999 163c-74 36 -111 67.667 -111 95c0 30.667 35 66.667 105 108c7.33301 104 23.666 156 48.999 156c102 -96 177.667 -144 227 -144c-4.66699 51.333 -30.667 100 -78 146s-71 72 -71 78c0 10.667 20.333 22.334 61 35.001
c46 14 97.333 22 154 24c48 144.667 113 274 195 388c63.333 88.667 131.333 161.667 204 219c58 46 99 69 123 69c13.333 0 20 -7.66699 20 -23c0 -6.66699 -24.333 -37 -73 -91c-60 -67.333 -109 -136.666 -147 -207.999c-59.333 -109.333 -99 -230.666 -119 -363.999
c66.667 -10.667 100 -25.667 100 -45c-94 -94.667 -141 -168.334 -141 -221.001c48 0 119.667 49 215 147c12 0 24.333 -17.667 37 -53s20 -72.333 22 -111c70.667 -36.667 106 -70 106 -100c0 -24.667 -33.333 -56.667 -100 -96
c-5.33301 -106.667 -23.666 -160 -54.999 -160l-68 65c-46 45.333 -97 70.666 -153 75.999c0 -47.333 24.5 -95 73.5 -143s73.5 -76 73.5 -84c0 -15.333 -36 -30.333 -108 -45c21.333 -108.667 64.833 -220.834 130.5 -336.501s138.167 -207.834 217.5 -276.501
c13.333 -11.333 20 -22.666 20 -33.999zM680 618c0 35.333 -12.667 65.666 -38 90.999s-55.666 38 -90.999 38c-36 0 -66.5 -12.667 -91.5 -38s-37.5 -55.666 -37.5 -90.999c0 -34.667 12.5 -64.167 37.5 -88.5s55.5 -36.5 91.5 -36.5c35.333 0 65.666 12.167 90.999 36.5
s38 53.833 38 88.5z" />
    <glyph glyph-name="uniFDF2" unicode="&#xfedf;&#xfee0;&#xfeea;" horiz-adv-x="2430" arabic-form="isolated" 
d="M1830 1587c-4.66699 -37.333 -19.002 -67.3301 -43.002 -89.9971c-24 -24 -53.667 -33.667 -89 -29c-59.333 8 -104 41.333 -134 100c-51.333 -86.667 -112.333 -125.334 -183 -116.001c-76.667 10.667 -109 60 -97 148c5.33301 41.333 29.333 94.666 72 159.999l56 -39
c-26.667 -48.667 -40.667 -79 -42 -91c-6.66699 -47.333 7.33301 -73.333 42 -78c46 -6 79.333 13.333 100 58c10.667 24.667 18.334 62 23.001 112l85 31c-15.333 -112 7.33398 -172 68.001 -180c35.333 -4.66699 54.333 14.333 57 57c2 22 -1.33301 42.333 -10 61l-19 40
l70 38c13.333 -24 25.333 -58 36 -102c7.33301 -36.667 10 -63.334 8 -80.001zM2197 1325l0.000976562 -901.001c0 -109.333 -15.667 -184.333 -47 -225c-28.667 -37.333 -80.667 -56 -156 -56h-389c27.333 56.667 41 129 41 217v965h-143v-901
c0 -108 -15.667 -182.667 -47 -224c-29.333 -39.333 -82 -59 -158 -59h-148c-174.667 0 -262 108.667 -262 326v657h-434c-116 0 -210 -46 -282 -138c-71.333 -92 -107 -211 -107 -357c0 -137.333 34.667 -252.666 104 -345.999c70 -94.667 157 -142 261 -142
c146.667 0 251 52.667 313 158c59.333 -199.333 189.666 -299 390.999 -299h907c200.667 0 301 120 301 360v965h-145zM740.999 655.002c0 -267.333 -87.999 -401 -263.999 -401c-78.667 0 -143.334 37.667 -194.001 113c-50 73.333 -75 163.333 -75 270
c0 108.667 25.333 199 76 271c51.333 73.333 117 110 197 110h260v-363z" />
    <glyph glyph-name="uniFEF5" unicode="&#xfedf;&#xfe82;" horiz-adv-x="1120" arabic-form="isolated" 
d="M889 1325v-901c0 -108.667 -16 -183.667 -48 -225c-30 -38.667 -82.333 -58 -157 -58h-62l-258 1026h-155l264 -1026h-334v-141h592c200.667 0 301 120 301 360v965h-143zM463 1417c-32.667 -36.667 -62.668 -54.999 -90.001 -54.999c-5.33301 0 -17.333 3.33301 -36 10
l-43 17c-7.33301 3.33301 -12.666 5.66602 -15.999 6.99902l-62 23c-21.333 7.33301 -36 11 -44 11c-47.333 0 -88.333 -26.667 -123 -80l35 -47c33.333 39.333 61.333 59 84 59c8 0 22 -3.66699 42 -11l59 -24l59 -24c20 -7.33301 34.333 -11 43 -11c40.667 0 83 26 127 78
z" />
    <glyph glyph-name="uniFEF6" unicode="&#xfee0;&#xfe82;" horiz-adv-x="1300" arabic-form="final" 
d="M1339 143l-354 0.00195312c28.667 55.333 43 127.666 43 216.999v965h-145v-901c0 -108.667 -15.667 -183.334 -47 -224.001c-29.333 -39.333 -82 -59 -158 -59h-60l-260 1026h-153l264 -1026h-334v-141h1204v143zM463 1417
c-32.667 -36.667 -62.668 -54.999 -90.001 -54.999c-5.33301 0 -17.333 3.33301 -36 10l-43 17c-7.33301 3.33301 -12.666 5.66602 -15.999 6.99902l-62 23c-21.333 7.33301 -36 11 -44 11c-47.333 0 -88.333 -26.667 -123 -80l35 -47c33.333 39.333 61.333 59 84 59
l203 -70c40.667 0 83 26 127 78z" />
    <glyph glyph-name="uniFEF7" unicode="&#xfedf;&#xfe84;" horiz-adv-x="1120" arabic-form="isolated" 
d="M888 1325v-901c0 -108.667 -16 -183.667 -48 -225c-29.333 -38.667 -81.333 -58 -156 -58h-62l-258 1026h-156l265 -1026h-334v-141h592c200.667 0 301 120 301 360v965h-144zM458 1520c-18 87.333 -71 131.001 -159 131.001c-112 0 -168 -60.333 -168 -181
c0 -26.667 4.66699 -50.334 14 -71.001h-82v-82h391v82h-219c-13.333 19.333 -20 44 -20 74c0 73.333 28 110 84 110c42 0 67 -24 75 -72z" />
    <glyph glyph-name="uniFEF8" unicode="&#xfee0;&#xfe84;" horiz-adv-x="1300" arabic-form="final" 
d="M1339 143l-354 0.00195312c28.667 55.333 43 127.666 43 216.999v965h-146v-901c0 -108.667 -15.333 -183.334 -46 -224.001c-29.333 -39.333 -82.333 -59 -159 -59h-59l-260 1026h-154l265 -1026h-334v-141h1204v143zM458 1520c-18 87.333 -71 131.001 -159 131.001
c-112 0 -168 -60.333 -168 -181c0 -26.667 4.66699 -50.334 14 -71.001h-82v-82h391v82h-219c-13.333 19.333 -20 44 -20 74c0 73.333 28 110 84 110c42 0 67 -24 75 -72z" />
    <glyph glyph-name="uniFEF9" unicode="&#xfedf;&#xfe88;" horiz-adv-x="1120" arabic-form="isolated" 
d="M888 1325v-901c0 -94 -10.333 -159.667 -31 -197c-30.667 -57.333 -88.667 -86 -174 -86h-61l-258 1026h-156l264 -1026h-333v-141h591c201.333 0 302 120 302 360v965h-144zM421 -215c-18 86 -71.333 129.001 -160 129.001c-54.667 0 -97.667 -17.667 -129 -53
c-24 -30.667 -36 -72.334 -36 -125.001c0 -27.333 4 -51 12 -71h-80v-82h393v82h-221c-13.333 17.333 -20 41 -20 71c0 74 28 111 84 111c41.333 0 67 -24 77 -72z" />
    <glyph glyph-name="uniFEFA" unicode="&#xfee0;&#xfe88;" horiz-adv-x="1300" arabic-form="final" 
d="M1339 143l-355 0.00195312c28.667 55.333 43 127.666 43 216.999v965h-145v-901c0 -108.667 -15.333 -183.334 -46 -224.001c-29.333 -39.333 -82.333 -59 -159 -59h-59l-260 1026h-154l264 -1026h-334v-141h1205v143zM421 -214.998c-18 86 -71.333 129 -160 129
c-110 0 -165 -59.333 -165 -178c0 -27.333 4 -51 12 -71h-80v-82h393v82h-221c-13.333 17.333 -20 41 -20 71c0 74 28 111 84 111c41.333 0 67 -24 77 -72z" />
    <glyph glyph-name="uniFEFB" unicode="&#xfedf;&#xfe8e;" horiz-adv-x="1120" arabic-form="isolated" 
d="M889 1325v-901c0 -94 -10.333 -159.667 -31 -197c-30.667 -57.333 -88.667 -86 -174 -86h-62l-258 1026h-155l264 -1026h-334v-141h592c200.667 0 301 120 301 360v965h-143z" />
    <glyph glyph-name="uniFEFC" unicode="&#xfee0;&#xfe8e;" horiz-adv-x="1304" arabic-form="final" 
d="M1343 143l-354 0.00195312c28.667 55.333 43 127.666 43 216.999v965h-145v-901c0 -108.667 -15.667 -183.334 -47 -224.001c-29.333 -39.333 -82 -59 -158 -59h-60l-260 1026h-153l264 -1026h-334v-141h1204v143z" />
    <glyph glyph-name="afii57410" unicode="&#x622;" horiz-adv-x="440" arabic-form="isolated" 
d="M515 1487c-49.333 -58.667 -97.332 -88 -143.999 -88c-24.667 0 -61.667 12.333 -111 37c-43.333 22 -74 33 -92 33c-16.667 0 -44.667 -23.667 -84 -71l-51 68c39.333 60 85.666 90 138.999 90c26 0 64 -12.333 114 -37c44 -20 73 -30 87 -30c22 0 52.333 22 91 66z
M330.001 1325h-144v-1325h144v1325z" />
    <glyph glyph-name="afii57411" unicode="&#x623;" horiz-adv-x="440" arabic-form="isolated" 
d="M329 1325h-143v-1325h143v1325zM458 1620c-18 87.333 -71 131 -159 131c-112 0 -168 -60 -168 -180c0 -26.667 4.66699 -50.667 14 -72h-82v-82h391v82h-219c-13.333 19.333 -20 44 -20 74c0 73.333 28 110 84 110c42 0 67 -23.667 75 -71z" />
    <glyph glyph-name="afii57412" unicode="&#x624;" horiz-adv-x="991" arabic-form="isolated" 
d="M902 479c0 133.333 -36.333 242.667 -109 328c-72 86 -164 129 -276 129c-116 0 -210.333 -42.333 -283 -127c-72 -84 -108 -192 -108 -324c0 -132.667 37 -241.667 111 -327c74 -84.667 167.333 -127 280 -127c116 0 196.667 38.667 242 116
c-4 -230 -100.333 -345 -289 -345v-137c288 15.333 432 185 432 509v305zM698 253.001c-45.333 -62 -105 -93.001 -179 -93.001s-134.667 31.333 -182 94c-46.667 61.333 -70 139 -70 233c0 92 21.667 168 65 228c45.333 62.667 104.333 94 177 94c74.667 0 136 -32 184 -96
c46.667 -62 70 -140 70 -234c0 -91.333 -21.667 -166.666 -65 -225.999zM765 1298c-22.667 108 -88.333 162 -197 162c-136 0 -204 -73.667 -204 -221c0 -31.333 5.33301 -61.333 16 -90h-100v-100h483v100h-270c-16.667 24.667 -25 54.667 -25 90
c0 91.333 33.333 137 100 137c53.333 0 86.333 -29.333 99 -88z" />
    <glyph glyph-name="afii57413" unicode="&#x625;" horiz-adv-x="460" arabic-form="isolated" 
d="M350 1325h-143v-1325h143v1325zM442 -215c-18 86 -71.333 129.001 -160 129.001c-54.667 0 -97.667 -17.667 -129 -53c-24 -30.667 -36 -72.334 -36 -125.001c0 -27.333 4 -51 12 -71h-80v-82h393v82h-221c-13.333 17.333 -20 41 -20 71c0 74 28 111 84 111
c41.333 0 67 -24 77 -72z" />
    <glyph glyph-name="afii57414" unicode="&#x626;" horiz-adv-x="1492" arabic-form="isolated" 
d="M552 1008c-22 106 -87.334 159 -196.001 159c-136.667 0 -205 -73.667 -205 -221c0 -30 5.33301 -59.333 16 -88h-100v-100h485v100h-272c-16.667 24.667 -25 54 -25 88c0 92.667 33.667 139 101 139c52.667 0 85.334 -30 98.001 -90zM1404 551h-500.998
c58.667 234.667 200 352 424 352v125c-375.333 0 -576.333 -207.333 -603 -622h539c0 -186 -47.333 -333.333 -142 -442c-95.333 -109.333 -224 -164 -386 -164c-150.667 0 -272.334 47.333 -365.001 142s-145.334 226 -158.001 394c-1.33301 13.333 -2 87 -2 221h-145v-197
c0 -197.333 63.667 -363 191 -497c128 -134.667 285.667 -202 473 -202h12c188.667 0 346.667 67.333 474 202c126 134 189 299.667 189 497v191z" />
    <glyph glyph-name="afii57415" unicode="&#x627;" horiz-adv-x="440" arabic-form="isolated" 
d="M329 1325h-143v-1325h143v1325z" />
    <glyph glyph-name="afii57416" unicode="&#x628;" horiz-adv-x="1671" arabic-form="isolated" 
d="M1439 930v-506c0 -109.333 -15.667 -184.333 -47 -225c-28.667 -37.333 -80.667 -56 -156 -56h-593c-290 0 -435 151 -435 453v336h-143v-336c0 -397.333 196.667 -596 590 -596h629c199.333 0 299 120 299 360v570h-144zM937 -137h-145v-174h145v174z" />
    <glyph glyph-name="afii57417" unicode="&#x629;" horiz-adv-x="1028" arabic-form="isolated" 
d="M829 811c-80 90 -188 135.001 -324 135.001c-134.667 0 -241.667 -45.667 -321 -137c-79.333 -87.333 -119 -199.333 -119 -336c0 -140.667 38.333 -253.334 115 -338.001c79.333 -90 187 -135 323 -135c134 -0 241.333 46.333 322 139c76 89.333 114 201.333 114 336
c0 138 -36.667 250 -110 336zM503 121.001c-92 0 -162.333 35.333 -211 106c-40.667 59.333 -61 138 -61 236c0 104.667 20.333 188.667 61 252c49.333 73.333 123.333 110 222 110c90 0 158.667 -34 206 -102c37.333 -59.333 56 -138 56 -236c0 -244 -91 -366 -273 -366z
M493 1361c-18 87.333 -71 131.001 -159 131.001c-112 0 -168 -60.333 -168 -181c0 -26.667 4.66699 -50.334 14 -71.001h-82v-82h391v82h-219c-13.333 19.333 -20 44 -20 74c0 73.333 28 110 84 110c42 0 67 -24 75 -72z" />
    <glyph glyph-name="afii57418" unicode="&#x62a;" horiz-adv-x="1671" arabic-form="isolated" 
d="M1038 1106h-146v-174h146v174zM770 1106h-146v-174h146v174zM1439 930v-506c0 -109.333 -15.667 -184.333 -47 -225c-28.667 -37.333 -80.667 -56 -156 -56h-593c-290 0 -435 151 -435 453v336h-143v-336c0 -397.333 196.667 -596 590 -596h629
c199.333 0 299 120 299 360v570h-144z" />
    <glyph glyph-name="afii57419" unicode="&#x62b;" horiz-adv-x="1671" arabic-form="isolated" 
d="M907 1331h-146v-174h146v174zM1042 1106h-146v-174h146v174zM774 1106h-148v-174h148v174zM1439 930v-506c0 -109.333 -15.667 -184.333 -47 -225c-28.667 -37.333 -80.667 -56 -156 -56h-593c-290 0 -435 151 -435 453v336h-143v-336c0 -397.333 196.667 -596 590 -596
h629c199.333 0 299 120 299 360v570h-144z" />
    <glyph glyph-name="afii57420" unicode="&#x62c;" horiz-adv-x="1052" arabic-form="isolated" 
d="M962 498c1.33301 13.333 1.99902 33.667 1.99902 61c0 394.667 -155.667 592 -467 592c-70 0 -120.333 -7 -151 -21v-124c36 18.667 75.333 28 118 28c216 0 334.333 -130.333 355 -391h-295c-145.333 0 -260.666 -51.667 -345.999 -155c-75.333 -92 -113 -204 -113 -336
c0 -148 47 -267 141 -357c92.667 -88 213 -132 361 -132h213v151h-213c-230.667 0 -346 109 -346 327c0 108 31.333 194.333 94 259c63.333 65.333 147.333 98 252 98h395zM644.999 225.001h-146v-174h146v174z" />
    <glyph glyph-name="afii57421" unicode="&#x62d;" horiz-adv-x="1052" arabic-form="isolated" 
d="M962 498c1.33301 13.333 1.99902 33.667 1.99902 61c0 394.667 -155.667 592 -467 592c-70 0 -120.333 -7 -151 -21v-124c36 18.667 75.333 28 118 28c216 0 334.333 -130.333 355 -391h-295c-145.333 0 -260.666 -51.667 -345.999 -155c-75.333 -92 -113 -204 -113 -336
c0 -148 47 -267 141 -357c92.667 -88 213 -132 361 -132h213v151h-213c-230.667 0 -346 109 -346 327c0 108 31.333 194.333 94 259c63.333 65.333 147.333 98 252 98h395z" />
    <glyph glyph-name="afii57422" unicode="&#x62e;" horiz-adv-x="1052" arabic-form="isolated" 
d="M698 1485h-146v-174h146v174zM962 498c1.33301 13.333 1.99902 33.667 1.99902 61c0 394.667 -155.667 592 -467 592c-70 0 -120.333 -7 -151 -21v-124c36 18.667 75.333 28 118 28c216 0 334.333 -130.333 355 -391h-295c-145.333 0 -260.666 -51.667 -345.999 -155
c-75.333 -92 -113 -204 -113 -336c0 -148 47 -267 141 -357c92.667 -88 213 -132 361 -132h213v151h-213c-230.667 0 -346 109 -346 327c0 108 31.333 194.333 94 259c63.333 65.333 147.333 98 252 98h395z" />
    <glyph glyph-name="afii57423" unicode="&#x62f;" horiz-adv-x="1103" arabic-form="isolated" 
d="M1015 0c0 256 -31.333 452 -94 588c-104.667 229.333 -302 344 -592 344v-135h56c171.333 -10.667 297.333 -81.667 378 -213c67.333 -110 101 -257 101 -441h-758v-143h909z" />
    <glyph glyph-name="afii57424" unicode="&#x630;" horiz-adv-x="1103" arabic-form="isolated" 
d="M567 1251h-146v-174h146v174zM1015 0c0 256 -31.333 452 -94 588c-104.667 229.333 -302 344 -592 344v-135h56c171.333 -10.667 297.333 -81.667 378 -213c67.333 -110 101 -257 101 -441h-758v-143h909z" />
    <glyph glyph-name="afii57425" unicode="&#x631;" horiz-adv-x="583" arabic-form="isolated" 
d="M352 930v-783c0 -230 -95.667 -345 -287 -345v-137c286.667 15.333 430 185 430 509v756h-143z" />
    <glyph glyph-name="afii57426" unicode="&#x632;" horiz-adv-x="585" arabic-form="isolated" 
d="M497 1251h-145v-174h145v174zM352 930v-783c0 -230 -95.667 -345 -287 -345v-137c286.667 15.333 430 185 430 509v756h-143z" />
    <glyph glyph-name="afii57427" unicode="&#x633;" horiz-adv-x="2418" arabic-form="isolated" 
d="M2185 930v-505.999c0 -108 -15 -182 -45 -222c-29.333 -39.333 -82.666 -59 -160 -59h-246c26 54 39 126.333 39 217v570h-143v-506c0 -108 -12.667 -182 -38 -222c-24.667 -39.333 -70 -59 -136 -59h-258c16 75.333 24 147.666 24 216.999v570h-145v-596
c-10.667 -166 -53.667 -296.333 -129 -391c-76 -95.333 -177 -143 -303 -143c-134 0 -240.333 54 -319 162c-78.667 107.333 -118 251 -118 431v537h-143v-565c0 -205.333 56 -374.333 168 -507c110 -131.333 247.333 -197 412 -197c246 0 420.667 130 524 390
c5.33301 -18 8 -35 8 -51h850c202 0 303 120 303 360v570h-145z" />
    <glyph glyph-name="afii57428" unicode="&#x634;" horiz-adv-x="2418" arabic-form="isolated" 
d="M1912 1251h-145v-174h145v174zM1775 1479h-145v-174h145v174zM1644 1251h-145v-174h145v174zM2185 930v-505.999c0 -108 -15 -182 -45 -222c-29.333 -39.333 -82.666 -59 -160 -59h-246c26 54 39 126.333 39 217v570h-143v-506c0 -108 -12.667 -182 -38 -222
c-24.667 -39.333 -70 -59 -136 -59h-258c16 75.333 24 147.666 24 216.999v570h-145v-596c-10.667 -166 -53.667 -296.333 -129 -391c-76 -95.333 -177 -143 -303 -143c-134 0 -240.333 54 -319 162c-78.667 107.333 -118 251 -118 431v537h-143v-565
c0 -205.333 56 -374.333 168 -507c110 -131.333 247.333 -197 412 -197c246 0 420.667 130 524 390c5.33301 -18 8 -35 8 -51h850c202 0 303 120 303 360v570h-145z" />
    <glyph glyph-name="afii57429" unicode="&#x635;" horiz-adv-x="2430" arabic-form="isolated" 
d="M2336 0c6.66699 95.333 10 174.667 10 238c0 462.667 -163.667 694 -491 694c-117.333 0 -233 -41.333 -347 -124c-116.667 -84 -212 -197 -286 -339v461h-143v-537c0 -181.333 -38 -325 -114 -431c-78 -108 -184.667 -162 -320 -162c-134 0 -240.333 54 -319 162
c-78.667 107.333 -118 251 -118 431v537h-143v-565c0 -205.333 56 -374.333 168 -507c110 -131.333 247.333 -197 412 -197c216 0 383 113 501 339h1190zM1195 141.001c8 30 14.333 63.667 19 101c64.667 157.333 157.334 289.666 278.001 396.999
c121.333 108 239 162 353 162c111.333 0 198.666 -48.667 261.999 -146c62.667 -95.333 94 -223.666 94 -384.999c0 -40.667 -2 -83.667 -6 -129h-1000z" />
    <glyph glyph-name="afii57430" unicode="&#x636;" horiz-adv-x="2430" arabic-form="isolated" 
d="M1890 1251h-146v-174h146v174zM2336 0c6.66699 95.333 10 174.667 10 238c0 462.667 -163.667 694 -491 694c-117.333 0 -233 -41.333 -347 -124c-116.667 -84 -212 -197 -286 -339v461h-143v-537c0 -181.333 -38 -325 -114 -431c-78 -108 -184.667 -162 -320 -162
c-134 0 -240.333 54 -319 162c-78.667 107.333 -118 251 -118 431v537h-143v-565c0 -205.333 56 -374.333 168 -507c110 -131.333 247.333 -197 412 -197c216 0 383 113 501 339h1190zM1195 141.001c8 30 14.333 63.667 19 101
c64.667 157.333 157.334 289.666 278.001 396.999c121.333 108 239 162 353 162c111.333 0 198.666 -48.667 261.999 -146c62.667 -95.333 94 -223.666 94 -384.999c0 -40.667 -2 -83.667 -6 -129h-1000z" />
    <glyph glyph-name="afii57431" unicode="&#x637;" horiz-adv-x="1611" arabic-form="isolated" 
d="M1509 0c9.33301 80 14 159.333 14 238c0 462.667 -164.333 694 -493 694c-132.667 0 -261 -51.333 -385 -154c-124.667 -103.333 -221.667 -239 -291 -407l33 952h-152v-1182h-170v-141h1444zM356 141c49.333 174.667 140 328 272 460c132.667 133.333 263 200 391 200
c110.667 0 197.667 -48 261 -144c64 -95.333 96 -224.333 96 -387c0 -40.667 -2 -83.667 -6 -129h-1014z" />
    <glyph glyph-name="afii57432" unicode="&#x638;" horiz-adv-x="1611" arabic-form="isolated" 
d="M1064 1251h-145v-174h145v174zM1509 0c9.33301 80 14 159.333 14 238c0 462.667 -164.333 694 -493 694c-132.667 0 -261 -51.333 -385 -154c-124.667 -103.333 -221.667 -239 -291 -407l33 952h-152v-1182h-170v-141h1444zM356 141c49.333 174.667 140 328 272 460
c132.667 133.333 263 200 391 200c110.667 0 197.667 -48 261 -144c64 -95.333 96 -224.333 96 -387c0 -40.667 -2 -83.667 -6 -129h-1014z" />
    <glyph glyph-name="afii57433" unicode="&#x639;" horiz-adv-x="1226" arabic-form="isolated" 
d="M1138 641l-551 -0.000976562c-56 72.667 -84 152 -84 238c0 230.667 82.667 346 248 346c130.667 0 207 -64.333 229 -193l156 17c-38.667 185.333 -167.667 278 -387 278c-122.667 0 -220.667 -42 -294 -126c-71.333 -82.667 -107 -190.667 -107 -324
c0 -101.333 20.333 -184.666 61 -249.999c-102.667 -26 -185.667 -82.667 -249 -170c-63.333 -88 -95 -189.667 -95 -305c0 -148 47 -267 141 -357c92.667 -88 213 -132 361 -132h258v151h-258c-230.667 0 -346 109 -346 327c0 108 31.333 194.333 94 259
c63.333 65.333 147.333 98 252 98h571v143z" />
    <glyph glyph-name="afii57434" unicode="&#x63a;" horiz-adv-x="1226" arabic-form="isolated" 
d="M825 1651h-146v-174h146v174zM1138 641l-551 -0.000976562c-56 72.667 -84 152 -84 238c0 230.667 82.667 346 248 346c130.667 0 207 -64.333 229 -193l156 17c-38.667 185.333 -167.667 278 -387 278c-122.667 0 -220.667 -42 -294 -126
c-71.333 -82.667 -107 -190.667 -107 -324c0 -101.333 20.333 -184.666 61 -249.999c-102.667 -26 -185.667 -82.667 -249 -170c-63.333 -88 -95 -189.667 -95 -305c0 -148 47 -267 141 -357c92.667 -88 213 -132 361 -132h258v151h-258c-230.667 0 -346 109 -346 327
c0 108 31.333 194.333 94 259c63.333 65.333 147.333 98 252 98h571v143z" />
    <glyph glyph-name="afii57441" unicode="&#x641;" horiz-adv-x="1886" arabic-form="isolated" 
d="M1449 1249h-145v-174h145v174zM1683 800c-76.667 85.333 -179.666 127.999 -308.999 127.999c-132 0 -237.667 -44 -317 -132c-76.667 -85.333 -115 -196.333 -115 -333c0 -132 33.333 -238.667 100 -320h-399c-290 0 -435 151 -435 453v295h-143v-295
c0 -397.333 196.667 -596 590 -596h715c127.333 0 230.666 44.333 309.999 133c78.667 86.667 118 197.334 118 332.001c0 139.333 -38.333 251 -115 335zM1372 118.999c-180.667 0 -271 112 -271 336c0 236 93 354 279 354c172 0 258 -110 258 -330
c0 -240 -88.667 -360 -266 -360z" />
    <glyph glyph-name="afii57442" unicode="&#x642;" horiz-adv-x="1449" arabic-form="isolated" 
d="M1165 1251h-148v-174h148v174zM896 1251h-147v-174h147v174zM1361 543c0 132 -36 235.333 -108 310c-71.333 73.333 -167.666 110 -288.999 110c-256.667 0 -385 -142 -385 -426c0 -130 36.333 -233.333 109 -310c74 -76 168 -114 282 -114c104.667 0 188 36 250 108
c-18.667 -147.333 -79.334 -257 -182.001 -329c-88 -61.333 -196 -92 -324 -92c-146.667 0 -266.667 51.667 -360 155c-94.667 104.667 -142 239 -142 403v338h-147v-364c0 -196.667 62.667 -357.667 188 -483c128 -125.333 283.667 -188 467 -188c200.667 0 357 58 469 174
c114.667 116 172 276.667 172 482v226zM1161 324c-44.667 -67.333 -108.334 -100.999 -191.001 -100.999c-83.333 0 -147.333 35.667 -192 107c-36 58 -54 128.333 -54 211c0 75.333 16.667 142.666 50 201.999c42.667 74 103.334 111 182.001 111h20
c86 0 150.333 -37.667 193 -113c31.333 -58.667 47 -129.667 47 -213c0 -80.667 -18.333 -148.667 -55 -204z" />
    <glyph glyph-name="afii57443" unicode="&#x643;" horiz-adv-x="1886" arabic-form="isolated" 
d="M1813 0v205.999c0 210 -60 378 -180 504c-122 128.667 -287.333 193 -496 193h-182l244 420h-170l-314 -562h422c174 0 305 -55 393 -165c75.333 -93.333 113 -219.666 113 -378.999l-4 -74h-996c-290 0 -435 151 -435 453h-143c0 -397.333 196.667 -596 590 -596h1158z
" />
    <glyph glyph-name="afii57444" unicode="&#x644;" horiz-adv-x="1310" arabic-form="isolated" 
d="M208 561h-143v-196c0 -208 55.333 -377.333 166 -508c112.667 -130.667 250.667 -196 414 -196c162 0 297.667 64.667 407 194c113.333 133.333 170 303.333 170 510v960h-143v-932c0 -160 -32 -293.667 -96 -401c-76 -128 -188.667 -192 -338 -192
c-148 0 -260.667 64 -338 192c-66 110 -99 243.667 -99 401v168z" />
    <glyph glyph-name="afii57445" unicode="&#x645;" horiz-adv-x="1607" arabic-form="isolated" 
d="M1405 804c-76.667 84 -180.001 126 -310.001 126h-592c-292 0 -438 -189.333 -438 -568v-693h143v685c0 300.667 98.333 451 295 451h281c-80.667 -86.667 -121 -198.667 -121 -336c0 -139.333 37.333 -250.666 112 -333.999c77.333 -86 183.333 -129 318 -129
c126.667 0 229.334 43 308.001 129c78.667 85.333 118 196.666 118 333.999c0 140 -38 251.667 -114 335zM1093 139c-169.333 0 -254 106.667 -254 320c0 226.667 87.333 340 262 340c164 0 246 -106 246 -318c0 -228 -84.667 -342 -254 -342z" />
    <glyph glyph-name="afii57446" unicode="&#x646;" horiz-adv-x="1310" arabic-form="isolated" 
d="M714 1251h-145v-174h145v174zM1079 930v-537c0 -181.333 -38 -325 -114 -431c-78 -108 -184.667 -162 -320 -162c-134 0 -240.333 54 -319 162c-78.667 107.333 -118 251 -118 431v537h-143v-565c0 -205.333 56 -374.333 168 -507c110 -131.333 247.333 -197 412 -197
c165.333 0 303 67.333 413 202c109.333 134 164 301.333 164 502v565h-143z" />
    <glyph glyph-name="afii57470" unicode="&#x647;" horiz-adv-x="1028" arabic-form="isolated" 
d="M829 811c-80 90 -188 135.001 -324 135.001c-134.667 0 -241.667 -45.667 -321 -137c-79.333 -87.333 -119 -199.333 -119 -336c0 -140.667 38.333 -253.334 115 -338.001c79.333 -90 187 -135 323 -135c134 -0 241.333 46.333 322 139c76 89.333 114 201.333 114 336
c0 138 -36.667 250 -110 336zM503 121.001c-92 0 -162.333 35.333 -211 106c-40.667 59.333 -61 138 -61 236c0 104.667 20.333 188.667 61 252c49.333 73.333 123.333 110 222 110c90 0 158.667 -34 206 -102c37.333 -59.333 56 -138 56 -236c0 -244 -91 -366 -273 -366z
" />
    <glyph glyph-name="afii57448" unicode="&#x648;" horiz-adv-x="991" arabic-form="isolated" 
d="M902 479c0 133.333 -36.333 242.667 -109 328c-72 86 -164 129 -276 129c-116 0 -210.333 -42.333 -283 -127c-72 -84 -108 -192 -108 -324c0 -132.667 37 -241.667 111 -327c74 -84.667 167.333 -127 280 -127c116 0 196.667 38.667 242 116
c-4 -230 -100.333 -345 -289 -345v-137c288 15.333 432 185 432 509v305zM697 253.001c-45.333 -62 -104.667 -93.001 -178 -93.001c-74 0 -134.667 31.333 -182 94c-46.667 61.333 -70 139 -70 233c0 92 21.667 168 65 228c45.333 62.667 104.333 94 177 94
c74.667 0 136 -32 184 -96c46.667 -62 70 -140 70 -234c0 -91.333 -22 -166.666 -66 -225.999z" />
    <glyph glyph-name="afii57449" unicode="&#x649;" horiz-adv-x="1492" arabic-form="isolated" 
d="M1404 551l-502.998 -0.000976562c60.667 234.667 202.667 352 426 352v125c-372.667 0 -574.334 -207.333 -605.001 -622h541c0 -186 -47.333 -333.333 -142 -442c-95.333 -109.333 -224 -164 -386 -164c-151.333 0 -273 47 -365 141
c-92.667 94.667 -145.334 226.334 -158.001 395.001c-1.33301 13.333 -2 87 -2 221h-145v-197c0 -197.333 63.667 -363 191 -497c128 -134.667 285.667 -202 473 -202h12c188 0 345.667 67.333 473 202c126.667 134 190 299.667 190 497v191z" />
    <glyph glyph-name="afii57450" unicode="&#x64a;" horiz-adv-x="1492" arabic-form="isolated" 
d="M1404 551l-502.998 -0.000976562c60.667 234.667 202.667 352 426 352v125c-372.667 0 -574.334 -207.333 -605.001 -622h541c0 -186 -47.333 -333.333 -142 -442c-95.333 -109.333 -224 -164 -386 -164c-151.333 0 -273 47 -365 141
c-92.667 94.667 -145.334 226.334 -158.001 395.001c-1.33301 13.333 -2 87 -2 221h-145v-197c0 -197.333 63.667 -363 191 -497c128 -134.667 285.667 -202 473 -202h12c188 0 345.667 67.333 473 202c126.667 134 190 299.667 190 497v191z" />
    <glyph glyph-name="afii57506" unicode="&#x67e;" horiz-adv-x="1671" arabic-form="isolated" 
d="M1439 930v-506c0 -109.333 -15.667 -184.333 -47 -225c-28.667 -37.333 -80.667 -56 -156 -56h-593c-290 0 -435 151 -435 453v336h-143v-336c0 -397.333 196.667 -596 590 -596h629c199.333 0 299 120 299 360v570h-144zM1091 -139h-147v-174h147v174zM823 -139h-148
v-174h148v174zM956 -366h-146v-174h146v174z" />
    <glyph glyph-name="afii57507" unicode="&#x686;" horiz-adv-x="1052" arabic-form="isolated" 
d="M839 317h-145v-157h145v157zM962 498c1.33301 13.333 2 33.667 2 61c0 394.667 -155.667 592 -467 592c-70 0 -120.333 -7 -151 -21v-124c36 18.667 75.333 28 118 28c216 0 334.333 -130.333 355 -391h-78c-150 0 -249.667 -4 -299 -12
c-112.667 -18.667 -204 -73 -274 -163c-68.667 -88.667 -103 -194 -103 -316c0 -148 47 -267 141 -357c92.667 -88 213 -132 361 -132h213v151h-213c-230.667 0 -346 109 -346 327c0 108 31.333 194.333 94 259c63.333 65.333 147.333 98 252 98h395zM585 317.001h-145v-157
h145v157zM712 106.001h-147v-159h147v159z" />
    <glyph glyph-name="afii57508" unicode="&#x698;" horiz-adv-x="589" arabic-form="isolated" 
d="M352 930v-783c0 -230 -95.667 -345 -287 -345v-137c286.667 15.333 430 185 430 509v756h-143zM408 1477h-145v-174h145v174zM541 1249h-145v-174h145v174zM273 1249h-145v-174h145v174z" />
    <glyph glyph-name="afii57509" unicode="&#x6af;" horiz-adv-x="1886" arabic-form="isolated" 
d="M1813 0v205.999c0 210 -60 378 -180 504c-122 128.667 -287.333 193 -496 193h-182l244 420h-170l-314 -562h422c174 0 305 -55 393 -165c75.333 -93.333 113 -219.666 113 -378.999l-4 -74h-996c-290 0 -435 151 -435 453h-143c0 -397.333 196.667 -596 590 -596h1158z
M958 1319h-126l-231 -413l60 -89z" />
    <glyph glyph-name="uniFB57" unicode="&#x67e;" horiz-adv-x="1900" arabic-form="final" 
d="M1923 143h-379c26 54 39 126.333 39 217v570h-144v-506c0 -92 -9.33301 -158.333 -28 -199c-30.667 -54.667 -89 -82 -175 -82h-600c-285.333 0 -428 151 -428 453v336h-143v-336c0 -397.333 196.667 -596 590 -596h1268v143zM1091 -139h-147v-174h147v174zM823 -139
h-148v-174h148v174zM956 -366h-146v-174h146v174z" />
    <glyph glyph-name="uniFB58" unicode="&#x67e;" horiz-adv-x="583" arabic-form="initial" 
d="M332 930v-506c0 -94 -10 -159.667 -30 -197c-28.667 -57.333 -87 -86 -175 -86h-147v-141h195c200.667 0 301 120 301 360v570h-144zM478 -139h-146v-174h146v174zM209 -139h-147v-174h147v174zM342 -366h-145v-174h145v174z" />
    <glyph glyph-name="uniFB59" unicode="&#x67e;" horiz-adv-x="671" arabic-form="medial" 
d="M691 143l-267 -0.000976562c26 54 39 126.333 39 217v570h-143v-506c0 -93.333 -10.333 -159.666 -31 -198.999c-28.667 -56 -86.667 -84 -174 -84h-131v-141h707v143zM465 -139.001h-145v-174h145v174zM197 -139.001h-145v-174h145v174zM332 -366.001h-147v-174h147v174
z" />
    <glyph glyph-name="uniFB7B" unicode="&#x686;" horiz-adv-x="1323" arabic-form="final" 
d="M1337 143l-81.998 0.000976562c-76.667 0 -143.334 43.333 -200.001 130c-58 87.333 -89 195 -93 323c-12 368.667 -165.667 553 -461 553c-72.667 0 -124.334 -7 -155.001 -21v-124c36 18.667 75.333 28 118 28c216 0 334.333 -129.667 355 -389h-78
c-150 0 -249.667 -4 -299 -12c-112.667 -18.667 -204 -73 -274 -163c-68.667 -88.667 -103 -194 -103 -316c0 -148 47 -267 141 -357c92.667 -88 213 -132 361 -132h213v151h-213c-230.667 0 -346 109 -346 327c0 235.333 115.333 353 346 353h264
c16 -136.667 65.333 -252.334 148 -347.001c86.667 -98 187.667 -147 303 -147h55v143zM782.002 303.001h-146v-160h146v160zM528.002 303.001h-146v-160h146v160zM655.002 90.001h-148v-157h148v157z" />
    <glyph glyph-name="uniFB7C" unicode="&#x686;" horiz-adv-x="1476" arabic-form="initial" 
d="M1389 207c0 212 -61.666 381.333 -184.999 508c-122.667 125.333 -286.334 188 -491.001 188c-222 0 -391 -72.333 -507 -217l124 -127c82 135.333 210.333 203 385 203c336 0 504 -181.667 504 -545l-4 -74h-1245v-143h1419v207zM933.001 -139h-146v-174h146v174z
M664.001 -139h-145v-174h145v174zM799.001 -366h-147v-174h147v174z" />
    <glyph glyph-name="uniFB7D" unicode="&#x686;" horiz-adv-x="1585" arabic-form="medial" 
d="M1615 143h-225.999v64c0 212 -61.667 381.333 -185 508c-122.667 125.333 -286.334 188 -491.001 188c-222 0 -391 -72.333 -507 -217l124 -127c82 135.333 210.333 203 385 203c336 0 504 -181.667 504 -545l-4 -74h-1245v-143h1645v143zM933.001 -139h-146v-174h146
v174zM664.001 -139h-145v-174h145v174zM799.001 -366h-147l12 -174h135v174z" />
    <glyph glyph-name="uniFB8B" unicode="&#x698;" horiz-adv-x="804" arabic-form="final" 
d="M833 143h-338.001v787h-143v-783c0 -230 -95.667 -345 -287 -345v-137c238.667 14 377.334 125.667 416.001 335h352v143zM417.999 1477h-145v-174h145v174zM550.999 1249h-145l12 -174h133v174zM282.999 1249h-145v-174h145v174z" />
    <glyph glyph-name="uniFB8F" unicode="&#x6a9;" horiz-adv-x="2121" arabic-form="final" 
d="M1813 206c0 210 -60 377.999 -180 503.999c-122 128.667 -287.333 193 -496 193h-182l244 420h-170l-314 -562h422c174 0 305 -55 393 -165c75.333 -93.333 113 -219.666 113 -378.999v-74h-1000c-290 0 -435 151 -435 453h-143c0 -397.333 196.667 -596 590 -596h1500
v143h-342v63z" />
    <glyph glyph-name="uniFB90" unicode="&#x6a9;" horiz-adv-x="1433" arabic-form="initial" 
d="M1346 207c0 209.333 -60 377.332 -180 503.999c-122 128 -287.333 192 -496 192h-182l244 420h-170l-313 -561h421c174.667 0 306 -55.333 394 -166c74.667 -93.333 112 -219.666 112 -378.999l-4 -74h-1245v-143h1419v207z" />
    <glyph glyph-name="uniFB91" unicode="&#x6a9;" horiz-adv-x="1552" arabic-form="medial" 
d="M1602 143l-281 -0.000976562v64c0 209.333 -60 377.333 -180 504c-122 128 -287.333 192 -496 192h-182l244 420h-170l-313 -561h421c174.667 0 306 -55.333 394 -166c74.667 -93.333 112 -219.666 112 -378.999l-4 -74h-1245v-143h1700v143z" />
    <glyph glyph-name="uniFB93" unicode="&#x6af;" horiz-adv-x="2121" arabic-form="final" 
d="M1813 206c0 210 -60 377.999 -180 503.999c-122 128.667 -287.333 193 -496 193h-182l244 420h-170l-314 -562h422c174 0 305 -55 393 -165c75.333 -93.333 113 -219.666 113 -378.999v-74h-1000c-290 0 -435 151 -435 453h-143c0 -397.333 196.667 -596 590 -596h1500
v143h-342v63zM958 1319h-126l-231 -413l60 -89z" />
    <glyph glyph-name="uniFB94" unicode="&#x6af;" horiz-adv-x="1433" arabic-form="initial" 
d="M670 762c174.667 0 306 -55.334 394 -166.001c74.667 -93.333 112 -219.666 112 -378.999l-4 -74h-1245v-143h1419v207c0 209.333 -60 377.333 -180 504c-122 128 -287.333 192 -496 192h-182l244 420h-170l-313 -561h421zM488 1319h-126l-231 -413l60 -89z" />
    <glyph glyph-name="uniFB95" unicode="&#x6af;" horiz-adv-x="1552" arabic-form="medial" 
d="M1602 143l-281 -0.000976562v64c0 209.333 -60 377.333 -180 504c-122 128 -287.333 192 -496 192h-182l244 420h-170l-313 -561h421c174.667 0 306 -55.333 394 -166c74.667 -93.333 112 -219.666 112 -378.999l-4 -74h-1245v-143h1700v143zM458 1319h-126l-231 -413
l60 -89z" />
    <glyph glyph-name="uniFBA5" unicode="&#x6c0;" horiz-adv-x="1208" arabic-form="final" 
d="M1228 141l-77.999 -0.000976562c-174.667 0 -262 108.667 -262 326v657h-434c-116 0 -210 -46 -282 -138c-71.333 -92 -107 -211 -107 -357c0 -137.333 34.667 -252.666 104 -345.999c70 -94.667 157 -142 261 -142c146.667 0 251 52.667 313 158
c59.333 -199.333 189.666 -299 390.999 -299h94v141zM741.001 654.999c-4 -267.333 -91.999 -401 -263.999 -401c-78.667 0 -143.334 37.667 -194.001 113c-50 73.333 -75 163.333 -75 270c0 108.667 25.333 199 76 271c51.333 73.333 117 110 197 110h260v-363z
M541.002 1527c-18 87.333 -71 131.001 -159 131.001c-112 0 -168 -60.333 -168 -181c0 -26.667 4.66699 -50.334 14 -71.001h-82v-82h391v82h-219c-13.333 19.333 -20 44 -20 74c0 73.333 28 110 84 110c42 0 67 -24 75 -72z" />
    <glyph glyph-name="uniFBFD" unicode="&#x6cc;" horiz-adv-x="1769" arabic-form="final" 
d="M1791 143l-43 -0.000976562c-130 0 -229 87.667 -297 263c-30.667 80 -83 149 -157 207c-71.333 56.667 -139 85 -203 85c-74 0 -111 -1.33301 -111 -4h3v-129c177.333 0 266 -92.667 266 -278c0 -124 -51.333 -234 -154 -330c-104 -96.667 -224 -145 -360 -145
c-162 0 -290.333 56 -385 168c-93.333 110 -140 258 -140 444v178h-145v-205c0 -205.333 63.333 -377.666 190 -516.999c128 -140.667 286 -211 474 -211c175.333 0 327.333 59.667 456 179c130 120 195 265 195 435c50 -188.667 177 -283 381 -283h30v143z" />
    <glyph glyph-name="uniFBFE" unicode="&#x6cc;" horiz-adv-x="616" arabic-form="initial" 
d="M332 930v-506c0 -94 -10.333 -159.667 -31 -197c-28.667 -57.333 -86.667 -86 -174 -86h-133v-141h180c200.667 0 301 120 301 360v570h-143zM473 -139h-145v-174h145v174zM205 -139h-145v-174h145v174z" />
    <glyph glyph-name="uniFBFF" unicode="&#x6cc;" horiz-adv-x="671" arabic-form="medial" 
d="M691 143l-267 -0.000976562c26 54 39 126.333 39 217v570h-143v-506c0 -93.333 -10.333 -159.666 -31 -198.999c-28.667 -56 -86.667 -84 -174 -84h-131v-141h707v143zM465 -139.001h-145v-174h145v174zM197 -139.001h-145v-174h145v174z" />
    <glyph glyph-name="uniFE82" unicode="&#x622;" horiz-adv-x="618" arabic-form="final" 
d="M678 143l-118.999 1.00098c-28.667 0 -46.334 0.333008 -53.001 1c-56 8.66699 -95 30 -117 64c-27.333 42 -41 109.667 -41 203v913h-147v-999c0 -108.667 29.333 -191.334 88 -248.001c51.333 -52 113.333 -78 186 -78h203v143zM525.001 1487
c-49.333 -58.667 -97.332 -88 -143.999 -88c-24.667 0 -61.667 12.333 -111 37c-43.333 22 -74 33 -92 33c-16.667 0 -44.667 -23.667 -84 -71l-51 68c39.333 60 85.666 90 138.999 90c26 0 64 -12.333 114 -37c44 -20 73 -30 87 -30c22 0 52.333 22 91 66z" />
    <glyph glyph-name="uniFE84" unicode="&#x623;" horiz-adv-x="618" arabic-form="final" 
d="M677 143l-118 1.00098c-29.333 0 -47.333 0.333008 -54 1c-55.333 8.66699 -94 30 -116 64c-27.333 42 -41 109.667 -41 203v913h-148v-999c0 -108.667 29.333 -191.334 88 -248.001c52 -52 114.333 -78 187 -78h202v143zM458 1620c-18 87.333 -71 131 -159 131
c-112 0 -168 -60 -168 -180c0 -26.667 4.66699 -50.667 14 -72h-82v-82h391v82h-219c-13.333 19.333 -20 44 -20 74c0 73.333 28 110 84 110c42 0 67 -23.667 75 -71z" />
    <glyph glyph-name="uniFE86" unicode="&#x624;" horiz-adv-x="1148" arabic-form="final" 
d="M1173 141h-267.001v381c0 273.333 -122.667 410 -368 410c-116 0 -213.667 -45 -293 -135s-119 -201.333 -119 -334c0 -132 37 -242 111 -330c74 -88.667 168 -133 282 -133h223c-34 -132 -123.333 -198 -268 -198v-137c236.667 14 375.334 125.667 416.001 335h283v141z
M520.999 141c-70.667 0 -129.668 33.001 -177.001 99.001c-47.333 64.667 -71 143.667 -71 237c0 85.333 24.667 159.666 74 222.999c50.667 66 111.334 99 182.001 99c153.333 0 230 -74.667 230 -224v-432zM764.998 1298c-22.667 108 -88.333 162 -197 162
c-136 0 -204 -73.667 -204 -221c0 -31.333 5.33301 -61.333 16 -90h-100v-100h483v100h-270c-16.667 24.667 -25 54.667 -25 90c0 91.333 33.333 137 100 137c53.333 0 86.333 -29.333 99 -88z" />
    <glyph glyph-name="uniFE88" unicode="&#x625;" horiz-adv-x="618" arabic-form="final" 
d="M677 143l-118 1.00098c-29.333 0 -47.333 0.333008 -54 1c-55.333 8.66699 -94.333 30 -117 64c-27.333 42 -41 109.667 -41 203v913h-147v-999c0 -108.667 29.333 -191.334 88 -248.001c52 -52 114 -78 186 -78h203v143zM421 -214.999
c-18 86 -71.333 129.001 -160 129.001c-54.667 0 -97.667 -17.667 -129 -53c-24 -30.667 -36 -72.334 -36 -125.001c0 -27.333 4 -51 12 -71h-80v-82h393v82h-221c-13.333 17.333 -20 41 -20 71c0 74 28 111 84 111c41.333 0 67 -24 77 -72z" />
    <glyph glyph-name="uniFE8A" unicode="&#x626;" horiz-adv-x="1916" arabic-form="final" 
d="M599 1092c-24 116 -95.667 174 -215 174c-147.333 0 -221 -80 -221 -240c0 -33.333 6.33301 -65.333 19 -96h-109v-109h524v109h-295c-17.333 25.333 -26 57.333 -26 96c0 100 36.667 150 110 150c57.333 0 92.333 -32.333 105 -97zM1064 612
c194 0 291 -100.334 291 -301.001c0 -134 -55.667 -253 -167 -357c-113.333 -105.333 -244 -158 -392 -158c-176 0 -315 61 -417 183c-100 119.333 -150 279.333 -150 480v192h-158v-221c0 -224 69 -411.667 207 -563c137.333 -151.333 308 -227 512 -227
c189.333 0 353.666 64.667 492.999 194c140.667 131.333 211 289 211 473c56 -204.667 194 -307 414 -307h33v156h-47c-76 0.666992 -141.667 33.334 -197 98.001c-20.667 24.667 -43.667 57.667 -69 99l-32 56l-34 58c-27.333 45.333 -53 83 -77 113
c-31.333 39.333 -64.666 72.333 -99.999 99c-86 64.667 -193 97 -321 97v-164z" />
    <glyph glyph-name="uniFE8B" unicode="&#x626;" horiz-adv-x="567" arabic-form="initial" 
d="M479 1182c-22.667 104.667 -88.001 157 -196.001 157c-68 0 -120.667 -21.667 -158 -65c-31.333 -40 -47 -91.333 -47 -154c0 -30 5.33301 -59.333 16 -88h-100v-100h485v100h-272c-16.667 22.667 -25 52 -25 88c0 93.333 33.667 140 101 140
c52.667 0 85.334 -30.333 98.001 -91zM331.999 823v-399c0 -95.333 -9 -161 -27 -197c-30.667 -57.333 -88.667 -86 -174 -86h-134v-141h181c200.667 0 301 120 301 360v463h-147z" />
    <glyph glyph-name="uniFE8C" unicode="&#x626;" horiz-adv-x="671" arabic-form="medial" 
d="M467 1182c-22.667 104.667 -88.667 157 -198 157c-68 0 -120.667 -21.667 -158 -65c-31.333 -40 -47 -91.333 -47 -154c0 -32 6 -61.333 18 -88h-100v-100h481v100h-270c-16.667 22.667 -25 52 -25 88c0 93.333 34.333 140 103 140c53.333 0 85.333 -30.333 96 -91z
M691 143l-267 -0.000976562c26 54 39 126.333 39 217v465h-143v-401c0 -93.333 -10.333 -159.666 -31 -198.999c-28.667 -56 -86.667 -84 -174 -84h-130v-141h706v143z" />
    <glyph glyph-name="uniFE8E" unicode="&#x627;" horiz-adv-x="618" arabic-form="final" 
d="M636 143l-98 1.00098c-15.333 0 -26.333 0.333008 -33 1c-56 8.66699 -95 30 -117 64c-27.333 42 -41 109.667 -41 203v913h-147v-999c0 -108.667 29.333 -191.334 88 -248.001c52 -52 114 -78 186 -78h162v143z" />
    <glyph glyph-name="uniFE90" unicode="&#x628;" horiz-adv-x="1900" arabic-form="final" 
d="M937 -137h-145v-174h145v174zM1923 143h-379c26 54 39 126.333 39 217v570h-144v-506c0 -92 -9.33301 -158.333 -28 -199c-30.667 -54.667 -89 -82 -175 -82h-600c-285.333 0 -428 151 -428 453v336h-143v-336c0 -397.333 196.667 -596 590 -596h1268v143z" />
    <glyph glyph-name="uniFE91" unicode="&#x628;" horiz-adv-x="483" arabic-form="initial" 
d="M332 930v-506c0 -94 -10.333 -159.667 -31 -197c-28.667 -57.333 -86.667 -86 -174 -86h-133v-141h180c200.667 0 301 120 301 360v570h-143zM475 -137h-145v-174h145v174z" />
    <glyph glyph-name="uniFE92" unicode="&#x628;" horiz-adv-x="671" arabic-form="medial" 
d="M691 143l-267 -0.000976562c26 54 39 126.333 39 217v570h-143v-506c0 -93.333 -10.333 -159.666 -31 -198.999c-28.667 -56 -86.667 -84 -174 -84h-131v-141h707v143zM463 -137.001h-145v-174h145v174z" />
    <glyph glyph-name="uniFE96" unicode="&#x62a;" horiz-adv-x="1900" arabic-form="final" 
d="M1038 1106h-146v-174h146v174zM770 1106h-146v-174h146v174zM1923 143h-379c26 54 39 126.333 39 217v570h-144v-506c0 -92 -9.33301 -158.333 -28 -199c-30.667 -54.667 -89 -82 -175 -82h-600c-285.333 0 -428 151 -428 453v336h-143v-336
c0 -397.333 196.667 -596 590 -596h1268v143z" />
    <glyph glyph-name="uniFE97" unicode="&#x62a;" horiz-adv-x="563" arabic-form="initial" 
d="M475 1251h-145v-174h145v174zM207 1251h-145v-174h145v174zM332 930v-506c0 -94 -10.333 -159.667 -31 -197c-28.667 -57.333 -86.667 -86 -174 -86h-133v-141h180c200.667 0 301 120 301 360v570h-143z" />
    <glyph glyph-name="uniFE98" unicode="&#x62a;" horiz-adv-x="671" arabic-form="medial" 
d="M461 1251h-145v-174h145v174zM193 1251h-146v-174h146v174zM691 143l-267 -0.000976562c26 54 39 126.333 39 217v570h-143v-506c0 -93.333 -10.333 -159.666 -31 -198.999c-28.667 -56 -86.667 -84 -174 -84h-131v-141h707v143z" />
    <glyph glyph-name="uniFE9A" unicode="&#x62b;" horiz-adv-x="1900" arabic-form="final" 
d="M907 1331h-146v-174h146v174zM1042 1106h-146v-174h146v174zM774 1106h-148v-174h148v174zM1923 143h-379c26 54 39 126.333 39 217v570h-144v-506c0 -92 -9.33301 -158.333 -28 -199c-30.667 -54.667 -89 -82 -175 -82h-600c-285.333 0 -428 151 -428 453v336h-143v-336
c0 -397.333 196.667 -596 590 -596h1268v143z" />
    <glyph glyph-name="uniFE9B" unicode="&#x62b;" horiz-adv-x="563" arabic-form="initial" 
d="M340 1479h-145v-174h145v174zM475 1251h-145v-174h145v174zM207 1251h-145v-174h145v174zM332 930v-506c0 -94 -10.333 -159.667 -31 -197c-28.667 -57.333 -86.667 -86 -174 -86h-133v-141h180c200.667 0 301 120 301 360v570h-143z" />
    <glyph glyph-name="uniFE9C" unicode="&#x62b;" horiz-adv-x="671" arabic-form="medial" 
d="M326 1479h-145v-174h145v174zM459 1251h-145v-174h145v174zM191 1251h-146v-174h146v174zM691 143l-267 -0.000976562c26 54 39 126.333 39 217v570h-143v-506c0 -93.333 -10.333 -159.666 -31 -198.999c-28.667 -56 -86.667 -84 -174 -84h-131v-141h707v143z" />
    <glyph glyph-name="uniFE9E" unicode="&#x62c;" horiz-adv-x="1323" arabic-form="final" 
d="M1337 143l-81.998 0.000976562c-76.667 0 -143.334 43.333 -200.001 130c-58 87.333 -89 195 -93 323c-12 368.667 -165.667 553 -461 553c-72.667 0 -124.334 -7 -155.001 -21v-124c36 18.667 75.333 28 118 28c216 0 334.333 -129.667 355 -389h-78
c-150 0 -249.667 -4 -299 -12c-112.667 -18.667 -204 -73 -274 -163c-68.667 -88.667 -103 -194 -103 -316c0 -148 47 -267 141 -357c92.667 -88 213 -132 361 -132h213v151h-213c-230.667 0 -346 109 -346 327c0 235.333 115.333 353 346 353h264
c16 -136.667 65.333 -252.334 148 -347.001c86.667 -98 187.667 -147 303 -147h55v143zM645.002 225.001h-146v-174h146v174z" />
    <glyph glyph-name="uniFE9F" unicode="&#x62c;" horiz-adv-x="1476" arabic-form="initial" 
d="M1389 207c0 212 -61.666 381.333 -184.999 508c-122.667 125.333 -286.334 188 -491.001 188c-222 0 -391 -72.333 -507 -217l124 -127c82 135.333 210.333 203 385 203c336 0 504 -181.667 504 -545l-4 -74h-1245v-143h1419v207zM824.001 -137h-147v-174h147v174z" />
    <glyph glyph-name="uniFEA0" unicode="&#x62c;" horiz-adv-x="1585" arabic-form="medial" 
d="M1615 143h-225.999v64c0 212 -61.667 381.333 -185 508c-122.667 125.333 -286.334 188 -491.001 188c-222 0 -391 -72.333 -507 -217l124 -127c82 135.333 210.333 203 385 203c336 0 504 -181.667 504 -545l-4 -74h-1245v-143h1645v143zM826.001 -137h-145v-174h145
v174z" />
    <glyph glyph-name="uniFEA2" unicode="&#x62d;" horiz-adv-x="1323" arabic-form="final" 
d="M1337 143l-81.999 0.00195312c-76.667 0 -143.334 43.333 -200.001 130c-58 87.333 -89 195 -93 323c-12 368.667 -165.667 553 -461 553c-72.667 0 -124.334 -7 -155.001 -21v-124c36 18.667 75.333 28 118 28c216 0 334.333 -129.667 355 -389h-127
c-123.333 0 -206.666 -4 -249.999 -12c-112.667 -18.667 -204 -72.667 -274 -162c-68.667 -88.667 -103 -194.334 -103 -317.001c0 -148 47 -267 141 -357c92.667 -88 213 -132 361 -132h213v151h-213c-230.667 0 -346 109 -346 327c0 235.333 115.333 353 346 353h264
c16 -136.667 65.333 -252.334 148 -347.001c86.667 -98 187.667 -147 303 -147h55v143z" />
    <glyph glyph-name="uniFEA3" unicode="&#x62d;" horiz-adv-x="1476" arabic-form="initial" 
d="M1389 207c0 212 -61.666 381.333 -184.999 508c-122.667 125.333 -286.334 188 -491.001 188c-222 0 -391 -72.333 -507 -217l124 -127c82 135.333 210.333 203 385 203c336 0 504 -181.667 504 -545l-4 -74h-1245v-143h1419v207z" />
    <glyph glyph-name="uniFEA4" unicode="&#x62d;" horiz-adv-x="1585" arabic-form="medial" 
d="M1615 143h-225.999v64c0 212 -61.667 381.333 -185 508c-122.667 125.333 -286.334 188 -491.001 188c-222 0 -391 -72.333 -507 -217l124 -127c82 135.333 210.333 203 385 203c336 0 504 -181.667 504 -545l-4 -74h-1245v-143h1645v143z" />
    <glyph glyph-name="uniFEA6" unicode="&#x62e;" horiz-adv-x="1323" arabic-form="final" 
d="M645 1485h-146v-174h146v174zM1337 143l-81.998 0.000976562c-76.667 0 -143.334 43.333 -200.001 130c-58 87.333 -89 195 -93 323c-12 368.667 -165.667 553 -461 553c-72.667 0 -124.334 -7 -155.001 -21v-124c36 18.667 75.333 28 118 28
c216 0 334.333 -129.667 355 -389h-78c-150 0 -249.667 -4 -299 -12c-112.667 -18.667 -204 -73 -274 -163c-68.667 -88.667 -103 -194 -103 -316c0 -148 47 -267 141 -357c92.667 -88 213 -132 361 -132h213v151h-213c-230.667 0 -346 109 -346 327
c0 235.333 115.333 353 346 353h264c16 -136.667 65.333 -252.334 148 -347.001c86.667 -98 187.667 -147 303 -147h55v143z" />
    <glyph glyph-name="uniFEA7" unicode="&#x62e;" horiz-adv-x="1476" arabic-form="initial" 
d="M781 1251h-145v-174h145v174zM1389 207c0 212 -61.666 381.333 -184.999 508c-122.667 125.333 -286.334 188 -491.001 188c-222 0 -391 -72.333 -507 -217l124 -127c82 135.333 210.333 203 385 203c336 0 504 -181.667 504 -545l-4 -74h-1245v-143h1419v207z" />
    <glyph glyph-name="uniFEA8" unicode="&#x62e;" horiz-adv-x="1585" arabic-form="medial" 
d="M781 1251h-145v-174h145v174zM1615 143h-225.999v64c0 212 -61.667 381.333 -185 508c-122.667 125.333 -286.334 188 -491.001 188c-222 0 -391 -72.333 -507 -217l124 -127c82 135.333 210.333 203 385 203c336 0 504 -181.667 504 -545l-4 -74h-1245v-143h1645v143z
" />
    <glyph glyph-name="uniFEAA" unicode="&#x62f;" horiz-adv-x="1269" arabic-form="final" 
d="M1296 143h-326c-22.667 526 -250 789 -682 789v-135h56c171.333 -10.667 297.333 -81.667 378 -213c67.333 -110 101 -257 101 -441h-758v-143h1231v143z" />
    <glyph glyph-name="uniFEAC" unicode="&#x630;" horiz-adv-x="1269" arabic-form="final" 
d="M487 1251h-146v-174h146v174zM1296 143h-326c-22.667 526 -250 789 -682 789v-135h56c171.333 -10.667 297.333 -81.667 378 -213c67.333 -110 101 -257 101 -441h-758v-143h1231v143z" />
    <glyph glyph-name="uniFEAE" unicode="&#x631;" horiz-adv-x="804" arabic-form="final" 
d="M833 143h-338.001v787h-143v-783c0 -230 -95.667 -345 -287 -345v-137c238.667 14 377.334 125.667 416.001 335h352v143z" />
    <glyph glyph-name="uniFEB0" unicode="&#x632;" horiz-adv-x="804" arabic-form="final" 
d="M497 1251h-145v-174h145v174zM833 143h-338v787h-143v-783c0 -230 -95.667 -345 -287 -345v-137c233.333 14 377.333 125.667 432 335h336v143z" />
    <glyph glyph-name="uniFEB2" unicode="&#x633;" horiz-adv-x="2594" arabic-form="final" 
d="M2615 143l-330 0.000976562c27.333 56.667 41 129 41 217v570h-143v-506c0 -106.667 -15 -180.334 -45 -221.001c-29.333 -40 -82.666 -60 -160 -60h-246c26 54 39 126.333 39 217v570h-143v-506c0 -108 -12.667 -182 -38 -222c-24.667 -39.333 -70 -59 -136 -59h-256
c16 68 24 142 24 222v565h-147v-619c-28.667 -340.667 -172 -511 -430 -511c-134 0 -240.333 54 -319 162c-78.667 107.333 -118 251 -118 431v537h-143v-565c0 -205.333 56 -374.333 168 -507c110 -131.333 247.333 -197 412 -197c252.667 0 426.667 129.333 522 388
c5.33301 -16 8 -32.333 8 -49h1440v143z" />
    <glyph glyph-name="uniFEB3" unicode="&#x633;" horiz-adv-x="1718" arabic-form="initial" 
d="M1485 930v-506c0 -108 -14.667 -182 -44 -222c-29.333 -39.333 -82.666 -59 -159.999 -59h-246c26 54 39 126.333 39 217v570h-144v-506c0 -108 -12.333 -182 -37 -222c-25.333 -39.333 -71 -59 -137 -59h-268v9c23.333 56.667 35 126 35 208v570h-143v-524
c-14.667 -175.333 -87.334 -263 -218.001 -263h-190v-143h1356c202 0 303 120 303 360v570h-146z" />
    <glyph glyph-name="uniFEB4" unicode="&#x633;" horiz-adv-x="1894" arabic-form="medial" 
d="M1918 143h-330.001c27.333 56.667 41 129 41 217v570h-144v-506c0 -108 -14.667 -182 -44 -222c-29.333 -39.333 -82.666 -59 -159.999 -59h-246c26 54 39 126.333 39 217v570h-144v-506c0 -108 -12.333 -182 -37 -222c-25.333 -39.333 -71 -59 -137 -59h-268v9
c23.333 56.667 35 126 35 208v570h-145v-524c0 -175.333 -72 -263 -216 -263h-190v-143h1946v143z" />
    <glyph glyph-name="uniFEB6" unicode="&#x634;" horiz-adv-x="2594" arabic-form="final" 
d="M2615 143h-330c27.333 56.667 41 129 41 217v570h-143v-506c0 -108 -15 -182 -45 -222c-29.333 -39.333 -82.666 -59 -160 -59h-246c26 54 39 126.333 39 217v570h-143v-506c0 -108 -12.667 -182 -38 -222c-24.667 -39.333 -70 -59 -136 -59h-256c16 68 24 142 24 222
v565h-147v-619c-28.667 -340.667 -172 -511 -430 -511c-134 0 -240.333 54 -319 162c-78.667 107.333 -118 251 -118 431v537h-143v-565c0 -205.333 56 -374.333 168 -507c110 -131.333 247.333 -197 412 -197c252.667 0 426.667 129.333 522 388
c5.33301 -16 8 -32.333 8 -49h1440v143zM1910 1251h-145v-174h145v174zM1773 1479h-145v-174h145v174zM1642 1251h-145v-174h145v174z" />
    <glyph glyph-name="uniFEB7" unicode="&#x634;" horiz-adv-x="1718" arabic-form="initial" 
d="M1213 1251h-145v-174h145v174zM1076 1479h-146v-174h146v174zM945 1251h-146v-174h146v174zM1485 930v-506c0 -108 -14.667 -182 -44 -222c-29.333 -39.333 -82.666 -59 -159.999 -59h-246c26 54 39 126.333 39 217v570h-144v-506c0 -108 -12.333 -182 -37 -222
c-25.333 -39.333 -71 -59 -137 -59h-268v9c23.333 56.667 35 126 35 208v570h-143v-524c-14.667 -175.333 -87.334 -263 -218.001 -263h-190v-143h1356c202 0 303 120 303 360v570h-146z" />
    <glyph glyph-name="uniFEB8" unicode="&#x634;" horiz-adv-x="1894" arabic-form="medial" 
d="M1213 1251h-145v-174h145v174zM1076 1479h-146v-174h146v174zM945 1251h-146v-174h146v174zM1918 143h-330.001c27.333 56.667 41 129 41 217v570h-144v-506c0 -108 -14.667 -182 -44 -222c-29.333 -39.333 -82.666 -59 -159.999 -59h-246c26 54 39 126.333 39 217v570
h-144v-506c0 -108 -12.333 -182 -37 -222c-25.333 -39.333 -71 -59 -137 -59h-268v9c23.333 56.667 35 126 35 208v570h-145v-524c0 -175.333 -72 -263 -216 -263h-190v-143h1946v143z" />
    <glyph glyph-name="uniFEBA" unicode="&#x635;" horiz-adv-x="2584" arabic-form="final" 
d="M2607 143h-261v95c0 462.667 -163.667 694 -491 694c-117.333 0 -233 -41.333 -347 -124c-116.667 -84 -212 -197 -286 -339v461h-143v-537c0 -181.333 -38 -325 -114 -431c-78 -108 -184.667 -162 -320 -162c-134 0 -240.333 54 -319 162
c-78.667 107.333 -118 251 -118 431v537h-143v-565c0 -205.333 56 -374.333 168 -507c110 -131.333 247.333 -197 412 -197c216 0 383 113 501 339h1461v143zM1195 141c8 30 14.333 63.667 19 101c64.667 157.333 157.334 289.666 278.001 396.999
c121.333 108 239 162 353 162c111.333 0 198.666 -48.667 261.999 -146c62.667 -95.333 94 -223.666 94 -384.999c0 -40.667 -2 -83.667 -6 -129h-1000z" />
    <glyph glyph-name="uniFEBB" unicode="&#x635;" horiz-adv-x="1724" arabic-form="initial" 
d="M1633 0c6.66699 95.333 10 174.667 10 238c0 462.667 -163.667 694 -491 694c-257.333 0 -467 -152.333 -629 -457v356h-143v-368c0 -213.333 -72.667 -320 -218 -320h-190v-143h1661zM488 141.001l0.000976562 34.999c54.667 168.667 146 314.667 274 438
c129.333 124.667 255.666 187 378.999 187c111.333 0 199 -48.667 263 -146c62.667 -95.333 94 -223.666 94 -384.999c0 -40.667 -2 -83.667 -6 -129h-1004z" />
    <glyph glyph-name="uniFEBC" unicode="&#x635;" horiz-adv-x="1904" arabic-form="medial" 
d="M1924 143h-271.001v95c0 462.667 -163.667 694 -491 694c-118.667 0 -235.667 -42 -351 -126c-119.333 -86.667 -216 -203.667 -290 -351c0.666992 6 1.33398 12.667 2.00098 20v356h-143v-368c0 -213.333 -72.667 -320 -218 -320h-190v-143h1952v143zM487.999 141
c48.667 174 138.668 326.999 270.001 458.999c133.333 134 264.666 201 393.999 201c110.667 0 198 -48.667 262 -146c62.667 -95.333 94 -223.666 94 -384.999c0 -40.667 -2 -83.667 -6 -129h-1014z" />
    <glyph glyph-name="uniFEBE" unicode="&#x636;" horiz-adv-x="2584" arabic-form="final" 
d="M1880 1251h-146v-174h146v174zM2607 143h-261v95c0 462.667 -163.667 694 -491 694c-117.333 0 -233 -41.333 -347 -124c-116.667 -84 -212 -197 -286 -339v461h-143v-537c0 -181.333 -38 -325 -114 -431c-78 -108 -184.667 -162 -320 -162c-134 0 -240.333 54 -319 162
c-78.667 107.333 -118 251 -118 431v537h-143v-565c0 -205.333 56 -374.333 168 -507c110 -131.333 247.333 -197 412 -197c216 0 383 113 501 339h1461v143zM1195 141c8 30 14.333 63.667 19 101c64.667 157.333 157.334 289.666 278.001 396.999
c121.333 108 239 162 353 162c111.333 0 198.666 -48.667 261.999 -146c62.667 -95.333 94 -223.666 94 -384.999c0 -40.667 -2 -83.667 -6 -129h-1000z" />
    <glyph glyph-name="uniFEBF" unicode="&#x636;" horiz-adv-x="1724" arabic-form="initial" 
d="M1186 1251h-145v-174h145v174zM1633 0c6.66699 95.333 10 174.667 10 238c0 462.667 -163.667 694 -491 694c-257.333 0 -467 -152.333 -629 -457v356h-143v-368c0 -213.333 -72.667 -320 -218 -320h-190v-143h1661zM488 141.001l0.000976562 34.999
c54.667 168.667 146 314.667 274 438c129.333 124.667 255.666 187 378.999 187c111.333 0 199 -48.667 263 -146c62.667 -95.333 94 -223.666 94 -384.999c0 -40.667 -2 -83.667 -6 -129h-1004z" />
    <glyph glyph-name="uniFEC0" unicode="&#x636;" horiz-adv-x="1904" arabic-form="medial" 
d="M1197 1251h-146v-174h146v174zM1924 143h-271.001v95c0 462.667 -163.667 694 -491 694c-118.667 0 -235.667 -42 -351 -126c-119.333 -86.667 -216 -203.667 -290 -351c0.666992 6 1.33398 12.667 2.00098 20v356h-143v-368c0 -213.333 -72.667 -320 -218 -320h-190
v-143h1952v143zM487.999 141c48.667 174 138.668 326.999 270.001 458.999c133.333 134 264.666 201 393.999 201c110.667 0 198 -48.667 262 -146c62.667 -95.333 94 -223.666 94 -384.999c0 -40.667 -2 -83.667 -6 -129h-1014z" />
    <glyph glyph-name="uniFEC2" unicode="&#x637;" horiz-adv-x="1849" arabic-form="final" 
d="M1860 143h-279c0.666992 14.667 1.33398 30.667 2.00098 48v47c0 462.667 -164.667 694 -494 694c-130.667 0 -258.334 -51 -383.001 -153c-126 -104 -223.333 -240 -292 -408l32 952h-151v-1182h-164v-141h1729v143zM416 141c48.667 174 138.667 326.999 270 458.999
c133.333 134 264.333 201 393 201c111.333 0 199 -48.667 263 -146c62.667 -95.333 94 -223.666 94 -384.999c0 -40.667 -2.33301 -83.667 -7 -129h-1013z" />
    <glyph glyph-name="uniFEC3" unicode="&#x637;" horiz-adv-x="1675" arabic-form="initial" 
d="M1576 0c8 86 12 165.334 12 238.001c0 462.667 -163.667 694 -491 694c-134 0 -263 -51.333 -387 -154c-124.667 -102.667 -221.667 -238.334 -291 -407.001l32 952h-149v-1182h-379v-141h1653zM421 141.001c48.667 174 138.667 327 270 459
c133.333 134 264.333 201 393 201c110 0 197 -48 261 -144c64 -95.333 96 -224.333 96 -387c0 -40.667 -2.33301 -83.667 -7 -129h-1013z" />
    <glyph glyph-name="uniFEC4" unicode="&#x637;" horiz-adv-x="1849" arabic-form="medial" 
d="M1861 143h-279c0.666992 14.667 1.33398 30.667 2.00098 48v47c0 462.667 -164.667 694 -494 694c-130.667 0 -258.334 -51 -383.001 -153c-126 -104 -223.333 -240 -292 -408l32 952h-151v-1182h-377v-141h1942v143zM417 141c48.667 174 138.667 326.999 270 458.999
c133.333 134 264.333 201 393 201c111.333 0 199 -48.667 263 -146c62.667 -95.333 94 -223.666 94 -384.999c0 -40.667 -2.33301 -83.667 -7 -129h-1013z" />
    <glyph glyph-name="uniFEC6" unicode="&#x638;" horiz-adv-x="1849" arabic-form="final" 
d="M1124 1251h-145v-174h145v174zM1860 143h-279c0.666992 14.667 1.33398 30.667 2.00098 48v47c0 462.667 -164.667 694 -494 694c-130.667 0 -258.334 -51 -383.001 -153c-126 -104 -223.333 -240 -292 -408l32 952h-151v-1182h-164v-141h1729v143zM416 141
c48.667 174 138.667 326.999 270 458.999c133.333 134 264.333 201 393 201c111.333 0 199 -48.667 263 -146c62.667 -95.333 94 -223.666 94 -384.999c0 -40.667 -2.33301 -83.667 -7 -129h-1013z" />
    <glyph glyph-name="uniFEC7" unicode="&#x638;" horiz-adv-x="1675" arabic-form="initial" 
d="M1133 1251h-145v-174h145v174zM1576 0c8 86 12 165.334 12 238.001c0 462.667 -163.667 694 -491 694c-134 0 -263 -51.333 -387 -154c-124.667 -102.667 -221.667 -238.334 -291 -407.001l32 952h-149v-1182h-379v-141h1653zM421 141.001
c48.667 174 138.667 327 270 459c133.333 134 264.333 201 393 201c110 0 197 -48 261 -144c64 -95.333 96 -224.333 96 -387c0 -40.667 -2.33301 -83.667 -7 -129h-1013z" />
    <glyph glyph-name="uniFEC8" unicode="&#x638;" horiz-adv-x="1849" arabic-form="medial" 
d="M1125 1251h-145v-174h145v174zM1861 143h-279c0.666992 14.667 1.33398 30.667 2.00098 48v47c0 462.667 -164.667 694 -494 694c-130.667 0 -258.334 -51 -383.001 -153c-126 -104 -223.333 -240 -292 -408l32 952h-151v-1182h-377v-141h1942v143zM417 141
c48.667 174 138.667 326.999 270 458.999c133.333 134 264.333 201 393 201c111.333 0 199 -48.667 263 -146c62.667 -95.333 94 -223.666 94 -384.999c0 -40.667 -2.33301 -83.667 -7 -129h-1013z" />
    <glyph glyph-name="uniFECA" unicode="&#x639;" horiz-adv-x="1525" arabic-form="final" 
d="M1585 143c-137.333 0 -247 40.3311 -329 120.998c-78.667 76.667 -118 175 -118 295v82h-551c-56 72.667 -84 152 -84 238c0 230.667 82.667 346 248 346c130.667 0 207 -64.333 229 -193l156 17c-38.667 185.333 -167.667 278 -387 278
c-122.667 0 -220.667 -42 -294 -126c-71.333 -82.667 -107 -190.667 -107 -324c0 -101.333 20.333 -184.666 61 -249.999c-102.667 -26 -185.667 -82.667 -249 -170c-63.333 -88 -95 -189.667 -95 -305c0 -148 47 -267 141 -357c92.667 -88 213 -132 361 -132h258v151h-258
c-230.667 0 -346 109 -346 327c0 106.667 30.667 192.334 92 257.001c61.333 65.333 143.333 98 246 98h456c6 -140 58.667 -257.667 158 -353s218 -143 356 -143h56v143z" />
    <glyph glyph-name="uniFECB" unicode="&#x639;" horiz-adv-x="1150" arabic-form="initial" 
d="M1063 143h-618c-62.667 65.333 -94 161 -94 287c0 108.667 18.333 196.667 55 264c48.667 83.333 123 125 223 125c146.667 0 232 -72.333 256 -217l174 19c-18 100.667 -70.333 179 -157 235c-77.333 52 -169 78 -275 78c-146 0 -258.667 -50 -338 -150
c-74.667 -91.333 -112 -209.333 -112 -354c0 -111.333 24.333 -207 73 -287h-313v-143h1126v143z" />
    <glyph glyph-name="uniFECC" unicode="&#x639;" horiz-adv-x="1439" arabic-form="medial" 
d="M1461 143l-277 -0.000976562c-85.333 0 -140.666 3.66699 -165.999 11c-50 12 -98.333 46.667 -145 104c106.667 82 196.667 175 270 279c33.333 46 77 121 131 225c-161.333 130.667 -340.666 196 -537.999 196c-172.667 0 -343.334 -54.333 -512.001 -163l2 -162
c178.667 -69.333 324.667 -189.666 438 -360.999c-70.667 -50 -131.334 -84 -182.001 -102c-49.333 -18 -112.333 -27 -189 -27h-317v-143h322c182 -0 335.333 53.333 460 160c78 -106.667 179.667 -160 305 -160h398v143zM1109 716.999
c-76 -134.667 -187.333 -252 -334 -352c-71.333 96.667 -133.666 166.667 -186.999 210c-68.667 58.667 -147 104.667 -235 138c141.333 77.333 271.666 116 390.999 116c71.333 0 141 -12.667 209 -38z" />
    <glyph glyph-name="uniFECE" unicode="&#x63a;" horiz-adv-x="1525" arabic-form="final" 
d="M825 1651h-146v-174h146v174zM1585 143c-137.333 0 -247 40.3311 -329 120.998c-78.667 76.667 -118 175 -118 295v82h-551c-56 72.667 -84 152 -84 238c0 230.667 82.667 346 248 346c130.667 0 207 -64.333 229 -193l156 17c-38.667 185.333 -167.667 278 -387 278
c-122.667 0 -220.667 -42 -294 -126c-71.333 -82.667 -107 -190.667 -107 -324c0 -101.333 20.333 -184.666 61 -249.999c-102.667 -26 -185.667 -82.667 -249 -170c-63.333 -88 -95 -189.667 -95 -305c0 -148 47 -267 141 -357c92.667 -88 213 -132 361 -132h258v151h-258
c-230.667 0 -346 109 -346 327c0 106.667 30.667 192.334 92 257.001c61.333 65.333 143.333 98 246 98h456c6 -140 58.667 -257.667 158 -353s218 -143 356 -143h56v143z" />
    <glyph glyph-name="uniFECF" unicode="&#x63a;" horiz-adv-x="1150" arabic-form="initial" 
d="M693 1251h-146v-174h146v174zM1063 143h-618c-62.667 65.333 -94 161 -94 287c0 108.667 18.333 196.667 55 264c48.667 83.333 123 125 223 125c146.667 0 232 -72.333 256 -217l174 19c-18 100.667 -70.333 179 -157 235c-77.333 52 -169 78 -275 78
c-146 0 -258.667 -50 -338 -150c-74.667 -91.333 -112 -209.333 -112 -354c0 -111.333 24.333 -207 73 -287h-313v-143h1126v143z" />
    <glyph glyph-name="uniFED0" unicode="&#x63a;" horiz-adv-x="1439" arabic-form="medial" 
d="M834 1251h-145v-174h145v174zM1461 143l-277 -0.000976562c-100.667 0 -167.667 6.66699 -201 20c-30 11.333 -66.667 43 -110 95c106.667 82 196.667 175 270 279c33.333 46 77 121 131 225c-161.333 130.667 -340.666 196 -537.999 196
c-173.333 0 -343.333 -54.333 -510 -163v-162c178.667 -69.333 324.667 -189.666 438 -360.999c-120.667 -86 -244.334 -129 -371.001 -129h-317v-143h322c182 -0 335.333 53.333 460 160c78 -106.667 179.667 -160 305 -160h398v143zM775 364.999
c-128 173.333 -268.664 289.333 -421.997 348c141.333 77.333 271.666 116 390.999 116c65.333 0 113.666 -4.66699 144.999 -14c33.333 -10 106.666 -42.667 219.999 -98c-76 -134.667 -187.333 -252 -334 -352z" />
    <glyph glyph-name="uniFED2" unicode="&#x641;" horiz-adv-x="2123" arabic-form="final" 
d="M1527 1432h-145v-175h145v175zM2156 143l-324 0.000976562c-75.333 0 -144.666 16.667 -207.999 50c193.333 91.333 290 240.666 290 447.999c0 124.667 -40.667 226.667 -122 306c-82 80 -188.667 120 -320 120c-130.667 0 -237.334 -40 -320.001 -120
c-81.333 -79.333 -122 -181.333 -122 -306c0 -207.333 96.667 -356.666 290 -447.999c-63.333 -33.333 -132.666 -50 -207.999 -50h-469c-290 0 -435 151 -435 453v295h-143v-295c0 -397.333 196.667 -596 590 -596h336c138 0 234 6.66699 288 20
c45.333 11.333 110.333 41.666 195 90.999c48.667 -28 83 -47 103 -57c31.333 -14.667 61.666 -25.667 90.999 -33c54.667 -14 149.667 -21 285 -21h203v143zM1187 664.001c0 80 25.332 145.666 75.999 196.999c52.667 54 122.334 81 209.001 81
c85.333 0 154.333 -26 207 -78c52 -51.333 78 -118.666 78 -201.999c0 -176 -94.333 -303.667 -283 -383c-191.333 80.667 -287 209 -287 385z" />
    <glyph glyph-name="uniFED3" unicode="&#x641;" horiz-adv-x="1212" arabic-form="initial" 
d="M775 1251h-148v-174h148v174zM1011 801c-77.333 84.667 -180.666 127.001 -309.999 127.001c-130.667 0 -236 -44.333 -316 -133c-77.333 -86 -116 -196.667 -116 -332c0 -130.667 34 -237.334 102 -320.001h-399v-143h727c127.333 -0 230.666 44.333 309.999 133
c77.333 86 116 196.667 116 332c0 140 -38 252 -114 336zM699 119.001c-178.667 0 -268 112 -268 336c0 236 92 354 276 354c173.333 0 260 -110 260 -330c0 -240 -89.333 -360 -268 -360z" />
    <glyph glyph-name="uniFED4" unicode="&#x641;" horiz-adv-x="1286" arabic-form="medial" 
d="M711 1415h-146v-174h146v174zM1319 143l-324.002 -0.000976562c-75.333 0 -144.666 16.667 -207.999 50c94 43.333 166.333 106.666 217 189.999c48.667 80 73 166 73 258c0 116.667 -36.667 215 -110 295c-81.333 87.333 -192 131 -332 131
c-138.667 0 -248.667 -43.667 -330 -131c-74.667 -79.333 -112 -177.666 -112 -294.999c0 -92 24.333 -178 73 -258c50.667 -83.333 123 -146.666 217 -189.999c-63.333 -33.333 -132.666 -50 -207.999 -50h-324v-143h203c115.333 0 194.333 4 237 12
c76 14.667 158 47.667 246 99c88.667 -52 170 -85 244 -99c42.667 -8 121 -12 235 -12h203v143zM419.998 448.999c-46.667 66 -70.002 137.666 -70.002 214.999c0 80 25.333 145.667 76 197c52.667 54 122.334 81 209.001 81c90 0 161 -28 213 -84
c49.333 -51.333 74 -116.666 74 -195.999c0 -75.333 -24 -147.333 -72 -216c-51.333 -73.333 -122.333 -129 -213 -167c-95.333 40 -167.666 96.667 -216.999 170z" />
    <glyph glyph-name="uniFED6" unicode="&#x642;" horiz-adv-x="1587" arabic-form="final" 
d="M1165 1251h-148v-174h148v174zM896 1251h-147v-174h147v174zM1611 143l-268.001 -0.000976562v379c0 273.333 -123 410 -369 410c-115.333 0 -212.333 -45.333 -291 -136c-78.667 -90 -118 -201 -118 -333c0 -132.667 36.667 -243 110 -331c74 -88 167.667 -132 281 -132
h186c-84 -133.333 -226.667 -200 -428 -200c-145.333 0 -265.333 52 -360 156c-94.667 104.667 -142 238.667 -142 402v338h-147v-364c0 -195.333 63.667 -356.666 191 -483.999c124.667 -124.667 279.334 -187 464.001 -187c288 0 482 113 582 339h309v143z
M959.999 140.999c-70.667 0 -130 34.001 -178 102.001c-46.667 65.333 -70 143.333 -70 234c0 85.333 24 159.666 72 222.999c50 66 111.333 99 184 99c153.333 0 230 -74.667 230 -224v-432z" />
    <glyph glyph-name="uniFED7" unicode="&#x642;" horiz-adv-x="1212" arabic-form="initial" 
d="M906 1251h-146v-174h146v174zM638 1251h-146v-174h146v174zM1011 801c-77.333 84.667 -180.667 127.001 -310 127.001c-130.667 0 -236 -44.333 -316 -133c-77.333 -86 -116 -196.667 -116 -332c0 -130.667 34 -237.334 102 -320.001h-399v-143h727
c128 -0 231.667 44.333 311 133c76.667 86 115 196.667 115 332c0 140 -38 252 -114 336zM698.999 119.001c-178.667 0 -268 112 -268 336c0 236 92 354 276 354c173.333 0 260 -110 260 -330c0 -240 -89.333 -360 -268 -360z" />
    <glyph glyph-name="uniFED8" unicode="&#x642;" horiz-adv-x="1286" arabic-form="medial" 
d="M850 1413h-145v-174h145v174zM582 1413h-146v-174h146v174zM1319 143l-324.002 -0.000976562c-75.333 0 -144.666 16.667 -207.999 50c94 43.333 166.333 106.666 217 189.999c48.667 80 73 166 73 258c0 116.667 -36.667 215 -110 295c-81.333 87.333 -192 131 -332 131
c-138.667 0 -248.667 -43.667 -330 -131c-74.667 -79.333 -112 -177.666 -112 -294.999c0 -92 24.333 -178 73 -258c50.667 -83.333 123 -146.666 217 -189.999c-63.333 -33.333 -132.666 -50 -207.999 -50h-324v-143h203c115.333 0 194.333 4 237 12
c76 14.667 158 47.667 246 99c88.667 -52 170 -85 244 -99c42.667 -8 121 -12 235 -12h203v143zM419.998 448.999c-46.667 66 -70.002 137.666 -70.002 214.999c0 80 25.333 145.667 76 197c52.667 54 122.334 81 209.001 81c90 0 161 -28 213 -84
c49.333 -51.333 74 -116.666 74 -195.999c0 -75.333 -24 -147.333 -72 -216c-51.333 -73.333 -122.333 -129 -213 -167c-95.333 40 -167.666 96.667 -216.999 170z" />
    <glyph glyph-name="uniFEDE" unicode="&#x644;" horiz-adv-x="1503" arabic-form="final" 
d="M1544 143h-349c18 67.333 27 141.333 27 222v960h-143v-932c0 -181.333 -39 -325.333 -117 -432c-78 -107.333 -183.667 -161 -317 -161c-132.667 0 -238.667 55 -318 165c-79.333 108 -119 250.667 -119 428v168h-143v-196c0 -203.333 54.667 -371.333 164 -504
c109.333 -133.333 248 -200 416 -200c227.333 0 394.333 113 501 339h398v143z" />
    <glyph glyph-name="uniFEDF" unicode="&#x644;" horiz-adv-x="550" arabic-form="initial" 
d="M320 1325v-901c0 -94 -10.333 -159.667 -31 -197c-28.667 -57.333 -86.667 -86 -174 -86h-131v-141h178c200.667 0 301 120 301 360v965h-143z" />
    <glyph glyph-name="uniFEE0" unicode="&#x644;" horiz-adv-x="671" arabic-form="medial" 
d="M691 143l-267 -0.000976562c26 54 39 126.333 39 217v965h-143v-901c0 -93.333 -10.333 -159.666 -31 -198.999c-28.667 -56 -86.667 -84 -174 -84h-131v-141h707v143z" />
    <glyph glyph-name="uniFEE2" unicode="&#x645;" horiz-adv-x="1957" arabic-form="final" 
d="M1980 0c-1.33301 12 -1.99902 32.998 -1.99902 62.998v39c0.666992 14.667 1.33398 28.334 2.00098 41.001h-84c-224.667 0 -348.334 110 -371.001 330c-30 304.667 -170.667 457 -422 457h-600c-292 0 -438 -189.333 -438 -568v-693h143v685
c0 300.667 98.333 451 295 451h281c-80.667 -86.667 -121 -198.667 -121 -336c0 -139.333 37.333 -250.666 112 -333.999c77.333 -86 183.333 -129 318 -129c179.333 0 305.666 78.667 378.999 236c65.333 -161.333 212 -242 440 -242h68zM1093 138.998
c-169.333 0 -254 106.667 -254 320c0 226.667 87.333 340 262 340c164 0 246 -106 246 -318c0 -228 -84.667 -342 -254 -342z" />
    <glyph glyph-name="uniFEE3" unicode="&#x645;" horiz-adv-x="1228" arabic-form="initial" 
d="M1035 616c-76.667 89.333 -181.666 133.998 -314.999 133.998c-134.667 0 -240.667 -44 -318 -132c-78 -88 -117 -199 -117 -333c0 -51.333 6.33301 -98.666 19 -141.999h-336v-143h395c78 -118.667 196.333 -178 355 -178c131.333 0 235.666 46 312.999 138
c74 85.333 111 194.333 111 327c0 136.667 -35.667 246.334 -107 329.001zM718.001 -49.002c-88.667 0 -156.332 33.333 -202.999 100c-40 58.667 -60 133.667 -60 225c0 98 20 177.333 60 238c47.333 72.667 117.666 109 210.999 109c86 0 151.333 -33.667 196 -101
c36 -56 54 -129.667 54 -221c0 -233.333 -86 -350 -258 -350z" />
    <glyph glyph-name="uniFEE4" unicode="&#x645;" horiz-adv-x="1265" arabic-form="medial" 
d="M1293 143l-250 -0.000976562c12 45.333 18 93.333 18 144c0 134.667 -36 244.334 -108 329.001c-76.667 89.333 -182 134 -316 134s-239.667 -44 -317 -132c-76.667 -88.667 -115 -199.667 -115 -333c0 -48.667 5.66699 -96 17 -142h-242v-143h303
c76 -118.667 193.333 -178 352 -178c152 0 266.667 59.333 344 178h314v143zM635 -49.001c-88 0 -155.333 33.333 -202 100c-38.667 56.667 -58 131.667 -58 225c0 100.667 19.333 180 58 238c47.333 72.667 117.666 109 210.999 109c86.667 0 151.334 -33.667 194.001 -101
c36.667 -55.333 55 -129 55 -221c0 -233.333 -86 -350 -258 -350z" />
    <glyph glyph-name="uniFEE6" unicode="&#x646;" horiz-adv-x="1503" arabic-form="final" 
d="M714 1251h-145v-174h145v174zM1550 143h-355c18 67.333 27 141.333 27 222v565h-143v-537c0 -181.333 -39 -325.333 -117 -432c-78 -107.333 -183.667 -161 -317 -161c-134 0 -240.667 55 -320 165c-78 107.333 -117 250 -117 428v537h-143v-565
c0 -203.333 54.667 -371.333 164 -504c109.333 -133.333 248 -200 416 -200c227.333 0 394.333 113 501 339h404v143z" />
    <glyph glyph-name="uniFEE7" unicode="&#x646;" horiz-adv-x="550" arabic-form="initial" 
d="M463 1251h-145v-174h145v174zM320 930v-506c0 -94 -10.333 -159.667 -31 -197c-28.667 -57.333 -86.667 -86 -174 -86h-131v-141h178c200.667 0 301 120 301 360v570h-143z" />
    <glyph glyph-name="uniFEE8" unicode="&#x646;" horiz-adv-x="671" arabic-form="medial" 
d="M465 1251h-145v-174h145v174zM691 143l-267 -0.000976562c26 54 39 126.333 39 217v570h-143v-506c0 -93.333 -10.333 -159.666 -31 -198.999c-28.667 -56 -86.667 -84 -174 -84h-131v-141h707v143z" />
    <glyph glyph-name="uniFEEA" unicode="&#x647;" horiz-adv-x="1208" arabic-form="final" 
d="M1228 141l-77.999 -0.000976562c-174.667 0 -262 108.667 -262 326v657h-434c-116 0 -210 -46 -282 -138c-71.333 -92 -107 -211 -107 -357c0 -137.333 34.667 -252.666 104 -345.999c70 -94.667 157 -142 261 -142c146.667 0 251 52.667 313 158
c59.333 -199.333 189.666 -299 390.999 -299h94v141zM741.001 654.999c-4 -267.333 -91.999 -401 -263.999 -401c-78.667 0 -143.334 37.667 -194.001 113c-50 73.333 -75 163.333 -75 270c0 108.667 25.333 199 76 271c51.333 73.333 117 110 197 110h260v-363z" />
    <glyph glyph-name="uniFEEB" unicode="&#x647;" horiz-adv-x="1425" arabic-form="initial" 
d="M1307 0c20.667 96 31 189.664 31 280.997c0 202.667 -48.667 375.334 -146 518.001c-124 185.333 -282.333 295 -475 329v-147c136.667 -39.333 249.667 -118 339 -236c94.667 -125.333 142 -270.666 142 -435.999c0 -57.333 -6 -112.666 -18 -165.999h-301
c64 74.667 96 169 96 283c0 120 -33 216 -99 288c-66 72.667 -153.667 109 -263 109c-111.333 0 -201.333 -38 -270 -114c-67.333 -74.667 -101 -169.667 -101 -285c0 -114.667 30.667 -209 92 -283h-350v-141h1323zM611 142.997c-146 0 -219 91 -219 273
c0 192.667 75.667 289 227 289c139.333 0 209 -90.333 209 -271c0 -194 -72.333 -291 -217 -291z" />
    <glyph glyph-name="uniFEEC" unicode="&#x647;" horiz-adv-x="1499" arabic-form="medial" 
d="M1565 143l-233 -0.00292969c4 45.333 6 91.333 6 138c0 202.667 -48.667 375.334 -146 518.001c-124 185.333 -282.333 295 -475 329v-147c136.667 -39.333 249.667 -118 339 -236c94.667 -125.333 142 -270.666 142 -435.999c0 -57.333 -6 -112.666 -18 -165.999h-301
c64 74.667 96 169 96 283c0 120 -33 216 -99 288c-66 72.667 -153.667 109 -263 109c-111.333 0 -201.333 -38 -270 -114c-67.333 -74.667 -101 -169.667 -101 -285c0 -114.667 30.667 -209 92 -283h-350v-141h1581v143zM611 142.997c-146 0 -219 91 -219 273
c0 192.667 75.667 289 227 289c139.333 0 209 -90.333 209 -271c0 -194 -72.333 -291 -217 -291z" />
    <glyph glyph-name="uniFEEE" unicode="&#x648;" horiz-adv-x="1148" arabic-form="final" 
d="M1173 141h-267.001v381c0 273.333 -122.667 410 -368 410c-116.667 0 -215 -45 -295 -135c-78 -90 -117 -201.333 -117 -334c0 -133.333 37 -244 111 -332c72.667 -87.333 166.667 -131 282 -131h223c-34.667 -132 -117.667 -198 -249 -198h-19v-137
c236.667 14 375.334 125.667 416.001 335h283v141zM520.999 141c-80 0 -143.332 39.001 -189.999 117.001c-38.667 62.667 -58 135.667 -58 219c0 77.333 22 148.333 66 213c49.333 72.667 112.666 109 189.999 109c74.667 0 133 -24 175 -72
c36.667 -40.667 55 -91.334 55 -152.001v-432z" />
    <glyph glyph-name="uniFEF0" unicode="&#x649;" horiz-adv-x="1769" arabic-form="final" 
d="M1791 143l-43 -0.000976562c-130 0 -229 87.667 -297 263c-30.667 80 -83 149 -157 207c-71.333 56.667 -139 85 -203 85c-74 0 -111 -1.33301 -111 -4h3v-129c177.333 0 266 -92.667 266 -278c0 -124 -51.333 -234 -154 -330c-104 -96.667 -224 -145 -360 -145
c-162 0 -290.333 56 -385 168c-93.333 110 -140 258 -140 444v178h-145v-205c0 -205.333 63.333 -377.666 190 -516.999c128 -140.667 286 -211 474 -211c175.333 0 327.333 59.667 456 179c130 120 195 265 195 435c50 -188.667 177 -283 381 -283h30v143z" />
    <glyph glyph-name="space" unicode=" " horiz-adv-x="434" 
 />
    <glyph glyph-name="exclam" unicode="!" horiz-adv-x="378" 
d="M215 1327h-150v-522l45 -535h59l42 475c2.66699 31.333 4 51.333 4 60v522zM215 158h-150v-158h150v158z" />
    <glyph glyph-name="percent" unicode="%" horiz-adv-x="714" 
d="M298 1305h-186v-215h186v215zM505 1327l-440 -1327h145l439 1327h-144zM612 240h-187v-215h187v215z" />
    <glyph glyph-name="parenleft" unicode="(" horiz-adv-x="659" 
d="M599 -221c-108 86 -194 204 -258 354c-62.667 150 -94 312.667 -94 488c0 327.333 116 598.333 348 813l-63 75c-307.333 -222.667 -461 -523.667 -461 -903c0 -360.667 155.667 -665 467 -913z" />
    <glyph glyph-name="parenright" unicode=")" horiz-adv-x="659" 
d="M128 1513l-63 -86c108 -83.333 194 -201.333 258 -354c62.667 -148 94 -309.667 94 -485c0 -332 -116.667 -604.333 -350 -817l64 -74c308 224.667 462 525.667 462 903c0 360.667 -155 665 -465 913z" />
    <glyph glyph-name="asterisk" unicode="*" horiz-adv-x="1237" 
d="M423 551l-133 78l178 317h-362v167h362l-178 320l133 78l189 -329l181 329l133 -78l-177 -320h361v-167h-361l177 -317l-133 -78l-185 325z" />
    <glyph glyph-name="plus" unicode="+" horiz-adv-x="1261" 
d="M700 66v438h438v139h-438v438h-140v-438h-438v-139h438v-438h140z" />
    <glyph glyph-name="comma" unicode="," horiz-adv-x="464" 
d="M90 244l80 -66l-80 -96l101 -82l141 172c27.333 34 41 66 41 96s-21 63 -63 99l-72 57z" />
    <glyph glyph-name="hyphen" unicode="-" horiz-adv-x="1314" 
d="M1191 541h-1069v-142h1069v142z" />
    <glyph glyph-name="period" unicode="." horiz-adv-x="360" 
d="M237 213h-186v-213h186v213z" />
    <glyph glyph-name="slash" unicode="/" horiz-adv-x="714" 
d="M505 1327l-440 -1327h145l439 1327h-144z" />
    <glyph glyph-name="zero" unicode="0" horiz-adv-x="561" 
d="M381 528l-201 123v-282l201 -125v284z" />
    <glyph glyph-name="zero" unicode="&#x6f0;" horiz-adv-x="561" 
d="M381 528l-201 123v-282l201 -125v284z" />
    <glyph glyph-name="zero" unicode="&#x660;" horiz-adv-x="561" 
d="M381 528l-201 123v-282l201 -125v284z" />
    <glyph glyph-name="one" unicode="1" horiz-adv-x="413" 
d="M278 1321l-143 -111v-1210h143v1321z" />
    <glyph glyph-name="one" unicode="&#x6f1;" horiz-adv-x="413" 
d="M278 1321l-143 -111v-1210h143v1321z" />
    <glyph glyph-name="one" unicode="&#x661;" horiz-adv-x="413" 
d="M278 1321l-143 -111v-1210h143v1321z" />
    <glyph glyph-name="two" unicode="2" horiz-adv-x="976" 
d="M842 1325l-105 -1.99902h-70c-197.333 0 -341.333 -79.333 -432 -238c-66.667 -115.333 -100 -263.333 -100 -444v-641h143v664c0 145.333 28 264.666 84 357.999c69.333 116 175.333 174 318 174h162v129z" />
    <glyph glyph-name="two" unicode="&#x6f2;" horiz-adv-x="976" 
d="M842 1325l-105 -1.99902h-70c-197.333 0 -341.333 -79.333 -432 -238c-66.667 -115.333 -100 -263.333 -100 -444v-641h143v664c0 145.333 28 264.666 84 357.999c69.333 116 175.333 174 318 174h162v129z" />
    <glyph glyph-name="two" unicode="&#x662;" horiz-adv-x="976" 
d="M842 1325l-105 -1.99902h-70c-197.333 0 -341.333 -79.333 -432 -238c-66.667 -115.333 -100 -263.333 -100 -444v-641h143v664c0 145.333 28 264.666 84 357.999c69.333 116 175.333 174 318 174h162v129z" />
    <glyph glyph-name="three" unicode="3" horiz-adv-x="1101" 
d="M966 1323l-126.001 -0.000976562v-125c0 -96.667 -19.667 -166.667 -59 -210c-45.333 -51.333 -124 -77 -236 -77c40 7.33301 67.667 37.333 83 90c6 20.667 10.333 44.667 13 72c1.33301 18.667 2 41.334 2 68.001v182h-123v-125c0 -95.333 -15 -162 -45 -200
c-35.333 -44 -101.666 -66 -198.999 -66v393h-141v-1325h143v786h312c250.667 0 376 118.333 376 355v182z" />
    <glyph glyph-name="three" unicode="&#x6f3;" horiz-adv-x="1101" 
d="M966 1323l-126.001 -0.000976562v-125c0 -96.667 -19.667 -166.667 -59 -210c-45.333 -51.333 -124 -77 -236 -77c40 7.33301 67.667 37.333 83 90c6 20.667 10.333 44.667 13 72c1.33301 18.667 2 41.334 2 68.001v182h-123v-125c0 -95.333 -15 -162 -45 -200
c-35.333 -44 -101.666 -66 -198.999 -66v393h-141v-1325h143v786h312c250.667 0 376 118.333 376 355v182z" />
    <glyph glyph-name="three" unicode="&#x663;" horiz-adv-x="1101" 
d="M966 1323l-126.001 -0.000976562v-125c0 -96.667 -19.667 -166.667 -59 -210c-45.333 -51.333 -124 -77 -236 -77c40 7.33301 67.667 37.333 83 90c6 20.667 10.333 44.667 13 72c1.33301 18.667 2 41.334 2 68.001v182h-123v-125c0 -95.333 -15 -162 -45 -200
c-35.333 -44 -101.666 -66 -198.999 -66v393h-141v-1325h143v786h312c250.667 0 376 118.333 376 355v182z" />
    <glyph glyph-name="four" unicode="4" horiz-adv-x="1003" 
d="M868 129l-329.998 -0.00195312c-76 0 -138 24 -186 72c-48 47.333 -72 107.333 -72 180c0 72 24.667 132.333 74 181s110.666 73 183.999 73l117 -2v125h-106c-68.667 0 -126 21.333 -172 64c-46.667 43.333 -70 98.333 -70 165c0 142 80.667 213 242 213h272v123h-313
c-100.667 0 -182.334 -27.667 -245.001 -83c-63.333 -56 -95 -130 -95 -222c0 -155.333 67.667 -262.666 203 -321.999c-157.333 -42.667 -236 -156 -236 -340c0 -103.333 39 -188.666 117 -255.999c76.667 -66.667 173 -100 289 -100h327v129z" />
    <glyph glyph-name="four" unicode="&#x6f4;" horiz-adv-x="1003" 
d="M868 129l-329.998 -0.00195312c-76 0 -138 24 -186 72c-48 47.333 -72 107.333 -72 180c0 72 24.667 132.333 74 181s110.666 73 183.999 73l117 -2v125h-106c-68.667 0 -126 21.333 -172 64c-46.667 43.333 -70 98.333 -70 165c0 142 80.667 213 242 213h272v123h-313
c-100.667 0 -182.334 -27.667 -245.001 -83c-63.333 -56 -95 -130 -95 -222c0 -155.333 67.667 -262.666 203 -321.999c-157.333 -42.667 -236 -156 -236 -340c0 -103.333 39 -188.666 117 -255.999c76.667 -66.667 173 -100 289 -100h327v129z" />
    <glyph glyph-name="four" unicode="&#x664;" horiz-adv-x="1003" 
d="M868 129l-329.998 -0.00195312c-76 0 -138 24 -186 72c-48 47.333 -72 107.333 -72 180c0 72 24.667 132.333 74 181s110.666 73 183.999 73l117 -2v125h-106c-68.667 0 -126 21.333 -172 64c-46.667 43.333 -70 98.333 -70 165c0 142 80.667 213 242 213h272v123h-313
c-100.667 0 -182.334 -27.667 -245.001 -83c-63.333 -56 -95 -130 -95 -222c0 -155.333 67.667 -262.666 203 -321.999c-157.333 -42.667 -236 -156 -236 -340c0 -103.333 39 -188.666 117 -255.999c76.667 -66.667 173 -100 289 -100h327v129z" />
    <glyph glyph-name="five" unicode="5" horiz-adv-x="1161" 
d="M842 983c-94 110 -181.668 184.999 -263.001 224.999c-79.333 -38.667 -166.666 -113.667 -261.999 -225c-121.333 -144 -182 -279 -182 -405c0 -147.333 40.667 -265.666 122 -354.999c81.333 -88.667 188 -133 320 -133c133.333 0 241.333 45 324 135
c83.333 90 125 207.667 125 353c0 126.667 -61.333 261.667 -184 405zM578.999 210.999c-192 0 -288 118 -288 354c0 84.667 30 178.667 90 282c59.333 102 125.333 175.333 198 220c74.667 -42.667 141.667 -115.667 201 -219c58.667 -102 88 -196.333 88 -283
c0 -236 -96.333 -354 -289 -354z" />
    <glyph glyph-name="five" unicode="&#x6f5;" horiz-adv-x="1161" 
d="M842 983c-94 110 -181.668 184.999 -263.001 224.999c-79.333 -38.667 -166.666 -113.667 -261.999 -225c-121.333 -144 -182 -279 -182 -405c0 -147.333 40.667 -265.666 122 -354.999c81.333 -88.667 188 -133 320 -133c133.333 0 241.333 45 324 135
c83.333 90 125 207.667 125 353c0 126.667 -61.333 261.667 -184 405zM578.999 210.999c-192 0 -288 118 -288 354c0 84.667 30 178.667 90 282c59.333 102 125.333 175.333 198 220c74.667 -42.667 141.667 -115.667 201 -219c58.667 -102 88 -196.333 88 -283
c0 -236 -96.333 -354 -289 -354z" />
    <glyph glyph-name="five" unicode="&#x665;" horiz-adv-x="1161" 
d="M842 983c-94 110 -181.668 184.999 -263.001 224.999c-79.333 -38.667 -166.666 -113.667 -261.999 -225c-121.333 -144 -182 -279 -182 -405c0 -147.333 40.667 -265.666 122 -354.999c81.333 -88.667 188 -133 320 -133c133.333 0 241.333 45 324 135
c83.333 90 125 207.667 125 353c0 126.667 -61.333 261.667 -184 405zM578.999 210.999c-192 0 -288 118 -288 354c0 84.667 30 178.667 90 282c59.333 102 125.333 175.333 198 220c74.667 -42.667 141.667 -115.667 201 -219c58.667 -102 88 -196.333 88 -283
c0 -236 -96.333 -354 -289 -354z" />
    <glyph glyph-name="six" unicode="6" horiz-adv-x="976" 
d="M842 641c0 214 -46.333 381.001 -139 501.001c-93.333 122 -225.333 183 -396 183h-172v-129h160c126.667 0 225.667 -47.667 297 -143c70.667 -94.667 106 -224.334 106 -389.001v-664h144v641z" />
    <glyph glyph-name="six" unicode="&#x6f6;" horiz-adv-x="976" 
d="M842 641c0 214 -46.333 381.001 -139 501.001c-93.333 122 -225.333 183 -396 183h-172v-129h160c126.667 0 225.667 -47.667 297 -143c70.667 -94.667 106 -224.334 106 -389.001v-664h144v641z" />
    <glyph glyph-name="six" unicode="&#x666;" horiz-adv-x="976" 
d="M842 641c0 214 -46.333 381.001 -139 501.001c-93.333 122 -225.333 183 -396 183h-172v-129h160c126.667 0 225.667 -47.667 297 -143c70.667 -94.667 106 -224.334 106 -389.001v-664h144v641z" />
    <glyph glyph-name="seven" unicode="7" horiz-adv-x="1079" 
d="M801 1325l-250 -1223l-277 1223h-139l293 -1325h227l289 1325h-143z" />
    <glyph glyph-name="seven" unicode="&#x6f7;" horiz-adv-x="1079" 
d="M801 1325l-250 -1223l-277 1223h-139l293 -1325h227l289 1325h-143z" />
    <glyph glyph-name="seven" unicode="&#x667;" horiz-adv-x="1079" 
d="M801 1325l-250 -1223l-277 1223h-139l293 -1325h227l289 1325h-143z" />
    <glyph glyph-name="eight" unicode="8" horiz-adv-x="1079" 
d="M655 1325h-227l-293 -1325h139l277 1223l250 -1223h143z" />
    <glyph glyph-name="eight" unicode="&#x6f8;" horiz-adv-x="1079" 
d="M655 1325h-227l-293 -1325h139l277 1223l250 -1223h143z" />
    <glyph glyph-name="eight" unicode="&#x668;" horiz-adv-x="1079" 
d="M655 1325h-227l-293 -1325h139l277 1223l250 -1223h143z" />
    <glyph glyph-name="nine" unicode="9" horiz-adv-x="1044" 
d="M907 909c0 124.667 -33.333 224.333 -100 299c-68.667 76.667 -163 115 -283 115c-118.667 0 -213.667 -39.333 -285 -118c-69.333 -76.667 -104 -176 -104 -298c0 -124.667 34 -224 102 -298c70 -75.333 165 -113 285 -113c95.333 0 176 26.333 242 79v-575h143v909z
M522 601.999c-161.333 0 -242 99 -242 297c0 210 84 315 252 315c154.667 0 232 -97.333 232 -292c0 -213.333 -80.667 -320 -242 -320z" />
    <glyph glyph-name="nine" unicode="&#x6f9;" horiz-adv-x="1044" 
d="M907 909c0 124.667 -33.333 224.333 -100 299c-68.667 76.667 -163 115 -283 115c-118.667 0 -213.667 -39.333 -285 -118c-69.333 -76.667 -104 -176 -104 -298c0 -124.667 34 -224 102 -298c70 -75.333 165 -113 285 -113c95.333 0 176 26.333 242 79v-575h143v909z
M522 601.999c-161.333 0 -242 99 -242 297c0 210 84 315 252 315c154.667 0 232 -97.333 232 -292c0 -213.333 -80.667 -320 -242 -320z" />
    <glyph glyph-name="nine" unicode="&#x669;" horiz-adv-x="1044" 
d="M907 909c0 124.667 -33.333 224.333 -100 299c-68.667 76.667 -163 115 -283 115c-118.667 0 -213.667 -39.333 -285 -118c-69.333 -76.667 -104 -176 -104 -298c0 -124.667 34 -224 102 -298c70 -75.333 165 -113 285 -113c95.333 0 176 26.333 242 79v-575h143v909z
M522 601.999c-161.333 0 -242 99 -242 297c0 210 84 315 252 315c154.667 0 232 -97.333 232 -292c0 -213.333 -80.667 -320 -242 -320z" />
    <glyph glyph-name="colon" unicode=":" horiz-adv-x="360" 
d="M237 616h-186v-210h186v210zM237 213h-186v-213h186v213z" />
    <glyph glyph-name="equal" unicode="=" horiz-adv-x="1239" 
d="M1115 809h-993v-139h993v139zM1115 449h-993v-142h993v142z" />
    <glyph glyph-name="bracketleft" unicode="[" horiz-adv-x="479" 
d="M413 -159h-196v1521h196v111h-348v-1745h348v113z" />
    <glyph glyph-name="bracketright" unicode="]" horiz-adv-x="479" 
d="M413 1473h-348v-111h197v-1521h-197v-111h348v1743z" />
    <glyph glyph-name="braceleft" unicode="{" horiz-adv-x="768" 
d="M683 -221c-108 1.33301 -182.333 14.002 -223 38.002c-48 27.333 -72 79.666 -72 156.999v413c0 73.333 -49 141.666 -147 204.999c98 76 147 143.667 147 203v413c0 80.667 20 134.667 60 162c39.333 27.333 117 41 233 41v78c-290.667 0 -436 -93.667 -436 -281v-413
c0 -89.333 -56 -157 -168 -203h-4c114.667 -74.667 172 -143 172 -205v-413c0 -177.333 126.333 -266 379 -266l59 4v67z" />
    <glyph glyph-name="braceright" unicode="}" horiz-adv-x="768" 
d="M73 -221c108 1.33301 182.333 14.002 223 38.002c48 27.333 72 79.666 72 156.999v413c0 73.333 49 141.666 147 204.999c-98 76 -147 143.667 -147 203v413c0 80.667 -20 134.667 -60 162c-39.333 27.333 -117 41 -233 41v78c290.667 0 436 -93.667 436 -281v-413
c0 -89.333 56 -157 168 -203h4c-114.667 -74.667 -172 -143 -172 -205v-413c0 -177.333 -126.333 -266 -379 -266l-59 4v67z" />
    <glyph glyph-name="guillemotleft" unicode="&#xab;" horiz-adv-x="501" 
d="M428 92c-41.333 55.333 -70 104.668 -86 148.001c-19.333 54.667 -29 118 -29 190c0 143.333 37.667 258.666 113 345.999l-21 27c-106.667 -98.667 -160 -219 -160 -361s53.333 -266 160 -372zM239 92.002c-40 57.333 -68 106.667 -84 148
c-18.667 54.667 -28 118 -28 190c0 143.333 37.333 258.666 112 345.999l-22 27c-105.333 -99.333 -158 -219.666 -158 -360.999s52.667 -265.333 158 -372z" />
    <glyph glyph-name="periodcentered" unicode="&#xb7;" horiz-adv-x="405" 
d="M326 768c0 -33.333 -11.832 -61.668 -35.499 -85.001s-52.167 -35 -85.5 -35c-32.667 0 -60.834 11.833 -84.501 35.5s-35.5 51.834 -35.5 84.501s11.5 61 34.5 85s50.833 36 83.5 36c34 0 63 -11.667 87 -35s36 -52 36 -86z" />
    <glyph glyph-name="periodcentered" unicode="&#x2219;" horiz-adv-x="405" 
d="M326 768c0 -33.333 -11.832 -61.668 -35.499 -85.001s-52.167 -35 -85.5 -35c-32.667 0 -60.834 11.833 -84.501 35.5s-35.5 51.834 -35.5 84.501s11.5 61 34.5 85s50.833 36 83.5 36c34 0 63 -11.667 87 -35s36 -52 36 -86z" />
    <glyph glyph-name="periodcentered" unicode="&#x2d9;" horiz-adv-x="405" 
d="M326 768c0 -33.333 -11.832 -61.668 -35.499 -85.001s-52.167 -35 -85.5 -35c-32.667 0 -60.834 11.833 -84.501 35.5s-35.5 51.834 -35.5 84.501s11.5 61 34.5 85s50.833 36 83.5 36c34 0 63 -11.667 87 -35s36 -52 36 -86z" />
    <glyph glyph-name="guillemotright" unicode="&#xbb;" horiz-adv-x="501" 
d="M276 803l-23 -27.001c74 -88 111 -203.333 111 -346c0 -72 -9.66699 -135.333 -29 -190c-12.667 -39.333 -40 -88.666 -82 -147.999l21 -22c105.333 106.667 158 230.667 158 372c0 142.667 -52 263 -156 361zM88 802.999l-22.999 -27.001
c76.667 -88.667 115 -204 115 -346c0 -72 -9.66699 -135.333 -29 -190c-16.667 -43.333 -45.334 -92.666 -86.001 -147.999l23 -22c106 106 159 230 159 372s-53 262.333 -159 361z" />
    <glyph glyph-name="multiply" unicode="&#xd7;" horiz-adv-x="1159" 
d="M264 0l308 311l311 -309l98 100l-311 307l309 312l-100 98l-307 -311l-312 309l-98 -100l311 -308l-309 -311z" />
    <glyph glyph-name="divide" unicode="&#xf7;" horiz-adv-x="1265" 
d="M712 825h-168v-207h168v207zM1160 489h-1069v-153h1069v153zM712 206h-168v-206h168v206z" />
    <glyph glyph-name="afii57388" unicode="&#x60c;" horiz-adv-x="360" 
d="M270 207l-82 0.000976562c0 76 20.667 174.333 62 295h-88c-52 -126.667 -78 -256.334 -78 -389.001v-113h186v207z" />
    <glyph glyph-name="afii57403" unicode="&#x61b;" horiz-adv-x="360" 
d="M237 608h-82c0 78 20.667 176.333 62 295h-88c-52 -126.667 -78 -255.667 -78 -387v-113h186v205zM237 213h-186v-213h186v213z" />
    <glyph glyph-name="afii57407" unicode="&#x61f;" horiz-adv-x="991" 
d="M923 891c0 303.333 -139.999 454.999 -419.999 454.999c-128.667 0 -233.334 -36 -314.001 -108c-82.667 -73.333 -124 -170.666 -124 -291.999c0 -92.667 36.667 -175 110 -247c71.333 -70.667 154 -109.667 248 -117v-299h150v436c-233.333 0 -350 82.667 -350 248
c0 69.333 25.667 126.333 77 171c50.667 44 115.667 66 195 66c176 0 264 -104.333 264 -313h164zM583.001 183.999h-168v-184h168v184z" />
    <glyph glyph-name="afii57409" unicode="&#x621;" horiz-adv-x="880" 
d="M792 354c-32.667 149.333 -125.333 223.999 -278 223.999c-96.667 0 -170.667 -31 -222 -93c-44.667 -55.333 -67 -127.666 -67 -216.999c0 -44 8 -85.667 24 -125h-143v-143h684v143h-385c-22 32 -33 73.667 -33 125c0 130 48.667 195 146 195
c74 0 118.333 -41.667 133 -125z" />
    <glyph glyph-name="afii57440" unicode="&#x640;" horiz-adv-x="405" 
d="M422 143h-432v-143h432v143z" />
    <glyph glyph-name="afii57451" unicode="&#x64b;" 
d="M468 1683l-378 -94l-21 78l379 96zM472 1541l-378 -94l-20 78l378 96z" />
    <glyph glyph-name="afii57452" unicode="&#x64c;" 
d="M495 1656c0 -72 -43.668 -117.998 -131.001 -137.998l-276 -66l-26 70l26 13c27.333 12.667 41 32 41 58c0 15.333 -5.33301 23 -16 23c-10 0 -23 -6.33301 -39 -19l-31 45c24.667 33.333 51.334 49.666 80.001 48.999c47.333 -0.666992 71 -24.334 71 -71.001
c0 -26 -7.33301 -50 -22 -72l74 28c-13.333 23.333 -20 49 -20 77c0 36 15.667 66.667 47 92c28 22.667 55.333 34 82 34c35.333 0 67 -11.667 95 -35c30 -24.667 45 -54 45 -88zM419.999 1656c0 28 -20 42 -60 42c-14 0 -27 -4.33301 -39 -13s-18 -20 -18 -34
c0 -14.667 6 -27.5 18 -38.5s25.667 -16.167 41 -15.5c38.667 3.33301 58 23 58 59z" />
    <glyph glyph-name="afii57453" unicode="&#x64d;" 
d="M504 -399l-378 -94l-21 77l380 96zM508 -542l-377 -93l-21 77l379 98z" />
    <glyph glyph-name="afii57454" unicode="&#x64e;" horiz-adv-x="3" 
d="M470 1860l-378 -94l-21 78l380 96z" />
    <glyph glyph-name="afii57455" unicode="&#x64f;" horiz-adv-x="2" 
d="M405 1651c0 28 -20.667 42 -62 42c-14 0 -26.667 -4.33301 -38 -13c-14 -10 -21 -21.667 -21 -35c0 -15.333 6.5 -28.333 19.5 -39s27.167 -15 42.5 -13c39.333 2.66699 59 22 59 58zM231 1574c-14.667 23.333 -21.999 47.668 -21.999 73.001c0 35.333 16 66.333 48 93
c27.333 22.667 54.666 34 81.999 34c35.333 0 67.333 -11.333 96 -34c29.333 -24.667 44 -54.334 44 -89.001c0 -71.333 -43.667 -117.333 -131 -138l-269 -63l-19 72c44 12.667 101 30 171 52z" />
    <glyph glyph-name="afii57456" unicode="&#x650;" horiz-adv-x="0" 
d="M494 -513l-378 -94l-20 77l379 97z" />
    <glyph glyph-name="afii57457" unicode="&#x651;" horiz-adv-x="2" 
d="M484 1605c0 -30 -8.33301 -55.668 -25 -77.001c-17.333 -22.667 -41 -34 -71 -34c-48 0 -84.667 18 -110 54c-27.333 -65.333 -70.333 -98 -129 -98c-64 0 -96 36.667 -96 110c0 32.667 14.333 78.667 43 138l60 -30c-16.667 -43.333 -25 -69.333 -25 -78
c0 -30.667 10.667 -46 32 -46c32 0 52.667 16.333 62 49c6 18.667 8 48.334 6 89.001l77 40c0 -89.333 20.667 -134 62 -134c22 0 32 13.667 30 41c-0.666992 15.333 -5 29.333 -13 42c-4.66699 6 -12 17.333 -22 34l61 45c16 -22 30.333 -49.333 43 -82
c10 -28 15 -49 15 -63z" />
    <glyph glyph-name="afii57458" unicode="&#x652;" horiz-adv-x="0" 
d="M430 1724c0 -44.667 -15.667 -82.5 -47 -113.5s-69 -46.5 -113 -46.5s-81.667 15.833 -113 47.5s-47 69.167 -47 112.5c0 42 16.167 79 48.5 111s69.5 48 111.5 48s79.167 -16 111.5 -48s48.5 -69 48.5 -111zM338 1726c0 18.667 -7 34.333 -21 47s-30.667 19 -50 19
c-16.667 0 -31.667 -7 -45 -21s-20 -29.667 -20 -47c0 -46 22.667 -69 68 -69s68 23.667 68 71z" />
    <glyph glyph-name="afii61664" unicode="&#x200c;" horiz-adv-x="43" 
d="M43 1522h-43v-1522h43v1522z" />
    <glyph glyph-name="afii301" unicode="&#x200d;" horiz-adv-x="43" 
d="M50 1497l100 100l-29 29l-100 -102l-98 102l-29 -29l101 -100l-101 -100l29 -27l77 78v-1448h44v1448l77 -78l29 27z" />
    <glyph glyph-name="afii299" unicode="&#x200e;" horiz-adv-x="43" 
d="M156 1626l-29 -29l76 -75h-203v-1522h43v1479h164l-80 -80l29 -29l127 127z" />
    <glyph glyph-name="afii300" unicode="&#x200f;" horiz-adv-x="43" 
d="M44 1522h-203l76 75l-28 29l-130 -129l130 -127l28 29l-80 80h164v-1479h43v1522z" />
    <glyph glyph-name="quoteleft" unicode="&#x2018;" horiz-adv-x="491" 
d="M447 1497c-55.333 -36.667 -105.333 -84.667 -150 -144c-53.333 -70.667 -80 -139 -80 -205c0 -41.333 17 -84.666 51 -129.999c32.667 39.333 63 59 91 59c54.667 0 82 -26.667 82 -80c0 -32 -13 -57.333 -39 -76c-25.333 -17.333 -56.333 -26 -93 -26
c-49.333 0 -89 14.833 -119 44.5s-45 69.167 -45 118.5c0 89.333 34.667 179.666 104 270.999c62.667 82 128.667 141.667 198 179v-11z" />
    <glyph glyph-name="quoteright" unicode="&#x2019;" horiz-adv-x="491" 
d="M424 1353c0 -90.667 -34.334 -180.333 -103.001 -269c-58.667 -76.667 -124 -135.667 -196 -177v11c152 108 228 224 228 348c0 46 -18.333 90.667 -55 134c-28 -41.333 -59 -62 -93 -62c-22 0 -40.5 7.33301 -55.5 22s-22.5 33 -22.5 55c0 32 13.667 57.667 41 77
c24.667 18 55.334 27 92.001 27c52 0 92.333 -14.667 121 -44s43 -70 43 -122z" />
    <glyph glyph-name="quotedblleft" unicode="&#x201c;" horiz-adv-x="650" 
d="M531 1149c12 5.33301 7.66797 0.667969 -12.999 -13.999c-39.333 -38.667 -59 -80.334 -59 -125.001c54.667 -14.667 82 -47 82 -97c0 -24.667 -8.66699 -46 -26 -64s-38 -27 -62 -27c-28 0 -50.667 11.333 -68 34c-16.667 22 -25 48.667 -25 80
c0 127.333 54.333 233.333 163 318c0 -28.667 0.333008 -46.667 1 -54c3.33301 -32.667 5.66602 -49.667 6.99902 -51zM261.001 1149c12 5.33301 7.66797 0.667969 -12.999 -13.999c-39.333 -38.667 -59 -80.334 -59 -125.001c54.667 -14.667 82 -47 82 -97
c0 -24.667 -8.66699 -46 -26 -64s-38 -27 -62 -27c-28 0 -50.667 11.333 -68 34c-16.667 22 -25 48.667 -25 80c0 127.333 54.333 233.333 163 318c0 -28.667 0.333008 -46.667 1 -54c3.33301 -32.667 5.66602 -49.667 6.99902 -51z" />
    <glyph glyph-name="quotedblright" unicode="&#x201d;" horiz-adv-x="650" 
d="M560 1151c0 -127.333 -54.334 -233.335 -163.001 -318.002c0 28.667 -0.333008 46.667 -1 54c-3.33301 32.667 -5.66602 49.667 -6.99902 51c-12 -5.33301 -7.66699 -0.666016 13 14.001c39.333 38.667 59 80.334 59 125.001c-54.667 14.667 -82 47 -82 97
c0 25.333 8.33301 46.833 25 64.5s37.667 26.5 63 26.5c29.333 0 52.333 -11 69 -33c16 -21.333 24 -48.333 24 -81zM289.999 1151c0 -127.333 -54.334 -233.335 -163.001 -318.002c0 28.667 -0.333008 46.667 -1 54c-3.33301 32.667 -5.66602 49.667 -6.99902 51
c-12 -5.33301 -7.66699 -0.666016 13 14.001c39.333 38.667 59 80.334 59 125.001c-54.667 14.667 -82 47 -82 97c0 25.333 8.33301 46.833 25 64.5s37.667 26.5 63 26.5c29.333 0 52.333 -11 69 -33c16 -21.333 24 -48.333 24 -81z" />
    <glyph glyph-name="guilsinglleft" unicode="&#x2039;" horiz-adv-x="1110" 
d="M435 477l480 479h-183l-479 -479l479 -477h183z" />
    <glyph glyph-name="guilsinglright" unicode="&#x203a;" horiz-adv-x="1110" 
d="M377 956h-162l479 -479l-479 -477h162l479 477z" />
    <glyph glyph-name="uniE820" unicode="&#xe820;" 
d="M499 1551l-378 -94l-21 78l380 96z" />
    <glyph glyph-name="uniE821" unicode="&#xe821;" horiz-adv-x="0" 
d="M438 1462c0 28 -20.667 42 -62 42c-14 0 -26.667 -4.33301 -38 -13c-14 -10 -21 -21.667 -21 -35c0 -15.333 6.5 -28.333 19.5 -39s27.167 -15 42.5 -13c39.333 2.66699 59 22 59 58zM264 1385c-14.667 23.333 -21.999 47.668 -21.999 73.001c0 35.333 16 66.333 48 93
c27.333 22.667 54.666 34 81.999 34c35.333 0 67.333 -11.333 96 -34c29.333 -24.667 44 -54.334 44 -89.001c0 -71.333 -43.667 -117.333 -131 -138l-269 -63l-19 72c44 12.667 101 30 171 52z" />
    </font>
</defs>
</svg>
