<?xml version="1.0" standalone="no"?>
<!DOCTYPE svg PUBLIC "-//W3C//DTD SVG 1.1//EN" "http://www.w3.org/Graphics/SVG/1.1/DTD/svg11.dtd" >
<svg>
<metadata>
Created by FontForge 20090914 at Wed Oct 19 00:47:40 2011
 By www-data
(c) by Abolfazl Seilsepour - +98 912 591 3420  -  seilsepor@yahoo.com
</metadata>
<defs>
<font id="FarAndalus" horiz-adv-x="0" >
  <font-face 
    font-family="Far.Andalus"
    font-weight="700"
    font-stretch="normal"
    units-per-em="2048"
    panose-1="0 0 7 0 0 0 0 0 0 0"
    ascent="1638"
    descent="-410"
    bbox="-196 -921.999 2255 2200"
    underline-thickness="100"
    underline-position="-680"
    unicode-range="U+0020-U+FEFC"
  />
<missing-glyph horiz-adv-x="1024" 
d="M128 0v1357h768v-1357h-768zM256 128h512v1101h-512v-1101z" />
    <glyph glyph-name="uE818" unicode="&#x651;&#x64b;" horiz-adv-x="621" 
d="M545 2172c-21.333 -6.66699 -92 -38 -212 -94c-103.333 -48.667 -170.333 -73 -201 -73h-100l212 97c101.333 46.667 168 70 200 70h101zM583 2061c-21.333 -6.66699 -92 -38 -212 -94c-103.333 -48.667 -170.333 -73 -201 -73h-100l212 97c101.333 46.667 168 70 200 70
h101zM621 1816c-32 -7.33301 -92.9971 -34.334 -182.997 -81.001c-84 -43.333 -133.333 -65 -148 -65c-28 0 -59.333 25.667 -94 77c-12.667 19.333 -31.334 43.333 -56.001 72h59c19.333 0 39.666 -10.667 60.999 -32s36.333 -32 45 -32c32 0 48 13 48 39
c0 18.667 -7.66699 39.667 -23 63c-14 20 -27.667 34 -41 42h61c19.333 0 35.666 -10.333 48.999 -31c24 -36 40 -54 48 -54c30 0 45 16 45 48c0 34.667 -17.333 61.334 -52 80.001l51 4c33.333 2.66699 57.833 -14.333 73.5 -51s34.5 -63 56.5 -79z" />
    <glyph glyph-name="uFC5E" unicode="&#x651;&#x64c;" arabic-form="isolated" 
d="M641 1753c-32 -7.33301 -92.9961 -34.334 -182.996 -81.001c-84 -43.333 -133.333 -65 -148 -65c-28 0 -59.333 25.667 -94 77c-12.667 19.333 -31.334 43.333 -56.001 72h59c19.333 0 39.666 -10.667 60.999 -32s36.333 -32 45 -32c32 0 48 13 48 39
c0 18.667 -7.66699 39.667 -23 63c-14 20 -27.667 34 -41 42h61c19.333 0 35.666 -10.333 48.999 -31c24 -36 40 -54 48 -54c30 0 45 16 45 48c0 33.333 -17.333 59.333 -52 78c-8 3.33301 -22.667 13.333 -44 30c-98 -54.667 -169 -82 -213 -82v83
c-30.667 -13.333 -63.334 -20 -98.001 -20h-66c34 14.667 94 43.334 180 86.001l54 29v-96c21.333 8 51.333 21.333 90 40l-28 25c-24 21.333 -36 43.333 -36 66c0 24.667 12.667 47 38 67l120 95c0 -18 14.667 -49.333 44 -94s44 -76 44 -94c0 -30 -24.667 -56 -74 -78
l58 -52c23.333 -1.33301 42 -18.333 56 -51c15.333 -36 34 -62 56 -78zM476.004 2022c0 37.333 -18.667 55.999 -56 55.999c-34 0 -51 -13.667 -51 -41c0 -10 18 -29.667 54 -59c35.333 20.667 53 35.334 53 44.001z" />
    <glyph glyph-name="uFC5F" unicode="&#x651;&#x64d;" arabic-form="isolated" 
d="M528 1937c-32 -7.33301 -92.9971 -34.334 -182.997 -81.001c-84 -43.333 -133.333 -65 -148 -65c-28 0 -59.333 25.667 -94 77c-12.667 19.333 -31.334 43.333 -56.001 72h59c19.333 0 39.666 -10.667 60.999 -32s36.333 -32 45 -32c32 0 48 13 48 39
c0 18.667 -7.66699 39.667 -23 63c-14 20 -27.667 34 -41 42h61c19.333 0 35.666 -10.333 48.999 -31c24 -36 40 -54 48 -54c30 0 45 16 45 48c0 34.667 -17.333 61.334 -52 80.001l51 4c33.333 2.66699 57.833 -14.333 73.5 -51s34.5 -63 56.5 -79zM617.003 1859
c-21.333 -6.66699 -92 -38 -212 -94c-103.333 -48.667 -170.333 -73 -201 -73h-100l212 97c101.333 46.667 168 70 200 70h101zM655.003 1748c-21.333 -6.66699 -92 -38 -212 -94c-103.333 -48.667 -170.333 -73 -201 -73h-100l212 97c101.333 46.667 168 70 200 70h101z
" />
    <glyph glyph-name="uFC60" unicode="&#x651;&#x64e;" horiz-adv-x="621" arabic-form="isolated" 
d="M583 1686c-21.333 -6.66699 -92 -38 -212 -94c-103.333 -48.667 -170.333 -73 -201 -73h-100l212 97c101.333 46.667 168 70 200 70h101zM621 1441c-32 -7.33301 -92.9971 -34.334 -182.997 -81.001c-84 -43.333 -133.333 -65 -148 -65c-28 0 -59.333 25.667 -94 77
c-12.667 19.333 -31.334 43.333 -56.001 72h59c19.333 0 39.666 -10.667 60.999 -32s36.333 -32 45 -32c32 0 48 13 48 39c0 18.667 -7.66699 39.667 -23 63c-14 20 -27.667 34 -41 42h61c19.333 0 35.666 -10.333 48.999 -31c24 -36 40 -54 48 -54c30 0 45 16 45 48
c0 34.667 -17.333 61.334 -52 80.001l51 4c33.333 2.66699 57.833 -14.333 73.5 -51s34.5 -63 56.5 -79z" />
    <glyph glyph-name="uFC61" unicode="&#x651;&#x64f;" horiz-adv-x="621" arabic-form="isolated" 
d="M621 1441c-32 -7.33301 -92.9971 -34.333 -182.997 -81c-84 -43.333 -133.333 -65 -148 -65c-28 0 -59.333 25.667 -94 77c-12.667 19.333 -31.334 43.333 -56.001 72h59c19.333 0 39.666 -10.667 60.999 -32s36.333 -32 45 -32c32 0 48 13 48 39
c0 18.667 -7.66699 39.667 -23 63c-14 20 -27.667 34 -41 42h61c19.333 0 35.666 -10.333 48.999 -31c24 -36 40 -54 48 -54c30 0 45 16 45 48c0 33.333 -17.333 59.333 -52 78c-8.66699 3.33301 -23.667 13.666 -45 30.999c-3.33301 -1.33301 -36.333 -17.666 -99 -48.999
c-44 -22.667 -84 -34 -120 -34h-92c72 27.333 157.667 68.333 257 123l-26 24c-24 22 -36 44 -36 66c0 24.667 12.667 47 38 67l120 95c0 -18 14.667 -49.333 44 -94s44 -76 44 -94c0 -30 -24.667 -56 -74 -78l58 -52c23.333 -1.33301 42 -18.333 56 -51
c15.333 -36 34 -62 56 -78zM456.003 1710c0 37.333 -18.667 55.999 -56 55.999c-34 0 -51 -13.667 -51 -41c0 -10 18 -29.667 54 -59c35.333 20.667 53 35.334 53 44.001z" />
    <glyph glyph-name="uFC62" unicode="&#x651;&#x650;" arabic-form="isolated" 
d="M536 1910c-32 -7.33301 -92.9971 -34.334 -182.997 -81.001c-84 -43.333 -133.333 -65 -148 -65c-28 0 -59.333 25.667 -94 77c-12.667 19.333 -31.334 43.333 -56.001 72h59c19.333 0 39.666 -10.667 60.999 -32s36.333 -32 45 -32c32 0 48 13 48 39
c0 18.667 -7.66699 39.667 -23 63c-14 20 -27.667 34 -41 42h61c19.333 0 35.666 -10.333 48.999 -31c24 -36 40 -54 48 -54c30 0 45 16 45 48c0 34.667 -17.333 61.334 -52 80.001l51 4c33.333 2.66699 57.833 -14.333 73.5 -51s34.5 -63 56.5 -79zM625.003 1832
c-21.333 -6.66699 -92 -38 -212 -94c-103.333 -48.667 -170.333 -73 -201 -73h-100l212 97c101.333 46.667 168 70 200 70h101z" />
    <glyph glyph-name="uFDF2" unicode="&#xfedf;&#xfee0;&#xfeea;" horiz-adv-x="1098" arabic-form="isolated" 
d="M571 1321l-14 -31.001c-32 65.333 -58.667 111 -80 137c-20.667 24 -53.334 49.333 -98.001 76l-41 125c54.667 -9.33301 99.667 -38.666 135 -87.999c32.667 -44.667 65.334 -117.667 98.001 -219zM754 1130c0 -37.333 -10.001 -70.5 -30.001 -99.5s-43 -43.5 -69 -43.5
c-14 0 -36.333 4.66699 -67 14c-33.333 -58.667 -67.666 -88 -102.999 -88c-22.667 0 -41.5 9.66699 -56.5 29s-22.5 43.333 -22.5 72c0 26.667 5.33301 58.667 16 96l14 14c0 -65.333 17.667 -98 53 -98c48 0 76.667 52.667 86 158l15 6c12 -61.333 32.333 -92 61 -92
c45.333 0 68 49 68 147l16 6c12.667 -46 19 -86.333 19 -121zM1018 337.999c0 -59.333 -13.3311 -111 -39.998 -155s-58.334 -66 -95.001 -66c-56.667 0 -108 54.667 -154 164c-35.333 -118 -102.333 -177 -201 -177c-80.667 0 -132.334 49.333 -155.001 148
c-60 -65.333 -106.667 -98 -140 -98c-44 0 -83.667 7.16699 -119 21.5s-53 30.833 -53 49.5c0 15.333 14 47.5 42 96.5s50.333 81.167 67 96.5c58 52.667 110 87.334 156 104.001c-1.33301 15.333 -2 29 -2 41c0 18 12.667 55 38 111l44 -234
c12 -64.667 23.667 -107.667 35 -129c21.333 -40.667 56 -61 104 -61c58.667 0 112 35.333 160 106l-54 197c-22 85.333 -33 152.333 -33 201c0 30 17.333 66.667 52 110l18 -102c34.667 -198 69.667 -331 105 -399c30 -59.333 73 -89 129 -89c31.333 0 47 15 47 45
c0 14 -17.167 88.667 -51.5 224s-51.5 207.666 -51.5 216.999c0 21.333 11.667 58 35 110l54 -206c42 -160 63 -268.667 63 -326zM362.001 312.999l-26.002 145.999c-45.333 -20.667 -76.666 -37.667 -93.999 -51c-23.333 -19.333 -46.666 -49.666 -69.999 -90.999
c47.333 -16 86.333 -24 117 -24c18 0 42.333 6.66699 73 20z" />
    <glyph glyph-name="uFEF5" unicode="&#xfedf;&#xfe82;" horiz-adv-x="825" arabic-form="isolated" 
d="M725 811c0 -58.667 -36.332 -146 -108.999 -262l-42 87c30.667 32 46 78 46 138v173c0 42 -38.333 131 -115 267c45.333 0 118.666 58.667 219.999 176v-579zM694.001 129l-404.998 0.000976562c-81.333 0 -122 21 -122 63v108
c47.333 5.33301 101.666 35.666 162.999 90.999l82 74l45 -75c-50 -48.667 -75 -75.667 -75 -81c0 -20 17 -30 51 -30h48c28 0 42 12 42 36c0 10.667 -12 39.667 -36 87l-144 285c-57.333 113.333 -86 185.333 -86 216v44c0 42 -38.333 131 -115 267
c45.333 0 118.666 58.667 219.999 176v-348c0 -38 9.66699 -79.667 29 -125c6 -15.333 31 -67 75 -155l189 -378c26 -52 39 -115 39 -189v-66zM490.003 1555c0 -69.333 -41.666 -104 -124.999 -104h-149c-38 0 -68 -19.333 -90 -58l-76 -108v156
c0 69.333 41.667 104 125 104h145c41.333 0 72.666 19.333 93.999 58l76 108v-156z" />
    <glyph glyph-name="uFEF6" unicode="&#xfee0;&#xfe82;" horiz-adv-x="782" arabic-form="final" 
d="M725 811c0 -58.667 -36.332 -146 -108.999 -262l-42 87c30.667 32 46 78 46 138v173c0 42 -38.333 131 -115 267c45.333 0 118.666 58.667 219.999 176v-579zM852.001 129l-562.998 0.000976562c-81.333 0 -122 21 -122 63v108
c47.333 5.33301 101.666 35.666 162.999 90.999l82 74l45 -75c-50 -48.667 -75 -75.667 -75 -81c0 -20 17 -30 51 -30h48c28 0 42 12 42 36c0 10.667 -12 39.667 -36 87l-144 285c-57.333 113.333 -86 185.333 -86 216v44c0 42 -38.333 131 -115 267
c45.333 0 118.666 58.667 219.999 176v-348c0 -38 9.66699 -79.667 29 -125c6 -15.333 31 -67 75 -155l189 -378c21.333 -42.667 36 -68.667 44 -78c16 -18 38.667 -27 68 -27h85v-150zM490.003 1555c0 -69.333 -41.666 -104 -124.999 -104h-149c-38 0 -68 -19.333 -90 -58
l-76 -108v156c0 69.333 41.667 104 125 104h145c41.333 0 72.666 19.333 93.999 58l76 108v-156z" />
    <glyph glyph-name="uFEF7" unicode="&#xfedf;&#xfe84;" horiz-adv-x="825" arabic-form="isolated" 
d="M725 811c0 -58.667 -36.332 -146 -108.999 -262l-42 87c30.667 32 46 78 46 138v173c0 42 -38.333 131 -115 267c45.333 0 118.666 58.667 219.999 176v-579zM694.001 129l-404.998 0.000976562c-81.333 0 -122 21 -122 63v108
c47.333 5.33301 101.666 35.666 162.999 90.999l82 74l45 -75c-50 -48.667 -75 -75.667 -75 -81c0 -20 17 -30 51 -30h48c28 0 42 12 42 36c0 10.667 -12 39.667 -36 87l-144 285c-57.333 113.333 -86 185.333 -86 216v44c0 42 -38.333 131 -115 267
c45.333 0 118.666 58.667 219.999 176v-348c0 -38 9.66699 -79.667 29 -125c6 -15.333 31 -67 75 -155l189 -378c26 -52 39 -115 39 -189v-66zM305.003 1638c-12 -6.66699 -29.667 -20 -53 -40l-26 -32c-8 -10 -12 -16.667 -12 -20c0 -7.33301 4.33301 -15 13 -23l46 -44
c13.333 -12.667 20 -27 20 -43c0 -16.667 -5 -30 -15 -40l-72 -70c-21.333 -20.667 -50.666 -31 -87.999 -31c-16.667 0 -30.334 2.66699 -41.001 8c16.667 3.33301 32.667 13.666 48 30.999l26 30c12.667 14.667 19 26 19 34c0 5.33301 -6 14 -18 26l-37 37
c-16.667 16.667 -25 32.334 -25 47.001c0 16 8.66699 32.333 26 49l61 58c18 17.333 47.667 26 89 26c11.333 0 24.333 -1 39 -3z" />
    <glyph glyph-name="uFEF8" unicode="&#xfee0;&#xfe84;" horiz-adv-x="782" arabic-form="final" 
d="M725 811c0 -58.667 -36.332 -146 -108.999 -262l-42 87c30.667 32 46 78 46 138v173c0 42 -38.333 131 -115 267c45.333 0 118.666 58.667 219.999 176v-579zM852.001 129l-562.998 0.000976562c-81.333 0 -122 21 -122 63v108
c47.333 5.33301 101.666 35.666 162.999 90.999l82 74l45 -75c-50 -48.667 -75 -75.667 -75 -81c0 -20 17 -30 51 -30h48c28 0 42 12 42 36c0 10.667 -12 39.667 -36 87l-144 285c-57.333 113.333 -86 185.333 -86 216v44c0 42 -38.333 131 -115 267
c45.333 0 118.666 58.667 219.999 176v-348c0 -38 9.66699 -79.667 29 -125c6 -15.333 31 -67 75 -155l189 -378c21.333 -42.667 36 -68.667 44 -78c16 -18 38.667 -27 68 -27h85v-150zM305.003 1638c-12 -6.66699 -29.667 -20 -53 -40l-26 -32c-8 -10 -12 -16.667 -12 -20
c0 -7.33301 4.33301 -15 13 -23l46 -44c13.333 -12.667 20 -27 20 -43c0 -16.667 -5 -30 -15 -40l-72 -70c-21.333 -20.667 -50.666 -31 -87.999 -31c-16.667 0 -30.334 2.66699 -41.001 8c16.667 3.33301 32.667 13.666 48 30.999l26 30c12.667 14.667 19 26 19 34
c0 5.33301 -6 14 -18 26l-37 37c-16.667 16.667 -25 32.334 -25 47.001c0 16 8.66699 32.333 26 49l61 58c18 17.333 47.667 26 89 26c11.333 0 24.333 -1 39 -3z" />
    <glyph glyph-name="uFEF9" unicode="&#xfedf;&#xfe88;" horiz-adv-x="755" arabic-form="isolated" 
d="M653 811c0 -58.667 -36.332 -146 -108.999 -262l-42 87c30.667 32 46 78 46 138v173c0 42 -38.333 131 -115 267c45.333 0 118.666 58.667 219.999 176v-579zM622.001 129l-404.998 0.000976562c-81.333 0 -122 21 -122 63v108
c47.333 5.33301 101.666 35.666 162.999 90.999l82 74l45 -75c-50 -48.667 -75 -75.667 -75 -81c0 -20 17 -30 51 -30h48c28 0 42 12 42 36c0 10.667 -12 39.667 -36 87l-144 285c-57.333 113.333 -86 185.333 -86 216v44c0 42 -38.333 131 -115 267
c45.333 0 118.666 58.667 219.999 176v-348c0 -38 9.66699 -79.667 29 -125c6 -15.333 31 -67 75 -155l189 -378c26 -52 39 -115 39 -189v-66zM471.003 47.001c-12 -6 -29.667 -19.333 -53 -40l-26 -32c-8 -10 -12 -16.667 -12 -20c0 -7.33301 4.33301 -15 13 -23l46 -44
c13.333 -12.667 20 -27 20 -43c0 -16.667 -5 -30 -15 -40l-72 -70c-21.333 -20.667 -50.666 -31 -87.999 -31c-16.667 0 -30.334 2.66699 -41.001 8c16.667 3.33301 32.667 13.666 48 30.999l26 30c12.667 14.667 19 26 19 34c0 5.33301 -6 14 -18 26l-37 37
c-16.667 16.667 -25 32.334 -25 47.001c0 16 8.66699 32.333 26 49l61 58c18 17.333 47.667 26 89 26c11.333 0 24.333 -1 39 -3z" />
    <glyph glyph-name="uFEFA" unicode="&#xfee0;&#xfe88;" horiz-adv-x="710" arabic-form="final" 
d="M653 811c0 -58.667 -36.332 -146 -108.999 -262l-42 87c30.667 32 46 78 46 138v173c0 42 -38.333 131 -115 267c45.333 0 118.666 58.667 219.999 176v-579zM780.001 129l-562.998 0.000976562c-81.333 0 -122 21 -122 63v108
c47.333 5.33301 101.666 35.666 162.999 90.999l82 74l45 -75c-50 -48.667 -75 -75.667 -75 -81c0 -20 17 -30 51 -30h48c28 0 42 12 42 36c0 10.667 -12 39.667 -36 87l-144 285c-57.333 113.333 -86 185.333 -86 216v44c0 42 -38.333 131 -115 267
c45.333 0 118.666 58.667 219.999 176v-348c0 -38 9.66699 -79.667 29 -125c6 -15.333 31 -67 75 -155l189 -378c21.333 -42.667 36 -68.667 44 -78c16 -18 38.667 -27 68 -27h85v-150zM471.003 47.001c-12 -6 -29.667 -19.333 -53 -40l-26 -32c-8 -10 -12 -16.667 -12 -20
c0 -7.33301 4.33301 -15 13 -23l46 -44c13.333 -12.667 20 -27 20 -43c0 -16.667 -5 -30 -15 -40l-72 -70c-21.333 -20.667 -50.666 -31 -87.999 -31c-16.667 0 -30.334 2.66699 -41.001 8c16.667 3.33301 32.667 13.666 48 30.999l26 30c12.667 14.667 19 26 19 34
c0 5.33301 -6 14 -18 26l-37 37c-16.667 16.667 -25 32.334 -25 47.001c0 16 8.66699 32.333 26 49l61 58c18 17.333 47.667 26 89 26c11.333 0 24.333 -1 39 -3z" />
    <glyph glyph-name="uFEFB" unicode="&#xfedf;&#xfe8e;" horiz-adv-x="755" arabic-form="isolated" 
d="M653 811c0 -58.667 -36.332 -146 -108.999 -262l-42 87c30.667 32 46 78 46 138v173c0 42 -38.333 131 -115 267c45.333 0 118.666 58.667 219.999 176v-579zM622.001 129l-404.998 0.000976562c-81.333 0 -122 21 -122 63v108
c47.333 5.33301 101.666 35.666 162.999 90.999l82 74l45 -75c-50 -48.667 -75 -75.667 -75 -81c0 -20 17 -30 51 -30h48c28 0 42 12 42 36c0 10.667 -12 39.667 -36 87l-144 285c-57.333 113.333 -86 185.333 -86 216v44c0 42 -38.333 131 -115 267
c45.333 0 118.666 58.667 219.999 176v-348c0 -38 9.66699 -79.667 29 -125c6 -15.333 31 -67 75 -155l189 -378c26 -52 39 -115 39 -189v-66z" />
    <glyph glyph-name="uFEFC" unicode="&#xfee0;&#xfe8e;" horiz-adv-x="710" arabic-form="final" 
d="M653 811c0 -58.667 -36.332 -146 -108.999 -262l-42 87c30.667 32 46 78 46 138v173c0 42 -38.333 131 -115 267c45.333 0 118.666 58.667 219.999 176v-579zM780.001 129l-562.998 0.000976562c-81.333 0 -122 21 -122 63v108
c47.333 5.33301 101.666 35.666 162.999 90.999l82 74l45 -75c-50 -48.667 -75 -75.667 -75 -81c0 -20 17 -30 51 -30h48c28 0 42 12 42 36c0 10.667 -12 39.667 -36 87l-144 285c-57.333 113.333 -86 185.333 -86 216v44c0 42 -38.333 131 -115 267
c45.333 0 118.666 58.667 219.999 176v-348c0 -38 9.66699 -79.667 29 -125c6 -15.333 31 -67 75 -155l189 -378c21.333 -42.667 36 -68.667 44 -78c16 -18 38.667 -27 68 -27h85v-150z" />
    <glyph glyph-name="u0652_u064E.liga" unicode="&#x652;&#x64e;" horiz-adv-x="1" 
d="M307 1330l-39.001 -327c-2 -16 -8.33301 -24 -19 -24s-17.667 10 -21 30l-46 274l109 55c4.66699 2.66699 8.33398 4 11.001 4c4 0 5.66699 -4 5 -12z" />
    <glyph glyph-name="u0652_u064B.liga" unicode="&#x652;&#x64b;" horiz-adv-x="1" 
d="M692 1169c8 -7.33301 7.66699 -15.332 -1 -23.999l-116 -116c-4.66699 -4.66699 -9 -7 -13 -7s-8.33301 2.33301 -13 7l-112 112l-112 -112c-8 -8 -16.333 -8 -25 0l-118 114c-10 9.33301 -9.33301 19.666 2 30.999l108 110c10 10 20 10 30 0l110 -110l110 110
c10 10 20 10 30 0z" />
    <glyph glyph-name="u0652_u064D.liga" unicode="&#x652;&#x64d;" horiz-adv-x="1" 
d="M1100 -775c8 -7.33301 7.66699 -15.332 -1 -23.999l-116 -116c-4.66699 -4.66699 -9 -7 -13 -7s-8.33301 2.33301 -13 7l-112 112l-112 -112c-8 -8 -16.333 -8 -25 0l-118 114c-10 9.33301 -9.33301 19.666 2 30.999l108 110c10 10 20 10 30 0l110 -110l110 110
c10 10 20 10 30 0z" />
    <glyph glyph-name="u0622" unicode="&#x622;" horiz-adv-x="671" arabic-form="isolated" 
d="M651 155c-12.667 -17.333 -61.3301 -26 -145.997 -26c-93.333 0 -158.333 12.667 -195 38c-40 28 -60 79.333 -60 154v626c0 42 -38.333 131 -115 267c51.333 0 124.666 58.667 219.999 176v-958c0 -71.333 17 -126 51 -164c27.333 -30.667 73.666 -58 138.999 -82
c25.333 -6.66699 60.666 -17 105.999 -31zM483.004 1555c0 -69.333 -41.666 -104 -124.999 -104h-149c-38 0 -68 -19.333 -90 -58l-76 -108v156c0 69.333 41.667 104 125 104h145c41.333 0 72.666 19.333 93.999 58l76 108v-156z" />
    <glyph glyph-name="u0623" unicode="&#x623;" horiz-adv-x="671" arabic-form="isolated" 
d="M651 155c-12.667 -17.333 -61.3301 -26 -145.997 -26c-93.333 0 -158.333 12.667 -195 38c-40 28 -60 79.333 -60 154v626c0 42 -38.333 131 -115 267c51.333 0 124.666 58.667 219.999 176v-958c0 -71.333 17 -126 51 -164c27.333 -30.667 73.666 -58 138.999 -82
c25.333 -6.66699 60.666 -17 105.999 -31zM298.004 1638c-12 -6.66699 -29.667 -20 -53 -40l-26 -32c-8 -10 -12 -16.667 -12 -20c0 -7.33301 4.33301 -15 13 -23l46 -44c13.333 -12.667 20 -27 20 -43c0 -16.667 -5 -30 -15 -40l-72 -70
c-21.333 -20.667 -50.666 -31 -87.999 -31c-16.667 0 -30.334 2.66699 -41.001 8c16.667 3.33301 32.667 13.666 48 30.999l26 30c12.667 14.667 19 26 19 34c0 5.33301 -6 14 -18 26l-37 37c-16.667 16.667 -25 32.334 -25 47.001c0 16 8.66699 32.333 26 49l61 58
c18 17.333 47.667 26 89 26c11.333 0 24.333 -1 39 -3z" />
    <glyph glyph-name="u0624" unicode="&#x624;" horiz-adv-x="827" arabic-form="isolated" 
d="M771 273c0 -45.333 -26.001 -93.332 -78.001 -143.999l-396 -387c-61.333 -60 -139.666 -90 -234.999 -90c-23.333 0 -44 3.33301 -62 10c14.667 4 35.667 10.333 63 19c52 22 108.333 62.333 169 121l174 168c26.667 26 40 46 40 60s-15.333 36 -46 66l-156 154
c-22.667 22.667 -35.667 36.334 -39 41.001c-10 15.333 -15 35.666 -15 60.999c0 29.333 18.667 62.666 56 99.999l358 358c-6 -21.333 -9 -43.333 -9 -66c0 -32 17.667 -83.333 53 -154l66 -132c38 -76 57 -137.667 57 -185zM631.999 225.001
c0 17.333 -6.66699 38.668 -20 64.001l-84 159c-9.33301 18 -14 32.333 -14 43c0 20.667 0.666992 34.667 2 42c-46.667 -39.333 -70 -72 -70 -98c0 -18.667 8 -42.667 24 -72l74 -136c15.333 -28 24 -49.333 26 -64c1.33301 -10.667 1.33301 -19.334 0 -26.001
c41.333 36.667 62 66 62 88zM423.999 1048c-12 -6.66699 -29.667 -20 -53 -40l-26 -32c-8 -10 -12 -16.667 -12 -20c0 -7.33301 4.33301 -15 13 -23l46 -44c13.333 -12.667 20 -27 20 -43c0 -16.667 -5 -30 -15 -40l-72 -70c-21.333 -20.667 -50.666 -31 -87.999 -31
c-16.667 0 -30.334 2.66699 -41.001 8c16.667 3.33301 32.667 13.666 48 30.999l26 30c12.667 14.667 19 26 19 34c0 5.33301 -6 14 -18 26l-37 37c-16.667 16.667 -25 32.334 -25 47.001c0 16 8.66699 32.333 26 49l61 58c18 17.333 47.667 26 89 26
c11.333 0 24.333 -1 39 -3z" />
    <glyph glyph-name="u0625" unicode="&#x625;" horiz-adv-x="606" arabic-form="isolated" 
d="M586 155c-12.667 -17.333 -61.3301 -26 -145.997 -26c-93.333 0 -158.333 12.667 -195 38c-40 28 -60 79.333 -60 154v626c0 42 -38.333 131 -115 267c51.333 0 124.666 58.667 219.999 176v-958c0 -71.333 17 -126 51 -164c27.333 -30.667 73.666 -58 138.999 -82
c25.333 -6.66699 60.666 -17 105.999 -31zM395.004 47c-12 -6 -29.667 -19.333 -53 -40l-26 -32c-8 -10 -12 -16.667 -12 -20c0 -7.33301 4.33301 -15 13 -23l46 -44c13.333 -12.667 20 -27 20 -43c0 -16.667 -5 -30 -15 -40l-72 -70
c-21.333 -20.667 -50.666 -31 -87.999 -31c-16.667 0 -30.334 2.66699 -41.001 8c16.667 3.33301 32.667 13.666 48 30.999l26 30c12.667 14.667 19 26 19 34c0 5.33301 -6 14 -18 26l-37 37c-16.667 16.667 -25 32.334 -25 47.001c0 16 8.66699 32.333 26 49l61 58
c18 17.333 47.667 26 89 26c11.333 0 24.333 -1 39 -3z" />
    <glyph glyph-name="u0626" unicode="&#x626;" horiz-adv-x="1350" arabic-form="isolated" 
d="M1425 277c-12.667 -4.66699 -25.001 -9.66504 -37.001 -14.998c-18 -6 -44.667 -9 -80 -9c-81.333 0 -140 7.33301 -176 22c-47.333 18.667 -85.666 57 -114.999 115l-46 92c-23.333 46.667 -42.666 70 -57.999 70c-14.667 0 -35.334 -12.667 -62.001 -38l-90 -86
c-26.667 -25.333 -40 -48 -40 -68c0 -18.667 5.66699 -32.667 17 -42c3.33301 -2 18.333 -9.33301 45 -22l162 -76c57.333 -26.667 86 -65.334 86 -116.001c0 -34.667 -22.333 -73.334 -67 -116.001l-205 -197c-41.333 -40 -77.333 -60 -108 -60
c-36 0 -73.667 19.667 -113 59l-329 329c-42.667 42.667 -64 72 -64 88c0 28 16.667 58 50 90l188 182l-46 -82c-22.667 -42.667 -34 -71.334 -34 -86.001c0 -19.333 19 -48 57 -86l271 -272c45.333 -45.333 75.333 -68 90 -68c8.66699 0 33 19.333 73 58l50 48
c18 17.333 27 32.666 27 45.999c0 30 -16.333 53 -49 69l-188 91c-30.667 14.667 -50.667 27.334 -60 38.001c-14 16 -21 39.333 -21 70c0 26.667 33.333 72.334 100 137.001l431 418c-9.33301 -30 -14 -56 -14 -78c0 -24 14.333 -64.667 43 -122l122 -244
c40 -80.667 103.333 -127 190 -139zM219.999 668.002c-12 -6.66699 -29.667 -20 -53 -40l-26 -32c-8 -10 -12 -16.667 -12 -20c0 -7.33301 4.33301 -15 13 -23l46 -44c13.333 -12.667 20 -27 20 -43c0 -16.667 -5 -30 -15 -40l-72 -70
c-21.333 -20.667 -50.666 -31 -87.999 -31c-16.667 0 -30.334 2.66699 -41.001 8c16.667 3.33301 32.667 13.666 48 30.999l26 30c12.667 14.667 19 26 19 34c0 5.33301 -6 14 -18 26l-37 37c-16.667 16.667 -25 32.334 -25 47.001c0 16 8.66699 32.333 26 49l61 58
c18 17.333 47.667 26 89 26c11.333 0 24.333 -1 39 -3z" />
    <glyph glyph-name="u0627" unicode="&#x627;" horiz-adv-x="606" arabic-form="isolated" 
d="M586 155c-12.667 -17.333 -61.3301 -26 -145.997 -26c-93.333 0 -158.333 12.667 -195 38c-40 28 -60 79.333 -60 154v626c0 42 -38.333 131 -115 267c51.333 0 124.666 58.667 219.999 176v-958c0 -71.333 17 -126 51 -164c27.333 -30.667 73.666 -58 138.999 -82
c25.333 -6.66699 60.666 -17 105.999 -31z" />
    <glyph glyph-name="u0628" unicode="&#x628;" horiz-adv-x="1550" arabic-form="isolated" 
d="M1480 217c0 -33.333 -7 -61.333 -21 -84c-8.66699 -14 -28.667 -35.667 -60 -65l-155 -146c-8.66699 40.667 -35.667 85 -81 133c-47.333 49.333 -89 74 -125 74h-998l560 549l44 -103c22.667 -53.333 65 -80 127 -80h234l-66 -68c-29.333 -30.667 -53 -49.667 -71 -57
c-14 -6.66699 -37.333 -10 -70 -10h-143c-42.667 0 -72 4.33301 -88 13c-22.667 12 -46 41.667 -70 89l-70 -75c-20 -26 -30 -41 -30 -45c0 -14.667 8 -28.834 24 -42.501s33.333 -20.5 52 -20.5h562c30.667 0 74 -26 130 -78l115 -118c11.333 14.667 17 30 17 46
c0 13.333 -11 42.333 -33 87l-44 89c-34 68.667 -51 114.667 -51 138c0 40.667 16.333 79.334 49 116.001l124 119c-9.33301 -30 -14 -56 -14 -78c0 -24 14.333 -64.667 43 -122l66 -132c28.667 -57.333 43 -100.333 43 -129zM921 -174
c0 -16.667 -17.334 -51.999 -52.001 -105.999c-25.333 34 -58.666 59.667 -99.999 77c-29.333 12 -44 28 -44 48c0 16 39 55.667 117 119c2 -24.667 15.667 -48.834 41 -72.501s38 -45.5 38 -65.5z" />
    <glyph glyph-name="u0629" unicode="&#x629;" horiz-adv-x="772" arabic-form="isolated" 
d="M742 129l-683 0.000976562c27.333 34 41 57.333 41 70c0 13.333 -6.5 34.166 -19.5 62.499s-19.5 55.166 -19.5 80.499c0 48 17.667 89.667 53 125l166 167l-60 115l136 128l57 -109l67 67c-14.667 -41.333 -22 -79.666 -22 -114.999c0 -28 23.333 -87 70 -177z
M461 279.001l-69 136c-22 43.333 -33 75.666 -33 96.999c-5.33301 -7.33301 -20.333 -23.666 -45 -48.999c-12 -12.667 -18 -24 -18 -34c0 -17.333 6 -37.333 18 -60l47 -90c42 -0.666992 75.333 -0.666992 100 0zM332 1238c-12 -6.66699 -29.667 -20 -53 -40l-26 -32
c-8 -10 -12 -16.667 -12 -20c0 -7.33301 4.33301 -15 13 -23l46 -44c13.333 -12.667 20 -27 20 -43c0 -16.667 -5 -30 -15 -40l-72 -70c-21.333 -20.667 -50.666 -31 -87.999 -31c-16.667 0 -30.334 2.66699 -41.001 8c16.667 3.33301 32.667 13.666 48 30.999l26 30
c12.667 14.667 19 26 19 34c0 5.33301 -6 14 -18 26l-37 37c-16.667 16.667 -25 32.334 -25 47.001c0 16 8.66699 32.333 26 49l61 58c18 17.333 47.667 26 89 26c11.333 0 24.333 -1 39 -3z" />
    <glyph glyph-name="u062A" unicode="&#x62a;" horiz-adv-x="1550" arabic-form="isolated" 
d="M1480 217c0 -33.333 -7 -61.333 -21 -84c-8.66699 -14 -28.667 -35.667 -60 -65l-155 -146c-8.66699 40.667 -35.667 85 -81 133c-47.333 49.333 -89 74 -125 74h-998l560 549l44 -103c22.667 -53.333 65 -80 127 -80h234l-66 -68c-29.333 -30.667 -53 -49.667 -71 -57
c-14 -6.66699 -37.333 -10 -70 -10h-143c-42.667 0 -72 4.33301 -88 13c-22.667 12 -46 41.667 -70 89l-70 -75c-20 -26 -30 -41 -30 -45c0 -14.667 8 -28.834 24 -42.501s33.333 -20.5 52 -20.5h562c30.667 0 74 -26 130 -78l115 -118c11.333 14.667 17 30 17 46
c0 13.333 -11 42.333 -33 87l-44 89c-34 68.667 -51 114.667 -51 138c0 40.667 16.333 79.334 49 116.001l124 119c-9.33301 -30 -14 -56 -14 -78c0 -24 14.333 -64.667 43 -122l66 -132c28.667 -57.333 43 -100.333 43 -129zM1135 664
c0 -16.667 -17.334 -51.999 -52.001 -105.999c-25.333 34 -58.666 59.667 -99.999 77c-29.333 12 -44 28 -44 48c0 16 39 55.667 117 119c2 -24.667 15.667 -48.834 41 -72.501s38 -45.5 38 -65.5zM903.999 664.001c0 -16.667 -17.334 -51.999 -52.001 -105.999
c-25.333 34 -58.666 59.667 -99.999 77c-29.333 12 -44 28 -44 48c0 16 39 55.667 117 119c2 -24.667 15.667 -48.834 41 -72.501s38 -45.5 38 -65.5z" />
    <glyph glyph-name="u062B" unicode="&#x62b;" horiz-adv-x="1550" arabic-form="isolated" 
d="M1480 217c0 -33.333 -7 -61.333 -21 -84c-8.66699 -14 -28.667 -35.667 -60 -65l-155 -146c-8.66699 40.667 -35.667 85 -81 133c-47.333 49.333 -89 74 -125 74h-998l560 549l44 -103c22.667 -53.333 65 -80 127 -80h234l-66 -68c-29.333 -30.667 -53 -49.667 -71 -57
c-14 -6.66699 -37.333 -10 -70 -10h-143c-42.667 0 -72 4.33301 -88 13c-22.667 12 -46 41.667 -70 89l-70 -75c-20 -26 -30 -41 -30 -45c0 -14.667 8 -28.834 24 -42.501s33.333 -20.5 52 -20.5h562c30.667 0 74 -26 130 -78l115 -118c11.333 14.667 17 30 17 46
c0 13.333 -11 42.333 -33 87l-44 89c-34 68.667 -51 114.667 -51 138c0 40.667 16.333 79.334 49 116.001l124 119c-9.33301 -30 -14 -56 -14 -78c0 -24 14.333 -64.667 43 -122l66 -132c28.667 -57.333 43 -100.333 43 -129zM1003 855
c0 -16.667 -17.334 -51.999 -52.001 -105.999c-25.333 34 -58.666 59.667 -99.999 77c-29.333 12 -44 28 -44 48c0 16 39 55.667 117 119c2 -24.667 15.667 -48.834 41 -72.501s38 -45.5 38 -65.5zM1135 664.001c0 -16.667 -17.334 -51.999 -52.001 -105.999
c-25.333 34 -58.666 59.667 -99.999 77c-29.333 12 -44 28 -44 48c0 16 39 55.667 117 119c2 -24.667 15.667 -48.834 41 -72.501s38 -45.5 38 -65.5zM903.998 664.002c0 -16.667 -17.334 -51.999 -52.001 -105.999c-25.333 34 -58.666 59.667 -99.999 77
c-29.333 12 -44 28 -44 48c0 16 39 55.667 117 119c2 -24.667 15.667 -48.834 41 -72.501s38 -45.5 38 -65.5z" />
    <glyph glyph-name="u062C" unicode="&#x62c;" horiz-adv-x="962" arabic-form="isolated" 
d="M912 -14c-12 -7.33301 -28 -11 -48 -11c-140 0 -259.667 51.333 -359 154h-203c-26.667 0 -50.334 -9.33301 -71.001 -28c-18 -16 -27 -32.333 -27 -49c0 -14.667 22.667 -44.667 68 -90l272 -271c38 -38 66.667 -57 86 -57c14.667 0 43.334 11.333 86.001 34l82 46
l-182 -188c-32 -33.333 -62 -50 -90 -50c-16 0 -45.333 21.333 -88 64l-329 329c-39.333 39.333 -59 77 -59 113c0 30 20 66 60 108l110 116c29.333 31.333 47 49 53 53c18 13.333 41 20 69 20h62l-86 132c-44.667 63.333 -88.667 95 -132 95
c-28 0 -56.667 -7.33301 -86 -22l182 182c42.667 42.667 74 64 94 64c15.333 0 36 -26 62 -78l200 -398c58.667 -116.667 128.667 -196.667 210 -240c16.667 -4.66699 38 -14 64 -28zM591 -68c0 -16.667 -17.334 -51.999 -52.001 -105.999
c-25.333 34 -58.666 59.667 -99.999 77c-29.333 12 -44 28 -44 48c0 16 39 55.667 117 119c2 -24.667 15.667 -48.834 41 -72.501s38 -45.5 38 -65.5z" />
    <glyph glyph-name="u062D" unicode="&#x62d;" horiz-adv-x="962" arabic-form="isolated" 
d="M912 -14c-12 -7.33301 -28 -11 -48 -11c-140 0 -259.667 51.333 -359 154h-203c-26.667 0 -50.334 -9.33301 -71.001 -28c-18 -16 -27 -32.333 -27 -49c0 -14.667 22.667 -44.667 68 -90l272 -271c38 -38 66.667 -57 86 -57c14.667 0 43.334 11.333 86.001 34l82 46
l-182 -188c-32 -33.333 -62 -50 -90 -50c-16 0 -45.333 21.333 -88 64l-329 329c-39.333 39.333 -59 77 -59 113c0 30 20 66 60 108l110 116c29.333 31.333 47 49 53 53c18 13.333 41 20 69 20h62l-86 132c-44.667 63.333 -88.667 95 -132 95
c-28 0 -56.667 -7.33301 -86 -22l182 182c42.667 42.667 74 64 94 64c15.333 0 36 -26 62 -78l200 -398c58.667 -116.667 128.667 -196.667 210 -240c16.667 -4.66699 38 -14 64 -28z" />
    <glyph glyph-name="u062E" unicode="&#x62e;" horiz-adv-x="962" arabic-form="isolated" 
d="M638 254c58 -116.667 128 -196.667 210 -240c16.667 -4.66699 38 -14 64 -28c-12 -7.33301 -28 -11 -48 -11c-140 0 -259.667 51.333 -359 154h-203c-26.667 0 -50.334 -9.33301 -71.001 -28c-18 -16 -27 -32.333 -27 -49c0 -14.667 22.667 -44.667 68 -90l272 -271
c38 -38 66.667 -57 86 -57c14.667 0 43.334 11.333 86.001 34l82 46l-182 -188c-32 -33.333 -62 -50 -90 -50c-16 0 -45.333 21.333 -88 64l-329 329c-39.333 39.333 -59 77 -59 113c0 30 20 66 60 108l110 116c29.333 31.333 47 49 53 53c18 13.333 41 20 69 20h62l-86 132
c-44.667 63.333 -88.667 95 -132 95c-28 0 -56.667 -7.33301 -86 -22l182 182c42.667 42.667 74 64 94 64c16.667 0 38 -26.333 64 -79zM270 811c0 -16.667 -17.334 -51.999 -52.001 -105.999c-25.333 34 -58.666 59.667 -99.999 77c-29.333 12 -44 28 -44 48
c0 16 39 55.667 117 119c2 -24.667 15.667 -48.834 41 -72.501s38 -45.5 38 -65.5z" />
    <glyph glyph-name="u062F" unicode="&#x62f;" horiz-adv-x="1135" arabic-form="isolated" 
d="M1095 172c-30.667 -28.667 -67.998 -42.999 -111.998 -42.999h-913v245c86 -63.333 173.667 -95 263 -95h453l-41 81h-385c-58 0 -107.667 41 -149 123l-80 159c-12.667 25.333 -34 45.333 -64 60l131 130l125 -252c23.333 -46.667 55 -70 95 -70h419
c17.333 0 37.666 -25 60.999 -75l68 -144c22 -46.667 37.667 -75.334 47 -86.001c19.333 -22 46.666 -33 81.999 -33z" />
    <glyph glyph-name="u0630" unicode="&#x630;" horiz-adv-x="1135" arabic-form="isolated" 
d="M1095 172c-30.667 -28.667 -67.998 -42.999 -111.998 -42.999h-913v245c86 -63.333 173.667 -95 263 -95h453l-41 81h-385c-58 0 -107.667 41 -149 123l-80 159c-12.667 25.333 -34 45.333 -64 60l131 130l125 -252c23.333 -46.667 55 -70 95 -70h419
c17.333 0 37.666 -25 60.999 -75l68 -144c22 -46.667 37.667 -75.334 47 -86.001c19.333 -22 46.666 -33 81.999 -33zM247.002 970.001c0 -16.667 -17.334 -51.999 -52.001 -105.999c-25.333 34 -58.666 59.667 -99.999 77c-29.333 12 -44 28 -44 48c0 16 39 55.667 117 119
c2 -24.667 15.667 -48.834 41 -72.501s38 -45.5 38 -65.5z" />
    <glyph glyph-name="u0631" unicode="&#x631;" horiz-adv-x="847" arabic-form="isolated" 
d="M787 299c0 -51.333 -26.333 -103.002 -79 -155.002l-411 -402c-61.333 -60 -139.666 -90 -234.999 -90c-23.333 0 -44 3.33301 -62 10c14.667 4 35.667 10.333 63 19c53.333 22.667 109.666 63 168.999 121l300 292c52 50.667 78 92.334 78 125.001
c0 6.66699 -16.333 43 -49 109l-44 89c-34 68.667 -51 114.667 -51 138c0 40.667 16.333 79.334 49 116.001l124 119c-9.33301 -30 -14 -56 -14 -78c0 -24 14.333 -64.667 43 -122l66 -132c35.333 -70.667 53 -123.667 53 -159z" />
    <glyph glyph-name="u0632" unicode="&#x632;" horiz-adv-x="847" arabic-form="isolated" 
d="M787 299c0 -51.333 -26.333 -103.002 -79 -155.002l-411 -402c-61.333 -60 -139.666 -90 -234.999 -90c-23.333 0 -44 3.33301 -62 10c14.667 4 35.667 10.333 63 19c53.333 22.667 109.666 63 168.999 121l300 292c52 50.667 78 92.334 78 125.001
c0 6.66699 -16.333 43 -49 109l-44 89c-34 68.667 -51 114.667 -51 138c0 40.667 16.333 79.334 49 116.001l124 119c-9.33301 -30 -14 -56 -14 -78c0 -24 14.333 -64.667 43 -122l66 -132c35.333 -70.667 53 -123.667 53 -159zM519 845.998
c0 -16.667 -17.334 -51.999 -52.001 -105.999c-25.333 34 -58.666 59.667 -99.999 77c-29.333 12 -44 28 -44 48c0 16 39 55.667 117 119c2 -24.667 15.667 -48.834 41 -72.501s38 -45.5 38 -65.5z" />
    <glyph glyph-name="u0633" unicode="&#x633;" horiz-adv-x="1640" arabic-form="isolated" 
d="M1607 172c-30.667 -28.667 -68.001 -42.999 -112.001 -42.999h-486c-33.333 0 -56.333 -2 -69 -6c-20 -6 -42 -20.667 -66 -44l-258 -250c-41.333 -40 -77.333 -60 -108 -60c-36 0 -73.667 19.667 -113 59l-261 261c-42.667 42.667 -64 72 -64 88c0 28 16.667 58 50 90
l188 182l-46 -82c-22.667 -42.667 -34 -71.334 -34 -86.001c0 -19.333 19 -48 57 -86l203 -204c45.333 -45.333 75.333 -68 90 -68c8.66699 0 33 19.333 73 58l116 112c26 25.333 39 55 39 89c0 19.333 -4 39 -12 59l-22 55c-9.33301 24 -30.666 44 -63.999 60l131 130
l103 -207h112l-52 103c-12.667 25.333 -34 45.333 -64 60l131 130l145 -293h112l-96 191c-12.667 25.333 -34 45.333 -64 60l131 130l193 -391c17.333 -34.667 31.333 -57.667 42 -69c18.667 -18.667 43.667 -28 75 -28z" />
    <glyph glyph-name="u0634" unicode="&#x634;" horiz-adv-x="1640" arabic-form="isolated" 
d="M1607 172c-30.667 -28.667 -68.001 -42.999 -112.001 -42.999h-486c-33.333 0 -56.333 -2 -69 -6c-20 -6 -42 -20.667 -66 -44l-258 -250c-41.333 -40 -77.333 -60 -108 -60c-36 0 -73.667 19.667 -113 59l-261 261c-42.667 42.667 -64 72 -64 88c0 28 16.667 58 50 90
l188 182l-46 -82c-22.667 -42.667 -34 -71.334 -34 -86.001c0 -19.333 19 -48 57 -86l203 -204c45.333 -45.333 75.333 -68 90 -68c8.66699 0 33 19.333 73 58l116 112c26 25.333 39 55 39 89c0 19.333 -4 39 -12 59l-22 55c-9.33301 24 -30.666 44 -63.999 60l131 130
l103 -207h112l-52 103c-12.667 25.333 -34 45.333 -64 60l131 130l145 -293h112l-96 191c-12.667 25.333 -34 45.333 -64 60l131 130l193 -391c17.333 -34.667 31.333 -57.667 42 -69c18.667 -18.667 43.667 -28 75 -28zM1034 887.001
c0 -16.667 -17.334 -51.999 -52.001 -105.999c-25.333 34 -58.666 59.667 -99.999 77c-29.333 12 -44 28 -44 48c0 16 39 55.667 117 119c2 -24.667 15.667 -48.834 41 -72.501s38 -45.5 38 -65.5zM1166 696.002c0 -16.667 -17.334 -51.999 -52.001 -105.999
c-25.333 34 -58.666 59.667 -99.999 77c-29.333 12 -44 28 -44 48c0 16 39 55.667 117 119c2 -24.667 15.667 -48.834 41 -72.501s38 -45.5 38 -65.5zM934.997 696.003c0 -16.667 -17.334 -51.999 -52.001 -105.999c-25.333 34 -58.666 59.667 -99.999 77
c-29.333 12 -44 28 -44 48c0 16 39 55.667 117 119c2 -24.667 15.667 -48.834 41 -72.501s38 -45.5 38 -65.5z" />
    <glyph glyph-name="u0635" unicode="&#x635;" horiz-adv-x="1883" arabic-form="isolated" 
d="M1850 172c-30.667 -28.667 -68 -42.999 -112 -42.999h-729c-33.333 0 -56 -1.66699 -68 -5c-20 -6 -42.333 -21 -67 -45l-258 -250c-41.333 -40 -77.333 -60 -108 -60c-36 0 -73.667 19.667 -113 59l-261 261c-42.667 42.667 -64 72 -64 88c0 28 16.667 58 50 90l188 182
l-46 -82c-22.667 -42.667 -34 -71.334 -34 -86.001c0 -19.333 19 -48 57 -86l203 -204c45.333 -45.333 75.333 -68 90 -68c8.66699 0 33 19.333 73 58l116 112c26 25.333 39 55 39 89c0 18 -5.33301 37.667 -16 59l-55 109c-12.667 25.333 -34 45.333 -64 60l185 182l42 -82
h688c20.667 0 41.334 -21.667 62.001 -65l73 -154c22 -46 37.667 -74.667 47 -86c19.333 -22 46.666 -33 81.999 -33zM1541 279.001l-42 81h-530l40 -81h532z" />
    <glyph glyph-name="u0636" unicode="&#x636;" horiz-adv-x="1883" arabic-form="isolated" 
d="M1850 172c-30.667 -28.667 -68 -42.999 -112 -42.999h-729c-33.333 0 -56 -1.66699 -68 -5c-20 -6 -42.333 -21 -67 -45l-258 -250c-41.333 -40 -77.333 -60 -108 -60c-36 0 -73.667 19.667 -113 59l-261 261c-42.667 42.667 -64 72 -64 88c0 28 16.667 58 50 90l188 182
l-46 -82c-22.667 -42.667 -34 -71.334 -34 -86.001c0 -19.333 19 -48 57 -86l203 -204c45.333 -45.333 75.333 -68 90 -68c8.66699 0 33 19.333 73 58l116 112c26 25.333 39 55 39 89c0 18 -5.33301 37.667 -16 59l-55 109c-12.667 25.333 -34 45.333 -64 60l185 182l42 -82
h688c20.667 0 41.334 -21.667 62.001 -65l73 -154c22 -46 37.667 -74.667 47 -86c19.333 -22 46.666 -33 81.999 -33zM1541 279.001l-42 81h-530l40 -81h532zM1307 716.001c0 -16.667 -17.334 -51.999 -52.001 -105.999c-25.333 34 -58.666 59.667 -99.999 77
c-29.333 12 -44 28 -44 48c0 16 39 55.667 117 119c2 -24.667 15.667 -48.834 41 -72.501s38 -45.5 38 -65.5z" />
    <glyph glyph-name="u0637" unicode="&#x637;" horiz-adv-x="1182" arabic-form="isolated" 
d="M1142 172c-30.667 -28.667 -67.999 -43 -111.999 -43h-813c-46.667 0 -86.667 14.333 -120 43c-38 33.333 -57 78.333 -57 135c30.667 -18.667 75 -28 133 -28h44v668c0 42 -38.333 131 -115 267c45.333 0 118.666 58.667 219.999 176v-880h556
c20.667 0 41.334 -21.667 62.001 -65l73 -154c22 -46 37.667 -74.667 47 -86c19.333 -22 46.666 -33 81.999 -33zM833.001 279l-42 81h-380l40 -81h382z" />
    <glyph glyph-name="u0638" unicode="&#x638;" horiz-adv-x="1182" arabic-form="isolated" 
d="M1142 172c-30.667 -28.667 -67.999 -43 -111.999 -43h-813c-46.667 0 -86.667 14.333 -120 43c-38 33.333 -57 78.333 -57 135c30.667 -18.667 75 -28 133 -28h44v668c0 42 -38.333 131 -115 267c45.333 0 118.666 58.667 219.999 176v-880h556
c20.667 0 41.334 -21.667 62.001 -65l73 -154c22 -46 37.667 -74.667 47 -86c19.333 -22 46.666 -33 81.999 -33zM833.001 279l-42 81h-380l40 -81h382zM638.001 716c0 -16.667 -17.334 -51.999 -52.001 -105.999c-25.333 34 -58.666 59.667 -99.999 77
c-29.333 12 -44 28 -44 48c0 16 39 55.667 117 119c2 -24.667 15.667 -48.834 41 -72.501s38 -45.5 38 -65.5z" />
    <glyph glyph-name="u0639" unicode="&#x639;" horiz-adv-x="1009" arabic-form="isolated" 
d="M976 129h-705.001c-49.333 -43.333 -74 -70.666 -74 -81.999c0 -13.333 21.667 -41.666 65 -84.999l272 -271c38 -38 66.667 -57 86 -57c14.667 0 43.334 11.333 86.001 34l82 46l-182 -188c-32 -33.333 -62 -50 -90 -50c-16 0 -45.333 21.333 -88 64l-329 329
c-39.333 39.333 -59 77 -59 113c0 29.333 22 65.333 66 108l195 189c-10 9.33301 -15 37.666 -15 84.999c0 80 45 162.667 135 248l101 96c66.667 63.333 100 100.666 100 111.999c0 18 -8 27 -24 27h-99l229 227v-260c0 -19.333 -12 -43.333 -36 -72l-88 -107
c-40.667 -54.667 -61 -105 -61 -151c0 -72 29.667 -127.333 89 -166c40 -26 76.667 -39 110 -39h84c26 -52.667 76 -102.667 150 -150z" />
    <glyph glyph-name="u063A" unicode="&#x63a;" horiz-adv-x="1009" arabic-form="isolated" 
d="M976 129h-705.001c-49.333 -43.333 -74 -70.666 -74 -81.999c0 -13.333 21.667 -41.666 65 -84.999l272 -271c38 -38 66.667 -57 86 -57c14.667 0 43.334 11.333 86.001 34l82 46l-182 -188c-32 -33.333 -62 -50 -90 -50c-16 0 -45.333 21.333 -88 64l-329 329
c-39.333 39.333 -59 77 -59 113c0 29.333 22 65.333 66 108l195 189c-10 9.33301 -15 37.666 -15 84.999c0 80 45 162.667 135 248l101 96c66.667 63.333 100 100.666 100 111.999c0 18 -8 27 -24 27h-99l229 227v-260c0 -19.333 -12 -43.333 -36 -72l-88 -107
c-40.667 -54.667 -61 -105 -61 -151c0 -72 29.667 -127.333 89 -166c40 -26 76.667 -39 110 -39h84c26 -52.667 76 -102.667 150 -150zM514.999 1030c0 -16.667 -17.334 -51.999 -52.001 -105.999c-25.333 34 -58.666 59.667 -99.999 77c-29.333 12 -44 28 -44 48
c0 16 39 55.667 117 119c2 -24.667 15.667 -48.834 41 -72.501s38 -45.5 38 -65.5z" />
    <glyph glyph-name="u0641" unicode="&#x641;" horiz-adv-x="1707" arabic-form="isolated" 
d="M1657 381c0 -55.333 -24.999 -106.996 -74.999 -154.996l-315 -304c-8 40 -37.833 84.5 -89.5 133.5s-95.834 73.5 -132.501 73.5h-1005l560 549l44 -103c22.667 -53.333 61.667 -80 117 -80h219l-66 -68c-29.333 -30.667 -53 -49.667 -71 -57
c-14 -6.66699 -37.333 -10 -70 -10h-128c-39.333 0 -66.333 4.66699 -81 14c-18 11.333 -40.333 40.666 -67 87.999l-70 -75c-20 -21.333 -30 -36.333 -30 -45c0 -14.667 8 -28.834 24 -42.501s33.333 -20.5 52 -20.5h569c47.333 0 99.5 -29.667 156.5 -89
s89.833 -89 98.5 -89c26 0 39 9.33301 39 28c0 14.667 -20.333 41.667 -61 81l-132 127c-38 36.667 -57 74 -57 112c0 27.333 18.667 59.666 56 96.999l349 350c-9.33301 -30 -14 -56 -14 -78c0 -24.667 14.333 -65.334 43 -122.001l94 -186
c28.667 -56.667 43 -99.667 43 -129zM1519 311.004c0 17.333 -6.66699 38.668 -20 64.001l-84 159c-9.33301 18 -14 32.333 -14 43c0 20.667 0.666992 34.667 2 42c-46.667 -39.333 -70 -72 -70 -98c0 -18.667 8 -42.667 24 -72l74 -136c15.333 -28 24 -49.333 26 -64
c1.33301 -10.667 1.33301 -19.334 0 -26.001c41.333 36.667 62 66 62 88zM1172 910.006c0 -16.667 -17.334 -51.999 -52.001 -105.999c-25.333 34 -58.666 59.667 -99.999 77c-29.333 12 -44 28 -44 48c0 16 39 55.667 117 119c2 -24.667 15.667 -48.834 41 -72.501
s38 -45.5 38 -65.5z" />
    <glyph glyph-name="u0642" unicode="&#x642;" horiz-adv-x="1137" arabic-form="isolated" 
d="M1087 295c0 -54.667 -25 -106.329 -75 -154.996l-358 -349c-41.333 -40 -77.333 -60 -108 -60c-36 0 -73.667 19.667 -113 59l-299 299c-42.667 42.667 -64 72 -64 88c0 28 16.667 58 50 90l188 182l-46 -82c-22.667 -42.667 -34 -71.334 -34 -86.001
c0 -19.333 19 -48 57 -86l241 -242c45.333 -45.333 75.333 -68 90 -68c8.66699 0 33 19.333 73 58l50 48c18 17.333 27 32.666 27 45.999c0 18.667 -20.333 47.667 -61 87l-132 127c-38 36.667 -57 74 -57 112c0 27.333 18.667 59.666 56 96.999l349 350
c-9.33301 -30 -14 -56 -14 -78c0 -24.667 14.333 -65.334 43 -122.001l94 -186c28.667 -56.667 43 -99.667 43 -129zM949 225.005c0 17.333 -6.66699 38.668 -20 64.001l-84 159c-9.33301 18 -14 32.333 -14 43c0 20.667 0.666992 34.667 2 42
c-46.667 -39.333 -70 -72 -70 -98c0 -18.667 8 -42.667 24 -72l74 -136c15.333 -28 24 -49.333 26 -64c1.33301 -10.667 1.33301 -19.334 0 -26.001c41.333 36.667 62 66 62 88zM789 824.007c0 -16.667 -17.334 -51.999 -52.001 -105.999
c-25.333 34 -58.666 59.667 -99.999 77c-29.333 12 -44 28 -44 48c0 16 39 55.667 117 119c2 -24.667 15.667 -48.834 41 -72.501s38 -45.5 38 -65.5zM557.999 824.008c0 -16.667 -17.334 -51.999 -52.001 -105.999c-25.333 34 -58.666 59.667 -99.999 77
c-29.333 12 -44 28 -44 48c0 16 39 55.667 117 119c2 -24.667 15.667 -48.834 41 -72.501s38 -45.5 38 -65.5z" />
    <glyph glyph-name="u0643" unicode="&#x643;" horiz-adv-x="2278" arabic-form="isolated" 
d="M2250 172c-30.667 -28.667 -67.998 -42.9971 -111.998 -42.9971h-2098l560 549l44 -103c22.667 -53.333 65 -80 127 -80h234l-66 -68c-29.333 -30.667 -53 -49.667 -71 -57c-14 -6.66699 -37.333 -10 -70 -10h-143c-42.667 0 -72 4.33301 -88 13
c-22.667 12 -46 41.667 -70 89l-70 -75c-20 -26 -30 -41 -30 -45c0 -14.667 8 -28.834 24 -42.501s33.333 -20.5 52 -20.5h1468l-41 81h-723c-24 0 -45.333 8.33301 -64 25c-20.667 18.667 -31 44 -31 76c0 11.333 30.333 46.333 91 105l398 384
c54.667 52.667 82 100 82 142c0 101.333 -48 152 -144 152c-32 0 -69.667 -9 -113 -27l-99 -43l296 294l100 -198c34 -67.333 51 -125.333 51 -174c0 -66.667 -33 -131.334 -99 -194.001l-168 -160c-42.667 -40.667 -64 -69.334 -64 -86.001c0 -23.333 3.33301 -40 10 -50
l15 -38c15.333 -38.667 45.666 -58 90.999 -58h463c17.333 0 37.666 -25 60.999 -75l68 -144c22 -46 37.667 -74.667 47 -86c19.333 -22 46.666 -33 82 -33z" />
    <glyph glyph-name="u0644" unicode="&#x644;" horiz-adv-x="862" arabic-form="isolated" 
d="M762 129c0 -66 -11.999 -111.331 -35.999 -135.998l-110 -113c-38.667 -40 -74.667 -60 -108 -60c-40 0 -77.667 18 -113 54l-261 266c-42.667 43.333 -64 72.666 -64 87.999c0 28 16.667 58 50 90l188 182l-46 -82c-22.667 -42.667 -34 -71.334 -34 -86.001
c0 -19.333 19 -48 57 -86l203 -204c45.333 -45.333 75.333 -68 90 -68c10.667 0 32.667 22.667 66 68c8.66699 12 13 41 13 87v818c0 42 -38.333 131 -115 267c45.333 0 118.666 58.667 219.999 176v-1261z" />
    <glyph glyph-name="u0645" unicode="&#x645;" horiz-adv-x="762" arabic-form="isolated" 
d="M732 129l-358.001 -0.00292969c0 -100 -41.333 -170.333 -124 -211c-41.333 -20 -89.666 -31 -144.999 -33l48 55c26 36.667 39 72.334 39 107.001c0 24.667 -13.333 62.334 -40 113.001l-57 108c-23.333 44 -35 78 -35 102c0 35.333 14.667 67.666 44 96.999l366 368
c-14.667 -41.333 -22 -79.666 -22 -114.999c0 -27.333 20 -79.666 60 -156.999zM450.999 278.997l-69 136c-22 43.333 -33 75.666 -33 96.999c-5.33301 -7.33301 -20.333 -23.666 -45 -48.999c-12 -12.667 -18 -24 -18 -34c0 -17.333 6 -37.333 18 -60l47 -90
c42 -0.666992 75.333 -0.666992 100 0z" />
    <glyph glyph-name="u0646" unicode="&#x646;" horiz-adv-x="1200" arabic-form="isolated" 
d="M1151 279c0 -34.667 -32 -84.668 -96 -150.001l-363 -370c-38 -38.667 -75.333 -58 -112 -58c-35.333 0 -73 19.667 -113 59l-333 329c-42.667 42 -64 71.333 -64 88c0 28 16.667 58 50 90l188 182l-46 -82c-22.667 -42.667 -34 -71.334 -34 -86.001
c0 -20 19 -48.667 57 -86l275 -272c46 -45.333 76 -68 90 -68c10.667 0 35 19.333 73 58l200 204c28 28.667 41 57.334 39 86.001c-1.33301 24.667 -12.333 55 -33 91l-63 111c-31.333 55.333 -47 101.333 -47 138c0 40 17 78.667 51 116l125 119
c-7.33301 -23.333 -11 -49.333 -11 -78c0 -23.333 14.667 -63.666 44 -120.999l92 -180c20.667 -40.667 31 -80.667 31 -120zM646 517.999c0 -16.667 -17.334 -51.999 -52.001 -105.999c-25.333 34 -58.666 59.667 -99.999 77c-29.333 12 -44 28 -44 48
c0 16 39 55.667 117 119c2 -24.667 15.667 -48.834 41 -72.501s38 -45.5 38 -65.5z" />
    <glyph glyph-name="u0647" unicode="&#x647;" horiz-adv-x="772" arabic-form="isolated" 
d="M742 129l-683 0.000976562c27.333 34 41 57.333 41 70c0 13.333 -6.5 34.166 -19.5 62.499s-19.5 55.166 -19.5 80.499c0 48 17.667 89.667 53 125l166 167l-60 115l136 128l57 -109l67 67c-14.667 -41.333 -22 -79.666 -22 -114.999c0 -28 23.333 -87 70 -177z
M461 279.001l-69 136c-22 43.333 -33 75.666 -33 96.999c-5.33301 -7.33301 -20.333 -23.666 -45 -48.999c-12 -12.667 -18 -24 -18 -34c0 -17.333 6 -37.333 18 -60l47 -90c42 -0.666992 75.333 -0.666992 100 0z" />
    <glyph glyph-name="u0648" unicode="&#x648;" horiz-adv-x="827" arabic-form="isolated" 
d="M771 273c0 -45.333 -26.001 -93.332 -78.001 -143.999l-396 -387c-61.333 -60 -139.666 -90 -234.999 -90c-23.333 0 -44 3.33301 -62 10c14.667 4 35.667 10.333 63 19c52 22 108.333 62.333 169 121l174 168c26.667 26 40 46 40 60s-15.333 36 -46 66l-156 154
c-22.667 22.667 -35.667 36.334 -39 41.001c-10 15.333 -15 35.666 -15 60.999c0 29.333 18.667 62.666 56 99.999l358 358c-6 -21.333 -9 -43.333 -9 -66c0 -32 17.667 -83.333 53 -154l66 -132c38 -76 57 -137.667 57 -185zM631.999 225.001
c0 17.333 -6.66699 38.668 -20 64.001l-84 159c-9.33301 18 -14 32.333 -14 43c0 20.667 0.666992 34.667 2 42c-46.667 -39.333 -70 -72 -70 -98c0 -18.667 8 -42.667 24 -72l74 -136c15.333 -28 24 -49.333 26 -64c1.33301 -10.667 1.33301 -19.334 0 -26.001
c41.333 36.667 62 66 62 88z" />
    <glyph glyph-name="u0649" unicode="&#x649;" horiz-adv-x="1380" arabic-form="isolated" 
d="M1350 277c-12.667 -4.66699 -25.001 -9.66504 -37.001 -14.998c-18 -6 -44.667 -9 -80 -9c-81.333 0 -140 7.33301 -176 22c-47.333 18.667 -85.666 57 -114.999 115l-46 92c-23.333 46.667 -42.666 70 -57.999 70c-14.667 0 -35.334 -12.667 -62.001 -38l-90 -86
c-26.667 -25.333 -40 -48 -40 -68c0 -18.667 5.66699 -32.667 17 -42c3.33301 -2 18.333 -9.33301 45 -22l162 -76c57.333 -26.667 86 -65.334 86 -116.001c0 -34.667 -22.333 -73.334 -67 -116.001l-205 -197c-41.333 -40 -77.333 -60 -108 -60
c-36 0 -73.667 19.667 -113 59l-329 329c-42.667 42.667 -64 72 -64 88c0 28 16.667 58 50 90l188 182l-46 -82c-22.667 -42.667 -34 -71.334 -34 -86.001c0 -19.333 19 -48 57 -86l271 -272c45.333 -45.333 75.333 -68 90 -68c8.66699 0 33 19.333 73 58l50 48
c18 17.333 27 32.666 27 45.999c0 30 -16.333 53 -49 69l-188 91c-30.667 14.667 -50.667 27.334 -60 38.001c-14 16 -21 39.333 -21 70c0 26.667 33.333 72.334 100 137.001l431 418c-9.33301 -30 -14 -56 -14 -78c0 -24 14.333 -64.667 43 -122l122 -244
c40 -80.667 103.333 -127 190 -139z" />
    <glyph glyph-name="u064A" unicode="&#x64a;" horiz-adv-x="1380" arabic-form="isolated" 
d="M1350 277c-12.667 -4.66699 -25.001 -9.66504 -37.001 -14.998c-18 -6 -44.667 -9 -80 -9c-81.333 0 -140 7.33301 -176 22c-47.333 18.667 -85.666 57 -114.999 115l-46 92c-23.333 46.667 -42.666 70 -57.999 70c-14.667 0 -35.334 -12.667 -62.001 -38l-90 -86
c-26.667 -25.333 -40 -48 -40 -68c0 -18.667 5.66699 -32.667 17 -42c3.33301 -2 18.333 -9.33301 45 -22l162 -76c57.333 -26.667 86 -65.334 86 -116.001c0 -34.667 -22.333 -73.334 -67 -116.001l-205 -197c-41.333 -40 -77.333 -60 -108 -60
c-36 0 -73.667 19.667 -113 59l-329 329c-42.667 42.667 -64 72 -64 88c0 28 16.667 58 50 90l188 182l-46 -82c-22.667 -42.667 -34 -71.334 -34 -86.001c0 -19.333 19 -48 57 -86l271 -272c45.333 -45.333 75.333 -68 90 -68c8.66699 0 33 19.333 73 58l50 48
c18 17.333 27 32.666 27 45.999c0 30 -16.333 53 -49 69l-188 91c-30.667 14.667 -50.667 27.334 -60 38.001c-14 16 -21 39.333 -21 70c0 26.667 33.333 72.334 100 137.001l431 418c-9.33301 -30 -14 -56 -14 -78c0 -24 14.333 -64.667 43 -122l122 -244
c40 -80.667 103.333 -127 190 -139z" />
    <glyph glyph-name="u067E" unicode="&#x67e;" horiz-adv-x="1550" arabic-form="isolated" 
d="M1480 217c0 -33.333 -7 -61.333 -21 -84c-8.66699 -14 -28.667 -35.667 -60 -65l-155 -146c-8.66699 40.667 -35.667 85 -81 133c-47.333 49.333 -89 74 -125 74h-998l560 549l44 -103c22.667 -53.333 65 -80 127 -80h234l-66 -68c-29.333 -30.667 -53 -49.667 -71 -57
c-14 -6.66699 -37.333 -10 -70 -10h-143c-42.667 0 -72 4.33301 -88 13c-22.667 12 -46 41.667 -70 89l-70 -75c-20 -26 -30 -41 -30 -45c0 -14.667 8 -28.834 24 -42.501s33.333 -20.5 52 -20.5h562c30.667 0 74 -26 130 -78l115 -118c11.333 14.667 17 30 17 46
c0 13.333 -11 42.333 -33 87l-44 89c-34 68.667 -51 114.667 -51 138c0 40.667 16.333 79.334 49 116.001l124 119c-9.33301 -30 -14 -56 -14 -78c0 -24 14.333 -64.667 43 -122l66 -132c28.667 -57.333 43 -100.333 43 -129zM1122 -174
c0 -16.667 -17.334 -51.999 -52.001 -105.999c-25.333 34 -58.666 59.667 -99.999 77c-29.333 12 -44 28 -44 48c0 16 39 55.667 117 119c2 -24.667 15.667 -48.834 41 -72.501s38 -45.5 38 -65.5zM890.999 -173.999c0 -16.667 -17.334 -51.999 -52.001 -105.999
c-25.333 34 -58.666 59.667 -99.999 77c-29.333 12 -44 28 -44 48c0 16 39 55.667 117 119c2 -24.667 15.667 -48.834 41 -72.501s38 -45.5 38 -65.5zM1045 -387.998c0 -16.667 -17.334 -51.999 -52.001 -105.999c-25.333 34 -58.666 59.667 -99.999 77
c-29.333 12 -44 28 -44 48c0 16 39 55.667 117 119c2 -24.667 15.667 -48.834 41 -72.501s38 -45.5 38 -65.5z" />
    <glyph glyph-name="u0686" unicode="&#x686;" horiz-adv-x="962" arabic-form="isolated" 
d="M882 11c-12 -7.33301 -28.0029 -11.001 -48.0029 -11.001c-91.333 0 -189.666 43 -294.999 129h-237c-65.333 0 -98 -37.333 -98 -112c0 -18.667 24 -52 72 -100l272 -271c38 -38 66.667 -57 86 -57c14.667 0 43.334 11.333 86.001 34l82 46l-182 -188
c-32 -33.333 -62 -50 -90 -50c-16 0 -45.333 21.333 -88 64l-329 329c-42 42 -63 83 -63 123c0 44 19.667 88.333 59 133l111 126c26.667 30 44.334 48 53.001 54c17.333 12.667 40.333 19 69 19h62l-86 132c-44.667 63.333 -88.667 95 -132 95
c-28 0 -56.667 -7.33301 -86 -22l182 182c42.667 42.667 74 64 94 64c15.333 0 36 -26 62 -78l200 -398c34.667 -69.333 58 -111.666 70 -126.999c24 -32.667 60.667 -62 110 -88c16.667 -4.66699 38 -14 64 -28zM630.997 -36.001c0 -12.667 -13 -38.999 -39 -78.999
c-18.667 25.333 -43 44.333 -73 57c-22 9.33301 -33 21.333 -33 36c0 12 28.667 41.333 86 88c2 -18 12.333 -35.833 31 -53.5s28 -33.834 28 -48.501zM459.997 -36c0 -12.667 -12.999 -38.999 -38.999 -78.999c-18.667 25.333 -43.334 44.333 -74.001 57
c-21.333 9.33301 -32 21.333 -32 36c0 12 28.667 41.333 86 88c2 -18 12.333 -35.833 31 -53.5s28 -33.834 28 -48.501zM573.998 -194.999c0 -12 -12.999 -37.999 -38.999 -77.999c-18.667 24.667 -43.334 43.667 -74.001 57c-21.333 8.66699 -32 20.334 -32 35.001
c0 12 28.667 41.667 86 89c2 -18.667 12.333 -36.834 31 -54.501s28 -33.834 28 -48.501z" />
    <glyph glyph-name="u0698" unicode="&#x698;" horiz-adv-x="847" arabic-form="isolated" 
d="M787 299c0 -51.333 -26.333 -103.002 -79 -155.002l-411 -402c-61.333 -60 -139.666 -90 -234.999 -90c-23.333 0 -44 3.33301 -62 10c14.667 4 35.667 10.333 63 19c53.333 22.667 109.666 63 168.999 121l300 292c52 50.667 78 92.334 78 125.001
c0 6.66699 -16.333 43 -49 109l-44 89c-34 68.667 -51 114.667 -51 138c0 40.667 16.333 79.334 49 116.001l124 119c-9.33301 -30 -14 -56 -14 -78c0 -24 14.333 -64.667 43 -122l66 -132c35.333 -70.667 53 -123.667 53 -159zM512 1157
c0 -16.667 -17.334 -51.999 -52.001 -105.999c-25.333 34 -58.666 59.667 -99.999 77c-29.333 12 -44 28 -44 48c0 16 39 55.667 117 119c2 -24.667 15.667 -48.834 41 -72.501s38 -45.5 38 -65.5zM643.999 965.999c0 -16.667 -17.334 -51.999 -52.001 -105.999
c-25.333 34 -58.666 59.667 -99.999 77c-29.333 12 -44 28 -44 48c0 16 39 55.667 117 119c2 -24.667 15.667 -48.834 41 -72.501s38 -45.5 38 -65.5zM412.998 966c0 -16.667 -17.334 -51.999 -52.001 -105.999c-25.333 34 -58.666 59.667 -99.999 77
c-29.333 12 -44 28 -44 48c0 16 39 55.667 117 119c2 -24.667 15.667 -48.834 41 -72.501s38 -45.5 38 -65.5z" />
    <glyph glyph-name="u06AF" unicode="&#x6af;" horiz-adv-x="2278" arabic-form="isolated" 
d="M2250 172c-17.333 -16 -54.6641 -30.3301 -111.998 -42.9971h-2098l560 549l44 -103c22.667 -53.333 65 -80 127 -80h234l-66 -68c-29.333 -30.667 -53 -49.667 -71 -57c-14 -6.66699 -37.333 -10 -70 -10h-143c-42.667 0 -72 4.33301 -88 13
c-22.667 12 -46 41.667 -70 89l-70 -75c-20 -26 -30 -41 -30 -45c0 -14.667 8 -28.834 24 -42.501s33.333 -20.5 52 -20.5h1468l-41 81h-723c-24 0 -45.333 8.33301 -64 25c-20.667 18.667 -31 44 -31 76c0 11.333 30.333 46.333 91 105l398 384
c54.667 52.667 82 100 82 142c0 101.333 -48 152 -144 152c-32 0 -69.667 -9 -113 -27l-99 -43l296 294l100 -198c34 -67.333 51 -125.333 51 -174c0 -66.667 -33 -131.334 -99 -194.001l-168 -160c-42.667 -40.667 -64 -69.334 -64 -86.001c0 -23.333 3.33301 -40 10 -50
l15 -38c15.333 -38.667 45.666 -58 90.999 -58h463c17.333 0 37.666 -25 60.999 -75l68 -144c22 -46 37.667 -74.667 47 -86c19.333 -22 46.666 -33 82 -33zM1650 1605l-577 -389l-26 39l522 470z" />
    <glyph glyph-name="uFB57" unicode="&#x67e;" horiz-adv-x="1525" arabic-form="final" 
d="M1595 129l-138 -0.000976562c-11.333 -15.333 -30.333 -35.666 -57 -60.999l-155 -146c-8.66699 40.667 -35.667 85 -81 133c-47.333 49.333 -89 74 -125 74h-999l560 549l44 -103c22.667 -53.333 65 -80 127 -80h234l-66 -68c-29.333 -30.667 -53 -49.667 -71 -57
c-14 -6.66699 -37.333 -10 -70 -10h-143c-42.667 0 -72 4.33301 -88 13c-22.667 12 -46 41.667 -70 89l-70 -75c-20 -21.333 -30 -36.333 -30 -45c0 -14.667 8 -28.834 24 -42.501s33.333 -20.5 52 -20.5h563c30.667 0 74 -26 130 -78l115 -118c11.333 14.667 17 30 17 46
c0 13.333 -11 42.333 -33 87l-44 89c-34 68.667 -51 114.667 -51 138c0 40.667 16.333 79.334 49 116.001l124 119c-9.33301 -30 -14 -56 -14 -78c0 -24 14.333 -64.667 43 -122l66 -132c15.333 -30.667 25.333 -53 30 -67h127v-150zM1122 -174.001
c0 -16.667 -17.334 -51.999 -52.001 -105.999c-25.333 34 -58.666 59.667 -99.999 77c-29.333 12 -44 28 -44 48c0 16 39 55.667 117 119c2 -24.667 15.667 -48.834 41 -72.501s38 -45.5 38 -65.5zM890.999 -174c0 -16.667 -17.334 -51.999 -52.001 -105.999
c-25.333 34 -58.666 59.667 -99.999 77c-29.333 12 -44 28 -44 48c0 16 39 55.667 117 119c2 -24.667 15.667 -48.834 41 -72.501s38 -45.5 38 -65.5zM1045 -387.999c0 -16.667 -17.334 -51.999 -52.001 -105.999c-25.333 34 -58.666 59.667 -99.999 77
c-29.333 12 -44 28 -44 48c0 16 39 55.667 117 119c2 -24.667 15.667 -48.834 41 -72.501s38 -45.5 38 -65.5z" />
    <glyph glyph-name="uFB58" unicode="&#x67e;" horiz-adv-x="565" arabic-form="initial" 
d="M495 217c0 -33.333 -7 -61.334 -21 -84.001c-8.66699 -14 -28.667 -35.667 -60 -65l-155 -146c-8 40 -33.833 84.5 -77.5 133.5s-80.834 73.5 -111.501 73.5h-70v150h67c22.667 0 64.334 -30 125.001 -90l103 -106c11.333 14.667 17 30 17 46c0 13.333 -11 42.333 -33 87
l-44 89c-34 68.667 -51 114.667 -51 138c0 40.667 16.333 79.334 49 116.001l124 119c-9.33301 -30 -14 -56 -14 -78c0 -24 14.333 -64.667 43 -122l66 -132c28.667 -57.333 43 -100.333 43 -129zM465 -174.001c0 -16.667 -17.334 -51.999 -52.001 -105.999
c-25.333 34 -58.666 59.667 -99.999 77c-29.333 12 -44 28 -44 48c0 16 39 55.667 117 119c2 -24.667 15.667 -48.834 41 -72.501s38 -45.5 38 -65.5zM233.999 -174c0 -16.667 -17.334 -51.999 -52.001 -105.999c-25.333 34 -58.666 59.667 -99.999 77
c-29.333 12 -44 28 -44 48c0 16 39 55.667 117 119c2 -24.667 15.667 -48.834 41 -72.501s38 -45.5 38 -65.5zM387.998 -387.999c0 -16.667 -17.334 -51.999 -52.001 -105.999c-25.333 34 -58.666 59.667 -99.999 77c-29.333 12 -44 28 -44 48c0 16 39 55.667 117 119
c2 -24.667 15.667 -48.834 41 -72.501s38 -45.5 38 -65.5z" />
    <glyph glyph-name="uFB59" unicode="&#x67e;" horiz-adv-x="560" arabic-form="medial" 
d="M630 129l-158.999 -0.00195312c-11.333 -15.333 -30.333 -35.666 -57 -60.999l-155 -146c-8 40 -33.833 84.5 -77.5 133.5s-80.834 73.5 -111.501 73.5h-70v150h67c22.667 0 64.334 -30 125.001 -90l103 -106c11.333 14.667 17 30 17 46c0 13.333 -11 42.333 -33 87
l-44 89c-34 68.667 -51 114.667 -51 138c0 40.667 16.333 79.334 49 116.001l124 119c-9.33301 -30 -14 -56 -14 -78c0 -24 14.333 -64.667 43 -122l66 -132c15.333 -30.667 25.666 -53 30.999 -67h147v-150zM465.001 -174.002c0 -16.667 -17.334 -51.999 -52.001 -105.999
c-25.333 34 -58.666 59.667 -99.999 77c-29.333 12 -44 28 -44 48c0 16 39 55.667 117 119c2 -24.667 15.667 -48.834 41 -72.501s38 -45.5 38 -65.5zM234 -174.001c0 -16.667 -17.334 -51.999 -52.001 -105.999c-25.333 34 -58.666 59.667 -99.999 77
c-29.333 12 -44 28 -44 48c0 16 39 55.667 117 119c2 -24.667 15.667 -48.834 41 -72.501s38 -45.5 38 -65.5zM387.999 -388c0 -16.667 -17.334 -51.999 -52.001 -105.999c-25.333 34 -58.666 59.667 -99.999 77c-29.333 12 -44 28 -44 48c0 16 39 55.667 117 119
c2 -24.667 15.667 -48.834 41 -72.501s38 -45.5 38 -65.5z" />
    <glyph glyph-name="uFB7B" unicode="&#x686;" horiz-adv-x="780" arabic-form="final" 
d="M850 129l0.00195312 150h-139c-57.333 0 -96 20 -116 60l-157 313c-26 52 -46.667 78 -62 78c-20 0 -51.333 -21.333 -94 -64l-182 -182c29.333 14.667 58 22 86 22c43.333 0 87.333 -31.667 132 -95l86 -132h-62c-28.667 0 -51.667 -6.33301 -69 -19
c-8.66699 -6 -26.334 -24 -53.001 -54l-111 -126c-39.333 -44.667 -59 -89 -59 -133c0 -40 21 -81 63 -123l329 -329c42.667 -42.667 72 -64 88 -64c28 0 58 16.667 90 50l182 188l-82 -46c-42.667 -22.667 -71.334 -34 -86.001 -34c-19.333 0 -48 19 -86 57l-272 271
c-48 48 -72 81.333 -72 100c0 74.667 32 112 96 112h550zM683.002 -40c0 -12.667 -13.667 -40 -41 -82c-19.333 26 -45 45.667 -77 59c-22.667 10 -34 22.667 -34 38c0 12.667 30 43.334 90 92.001c2 -18.667 12.833 -37.334 32.5 -56.001s29.5 -35.667 29.5 -51z
M504.002 -40c0 -12.667 -13.333 -40 -40 -82c-20 26 -46 45.667 -78 59c-22.667 10 -34 22.667 -34 38c0 12.667 30.333 43.334 91 92.001c1.33301 -18.667 11.833 -37.334 31.5 -56.001s29.5 -35.667 29.5 -51zM623.002 -206c0 -12.667 -13.333 -40 -40 -82
c-20 26.667 -45.667 46.667 -77 60c-23.333 9.33301 -35 21.666 -35 36.999c0 12.667 30.333 43.334 91 92.001c1.33301 -18.667 11.833 -37.167 31.5 -55.5s29.5 -35.5 29.5 -51.5z" />
    <glyph glyph-name="uFB7C" unicode="&#x686;" horiz-adv-x="932" arabic-form="initial" 
d="M882 -14c-12 -7.33301 -28 -11 -48 -11c-140 0 -259.667 51.333 -359 154h-475v150h374l-86 132c-44.667 63.333 -88.667 95 -132 95c-28 0 -56.667 -7.33301 -86 -22l182 182c42.667 42.667 74 64 94 64c15.333 0 36 -26 62 -78l200 -398
c58.667 -116.667 128.667 -196.667 210 -240c16.667 -4.66699 38 -14 64 -28zM537 -174c0 -16.667 -17.334 -51.999 -52.001 -105.999c-25.333 34 -58.666 59.667 -99.999 77c-29.333 12 -44 28 -44 48c0 16 39 55.667 117 119c2 -24.667 15.667 -48.834 41 -72.501
s38 -45.5 38 -65.5zM305.999 -173.999c0 -16.667 -17.334 -51.999 -52.001 -105.999c-25.333 34 -58.666 59.667 -99.999 77c-29.333 12 -44 28 -44 48c0 16 39 55.667 117 119c2 -24.667 15.667 -48.834 41 -72.501s38 -45.5 38 -65.5zM459.998 -387.998
c0 -16.667 -17.334 -51.999 -52.001 -105.999c-25.333 34 -58.666 59.667 -99.999 77c-29.333 12 -44 28 -44 48c0 16 39 55.667 117 119c2 -24.667 15.667 -48.834 41 -72.501s38 -45.5 38 -65.5z" />
    <glyph glyph-name="uFB7D" unicode="&#x686;" horiz-adv-x="750" arabic-form="medial" 
d="M882 -14c-12 -7.33301 -28 -11.001 -48 -11.001c-140 0 -259.667 51.333 -359 154h-475v150h374l-86 132c-44.667 63.333 -88.667 95 -132 95c-28 0 -56.667 -7.33301 -86 -22l182 182c42.667 42.667 74 64 94 64c15.333 0 36 -26 62 -78l187 -373h225v-150h-139
c33.333 -45.333 79 -83.666 137 -114.999c16.667 -4.66699 38 -14 64 -28zM537 -174.001c0 -16.667 -17.334 -51.999 -52.001 -105.999c-25.333 34 -58.666 59.667 -99.999 77c-29.333 12 -44 28 -44 48c0 16 39 55.667 117 119c2 -24.667 15.667 -48.834 41 -72.501
s38 -45.5 38 -65.5zM305.999 -174c0 -16.667 -17.334 -51.999 -52.001 -105.999c-25.333 34 -58.666 59.667 -99.999 77c-29.333 12 -44 28 -44 48c0 16 39 55.667 117 119c2 -24.667 15.667 -48.834 41 -72.501s38 -45.5 38 -65.5zM459.998 -387.999
c0 -16.667 -17.334 -51.999 -52.001 -105.999c-25.333 34 -58.666 59.667 -99.999 77c-29.333 12 -44 28 -44 48c0 16 39 55.667 117 119c2 -24.667 15.667 -48.834 41 -72.501s38 -45.5 38 -65.5z" />
    <glyph glyph-name="uFB8B" unicode="&#x698;" horiz-adv-x="847" arabic-form="final" 
d="M917 129l-224 -0.00195312l-396 -387c-61.333 -60 -139.666 -90 -234.999 -90c-23.333 0 -44 3.33301 -62 10c14.667 4 35.667 10.333 63 19c53.333 22.667 109.666 63 168.999 121l300 292c52 50.667 78 92.334 78 125.001c0 6.66699 -16.333 43 -49 109l-44 89
c-34 68.667 -51 114.667 -51 138c0 40.667 16.333 79.334 49 116.001l124 119c-9.33301 -30 -14 -56 -14 -78c0 -24 14.333 -64.667 43 -122l66 -132c35.333 -70.667 53 -123.667 53 -159c0 -9.33301 -0.333008 -16 -1 -20h131v-150zM512 1157
c0 -16.667 -17.334 -51.999 -52.001 -105.999c-25.333 34 -58.666 59.667 -99.999 77c-29.333 12 -44 28 -44 48c0 16 39 55.667 117 119c2 -24.667 15.667 -48.834 41 -72.501s38 -45.5 38 -65.5zM643.999 965.999c0 -16.667 -17.334 -51.999 -52.001 -105.999
c-25.333 34 -58.666 59.667 -99.999 77c-29.333 12 -44 28 -44 48c0 16 39 55.667 117 119c2 -24.667 15.667 -48.834 41 -72.501s38 -45.5 38 -65.5zM412.998 966c0 -16.667 -17.334 -51.999 -52.001 -105.999c-25.333 34 -58.666 59.667 -99.999 77
c-29.333 12 -44 28 -44 48c0 16 39 55.667 117 119c2 -24.667 15.667 -48.834 41 -72.501s38 -45.5 38 -65.5z" />
    <glyph glyph-name="uFEDA" unicode="&#x6a9;" horiz-adv-x="2185" arabic-form="final" 
d="M2255 129l-2215 0.00292969l560 549l44 -103c22.667 -53.333 65 -80 127 -80h234l-66 -68c-29.333 -30.667 -53 -49.667 -71 -57c-14 -6.66699 -37.333 -10 -70 -10h-143c-42.667 0 -72 4.33301 -88 13c-22.667 12 -46 41.667 -70 89l-70 -75c-20 -26 -30 -41 -30 -45
c0 -14.667 8 -28.834 24 -42.501s33.333 -20.5 52 -20.5h1468l-41 81h-723c-24 0 -45.333 8.33301 -64 25c-20.667 18.667 -31 44 -31 76c0 11.333 30.333 46.333 91 105l398 384c54.667 52.667 82 100 82 142c0 101.333 -48 152 -144 152c-32 0 -69.667 -9 -113 -27
l-99 -43l296 294l100 -198c34 -67.333 51 -125.333 51 -174c0 -66.667 -33 -131.334 -99 -194.001l-168 -160c-42.667 -40.667 -64 -69.334 -64 -86.001c0 -23.333 3.33301 -40 10 -50l15 -38c15.333 -38.667 45.666 -58 90.999 -58h463c17.333 0 37.666 -25 60.999 -75
l72 -156h130v-150z" />
    <glyph glyph-name="uFEDB" unicode="&#x6a9;" horiz-adv-x="1246" arabic-form="initial" 
d="M1213 172c-30.667 -28.667 -67.9971 -42.9971 -111.997 -42.9971h-1101v150h904l-41 81h-723c-24 0 -45.333 8.33301 -64 25c-20.667 18.667 -31 44 -31 76c0 11.333 30.333 46.333 91 105l398 384c54.667 52.667 82 100 82 142c0 101.333 -48 152 -144 152
c-32 0 -69.667 -9 -113 -27l-99 -43l296 294l100 -198c34 -67.333 51 -125.333 51 -174c0 -66.667 -33 -131.334 -99 -194.001l-168 -160c-42.667 -40.667 -64 -69.334 -64 -86.001c0 -23.333 3.33301 -40 10 -50l15 -38c15.333 -38.667 45.666 -58 90.999 -58h463
c17.333 0 37.666 -25 60.999 -75l68 -144c22 -46.667 37.667 -75.334 47 -86.001c19.333 -22 46.666 -33 81.999 -33z" />
    <glyph glyph-name="uFEDC" unicode="&#x6a9;" horiz-adv-x="1148" arabic-form="medial" 
d="M1218 129l-1218 0.00195312v150h904l-41 81h-723c-24 0 -45.333 8.33301 -64 25c-20.667 18.667 -31 44 -31 76c0 11.333 30.333 46.333 91 105l398 384c54.667 52.667 82 100 82 142c0 101.333 -48 152 -144 152c-32 0 -69.667 -9 -113 -27l-99 -43l296 294l100 -198
c34 -67.333 51 -125.333 51 -174c0 -66.667 -33 -131.334 -99 -194.001l-168 -160c-42.667 -40.667 -64 -69.334 -64 -86.001c0 -23.333 3.33301 -40 10 -50l15 -38c15.333 -38.667 45.666 -58 90.999 -58h463c17.333 0 37.666 -25 60.999 -75l72 -156h130v-150z" />
    <glyph glyph-name="uFB93" unicode="&#x6af;" horiz-adv-x="2185" arabic-form="final" 
d="M2255 129l-2215 0.00292969l560 549l44 -103c22.667 -53.333 65 -80 127 -80h234l-66 -68c-29.333 -30.667 -53 -49.667 -71 -57c-14 -6.66699 -37.333 -10 -70 -10h-143c-42.667 0 -72 4.33301 -88 13c-22.667 12 -46 41.667 -70 89l-70 -75c-20 -26 -30 -41 -30 -45
c0 -14.667 8 -28.834 24 -42.501s33.333 -20.5 52 -20.5h1468l-41 81h-723c-24 0 -45.333 8.33301 -64 25c-20.667 18.667 -31 44 -31 76c0 11.333 30.333 46.333 91 105l398 384c54.667 52.667 82 100 82 142c0 101.333 -48 152 -144 152c-32 0 -69.667 -9 -113 -27
l-99 -43l296 294l100 -198c34 -67.333 51 -125.333 51 -174c0 -66.667 -33 -131.334 -99 -194.001l-168 -160c-42.667 -40.667 -64 -69.334 -64 -86.001c0 -23.333 3.33301 -40 10 -50l15 -38c15.333 -38.667 45.666 -58 90.999 -58h463c17.333 0 37.666 -25 60.999 -75
l72 -156h130v-150zM1650 1605l-577 -389l-26 39l522 470z" />
    <glyph glyph-name="uFB94" unicode="&#x6af;" horiz-adv-x="1246" arabic-form="initial" 
d="M1213 172c-30.667 -28.667 -67.9971 -42.9971 -111.997 -42.9971h-1101v150h904l-41 81h-723c-24 0 -45.333 8.33301 -64 25c-20.667 18.667 -31 44 -31 76c0 11.333 30.333 46.333 91 105l398 384c54.667 52.667 82 100 82 142c0 101.333 -48 152 -144 152
c-32 0 -69.667 -9 -113 -27l-99 -43l296 294l100 -198c34 -67.333 51 -125.333 51 -174c0 -66.667 -33 -131.334 -99 -194.001l-168 -160c-42.667 -40.667 -64 -69.334 -64 -86.001c0 -23.333 3.33301 -40 10 -50l15 -38c15.333 -38.667 45.666 -58 90.999 -58h463
c17.333 0 37.666 -25 60.999 -75l68 -144c22 -46.667 37.667 -75.334 47 -86.001c19.333 -22 46.666 -33 81.999 -33zM613.003 1605l-577 -389l-26 39l522 470z" />
    <glyph glyph-name="uFB95" unicode="&#x6af;" horiz-adv-x="1148" arabic-form="medial" 
d="M1218 129l-1218 0.00195312v150h904l-41 81h-723c-24 0 -45.333 8.33301 -64 25c-20.667 18.667 -31 44 -31 76c0 11.333 30.333 46.333 91 105l398 384c54.667 52.667 82 100 82 142c0 101.333 -48 152 -144 152c-32 0 -69.667 -9 -113 -27l-99 -43l296 294l100 -198
c34 -67.333 51 -125.333 51 -174c0 -66.667 -33 -131.334 -99 -194.001l-168 -160c-42.667 -40.667 -64 -69.334 -64 -86.001c0 -23.333 3.33301 -40 10 -50l15 -38c15.333 -38.667 45.666 -58 90.999 -58h463c17.333 0 37.666 -25 60.999 -75l72 -156h130v-150z
M613.002 1605l-577 -389l-26 39l522 470z" />
    <glyph glyph-name="uFE94" unicode="&#x6c0;" horiz-adv-x="742" arabic-form="final" 
d="M812 129l-753 0.000976562c27.333 34 41 57.333 41 70c0 13.333 -6.5 34.166 -19.5 62.499s-19.5 55.166 -19.5 80.499c0 48 17.667 89.667 53 125l166 167l-60 115l136 128l57 -109l67 67c-14.667 -41.333 -22 -79.666 -22 -114.999c0 -27.333 23.333 -86.333 70 -177
l136 -264h148v-150zM461 279.001l-69 136c-22 43.333 -33 75.666 -33 96.999c-5.33301 -7.33301 -20.333 -23.666 -45 -48.999c-12 -12.667 -18 -24 -18 -34c0 -17.333 6 -37.333 18 -60l47 -90c42 -0.666992 75.333 -0.666992 100 0zM332 1258
c-12 -6.66699 -29.667 -20 -53 -40l-26 -32c-8 -10 -12 -16.667 -12 -20c0 -7.33301 4.33301 -15 13 -23l46 -44c13.333 -12.667 20 -27 20 -43c0 -16.667 -5 -30 -15 -40l-72 -70c-21.333 -20.667 -50.666 -31 -87.999 -31c-16.667 0 -30.334 2.66699 -41.001 8
c16.667 3.33301 32.667 13.666 48 30.999l26 30c12.667 14.667 19 26 19 34c0 5.33301 -6 14 -18 26l-37 37c-16.667 16.667 -25 32.334 -25 47.001c0 16 8.66699 32.333 26 49l61 58c18 17.333 47.667 26 89 26c11.333 0 24.333 -1 39 -3z" />
    <glyph glyph-name="uFEF2" unicode="&#x6cc;" horiz-adv-x="1280" arabic-form="final" 
d="M1350 129l-167 0.00195312c-74 0 -129 36.333 -165 109l-122 244c-23.333 46.667 -42.666 70 -57.999 70c-14.667 0 -35.334 -12.667 -62.001 -38l-90 -86c-26.667 -25.333 -40 -48 -40 -68c0 -18.667 5.66699 -32.667 17 -42c3.33301 -2 18.333 -9.33301 45 -22l162 -76
c57.333 -26.667 86 -65.334 86 -116.001c0 -34.667 -22.333 -73.334 -67 -116.001l-205 -197c-41.333 -40 -77.333 -60 -108 -60c-36 0 -73.667 19.667 -113 59l-329 329c-42.667 42.667 -64 72 -64 88c0 28 16.667 58 50 90l188 182l-46 -82
c-22.667 -42.667 -34 -71.334 -34 -86.001c0 -19.333 19 -48 57 -86l271 -272c45.333 -45.333 75.333 -68 90 -68c8.66699 0 33 19.333 73 58l50 48c18 17.333 27 32.666 27 45.999c0 30 -16.333 53 -49 69l-188 91c-30.667 14.667 -50.667 27.334 -60 38.001
c-14 16 -21 39.333 -21 70c0 26.667 33.333 72.334 100 137.001l431 418c-9.33301 -30 -14 -56 -14 -78c0 -24 14.333 -64.667 43 -122l152 -304c26 -51.333 63.667 -77 113 -77h47v-150z" />
    <glyph glyph-name="uFEF3" unicode="&#x6cc;" horiz-adv-x="565" arabic-form="initial" 
d="M495 217c0 -33.333 -7 -61.334 -21 -84.001c-8.66699 -14 -28.667 -35.667 -60 -65l-155 -146c-8 40 -33.833 84.5 -77.5 133.5s-80.834 73.5 -111.501 73.5h-70v150h67c22.667 0 64.334 -30 125.001 -90l103 -106c11.333 14.667 17 30 17 46c0 13.333 -11 42.333 -33 87
l-44 89c-34 68.667 -51 114.667 -51 138c0 40.667 16.333 79.334 49 116.001l124 119c-9.33301 -30 -14 -56 -14 -78c0 -24 14.333 -64.667 43 -122l66 -132c28.667 -57.333 43 -100.333 43 -129zM454 -194.001c0 -16.667 -17.334 -51.999 -52.001 -105.999
c-25.333 34 -58.666 59.667 -99.999 77c-29.333 12 -44 28 -44 48c0 16 39 55.667 117 119c2 -24.667 15.667 -48.834 41 -72.501s38 -45.5 38 -65.5zM222.999 -194c0 -16.667 -17.334 -51.999 -52.001 -105.999c-25.333 34 -58.666 59.667 -99.999 77
c-29.333 12 -44 28 -44 48c0 16 39 55.667 117 119c2 -24.667 15.667 -48.834 41 -72.501s38 -45.5 38 -65.5z" />
    <glyph glyph-name="uFEF4" unicode="&#x6cc;" horiz-adv-x="560" arabic-form="medial" 
d="M630 129l-158.999 -0.00195312c-11.333 -15.333 -30.333 -35.666 -57 -60.999l-155 -146c-8 40 -33.833 84.5 -77.5 133.5s-80.834 73.5 -111.501 73.5h-70v150h67c22.667 0 64.334 -30 125.001 -90l103 -106c11.333 14.667 17 30 17 46c0 13.333 -11 42.333 -33 87
l-44 89c-34 68.667 -51 114.667 -51 138c0 40.667 16.333 79.334 49 116.001l124 119c-9.33301 -30 -14 -56 -14 -78c0 -24 14.333 -64.667 43 -122l66 -132c15.333 -30.667 25.666 -53 30.999 -67h147v-150zM454.001 -194.002c0 -16.667 -17.334 -51.999 -52.001 -105.999
c-25.333 34 -58.666 59.667 -99.999 77c-29.333 12 -44 28 -44 48c0 16 39 55.667 117 119c2 -24.667 15.667 -48.834 41 -72.501s38 -45.5 38 -65.5zM223 -194.001c0 -16.667 -17.334 -51.999 -52.001 -105.999c-25.333 34 -58.666 59.667 -99.999 77
c-29.333 12 -44 28 -44 48c0 16 39 55.667 117 119c2 -24.667 15.667 -48.834 41 -72.501s38 -45.5 38 -65.5z" />
    <glyph glyph-name="Hcircumflex" unicode="&#x622;" horiz-adv-x="485" arabic-form="final" 
d="M555 129h-304.999v818c0 42 -38.333 131 -115 267c45.333 0 118.666 58.667 219.999 176v-996c0 -16 14.333 -39.167 43 -69.5s50 -45.5 64 -45.5h93v-150zM483.001 1555c0 -69.333 -41.666 -104 -124.999 -104h-149c-38 0 -68 -19.333 -90 -58l-76 -108v156
c0 69.333 41.667 104 125 104h145c41.333 0 72.666 19.333 93.999 58l76 108v-156z" />
    <glyph glyph-name="uFE84" unicode="&#x623;" horiz-adv-x="485" arabic-form="final" 
d="M555 129h-304.999v818c0 42 -38.333 131 -115 267c45.333 0 118.666 58.667 219.999 176v-996c0 -16 14.333 -39.167 43 -69.5s50 -45.5 64 -45.5h93v-150zM298.001 1638c-12 -6 -29.667 -19.333 -53 -40l-26 -32c-8 -10 -12 -16.667 -12 -20
c0 -7.33301 4.33301 -15 13 -23l46 -44c13.333 -12.667 20 -27 20 -43c0 -16.667 -5 -30 -15 -40l-72 -70c-21.333 -20.667 -50.666 -31 -87.999 -31c-16.667 0 -30.334 2.66699 -41.001 8c16.667 3.33301 32.667 13.666 48 30.999l26 30c12.667 14.667 19 26 19 34
c0 5.33301 -6 14 -18 26l-37 37c-16.667 16.667 -25 32.334 -25 47.001c0 16 8.66699 32.333 26 49l61 58c18 17.333 47.667 26 89 26c11.333 0 24.333 -1 39 -3z" />
    <glyph glyph-name="uFE86" unicode="&#x624;" horiz-adv-x="807" arabic-form="final" 
d="M877 129l-184.001 0.000976562l-396 -387c-61.333 -60 -139.666 -90 -234.999 -90c-23.333 0 -44 3.33301 -62 10c14.667 4 35.667 10.333 63 19c52 22 108.333 62.333 169 121l174 168c26.667 26 40 46 40 60s-15.333 36 -46 66l-156 154
c-22.667 22.667 -35.667 36.334 -39 41.001c-10 15.333 -15 35.666 -15 60.999c0 29.333 18.667 62.666 56 99.999l358 358c-6 -21.333 -9 -43.333 -9 -66c0 -32 17.667 -83.333 53 -154l66 -132c35.333 -70.667 53 -123.667 53 -159c0 -9.33301 -0.333008 -16 -1 -20h111
v-150zM631.999 225.001c0 17.333 -6.66699 38.668 -20 64.001l-84 159c-9.33301 18 -14 32.333 -14 43c0 20.667 0.666992 34.667 2 42c-46.667 -39.333 -70 -72 -70 -98c0 -18.667 8 -42.667 24 -72l74 -136c15.333 -28 24 -49.333 26 -64
c1.33301 -10.667 1.33301 -19.334 0 -26.001c41.333 36.667 62 66 62 88zM423.999 1048c-12 -6.66699 -29.667 -20 -53 -40l-26 -32c-8 -10 -12 -16.667 -12 -20c0 -7.33301 4.33301 -15 13 -23l46 -44c13.333 -12.667 20 -27 20 -43c0 -16.667 -5 -30 -15 -40l-72 -70
c-21.333 -20.667 -50.666 -31 -87.999 -31c-16.667 0 -30.334 2.66699 -41.001 8c16.667 3.33301 32.667 13.666 48 30.999l26 30c12.667 14.667 19 26 19 34c0 5.33301 -6 14 -18 26l-37 37c-16.667 16.667 -25 32.334 -25 47.001c0 16 8.66699 32.333 26 49l61 58
c18 17.333 47.667 26 89 26c11.333 0 24.333 -1 39 -3z" />
    <glyph glyph-name="uFE88" unicode="&#x625;" horiz-adv-x="420" arabic-form="final" 
d="M490 129h-304.999v818c0 42 -38.333 131 -115 267c45.333 0 118.666 58.667 219.999 176v-996c0 -16 14.333 -39.167 43 -69.5s50 -45.5 64 -45.5h93v-150zM395.001 47c-12 -6 -29.667 -19.333 -53 -40l-26 -32c-8 -10 -12 -16.667 -12 -20
c0 -7.33301 4.33301 -15 13 -23l46 -44c13.333 -12.667 20 -27 20 -43c0 -16.667 -5 -30 -15 -40l-72 -70c-21.333 -20.667 -50.666 -31 -87.999 -31c-16.667 0 -30.334 2.66699 -41.001 8c16.667 3.33301 32.667 13.666 48 30.999l26 30c12.667 14.667 19 26 19 34
c0 5.33301 -6 14 -18 26l-37 37c-16.667 16.667 -25 32.334 -25 47.001c0 16 8.66699 32.333 26 49l61 58c18 17.333 47.667 26 89 26c11.333 0 24.333 -1 39 -3z" />
    <glyph glyph-name="uFE8A" unicode="&#x626;" horiz-adv-x="1355" arabic-form="final" 
d="M1425 129l-167 0.00195312c-73.333 0 -128.333 36.333 -165 109l-122 244c-23.333 46.667 -42.666 70 -57.999 70c-14.667 0 -35.334 -12.667 -62.001 -38l-90 -86c-26.667 -25.333 -40 -48 -40 -68c0 -18.667 5.66699 -32.667 17 -42c3.33301 -2 18.333 -9.33301 45 -22
l162 -76c57.333 -26.667 86 -65.334 86 -116.001c0 -34.667 -22.333 -73.334 -67 -116.001l-205 -197c-41.333 -40 -77.333 -60 -108 -60c-36 0 -73.667 19.667 -113 59l-329 329c-42.667 42.667 -64 72 -64 88c0 28 16.667 58 50 90l188 182l-46 -82
c-22.667 -42.667 -34 -71.334 -34 -86.001c0 -19.333 19 -48 57 -86l271 -272c45.333 -45.333 75.333 -68 90 -68c8.66699 0 33 19.333 73 58l50 48c18 17.333 27 32.666 27 45.999c0 30 -16.333 53 -49 69l-188 91c-30.667 14.667 -50.667 27.334 -60 38.001
c-14 16 -21 39.333 -21 70c0 26.667 33.333 72.334 100 137.001l431 418c-9.33301 -30 -14 -56 -14 -78c0 -24 14.333 -64.667 43 -122l152 -304c26 -51.333 63.667 -77 113 -77h47v-150zM220 668.002c-12 -6.66699 -29.667 -20 -53 -40l-26 -32c-8 -10 -12 -16.667 -12 -20
c0 -7.33301 4.33301 -15 13 -23l46 -44c13.333 -12.667 20 -27 20 -43c0 -16.667 -5 -30 -15 -40l-72 -70c-21.333 -20.667 -50.666 -31 -87.999 -31c-16.667 0 -30.334 2.66699 -41.001 8c16.667 3.33301 32.667 13.666 48 30.999l26 30c12.667 14.667 19 26 19 34
c0 5.33301 -6 14 -18 26l-37 37c-16.667 16.667 -25 32.334 -25 47.001c0 16 8.66699 32.333 26 49l61 58c18 17.333 47.667 26 89 26c11.333 0 24.333 -1 39 -3z" />
    <glyph glyph-name="uFE8B" unicode="&#x626;" horiz-adv-x="565" arabic-form="initial" 
d="M495 217c0 -33.333 -7 -61.334 -21 -84.001c-8.66699 -14 -28.667 -35.667 -60 -65l-155 -146c-8 40 -33.833 84.5 -77.5 133.5s-80.834 73.5 -111.501 73.5h-70v150h67c22.667 0 64.334 -30 125.001 -90l103 -106c11.333 14.667 17 30 17 46c0 13.333 -11 42.333 -33 87
l-44 89c-34 68.667 -51 114.667 -51 138c0 40.667 16.333 79.334 49 116.001l124 119c-9.33301 -30 -14 -56 -14 -78c0 -24 14.333 -64.667 43 -122l66 -132c28.667 -57.333 43 -100.333 43 -129zM332 1048c-12 -6.66699 -29.667 -20 -53 -40l-26 -32
c-8 -10 -12 -16.667 -12 -20c0 -7.33301 4.33301 -15 13 -23l46 -44c13.333 -12.667 20 -27 20 -43c0 -16.667 -5 -30 -15 -40l-72 -70c-21.333 -20.667 -50.666 -31 -87.999 -31c-16.667 0 -30.334 2.66699 -41.001 8c16.667 3.33301 32.667 13.666 48 30.999l26 30
c12.667 14.667 19 26 19 34c0 5.33301 -6 14 -18 26l-37 37c-16.667 16.667 -25 32.334 -25 47.001c0 16 8.66699 32.333 26 49l61 58c18 17.333 47.667 26 89 26c11.333 0 24.333 -1 39 -3z" />
    <glyph glyph-name="uFE8C" unicode="&#x626;" horiz-adv-x="560" arabic-form="medial" 
d="M630 129l-158.999 -0.00195312c-11.333 -15.333 -30.333 -35.666 -57 -60.999l-155 -146c-8 40 -33.833 84.5 -77.5 133.5s-80.834 73.5 -111.501 73.5h-70v150h67c22.667 0 64.334 -30 125.001 -90l103 -106c11.333 14.667 17 30 17 46c0 13.333 -11 42.333 -33 87
l-44 89c-34 68.667 -51 114.667 -51 138c0 40.667 16.333 79.334 49 116.001l124 119c-9.33301 -30 -14 -56 -14 -78c0 -24 14.333 -64.667 43 -122l66 -132c15.333 -30.667 25.666 -53 30.999 -67h147v-150zM332.001 1048c-12 -6.66699 -29.667 -20 -53 -40l-26 -32
c-8 -10 -12 -16.667 -12 -20c0 -7.33301 4.33301 -15 13 -23l46 -44c13.333 -12.667 20 -27 20 -43c0 -16.667 -5 -30 -15 -40l-72 -70c-21.333 -20.667 -50.666 -31 -87.999 -31c-16.667 0 -30.334 2.66699 -41.001 8c16.667 3.33301 32.667 13.666 48 30.999l26 30
c12.667 14.667 19 26 19 34c0 5.33301 -6 14 -18 26l-37 37c-16.667 16.667 -25 32.334 -25 47.001c0 16 8.66699 32.333 26 49l61 58c18 17.333 47.667 26 89 26c11.333 0 24.333 -1 39 -3z" />
    <glyph glyph-name="uFE8E" unicode="&#x627;" horiz-adv-x="420" arabic-form="final" 
d="M490 129h-304.999v818c0 42 -38.333 131 -115 267c45.333 0 118.666 58.667 219.999 176v-996c0 -16 14.333 -39.167 43 -69.5s50 -45.5 64 -45.5h93v-150z" />
    <glyph glyph-name="uFE90" unicode="&#x628;" horiz-adv-x="1525" arabic-form="final" 
d="M1595 129l-138 -0.000976562c-11.333 -15.333 -30.333 -35.666 -57 -60.999l-155 -146c-8.66699 40.667 -35.667 85 -81 133c-47.333 49.333 -89 74 -125 74h-999l560 549l44 -103c22.667 -53.333 65 -80 127 -80h234l-66 -68c-29.333 -30.667 -53 -49.667 -71 -57
c-14 -6.66699 -37.333 -10 -70 -10h-143c-42.667 0 -72 4.33301 -88 13c-22.667 12 -46 41.667 -70 89l-70 -75c-20 -21.333 -30 -36.333 -30 -45c0 -14.667 8 -28.834 24 -42.501s33.333 -20.5 52 -20.5h563c30.667 0 74 -26 130 -78l115 -118c11.333 14.667 17 30 17 46
c0 13.333 -11 42.333 -33 87l-44 89c-34 68.667 -51 114.667 -51 138c0 40.667 16.333 79.334 49 116.001l124 119c-9.33301 -30 -14 -56 -14 -78c0 -24 14.333 -64.667 43 -122l66 -132c15.333 -30.667 25.333 -53 30 -67h127v-150zM921 -174.001
c0 -16.667 -17.334 -51.999 -52.001 -105.999c-25.333 34 -58.666 59.667 -99.999 77c-29.333 12 -44 28 -44 48c0 16 39 55.667 117 119c2 -24.667 15.667 -48.834 41 -72.501s38 -45.5 38 -65.5z" />
    <glyph glyph-name="uFE91" unicode="&#x628;" horiz-adv-x="565" arabic-form="initial" 
d="M495 217c0 -33.333 -7 -61.334 -21 -84.001c-8.66699 -14 -28.667 -35.667 -60 -65l-155 -146c-8 40 -33.833 84.5 -77.5 133.5s-80.834 73.5 -111.501 73.5h-70v150h67c22.667 0 64.334 -30 125.001 -90l103 -106c11.333 14.667 17 30 17 46c0 13.333 -11 42.333 -33 87
l-44 89c-34 68.667 -51 114.667 -51 138c0 40.667 16.333 79.334 49 116.001l124 119c-9.33301 -30 -14 -56 -14 -78c0 -24 14.333 -64.667 43 -122l66 -132c28.667 -57.333 43 -100.333 43 -129zM241 -174.001c0 -16.667 -17.334 -51.999 -52.001 -105.999
c-25.333 34 -58.666 59.667 -99.999 77c-29.333 12 -44 28 -44 48c0 16 39 55.667 117 119c2 -24.667 15.667 -48.834 41 -72.501s38 -45.5 38 -65.5z" />
    <glyph glyph-name="uFE92" unicode="&#x628;" horiz-adv-x="560" arabic-form="medial" 
d="M630 129l-158.999 -0.00195312c-11.333 -15.333 -30.333 -35.666 -57 -60.999l-155 -146c-8 40 -33.833 84.5 -77.5 133.5s-80.834 73.5 -111.501 73.5h-70v150h67c22.667 0 64.334 -30 125.001 -90l103 -106c11.333 14.667 17 30 17 46c0 13.333 -11 42.333 -33 87
l-44 89c-34 68.667 -51 114.667 -51 138c0 40.667 16.333 79.334 49 116.001l124 119c-9.33301 -30 -14 -56 -14 -78c0 -24 14.333 -64.667 43 -122l66 -132c15.333 -30.667 25.666 -53 30.999 -67h147v-150zM241.001 -174.002c0 -16.667 -17.334 -51.999 -52.001 -105.999
c-25.333 34 -58.666 59.667 -99.999 77c-29.333 12 -44 28 -44 48c0 16 39 55.667 117 119c2 -24.667 15.667 -48.834 41 -72.501s38 -45.5 38 -65.5z" />
    <glyph glyph-name="uFE96" unicode="&#x62a;" horiz-adv-x="1525" arabic-form="final" 
d="M1595 129l-138 -0.000976562c-11.333 -15.333 -30.333 -35.666 -57 -60.999l-155 -146c-8.66699 40.667 -35.667 85 -81 133c-47.333 49.333 -89 74 -125 74h-999l560 549l44 -103c22.667 -53.333 65 -80 127 -80h234l-66 -68c-29.333 -30.667 -53 -49.667 -71 -57
c-14 -6.66699 -37.333 -10 -70 -10h-143c-42.667 0 -72 4.33301 -88 13c-22.667 12 -46 41.667 -70 89l-70 -75c-20 -21.333 -30 -36.333 -30 -45c0 -14.667 8 -28.834 24 -42.501s33.333 -20.5 52 -20.5h563c30.667 0 74 -26 130 -78l115 -118c11.333 14.667 17 30 17 46
c0 13.333 -11 42.333 -33 87l-44 89c-34 68.667 -51 114.667 -51 138c0 40.667 16.333 79.334 49 116.001l124 119c-9.33301 -30 -14 -56 -14 -78c0 -24 14.333 -64.667 43 -122l66 -132c15.333 -30.667 25.333 -53 30 -67h127v-150zM1135 663.999
c0 -16.667 -17.334 -51.999 -52.001 -105.999c-25.333 34 -58.666 59.667 -99.999 77c-29.333 12 -44 28 -44 48c0 16 39 55.667 117 119c2 -24.667 15.667 -48.834 41 -72.501s38 -45.5 38 -65.5zM903.999 664c0 -16.667 -17.334 -51.999 -52.001 -105.999
c-25.333 34 -58.666 59.667 -99.999 77c-29.333 12 -44 28 -44 48c0 16 39 55.667 117 119c2 -24.667 15.667 -48.834 41 -72.501s38 -45.5 38 -65.5z" />
    <glyph glyph-name="uFE97" unicode="&#x62a;" horiz-adv-x="565" arabic-form="initial" 
d="M495 217c0 -33.333 -7 -61.334 -21 -84.001c-8.66699 -14 -28.667 -35.667 -60 -65l-155 -146c-8 40 -33.833 84.5 -77.5 133.5s-80.834 73.5 -111.501 73.5h-70v150h67c22.667 0 64.334 -30 125.001 -90l103 -106c11.333 14.667 17 30 17 46c0 13.333 -11 42.333 -33 87
l-44 89c-34 68.667 -51 114.667 -51 138c0 40.667 16.333 79.334 49 116.001l124 119c-9.33301 -30 -14 -56 -14 -78c0 -24 14.333 -64.667 43 -122l66 -132c28.667 -57.333 43 -100.333 43 -129zM502 810.999c0 -16.667 -17.334 -51.999 -52.001 -105.999
c-25.333 34 -58.666 59.667 -99.999 77c-29.333 12 -44 28 -44 48c0 16 39 55.667 117 119c2 -24.667 15.667 -48.834 41 -72.501s38 -45.5 38 -65.5zM270.999 811c0 -16.667 -17.334 -51.999 -52.001 -105.999c-25.333 34 -58.666 59.667 -99.999 77
c-29.333 12 -44 28 -44 48c0 16 39 55.667 117 119c2 -24.667 15.667 -48.834 41 -72.501s38 -45.5 38 -65.5z" />
    <glyph glyph-name="uFE98" unicode="&#x62a;" horiz-adv-x="560" arabic-form="medial" 
d="M630 129l-158.999 -0.00195312c-11.333 -15.333 -30.333 -35.666 -57 -60.999l-155 -146c-8 40 -33.833 84.5 -77.5 133.5s-80.834 73.5 -111.501 73.5h-70v150h67c22.667 0 64.334 -30 125.001 -90l103 -106c11.333 14.667 17 30 17 46c0 13.333 -11 42.333 -33 87
l-44 89c-34 68.667 -51 114.667 -51 138c0 40.667 16.333 79.334 49 116.001l124 119c-9.33301 -30 -14 -56 -14 -78c0 -24 14.333 -64.667 43 -122l66 -132c15.333 -30.667 25.666 -53 30.999 -67h147v-150zM502.001 810.998c0 -16.667 -17.334 -51.999 -52.001 -105.999
c-25.333 34 -58.666 59.667 -99.999 77c-29.333 12 -44 28 -44 48c0 16 39 55.667 117 119c2 -24.667 15.667 -48.834 41 -72.501s38 -45.5 38 -65.5zM271 810.999c0 -16.667 -17.334 -51.999 -52.001 -105.999c-25.333 34 -58.666 59.667 -99.999 77
c-29.333 12 -44 28 -44 48c0 16 39 55.667 117 119c2 -24.667 15.667 -48.834 41 -72.501s38 -45.5 38 -65.5z" />
    <glyph glyph-name="uFE9A" unicode="&#x62b;" horiz-adv-x="1525" arabic-form="final" 
d="M1595 129l-138 -0.000976562c-11.333 -15.333 -30.333 -35.666 -57 -60.999l-155 -146c-8.66699 40.667 -35.667 85 -81 133c-47.333 49.333 -89 74 -125 74h-999l560 549l44 -103c22.667 -53.333 65 -80 127 -80h234l-66 -68c-29.333 -30.667 -53 -49.667 -71 -57
c-14 -6.66699 -37.333 -10 -70 -10h-143c-42.667 0 -72 4.33301 -88 13c-22.667 12 -46 41.667 -70 89l-70 -75c-20 -21.333 -30 -36.333 -30 -45c0 -14.667 8 -28.834 24 -42.501s33.333 -20.5 52 -20.5h563c30.667 0 74 -26 130 -78l115 -118c11.333 14.667 17 30 17 46
c0 13.333 -11 42.333 -33 87l-44 89c-34 68.667 -51 114.667 -51 138c0 40.667 16.333 79.334 49 116.001l124 119c-9.33301 -30 -14 -56 -14 -78c0 -24 14.333 -64.667 43 -122l66 -132c15.333 -30.667 25.333 -53 30 -67h127v-150zM1003 854.999
c0 -16.667 -17.334 -51.999 -52.001 -105.999c-25.333 34 -58.666 59.667 -99.999 77c-29.333 12 -44 28 -44 48c0 16 39 55.667 117 119c2 -24.667 15.667 -48.834 41 -72.501s38 -45.5 38 -65.5zM1135 664c0 -16.667 -17.334 -51.999 -52.001 -105.999
c-25.333 34 -58.666 59.667 -99.999 77c-29.333 12 -44 28 -44 48c0 16 39 55.667 117 119c2 -24.667 15.667 -48.834 41 -72.501s38 -45.5 38 -65.5zM903.998 664.001c0 -16.667 -17.334 -51.999 -52.001 -105.999c-25.333 34 -58.666 59.667 -99.999 77
c-29.333 12 -44 28 -44 48c0 16 39 55.667 117 119c2 -24.667 15.667 -48.834 41 -72.501s38 -45.5 38 -65.5z" />
    <glyph glyph-name="uFE9B" unicode="&#x62b;" horiz-adv-x="565" arabic-form="initial" 
d="M495 217c0 -33.333 -7 -61.334 -21 -84.001c-8.66699 -14 -28.667 -35.667 -60 -65l-155 -146c-8 40 -33.833 84.5 -77.5 133.5s-80.834 73.5 -111.501 73.5h-70v150h67c22.667 0 64.334 -30 125.001 -90l103 -106c11.333 14.667 17 30 17 46c0 13.333 -11 42.333 -33 87
l-44 89c-34 68.667 -51 114.667 -51 138c0 40.667 16.333 79.334 49 116.001l124 119c-9.33301 -30 -14 -56 -14 -78c0 -24 14.333 -64.667 43 -122l66 -132c28.667 -57.333 43 -100.333 43 -129zM370 1002c0 -16.667 -17.334 -51.999 -52.001 -105.999
c-25.333 34 -58.666 59.667 -99.999 77c-29.333 12 -44 28 -44 48c0 16 39 55.667 117 119c2 -24.667 15.667 -48.834 41 -72.501s38 -45.5 38 -65.5zM501.999 811c0 -16.667 -17.334 -51.999 -52.001 -105.999c-25.333 34 -58.666 59.667 -99.999 77
c-29.333 12 -44 28 -44 48c0 16 39 55.667 117 119c2 -24.667 15.667 -48.834 41 -72.501s38 -45.5 38 -65.5zM270.998 811.001c0 -16.667 -17.334 -51.999 -52.001 -105.999c-25.333 34 -58.666 59.667 -99.999 77c-29.333 12 -44 28 -44 48c0 16 39 55.667 117 119
c2 -24.667 15.667 -48.834 41 -72.501s38 -45.5 38 -65.5z" />
    <glyph glyph-name="uFE9C" unicode="&#x62b;" horiz-adv-x="560" arabic-form="medial" 
d="M630 129l-158.999 -0.00195312c-11.333 -15.333 -30.333 -35.666 -57 -60.999l-155 -146c-8 40 -33.833 84.5 -77.5 133.5s-80.834 73.5 -111.501 73.5h-70v150h67c22.667 0 64.334 -30 125.001 -90l103 -106c11.333 14.667 17 30 17 46c0 13.333 -11 42.333 -33 87
l-44 89c-34 68.667 -51 114.667 -51 138c0 40.667 16.333 79.334 49 116.001l124 119c-9.33301 -30 -14 -56 -14 -78c0 -24 14.333 -64.667 43 -122l66 -132c15.333 -30.667 25.666 -53 30.999 -67h147v-150zM370.001 1002c0 -16.667 -17.334 -51.999 -52.001 -105.999
c-25.333 34 -58.666 59.667 -99.999 77c-29.333 12 -44 28 -44 48c0 16 39 55.667 117 119c2 -24.667 15.667 -48.834 41 -72.501s38 -45.5 38 -65.5zM502 810.999c0 -16.667 -17.334 -51.999 -52.001 -105.999c-25.333 34 -58.666 59.667 -99.999 77
c-29.333 12 -44 28 -44 48c0 16 39 55.667 117 119c2 -24.667 15.667 -48.834 41 -72.501s38 -45.5 38 -65.5zM270.999 811c0 -16.667 -17.334 -51.999 -52.001 -105.999c-25.333 34 -58.666 59.667 -99.999 77c-29.333 12 -44 28 -44 48c0 16 39 55.667 117 119
c2 -24.667 15.667 -48.834 41 -72.501s38 -45.5 38 -65.5z" />
    <glyph glyph-name="uFE9E" unicode="&#x62c;" horiz-adv-x="780" arabic-form="final" 
d="M850 129h-548c-26.667 0 -50.334 -9.33301 -71.001 -28c-18 -16 -27 -32.333 -27 -49c0 -14.667 22.667 -44.667 68 -90l272 -271c38 -38 66.667 -57 86 -57c14.667 0 43.334 11.333 86.001 34l82 46l-182 -188c-32 -33.333 -62 -50 -90 -50c-16 0 -45.333 21.333 -88 64
l-329 329c-39.333 39.333 -59 77 -59 113c0 30 20 66 60 108l110 116c29.333 31.333 47 49 53 53c18 13.333 41 20 69 20h62l-86 132c-44.667 63.333 -88.667 95 -132 95c-28 0 -56.667 -7.33301 -86 -22l182 182c42.667 42.667 74 64 94 64c15.333 0 36 -26 62 -78
l157 -313c20 -40 58.667 -60 116 -60h139v-150zM591 -68c0 -16.667 -17.334 -51.999 -52.001 -105.999c-25.333 34 -58.666 59.667 -99.999 77c-29.333 12 -44 28 -44 48c0 16 39 55.667 117 119c2 -24.667 15.667 -48.834 41 -72.501s38 -45.5 38 -65.5z" />
    <glyph glyph-name="uFE9F" unicode="&#x62c;" horiz-adv-x="932" arabic-form="initial" 
d="M882 -14c-12 -7.33301 -28 -11 -48 -11c-140 0 -259.667 51.333 -359 154h-475v150h374l-86 132c-44.667 63.333 -88.667 95 -132 95c-28 0 -56.667 -7.33301 -86 -22l182 182c42.667 42.667 74 64 94 64c15.333 0 36 -26 62 -78l200 -398
c58.667 -116.667 128.667 -196.667 210 -240c16.667 -4.66699 38 -14 64 -28zM393 -68c0 -16.667 -17.334 -51.999 -52.001 -105.999c-25.333 34 -58.666 59.667 -99.999 77c-29.333 12 -44 28 -44 48c0 16 39 55.667 117 119c2 -24.667 15.667 -48.834 41 -72.501
s38 -45.5 38 -65.5z" />
    <glyph glyph-name="uFEA0" unicode="&#x62c;" horiz-adv-x="750" arabic-form="medial" 
d="M882 -14c-12 -7.33301 -28 -11.001 -48 -11.001c-140 0 -259.667 51.333 -359 154h-475v150h374l-86 132c-44.667 63.333 -88.667 95 -132 95c-28 0 -56.667 -7.33301 -86 -22l182 182c42.667 42.667 74 64 94 64c15.333 0 36 -26 62 -78l187 -373h225v-150h-139
c33.333 -45.333 79 -83.666 137 -114.999c16.667 -4.66699 38 -14 64 -28zM393 -68.001c0 -16.667 -17.334 -51.999 -52.001 -105.999c-25.333 34 -58.666 59.667 -99.999 77c-29.333 12 -44 28 -44 48c0 16 39 55.667 117 119c2 -24.667 15.667 -48.834 41 -72.501
s38 -45.5 38 -65.5z" />
    <glyph glyph-name="uFEA2" unicode="&#x62d;" horiz-adv-x="780" arabic-form="final" 
d="M850 129h-548c-26.667 0 -50.334 -9.33301 -71.001 -28c-18 -16 -27 -32.333 -27 -49c0 -14.667 22.667 -44.667 68 -90l272 -271c38 -38 66.667 -57 86 -57c14.667 0 43.334 11.333 86.001 34l82 46l-182 -188c-32 -33.333 -62 -50 -90 -50c-16 0 -45.333 21.333 -88 64
l-329 329c-39.333 39.333 -59 77 -59 113c0 30 20 66 60 108l110 116c29.333 31.333 47 49 53 53c18 13.333 41 20 69 20h62l-86 132c-44.667 63.333 -88.667 95 -132 95c-28 0 -56.667 -7.33301 -86 -22l182 182c42.667 42.667 74 64 94 64c15.333 0 36 -26 62 -78
l157 -313c20 -40 58.667 -60 116 -60h139v-150z" />
    <glyph glyph-name="uFEA3" unicode="&#x62d;" horiz-adv-x="932" arabic-form="initial" 
d="M882 -14c-12 -7.33301 -28 -11 -48 -11c-140 0 -259.667 51.333 -359 154h-475v150h374l-86 132c-44.667 63.333 -88.667 95 -132 95c-28 0 -56.667 -7.33301 -86 -22l182 182c42.667 42.667 74 64 94 64c15.333 0 36 -26 62 -78l200 -398
c58.667 -116.667 128.667 -196.667 210 -240c16.667 -4.66699 38 -14 64 -28z" />
    <glyph glyph-name="uFEA4" unicode="&#x62d;" horiz-adv-x="750" arabic-form="medial" 
d="M882 -14c-12 -7.33301 -28 -11.001 -48 -11.001c-140 0 -259.667 51.333 -359 154h-475v150h374l-86 132c-44.667 63.333 -88.667 95 -132 95c-28 0 -56.667 -7.33301 -86 -22l182 182c42.667 42.667 74 64 94 64c15.333 0 36 -26 62 -78l187 -373h225v-150h-139
c33.333 -45.333 79 -83.666 137 -114.999c16.667 -4.66699 38 -14 64 -28z" />
    <glyph glyph-name="uFEA6" unicode="&#x62e;" horiz-adv-x="780" arabic-form="final" 
d="M850 129h-548c-26.667 0 -50.334 -9.33301 -71.001 -28c-18 -16 -27 -32.333 -27 -49c0 -14.667 22.667 -44.667 68 -90l272 -271c38 -38 66.667 -57 86 -57c14.667 0 43.334 11.333 86.001 34l82 46l-182 -188c-32 -33.333 -62 -50 -90 -50c-16 0 -45.333 21.333 -88 64
l-329 329c-39.333 39.333 -59 77 -59 113c0 30 20 66 60 108l110 116c29.333 31.333 47 49 53 53c18 13.333 41 20 69 20h62l-86 132c-44.667 63.333 -88.667 95 -132 95c-28 0 -56.667 -7.33301 -86 -22l182 182c42.667 42.667 74 64 94 64c15.333 0 36 -26 62 -78
l157 -313c20 -40 58.667 -60 116 -60h139v-150zM261 811c0 -16.667 -17.334 -51.999 -52.001 -105.999c-25.333 34 -58.666 59.667 -99.999 77c-29.333 12 -44 28 -44 48c0 16 39 55.667 117 119c2 -24.667 15.667 -48.834 41 -72.501s38 -45.5 38 -65.5z" />
    <glyph glyph-name="uFEA7" unicode="&#x62e;" horiz-adv-x="932" arabic-form="initial" 
d="M882 -14c-12 -7.33301 -28 -11 -48 -11c-140 0 -259.667 51.333 -359 154h-475v150h374l-86 132c-44.667 63.333 -88.667 95 -132 95c-28 0 -56.667 -7.33301 -86 -22l182 182c42.667 42.667 74 64 94 64c15.333 0 36 -26 62 -78l200 -398
c58.667 -116.667 128.667 -196.667 210 -240c16.667 -4.66699 38 -14 64 -28zM240 811c0 -16.667 -17.334 -51.999 -52.001 -105.999c-25.333 34 -58.666 59.667 -99.999 77c-29.333 12 -44 28 -44 48c0 16 39 55.667 117 119c2 -24.667 15.667 -48.834 41 -72.501
s38 -45.5 38 -65.5z" />
    <glyph glyph-name="uFEA8" unicode="&#x62e;" horiz-adv-x="750" arabic-form="medial" 
d="M882 -14c-12 -7.33301 -28 -11.001 -48 -11.001c-140 0 -259.667 51.333 -359 154h-475v150h374l-86 132c-44.667 63.333 -88.667 95 -132 95c-28 0 -56.667 -7.33301 -86 -22l182 182c42.667 42.667 74 64 94 64c15.333 0 36 -26 62 -78l187 -373h225v-150h-139
c33.333 -45.333 79 -83.666 137 -114.999c16.667 -4.66699 38 -14 64 -28zM240 810.999c0 -16.667 -17.334 -51.999 -52.001 -105.999c-25.333 34 -58.666 59.667 -99.999 77c-29.333 12 -44 28 -44 48c0 16 39 55.667 117 119c2 -24.667 15.667 -48.834 41 -72.501
s38 -45.5 38 -65.5z" />
    <glyph glyph-name="uFEAA" unicode="&#x62f;" horiz-adv-x="1030" arabic-form="final" 
d="M1100 129h-1030v245c86 -63.333 173.667 -95 263 -95h453l-41 81h-385c-58 0 -107.667 41 -149 123l-80 159c-12.667 25.333 -34 45.333 -64 60l131 130l125 -252c23.333 -46.667 55 -70 95 -70h419c17.333 0 37.666 -25 60.999 -75l72 -156h130v-150z" />
    <glyph glyph-name="uFEAC" unicode="&#x630;" horiz-adv-x="1030" arabic-form="final" 
d="M1100 129h-1030v245c86 -63.333 173.667 -95 263 -95h453l-41 81h-385c-58 0 -107.667 41 -149 123l-80 159c-12.667 25.333 -34 45.333 -64 60l131 130l125 -252c23.333 -46.667 55 -70 95 -70h419c17.333 0 37.666 -25 60.999 -75l72 -156h130v-150zM247.001 970
c0 -16.667 -17.334 -51.999 -52.001 -105.999c-25.333 34 -58.666 59.667 -99.999 77c-29.333 12 -44 28 -44 48c0 16 39 55.667 117 119c2 -24.667 15.667 -48.834 41 -72.501s38 -45.5 38 -65.5z" />
    <glyph glyph-name="uFEAE" unicode="&#x631;" horiz-adv-x="847" arabic-form="final" 
d="M917 129l-224 -0.00195312l-396 -387c-61.333 -60 -139.666 -90 -234.999 -90c-23.333 0 -44 3.33301 -62 10c14.667 4 35.667 10.333 63 19c53.333 22.667 109.666 63 168.999 121l300 292c52 50.667 78 92.334 78 125.001c0 6.66699 -16.333 43 -49 109l-44 89
c-34 68.667 -51 114.667 -51 138c0 40.667 16.333 79.334 49 116.001l124 119c-9.33301 -30 -14 -56 -14 -78c0 -24 14.333 -64.667 43 -122l66 -132c35.333 -70.667 53 -123.667 53 -159c0 -9.33301 -0.333008 -16 -1 -20h131v-150z" />
    <glyph glyph-name="uFEB0" unicode="&#x632;" horiz-adv-x="847" arabic-form="final" 
d="M917 129l-224 -0.00195312l-396 -387c-61.333 -60 -139.666 -90 -234.999 -90c-23.333 0 -44 3.33301 -62 10c14.667 4 35.667 10.333 63 19c53.333 22.667 109.666 63 168.999 121l300 292c52 50.667 78 92.334 78 125.001c0 6.66699 -16.333 43 -49 109l-44 89
c-34 68.667 -51 114.667 -51 138c0 40.667 16.333 79.334 49 116.001l124 119c-9.33301 -30 -14 -56 -14 -78c0 -24 14.333 -64.667 43 -122l66 -132c35.333 -70.667 53 -123.667 53 -159c0 -9.33301 -0.333008 -16 -1 -20h131v-150zM519 845.998
c0 -16.667 -17.334 -51.999 -52.001 -105.999c-25.333 34 -58.666 59.667 -99.999 77c-29.333 12 -44 28 -44 48c0 16 39 55.667 117 119c2 -24.667 15.667 -48.834 41 -72.501s38 -45.5 38 -65.5z" />
    <glyph glyph-name="uFEB2" unicode="&#x633;" horiz-adv-x="1570" arabic-form="final" 
d="M1640 129l-631.001 0.000976562c-33.333 0 -56.333 -2 -69 -6c-20 -6 -42 -20.667 -66 -44l-258 -250c-41.333 -40 -77.333 -60 -108 -60c-36 0 -73.667 19.667 -113 59l-261 261c-42.667 42.667 -64 72 -64 88c0 28 16.667 58 50 90l188 182l-46 -82
c-22.667 -42.667 -34 -71.334 -34 -86.001c0 -19.333 19 -48 57 -86l203 -204c45.333 -45.333 75.333 -68 90 -68c8.66699 0 33 19.333 73 58l116 112c26 25.333 39 55 39 89c0 19.333 -4 39 -12 59l-22 55c-9.33301 24 -30.666 44 -63.999 60l131 130l103 -207h112l-52 103
c-12.667 25.333 -34 45.333 -64 60l131 130l145 -293h112l-96 191c-12.667 25.333 -34 45.333 -64 60l131 130l188 -381h155v-150z" />
    <glyph glyph-name="uFEB3" unicode="&#x633;" horiz-adv-x="1000" arabic-form="initial" 
d="M967 172c-30.667 -28.667 -68 -43 -112 -43h-855v150h140l-8 17c-12 25.333 -33.333 45.333 -64 60l131 130l103 -207h112l-52 103c-12.667 25.333 -34 45.333 -64 60l131 130l145 -293h112l-96 191c-12.667 25.333 -34 45.333 -64 60l131 130l193 -391
c17.333 -34.667 31.333 -57.667 42 -69c18.667 -18.667 43.667 -28 75 -28z" />
    <glyph glyph-name="uFEB4" unicode="&#x633;" horiz-adv-x="930" arabic-form="medial" 
d="M1000 129h-1000v150h140l-8 17c-12 25.333 -33.333 45.333 -64 60l131 130l103 -207h112l-52 103c-12.667 25.333 -34 45.333 -64 60l131 130l145 -293h112l-96 191c-12.667 25.333 -34 45.333 -64 60l131 130l188 -381h155v-150z" />
    <glyph glyph-name="uFEB6" unicode="&#x634;" horiz-adv-x="1570" arabic-form="final" 
d="M1640 129l-631.001 0.000976562c-33.333 0 -56.333 -2 -69 -6c-20 -6 -42 -20.667 -66 -44l-258 -250c-41.333 -40 -77.333 -60 -108 -60c-36 0 -73.667 19.667 -113 59l-261 261c-42.667 42.667 -64 72 -64 88c0 28 16.667 58 50 90l188 182l-46 -82
c-22.667 -42.667 -34 -71.334 -34 -86.001c0 -19.333 19 -48 57 -86l203 -204c45.333 -45.333 75.333 -68 90 -68c8.66699 0 33 19.333 73 58l116 112c26 25.333 39 55 39 89c0 19.333 -4 39 -12 59l-22 55c-9.33301 24 -30.666 44 -63.999 60l131 130l103 -207h112l-52 103
c-12.667 25.333 -34 45.333 -64 60l131 130l145 -293h112l-96 191c-12.667 25.333 -34 45.333 -64 60l131 130l188 -381h155v-150zM1034 887.001c0 -16.667 -17.334 -51.999 -52.001 -105.999c-25.333 34 -58.666 59.667 -99.999 77c-29.333 12 -44 28 -44 48
c0 16 39 55.667 117 119c2 -24.667 15.667 -48.834 41 -72.501s38 -45.5 38 -65.5zM1166 696.002c0 -16.667 -17.334 -51.999 -52.001 -105.999c-25.333 34 -58.666 59.667 -99.999 77c-29.333 12 -44 28 -44 48c0 16 39 55.667 117 119
c2 -24.667 15.667 -48.834 41 -72.501s38 -45.5 38 -65.5zM934.997 696.003c0 -16.667 -17.334 -51.999 -52.001 -105.999c-25.333 34 -58.666 59.667 -99.999 77c-29.333 12 -44 28 -44 48c0 16 39 55.667 117 119c2 -24.667 15.667 -48.834 41 -72.501s38 -45.5 38 -65.5z
" />
    <glyph glyph-name="uFEB7" unicode="&#x634;" horiz-adv-x="1000" arabic-form="initial" 
d="M967 172c-30.667 -28.667 -68 -43 -112 -43h-855v150h140l-8 17c-12 25.333 -33.333 45.333 -64 60l131 130l103 -207h112l-52 103c-12.667 25.333 -34 45.333 -64 60l131 130l145 -293h112l-96 191c-12.667 25.333 -34 45.333 -64 60l131 130l193 -391
c17.333 -34.667 31.333 -57.667 42 -69c18.667 -18.667 43.667 -28 75 -28zM394 887c0 -16.667 -17.334 -51.999 -52.001 -105.999c-25.333 34 -58.666 59.667 -99.999 77c-29.333 12 -44 28 -44 48c0 16 39 55.667 117 119c2 -24.667 15.667 -48.834 41 -72.501
s38 -45.5 38 -65.5zM525.999 696.001c0 -16.667 -17.334 -51.999 -52.001 -105.999c-25.333 34 -58.666 59.667 -99.999 77c-29.333 12 -44 28 -44 48c0 16 39 55.667 117 119c2 -24.667 15.667 -48.834 41 -72.501s38 -45.5 38 -65.5zM294.998 696.002
c0 -16.667 -17.334 -51.999 -52.001 -105.999c-25.333 34 -58.666 59.667 -99.999 77c-29.333 12 -44 28 -44 48c0 16 39 55.667 117 119c2 -24.667 15.667 -48.834 41 -72.501s38 -45.5 38 -65.5z" />
    <glyph glyph-name="uFEB8" unicode="&#x634;" horiz-adv-x="930" arabic-form="medial" 
d="M1000 129h-1000v150h140l-8 17c-12 25.333 -33.333 45.333 -64 60l131 130l103 -207h112l-52 103c-12.667 25.333 -34 45.333 -64 60l131 130l145 -293h112l-96 191c-12.667 25.333 -34 45.333 -64 60l131 130l188 -381h155v-150zM394 887
c0 -16.667 -17.334 -51.999 -52.001 -105.999c-25.333 34 -58.666 59.667 -99.999 77c-29.333 12 -44 28 -44 48c0 16 39 55.667 117 119c2 -24.667 15.667 -48.834 41 -72.501s38 -45.5 38 -65.5zM525.999 696.001c0 -16.667 -17.334 -51.999 -52.001 -105.999
c-25.333 34 -58.666 59.667 -99.999 77c-29.333 12 -44 28 -44 48c0 16 39 55.667 117 119c2 -24.667 15.667 -48.834 41 -72.501s38 -45.5 38 -65.5zM294.998 696.002c0 -16.667 -17.334 -51.999 -52.001 -105.999c-25.333 34 -58.666 59.667 -99.999 77
c-29.333 12 -44 28 -44 48c0 16 39 55.667 117 119c2 -24.667 15.667 -48.834 41 -72.501s38 -45.5 38 -65.5z" />
    <glyph glyph-name="uFEBA" unicode="&#x635;" horiz-adv-x="1785" arabic-form="final" 
d="M1855 129l-846.001 0.000976562c-33.333 0 -56.333 -2 -69 -6c-20 -6 -42 -20.667 -66 -44l-258 -250c-41.333 -40 -77.333 -60 -108 -60c-36 0 -73.667 19.667 -113 59l-261 261c-42.667 42.667 -64 72 -64 88c0 28 16.667 58 50 90l188 182l-46 -82
c-22.667 -42.667 -34 -71.334 -34 -86.001c0 -19.333 19 -48 57 -86l203 -204c45.333 -45.333 75.333 -68 90 -68c8.66699 0 33 19.333 73 58l116 112c26 25.333 39 55 39 89c0 18 -5.33301 37.667 -16 59l-55 109c-12.667 25.333 -34 45.333 -64 60l185 182l42 -82h688
c20.667 0 41.334 -21.667 62.001 -65l79 -166h128v-150zM1541 279.001l-42 81h-530l40 -81h532z" />
    <glyph glyph-name="uFEBB" unicode="&#x635;" horiz-adv-x="1285" arabic-form="initial" 
d="M1245 172c-30.667 -28.667 -68 -43 -112 -43h-1133v150h164l-30 71c-10 24 -31.333 44 -64 60l185 182l38 -82h688c20.667 0 41.334 -21.667 62.001 -65l73 -154c22 -46 37.667 -74.667 47 -86c19.333 -22 46.666 -33 81.999 -33zM936 279l-42 81h-530l40 -81h532z" />
    <glyph glyph-name="uFEBC" unicode="&#x635;" horiz-adv-x="1180" arabic-form="medial" 
d="M1250 129h-1250v150h164l-34 71c-12 25.333 -33.333 45.333 -64 60l185 182l42 -82h688c20.667 0 41.334 -21.667 62.001 -65l79 -166h128v-150zM935.999 279l-42 81h-530l40 -81h532z" />
    <glyph glyph-name="uFEBE" unicode="&#x636;" horiz-adv-x="1785" arabic-form="final" 
d="M1855 129l-846.001 0.000976562c-33.333 0 -56.333 -2 -69 -6c-20 -6 -42 -20.667 -66 -44l-258 -250c-41.333 -40 -77.333 -60 -108 -60c-36 0 -73.667 19.667 -113 59l-261 261c-42.667 42.667 -64 72 -64 88c0 28 16.667 58 50 90l188 182l-46 -82
c-22.667 -42.667 -34 -71.334 -34 -86.001c0 -19.333 19 -48 57 -86l203 -204c45.333 -45.333 75.333 -68 90 -68c8.66699 0 33 19.333 73 58l116 112c26 25.333 39 55 39 89c0 18 -5.33301 37.667 -16 59l-55 109c-12.667 25.333 -34 45.333 -64 60l185 182l42 -82h688
c20.667 0 41.334 -21.667 62.001 -65l79 -166h128v-150zM1541 279.001l-42 81h-530l40 -81h532zM1307 716.001c0 -16.667 -17.334 -51.999 -52.001 -105.999c-25.333 34 -58.666 59.667 -99.999 77c-29.333 12 -44 28 -44 48c0 16 39 55.667 117 119
c2 -24.667 15.667 -48.834 41 -72.501s38 -45.5 38 -65.5z" />
    <glyph glyph-name="uFEBF" unicode="&#x636;" horiz-adv-x="1285" arabic-form="initial" 
d="M1245 172c-30.667 -28.667 -68 -43 -112 -43h-1133v150h164l-34 71c-12 25.333 -33.333 45.333 -64 60l185 182l42 -82h688c20.667 0 41.334 -21.667 62.001 -65l73 -154c22 -46 37.667 -74.667 47 -86c19.333 -22 46.666 -33 81.999 -33zM936 279l-42 81h-530l40 -81
h532zM702 716c0 -16.667 -17.334 -51.999 -52.001 -105.999c-25.333 34 -58.666 59.667 -99.999 77c-29.333 12 -44 28 -44 48c0 16 39 55.667 117 119c2 -24.667 15.667 -48.834 41 -72.501s38 -45.5 38 -65.5z" />
    <glyph glyph-name="uFEC0" unicode="&#x636;" horiz-adv-x="1180" arabic-form="medial" 
d="M1250 129h-1250v150h164l-34 71c-12 25.333 -33.333 45.333 -64 60l185 182l42 -82h688c20.667 0 41.334 -21.667 62.001 -65l79 -166h128v-150zM935.999 279l-42 81h-530l40 -81h532zM701.999 716c0 -16.667 -17.334 -51.999 -52.001 -105.999
c-25.333 34 -58.666 59.667 -99.999 77c-29.333 12 -44 28 -44 48c0 16 39 55.667 117 119c2 -24.667 15.667 -48.834 41 -72.501s38 -45.5 38 -65.5z" />
    </font>
</defs>
</svg>
