<?xml version="1.0" standalone="no"?>
<!DOCTYPE svg PUBLIC "-//W3C//DTD SVG 1.1//EN" "http://www.w3.org/Graphics/SVG/1.1/DTD/svg11.dtd" >
<svg>
<metadata>
Created by FontForge 20090914 at Wed Oct 19 01:13:04 2011
 By www-data
(c) by Abolfazl Seilsepour - +98 912 591 3420  -  seilsepor@yahoo.com
</metadata>
<defs>
<font id="FarFerdowsi" horiz-adv-x="0" >
  <font-face 
    font-family="Far.Ferdowsi"
    font-weight="400"
    font-stretch="normal"
    units-per-em="2048"
    panose-1="0 0 4 0 0 0 0 0 0 0"
    ascent="1638"
    descent="-410"
    bbox="-214 -894 1746 1805"
    underline-thickness="100"
    underline-position="-550"
    unicode-range="U+0020-U+FEFC"
  />
<missing-glyph horiz-adv-x="1024" 
d="M128 0v1483h768v-1483h-768zM256 128h512v1227h-512v-1227z" />
    <glyph glyph-name="uE818" unicode="&#x651;&#x64b;" 
d="M513 1686c-22.667 -6.66699 -94 -38.333 -214 -95c-102.667 -48 -169 -72 -199 -72h-100c240.667 111.333 378 167 412 167h101zM551 1575c-22.667 -6.66699 -94 -38.333 -214 -95c-102.667 -48 -169 -72 -199 -72h-100c240.667 111.333 378 167 412 167h101zM589 1330
c-26.667 -6 -86.668 -32.6689 -180.001 -80.002c-87.333 -44 -137.666 -66 -150.999 -66c-22.667 0 -50 20 -82 60l-68 89h59c15.333 0 35.833 -10.667 61.5 -32s40.5 -32 44.5 -32c32 0 48 13 48 39c0 44 -21.333 79 -64 105h61c16 0 35.333 -14.167 58 -42.5
s35.667 -42.5 39 -42.5c30 0 45 16 45 48c0 34.667 -17.333 61.334 -52 80.001c34.667 2.66699 53.667 4 57 4c26 0 48.667 -17 68 -51c25.333 -43.333 44 -69.666 56 -78.999z" />
    <glyph glyph-name="uFC5E" unicode="&#x651;&#x64c;" arabic-form="isolated" 
d="M615 1357c-26.667 -6.66699 -86.6699 -33.334 -180.003 -80.001c-87.333 -44 -137.666 -66 -150.999 -66c-23.333 0 -50.666 20 -81.999 60l-68 89h59c15.333 0 35.833 -10.667 61.5 -32s40.5 -32 44.5 -32c32 0 48 13 48 39c0 44 -21.333 79 -64 105h61
c16 0 35.333 -14.167 58 -42.5s35.667 -42.5 39 -42.5c30 0 45 16 45 48c0 34.667 -17.333 61.334 -52 80.001c34.667 2.66699 53.667 4 57 4c26 0 48.667 -17 68 -51c24.667 -44 43.334 -70.333 56.001 -79zM516.997 1617c0 -30 -24.666 -55.999 -73.999 -77.999l58 -52
h-44c-22 0 -45 8.33301 -69 25c-98 -54.667 -169 -82 -213 -82v83c-30.667 -13.333 -63.334 -20 -98.001 -20h-66c67.333 29.333 145.333 67.666 234 114.999v-96c21.333 8 51.333 21.333 90 40c-42.667 38 -64 68.333 -64 91c0 27.333 21.667 58.333 65 93
c16.667 14 47.667 37 93 69c0 -14 14.667 -45.333 44 -94s44 -80 44 -94zM447.998 1627c0 37.333 -18.667 55.999 -56 55.999c-34 0 -51 -13.667 -51 -41c0 -10 18 -29.667 54 -59c35.333 20.667 53 35.334 53 44.001z" />
    <glyph glyph-name="uFC5F" unicode="&#x651;&#x64d;" arabic-form="isolated" 
d="M406 1525c-26.667 -6 -86.6699 -32.668 -180.003 -80.001c-87.333 -44 -137.666 -66 -150.999 -66c-23.333 0 -50.666 20 -81.999 60c-5.33301 6 -28 35.667 -68 89h59c15.333 0 35.833 -10.667 61.5 -32s40.5 -32 44.5 -32c32 0 48 13 48 39c0 44 -21.333 79 -64 105h61
c16 0 35.333 -14.167 58 -42.5s35.667 -42.5 39 -42.5c30 0 45 16 45 48c0 34.667 -17.333 61.334 -52 80.001c34.667 2.66699 53.667 4 57 4c25.333 0 48 -17 68 -51c24.667 -44 43.334 -70.333 56.001 -79zM494.997 1447c-22.667 -7.33301 -94 -39 -214 -95
c-102.667 -48 -169 -72 -199 -72h-100c240.667 111.333 378 167 412 167h101zM532.997 1336c-22.667 -7.33301 -94 -39 -214 -95c-102.667 -48 -169 -72 -199 -72h-100c240.667 111.333 378 167 412 167h101z" />
    <glyph glyph-name="uFC60" unicode="&#x651;&#x64e;" arabic-form="isolated" 
d="M555 1332c-26.667 -6.66699 -86.667 -33.334 -180 -80.001c-86.667 -44 -137 -66 -151 -66c-22.667 0 -50 20 -82 60l-68 89h59c15.333 0 35.833 -10.667 61.5 -32s40.5 -32 44.5 -32c32 0 48 13 48 39c0 44 -21.333 79 -64 105h61c16 0 35.5 -14.167 58.5 -42.5
s35.833 -42.5 38.5 -42.5c30 0 45 16 45 48c0 34.667 -17.333 61.334 -52 80.001c34.667 2.66699 53.667 4 57 4c26 0 48.667 -17 68 -51c25.333 -44 44 -70.333 56 -79zM511 1572c-22.667 -7.33301 -94 -39 -214 -95c-102.667 -48 -169 -72 -199 -72h-100
c240.667 111.333 378 167 412 167h101z" />
    <glyph glyph-name="uFC61" unicode="&#x651;&#x64f;" arabic-form="isolated" 
d="M537 1346c-28 -6.66699 -88.332 -33.334 -180.999 -80.001c-87.333 -44 -137.333 -66 -150 -66c-22.667 0 -50 20 -82 60l-68 89h59c15.333 0 35.833 -10.667 61.5 -32s40.5 -32 44.5 -32c32 0 48 13 48 39c0 44 -21.333 79 -64 105h61c16 0 35.333 -14.167 58 -42.5
s35.667 -42.5 39 -42.5c30 0 45 16 45 48c0 26 -11.333 47.667 -34 65c-8.66699 6.66699 -29.667 21.334 -63 44.001l-106 -54c-39.333 -19.333 -77 -29 -113 -29h-92c72 27.333 157.667 68.333 257 123c-41.333 38 -62 68 -62 90c0 27.333 21.667 58.333 65 93
c16.667 14 47.667 37 93 69c0 -14 14.667 -45.333 44 -94s44 -80 44 -94c0 -30 -24.667 -56 -74 -78l58 -52c19.333 -1.33301 38.666 -19 57.999 -53c24 -42 42 -67.333 54 -76zM372.001 1615c0 37.333 -18.667 55.999 -56 55.999c-34 0 -51 -13.667 -51 -41
c0 -10 18 -29.667 54 -59c35.333 20.667 53 35.334 53 44.001z" />
    <glyph glyph-name="uFC62" unicode="&#x651;&#x650;" arabic-form="isolated" 
d="M472 1458c-26.667 -6.66699 -86.6699 -33.334 -180.003 -80.001c-87.333 -44 -137.666 -66 -150.999 -66c-23.333 0 -50.666 20 -81.999 60l-68 89h59c15.333 0 35.833 -10.667 61.5 -32s40.5 -32 44.5 -32c32 0 48 13 48 39c0 44 -21.333 79 -64 105h61
c16 0 35.333 -14.167 58 -42.5s35.667 -42.5 39 -42.5c30 0 45 16 45 48c0 34.667 -17.333 61.334 -52 80.001c34.667 2.66699 53.667 4 57 4c26 0 48.667 -17 68 -51c24.667 -44 43.334 -70.333 56.001 -79zM560.997 1380c-22.667 -7.33301 -94 -39 -214 -95
c-102.667 -48 -169 -72 -199 -72h-100c240.667 111.333 378 167 412 167h101z" />
    <glyph glyph-name="uFDF2" unicode="&#xfedf;&#xfee0;&#xfeea;" horiz-adv-x="1098" arabic-form="isolated" 
d="M571 1321l-14.001 -31c-29.333 59.333 -52.666 100.333 -69.999 123c-24.667 32 -60.667 62 -108 90l-41 125c62 -10.667 113.667 -50 155 -118c24.667 -40.667 50.667 -103.667 78 -189zM753.999 1130c0 -32.667 -8.33398 -63.333 -25.001 -92
c-19.333 -34 -44 -51 -74 -51c-14 0 -36.333 4.66699 -67 14c-33.333 -58.667 -67.666 -88 -102.999 -88c-52.667 0 -79 33.667 -79 101c0 26.667 5.33301 58.667 16 96l14 14c0 -65.333 17.667 -98 53 -98c48 0 76.667 52.667 86 158l15 6c12 -61.333 32.333 -92 61 -92
c45.333 0 68 49 68 147l16 6c12.667 -46 19 -86.333 19 -121zM1018 338.001c0 -48.667 -10.3311 -95 -30.998 -139c-26 -54.667 -60.667 -82 -104 -82c-56.667 0 -108 54.667 -154 164c-35.333 -118 -102.333 -177 -201 -177c-80.667 0 -132.334 49.333 -155.001 148
c-60 -65.333 -106.667 -98 -140 -98c-32 0 -65.667 5 -101 15c-47.333 13.333 -71 32 -71 56c0 16 14 48.333 42 97c57.333 100 131.666 166.667 222.999 200c-1.33301 15.333 -2 29 -2 41c0 18 12.667 55 38 111l44 -234c12 -64 23.333 -106.333 34 -127
c21.333 -42 56.333 -63 105 -63c58.667 0 112 35.333 160 106l-57 197c-20 71.333 -30 138.333 -30 201c0 30 17.333 66.667 52 110c24 -134.667 39.667 -219.667 47 -255c24.667 -114.667 50 -196.667 76 -246c31.333 -59.333 74.333 -89 129 -89c31.333 0 47 15 47 45
c0 46.667 -17.167 120.334 -51.5 221.001s-51.5 174 -51.5 220c0 21.333 11.667 58 35 110l70 -260c31.333 -116.667 47 -207.334 47 -272.001zM362 313.001l-26.002 145.999c-47.333 -22 -79.666 -40 -96.999 -54c-21.333 -17.333 -43.666 -46.666 -66.999 -87.999
c47.333 -16 86.333 -24 117 -24c18 0 42.333 6.66699 73 20z" />
    <glyph glyph-name="uFEF5" unicode="&#xfedf;&#xfe82;" horiz-adv-x="866" arabic-form="isolated" 
d="M663 360c36 -74.667 54.001 -162.335 54.001 -263.002c0 -50.667 -8 -80.667 -24 -90c-8 -4.66699 -42.667 -8 -104 -10c-69.333 -2.66699 -109 -3.66699 -119 -3l-137 6c-4.66699 4.66699 -7 12 -7 22c0 56 6.33301 87.667 19 95c111.333 66 193.666 144 246.999 234
c-70 111.333 -176.333 226.666 -319 345.999c-7.33301 -12.667 -19.666 -30.334 -36.999 -53.001c-2.66699 -1.33301 -6.33398 -2.66602 -11.001 -3.99902c-20.667 0 -50.667 18.333 -90 55c-36 34 -59.333 62.333 -70 85c-3.33301 7.33301 -5 21 -5 41
c0 76 8.33301 116 25 120c139.333 -34.667 320.333 -211 543 -529c24 22 36 116.667 36 284c0 119.333 -11.333 198.333 -34 237l67 101c6.66699 -47.333 20.667 -83.666 42 -108.999c14.667 -17.333 46.667 -42.666 96 -75.999c-4 -1.33301 -25 -5.33301 -63 -12
c-19.333 -3.33301 -36 -71 -50 -203c-16 -147.333 -35.667 -238.666 -59 -273.999zM624.001 302.999c-26 -44 -82.667 -103.334 -170 -178.001c20.667 -8.66699 51.667 -13 93 -13h81c23.333 4.66699 35 22.334 35 53.001c0 34.667 -13 80.667 -39 138zM14.001 958.998
c0 51.333 4.66699 87.333 14 108c14.667 32.667 44.334 49 89.001 49c27.333 0 68.333 -1.83301 123 -5.5s95.667 -5.5 123 -5.5c47.333 0 84.666 13.667 111.999 41c18 18 26.667 30 26 36v4c-12.667 -73.333 -29 -119 -49 -137c-35.333 -31.333 -122 -47 -260 -47
c-7.33301 0 -17.833 1.83301 -31.5 5.5s-24.167 5.5 -31.5 5.5c-50.667 0 -89 -18 -115 -54z" />
    <glyph glyph-name="uFEF6" unicode="&#xfee0;&#xfe82;" horiz-adv-x="1087" arabic-form="final" 
d="M422 707c-12 -18.667 -24.665 -36.333 -37.998 -53c-2.66699 -1.33301 -6.33398 -2.66602 -11.001 -3.99902c-22 0 -52 18 -90 54c-33.333 31.333 -56.333 60 -69 86c-4 8 -6 22 -6 42c0 74.667 8.66699 114.334 26 119.001c139.333 -56 248 -164.333 326 -325
c19.333 -50.667 50 -126 92 -226c44 76.667 66 154 66 232c0 -26 -5.66699 74.333 -17 301l65 101c0 -154.667 8.66699 -315.334 26 -482.001c24.667 -238 61 -370 109 -396c52 -28 120.667 -41 206 -39v-117h-43c-172 0 -274.667 96.667 -308 290l-27 251
c-27.333 -275.333 -130 -449 -308 -521c-74.667 -30 -139.334 -46.333 -194.001 -49c-18.667 -0.666992 -46.667 -2.33398 -84 -5.00098c304 131.333 456 247 456 347c0 126 -59 257.333 -177 394zM14.002 959.001c0 51.333 4.66699 87.333 14 108
c14.667 32.667 44.334 49 89.001 49c27.333 0 68.333 -1.83301 123 -5.5s95.667 -5.5 123 -5.5c47.333 0 84.666 13.667 111.999 41c18 18 26.667 30 26 36v4c-12.667 -73.333 -29 -119 -49 -137c-35.333 -31.333 -122 -47 -260 -47c-7.33301 0 -17.833 1.83301 -31.5 5.5
s-24.167 5.5 -31.5 5.5c-50.667 0 -89 -18 -115 -54z" />
    <glyph glyph-name="uFEF7" unicode="&#xfedf;&#xfe84;" horiz-adv-x="842" arabic-form="isolated" 
d="M287 1117l5 -12.002c0 -20.667 -14.667 -32 -44 -34c-27.333 15.333 -46.333 23 -57 23c-23.333 0 -58.666 -22.667 -105.999 -68c16 -32 47 -48 93 -48c20.667 0 58 7.66699 112 23c7.33301 2 11 -4.33301 11 -19c0 -33.333 -23.667 -50.666 -71 -51.999
c-62.667 -1.33301 -103.667 -9.66602 -123 -24.999l-59 -47l-5 11c0 4.66699 5.33301 16.167 16 34.5s16 31.5 16 39.5c-27.333 24 -41 40 -41 48c0 12 17.667 35 53 69c31.333 30 53.666 48.333 66.999 55c28.667 14 55.667 21 81 21c22 0 39.333 -6.33301 52 -19z
M663 359.998c36 -74.667 54 -162.337 54 -263.004c0 -51.333 -8.33301 -81.666 -25 -90.999c-6.66699 -4 -41 -7 -103 -9c-69.333 -2.66699 -109 -3.66699 -119 -3l-137 6c-4.66699 4.66699 -7 12 -7 22c0 56 6.33301 87.667 19 95c110 65.333 192.333 143.333 247 234
c-69.333 107.333 -138.666 191 -207.999 251c-7.33301 -13.333 -20.333 -31 -39 -53c-2.66699 -1.33301 -6.33398 -2.66602 -11.001 -3.99902c-40 0 -92.667 46.667 -158 140c-3.33301 4.66699 -5 18 -5 40c0 78 8.33301 118.333 25 121
c139.333 -34.667 283.333 -179.334 432 -434.001c24 22 36 116.667 36 284c0 119.333 -11.333 198.333 -34 237l67 101c6.66699 -47.333 20.667 -83.666 42 -108.999c14.667 -17.333 46.667 -42.666 96 -75.999c-6.66699 -2 -27.667 -6 -63 -12
c-19.333 -3.33301 -36 -71 -50 -203c-16 -147.333 -35.667 -238.666 -59 -273.999zM624 302.995c-26 -44 -82.667 -103.334 -170 -178.001c20.667 -8.66699 51.667 -13 93 -13h81c23.333 4.66699 35 22.334 35 53.001c0 34.667 -13 80.667 -39 138z" />
    <glyph glyph-name="uFEF8" unicode="&#xfee0;&#xfe84;" horiz-adv-x="1087" arabic-form="final" 
d="M382 1112c0 -17.333 -14.3311 -28.332 -42.998 -32.999c-20 15.333 -39.333 23 -58 23c-24.667 0 -59.667 -22.667 -105 -68c16 -32 45.667 -48 89 -48c21.333 0 59.666 7.66699 114.999 23c8 2 12 -10 12 -36c0 -16.667 -7.66699 -27 -23 -31
c-16.667 -0.666992 -32 -1.66699 -46 -3c-50 -4.66699 -83.833 -10.334 -101.5 -17.001s-45.834 -25 -84.501 -55l-5 9c10 14.667 21.667 37.334 35 68.001l-1 7c-28 24.667 -42 40.667 -42 48c0 11.333 17.333 33.666 52 66.999c31.333 30.667 53.333 49 66 55
c31.333 15.333 59.333 23 84 23c37.333 0 56 -10.667 56 -32zM501.002 622.001c-7.33301 -11.333 -18.999 -28.3301 -34.999 -50.9971l-13 -5c-22 0 -52 18 -90 54c-34 32.667 -57.333 61 -70 85c-3.33301 6.66699 -5 20.334 -5 41.001c0 79.333 8.33301 119.666 25 120.999
c105.333 -44 183.666 -105.667 234.999 -185c39.333 -60.667 74 -154.667 104 -282c44 76.667 66 154 66 232c0 -26 -5.66699 74.333 -17 301l65 101c0 -155.333 8.66699 -315.333 26 -480c25.333 -240.667 61.666 -373.334 108.999 -398.001c42.667 -22 76.667 -34 102 -36
c8 -0.666992 42.667 -1.66699 104 -3v-117h-43c-94.667 0 -167 25.667 -217 77c-44 45.333 -74.333 116.666 -91 213.999l-27 250c-15.333 -154.667 -60.333 -286.667 -135 -396c-32 -46.667 -87 -87.334 -165 -122.001c-71.333 -31.333 -138.666 -48.666 -201.999 -51.999
c-18.667 -0.666992 -46.667 -2.33398 -84 -5.00098c303.333 131.333 455 251 455 359c0 112 -32.333 211 -97 297z" />
    <glyph glyph-name="uFEF9" unicode="&#xfedf;&#xfe88;" horiz-adv-x="842" arabic-form="isolated" 
d="M307 -103l5.00098 -12.001c0 -5.33301 -5 -12.166 -15 -20.499s-18 -12.5 -24 -12.5c-2.66699 0 -11.667 3.66699 -27 11s-26.666 11 -33.999 11c-28.667 0 -64.334 -22.667 -107.001 -68c12.667 -30.667 43.667 -46 93 -46c17.333 0 54.666 4.66699 111.999 14
c4.66699 -2.66699 8.33398 -6.66699 11.001 -12v-11c0 -2 -0.666992 -5.66699 -2 -11c-3.33301 -15.333 -20.666 -25 -51.999 -29c-48.667 0 -84 -3.66699 -106 -11c-24 -8.66699 -54.667 -29.334 -92 -62.001l-1 1c-2.66699 2.66699 -4.33398 6.33398 -5.00098 11.001
c4 8 10.5 20.333 19.5 37s13.5 27 13.5 31c0 2 -0.333008 3.66699 -1 5c-27.333 24 -41 40 -41 48c0 12.667 17.333 35.667 52 69c32 30.667 54.667 49 68 55c31.333 14 58.666 21 81.999 21c22 0 39 -6.33301 51 -19zM663.001 359.999
c36 -74.667 54.001 -162.335 54.001 -263.002c0 -50.667 -8 -80.667 -24 -90c-8 -4.66699 -42.667 -8 -104 -10c-69.333 -2.66699 -109 -3.66699 -119 -3l-137 6c-4.66699 4.66699 -7 12 -7 22c0 56 6.33301 87.667 19 95c111.333 66 193.666 144 246.999 234
c-70 111.333 -176.333 226.666 -319 345.999c-7.33301 -12.667 -19.666 -30.334 -36.999 -53.001c-2.66699 -1.33301 -6.33398 -2.66602 -11.001 -3.99902c-20.667 0 -50.667 18.333 -90 55c-36 34 -59.333 62.333 -70 85c-3.33301 7.33301 -5 21 -5 41
c0 76 8.33301 116 25 120c139.333 -34.667 320.333 -211 543 -529c24 22 36 116.667 36 284c0 119.333 -11.333 198.333 -34 237l67 101c6.66699 -47.333 20.667 -83.666 42 -108.999c14.667 -17.333 46.667 -42.666 96 -75.999c-4 -1.33301 -25 -5.33301 -63 -12
c-19.333 -3.33301 -36 -71 -50 -203c-16 -147.333 -35.667 -238.666 -59 -273.999zM624.002 302.998c-26 -44 -82.667 -103.334 -170 -178.001c20.667 -8.66699 51.667 -13 93 -13h81c23.333 4.66699 35 22.334 35 53.001c0 34.667 -13 80.667 -39 138z" />
    <glyph glyph-name="uFEFA" unicode="&#xfee0;&#xfe88;" horiz-adv-x="1087" arabic-form="final" 
d="M365 -143c0 -19.333 -14.668 -30.335 -44.001 -33.002c-26.667 14.667 -45.667 22 -57 22c-26.667 0 -62 -22 -106 -66c14 -32.667 44.667 -49 92 -49c17.333 0 55 4.66699 113 14c4.66699 -2.66699 8.33398 -6.66699 11.001 -12v-11c0 -2 -0.666992 -5.66699 -2 -11
c-4 -17.333 -21.333 -26.666 -52 -27.999c-12.667 0 -35.334 -0.666992 -68.001 -2c-35.333 -2 -79 -25.667 -131 -71l-5 11c1.33301 4.66699 7.33301 17.334 18 38.001c9.33301 18.667 14 30.334 14 35.001l-1 3c-27.333 23.333 -41 39 -41 47c0 12 17.333 34.667 52 68
c30.667 29.333 53.334 47.666 68.001 54.999c30.667 14.667 58 22 82 22c30.667 0 49.667 -10.667 57 -32zM393.999 746.998c-15.333 -24.667 -28.002 -42.002 -38.002 -52.002c-2.66699 -1.33301 -6.33398 -2.66602 -11.001 -3.99902c-20.667 0 -50.334 18.333 -89.001 55
c-34 32 -57.333 60 -70 84c-3.33301 6 -5 19.667 -5 41c0 79.333 8.33301 119.666 25 120.999c113.333 -48 206 -130.333 278 -247c32 -52 84 -167 156 -345c44 76.667 66 154.334 66 233.001c0 35.333 -3 85.333 -9 150c-6 69.333 -9.33301 119.333 -10 150l66 101
c0 -156 8.66699 -316 26 -480c25.333 -238.667 62 -371.334 110 -398.001c39.333 -22 73.333 -34 102 -36c9.33301 -0.666992 50.333 -1.66699 123 -3v-117c-103.333 0 -181.666 13.333 -234.999 40c-61.333 30.667 -104.666 107.334 -129.999 230.001
c-4 18 -14.667 108.333 -32 271c-15.333 -154.667 -60.333 -286.667 -135 -396c-32 -46.667 -87 -87.334 -165 -122.001c-71.333 -31.333 -138.666 -48.666 -201.999 -51.999c-18.667 -0.666992 -46.667 -2.33398 -84 -5.00098c303.333 132.667 455 248.334 455 347.001
c0 2 -0.666992 6 -2 12c-19.333 94 -40.666 169 -63.999 225c-28 66.667 -70 132.334 -126 197.001z" />
    <glyph glyph-name="uFEFB" unicode="&#xfedf;&#xfe8e;" horiz-adv-x="842" arabic-form="isolated" 
d="M663 360c36 -74.667 54.001 -162.335 54.001 -263.002c0 -50.667 -8 -80.667 -24 -90c-8 -4.66699 -42.667 -8 -104 -10c-69.333 -2.66699 -109 -3.66699 -119 -3l-137 6c-4.66699 4.66699 -7 12 -7 22c0 56 6.33301 87.667 19 95c111.333 66 193.666 144 246.999 234
c-70 111.333 -176.333 226.666 -319 345.999c-7.33301 -12.667 -19.666 -30.334 -36.999 -53.001c-2.66699 -1.33301 -6.33398 -2.66602 -11.001 -3.99902c-20.667 0 -50.667 18.333 -90 55c-36 34 -59.333 62.333 -70 85c-3.33301 7.33301 -5 21 -5 41
c0 76 8.33301 116 25 120c139.333 -34.667 320.333 -211 543 -529c24 22 36 116.667 36 284c0 119.333 -11.333 198.333 -34 237l67 101c6.66699 -47.333 20.667 -83.666 42 -108.999c14.667 -17.333 46.667 -42.666 96 -75.999c-4 -1.33301 -25 -5.33301 -63 -12
c-19.333 -3.33301 -36 -71 -50 -203c-16 -147.333 -35.667 -238.666 -59 -273.999zM624.001 302.999c-26 -44 -82.667 -103.334 -170 -178.001c20.667 -8.66699 51.667 -13 93 -13h81c23.333 4.66699 35 22.334 35 53.001c0 34.667 -13 80.667 -39 138z" />
    <glyph glyph-name="uFEFC" unicode="&#xfee0;&#xfe8e;" horiz-adv-x="1087" arabic-form="final" 
d="M396 747c-7.33301 -13.333 -19.334 -30.668 -36.001 -52.001c-2.66699 -1.33301 -6.33398 -2.66602 -11.001 -3.99902c-20.667 0 -50.667 18.333 -90 55c-35.333 33.333 -59 61.333 -71 84c-3.33301 6.66699 -5 20.334 -5 41.001c0 79.333 8.33301 119.666 25 120.999
c114.667 -49.333 207.334 -131.666 278.001 -246.999c31.333 -52 83.333 -167 156 -345c44 76.667 66 154 66 232c0 -26 -5.66699 74.333 -17 301l64 101c0 -142.667 8.66699 -298.667 26 -468c25.333 -248 62 -384.667 110 -410c42 -22 76 -34 102 -36
c8.66699 -0.666992 49 -1.66699 121 -3v-117l-56 -2c-141.333 -5.33301 -235.666 57 -282.999 187c-16.667 46 -34.667 164.667 -54 356c-20.667 -133.333 -48.667 -236 -84 -308c-50 -102 -125.333 -173 -226 -213c-76 -30 -140.667 -46.333 -194 -49
c-20 -0.666992 -48 -2.33398 -84 -5.00098c304 131.333 456 247 456 347c0 63.333 -21.333 140 -64 230c-38 80 -81 148 -129 204z" />
    <glyph glyph-name="u0652_u064E.liga" unicode="&#x652;&#x64e;" horiz-adv-x="1" 
d="M203 1088c-4 -7.33301 -5.99902 -14.6699 -5.99902 -22.0029c0 -15.333 3.66699 -34.666 11 -57.999c8.66699 -29.333 13.667 -48.666 15 -57.999c6 -35.333 9 -75 9 -119c-4.66699 -5.33301 -19.334 -18.666 -44.001 -39.999c5.33301 9.33301 8 22 8 38
c0 10 -3 29.667 -9 59c-17.333 83.333 -26 138.333 -26 165c13.333 12 27.333 23.667 42 35z" />
    <glyph glyph-name="u0652_u064B.liga" unicode="&#x652;&#x64b;" horiz-adv-x="1" 
d="M179 650c10.667 30.667 36.333 59.333 77 86c6.66699 0 23.667 -12.833 51 -38.5s41 -41.5 41 -47.5s-11.333 -22.333 -34 -49s-36.667 -40 -42 -40c-8 0 -25 12.667 -51 38s-40 42.333 -42 51zM10.999 649.999c23.333 44 48.332 72.6689 74.999 86.002
c12 -6.66699 29.833 -20.334 53.5 -41.001s36.834 -35.667 39.501 -45c-26.667 -48.667 -51.667 -78.334 -75 -89.001c-8 0 -25 12.5 -51 37.5s-40 42.167 -42 51.5z" />
    <glyph glyph-name="u0652_u064D.liga" unicode="&#x652;&#x64d;" horiz-adv-x="1" 
d="M435 -673c10.667 30.667 36.333 59.333 77 86c6.66699 0 23.667 -12.833 51 -38.5s41 -41.5 41 -47.5s-11.333 -22.333 -34 -49s-36.667 -40 -42 -40c-8 0 -25 12.667 -51 38s-40 42.333 -42 51zM266.999 -673.001c23.333 44 48.332 72.6689 74.999 86.002
c12 -6.66699 29.833 -20.334 53.5 -41.001s36.834 -35.667 39.501 -45c-26.667 -48.667 -51.667 -78.334 -75 -89.001c-8 0 -25 12.5 -51 37.5s-40 42.167 -42 51.5z" />
    <glyph glyph-name="u0622" unicode="&#x622;" horiz-adv-x="502" arabic-form="isolated" 
d="M242 842c-6.66699 -27.333 -10.0029 -53.6689 -10.0029 -79.002c0 -35.333 7.33301 -86.333 22 -153c16.667 -75.333 26.334 -127 29.001 -155c5.33301 -56 12 -167.333 20 -334c-9.33301 -18 -39 -65 -89 -141c11.333 30.667 17 81.334 17 152.001
c0 22 -5.66699 70.667 -17 146l-33 219c-11.333 74.667 -17.666 148 -18.999 220c24.667 42.667 51.334 84.334 80.001 125.001zM13.9971 914.997c0 50 5.00195 85.667 15.002 107c15.333 32.667 44.666 49 87.999 49c27.333 0 68.333 -1.83301 123 -5.5
s95.667 -5.5 123 -5.5c47.333 0 84.666 13.667 111.999 41c18 18 26.667 30 26 36v4c-12.667 -73.333 -29 -119 -49 -137c-35.333 -31.333 -122 -47 -260 -47c-7.33301 0 -18 1.83301 -32 5.5s-24.667 5.5 -32 5.5c-46 0 -84 -17.667 -114 -53z" />
    <glyph glyph-name="u0623" unicode="&#x623;" horiz-adv-x="334" arabic-form="isolated" 
d="M311 1105l5 -12.999c0 -18 -14.333 -29.333 -43 -34c-19.333 16 -38.333 24 -57 24c-23.333 0 -58.333 -22.667 -105 -68c16 -32 47 -48 93 -48h36c5.33301 1.33301 30 6 74 14c4.66699 -2.66699 8.33398 -6.66699 11.001 -12c0 -28.667 -8 -43.667 -24 -45l-125 -12
c-22.667 -6 -57 -27.667 -103 -65l-5 10c1.33301 3.33301 7.66602 15.666 18.999 36.999c9.33301 17.333 14 29 14 35v3c-28 24.667 -42 40.667 -42 48c0 12 17.333 34.667 52 68c30 28.667 52.333 46.667 67 54c31.333 15.333 59 23 83 23c20 0 36.667 -6.33301 50 -19z
M236 842.001c-6.66699 -27.333 -10.002 -54.002 -10.002 -80.002c0 -34.667 7.33301 -85.334 22 -152.001c16.667 -76 26.334 -127.667 29.001 -155c5.33301 -54.667 12 -166 20 -334c-29.333 -48.667 -59.666 -95.667 -90.999 -141c12 28.667 18 71 18 127
c0 68.667 -11.667 170.334 -35 305.001s-35 236.334 -35 305.001c12 24.667 39.333 66.334 82 125.001z" />
    <glyph glyph-name="u0624" unicode="&#x624;" horiz-adv-x="642" arabic-form="isolated" 
d="M233 -274c207.333 106.667 311.003 209.668 311.003 309.001h-18c-60.667 -5.33301 -94 -8 -100 -8c-28.667 0 -54.334 6.66699 -77.001 20c-27.333 16 -41 37.333 -41 64c0 40.667 14 92 42 154c32 70.667 64 106 96 106c3.33301 0.666992 5.66602 0.666992 6.99902 0
c45.333 -14.667 81.333 -58 108 -130c21.333 -58 32 -116 32 -174c0 -134.667 -55.667 -253.334 -167 -356.001c-46.667 -43.333 -83.667 -65 -111 -65c-18.667 0 -67.334 10.333 -146.001 31c-81.333 21.333 -124 37.333 -128 48c5.33301 5.33301 22.333 8 51 8
c42.667 0 89.667 -2.33301 141 -7zM411.003 268.001c-10 0 -21.5 -13.5 -34.5 -40.5s-19.5 -46.5 -19.5 -58.5l5 -10c17.333 -10.667 40.333 -16 69 -16h25c3.33301 0 20 3.33301 50 10c-40 76.667 -71.667 115 -95 115zM451.003 774.001l5 -12.999
c0 -18 -14.333 -29.333 -43 -34c-19.333 16 -38.333 24 -57 24c-23.333 0 -58.333 -22.667 -105 -68c16 -32 47 -48 93 -48h36c5.33301 1.33301 30 6 74 14c4.66699 -2.66699 8.33398 -6.66699 11.001 -12c0 -28.667 -8 -43.667 -24 -45l-125 -12
c-22.667 -6 -57 -27.667 -103 -65l-5 10c1.33301 3.33301 7.66602 15.666 18.999 36.999c9.33301 17.333 14 29 14 35v3c-28 24.667 -42 40.667 -42 48c0 12 17.333 34.667 52 68c30 28.667 52.333 46.667 67 54c31.333 15.333 59 23 83 23c20 0 36.667 -6.33301 50 -19z
" />
    <glyph glyph-name="u0625" unicode="&#x625;" horiz-adv-x="382" arabic-form="isolated" 
d="M234 1034c-7.33301 -24.667 -11 -51.001 -11 -79.001c0 -53.333 7 -121.666 21 -204.999c17.333 -104.667 27.666 -173 30.999 -205c12 -125.333 18 -266.666 18 -423.999c-9.33301 -18 -39 -65 -89 -141c11.333 31.333 17 76 17 134c0 35.333 -6 104.666 -18 207.999
c-34.667 297.333 -52 493 -52 587c26.667 43.333 54.334 85 83.001 125zM357 -115.001l5 -12.999c0 -18 -14.333 -29.333 -43 -34c-19.333 16 -38.333 24 -57 24c-23.333 0 -58.333 -22.667 -105 -68c16 -32 47 -48 93 -48h36c5.33301 1.33301 30 6 74 14
c4.66699 -2.66699 8.33398 -6.66699 11.001 -12c0 -28.667 -8 -43.667 -24 -45l-125 -12c-22.667 -6 -57 -27.667 -103 -65l-5 10c1.33301 3.33301 7.66602 15.666 18.999 36.999c9.33301 17.333 14 29 14 35v3c-28 24.667 -42 40.667 -42 48c0 12 17.333 34.667 52 68
c30 28.667 52.333 46.667 67 54c31.333 15.333 59 23 83 23c20 0 36.667 -6.33301 50 -19z" />
    <glyph glyph-name="u0626" unicode="&#x626;" horiz-adv-x="1050" arabic-form="isolated" 
d="M102 103c0 -67.333 30.668 -118.003 92.001 -152.003c49.333 -27.333 110.666 -41 183.999 -41c160 0 302.333 40.667 427 122c10.667 6.66699 17.334 13.334 20.001 20.001c-0.666992 8 -29.667 17 -87 27c-76 12.667 -128 24.667 -156 36
c-63.333 24.667 -95 60.667 -95 108c0 68 45.667 142.333 137 223s171.333 121 240 121c27.333 0 51.333 -17.667 72 -53c18 -31.333 27 -62 27 -92c0 -27.333 -9 -41 -27 -41c-6.66699 0 -23 13.167 -49 39.5s-47.333 39.5 -64 39.5c-31.333 0 -82 -21.333 -152 -64
c-73.333 -44.667 -110 -80.667 -110 -108c0 -54 99 -92.667 297 -116c28.667 -3.33301 43 -18.666 43 -45.999c0 -47.333 -32.333 -100.666 -97 -159.999c-127.333 -117.333 -273.333 -176 -438 -176h-34c-180.667 0 -271 99.333 -271 298c0 114 32.667 212.667 98 296
c19.333 24.667 37.666 46 54.999 64c-74.667 -147.333 -112 -262.333 -112 -345zM450.001 768.997l5 -12.999c0 -18 -14.333 -29.333 -43 -34c-19.333 16 -38.333 24 -57 24c-23.333 0 -58.333 -22.667 -105 -68c16 -32 47 -48 93 -48h36c5.33301 1.33301 30 6 74 14
c4.66699 -2.66699 8.33398 -6.66699 11.001 -12c0 -28.667 -8 -43.667 -24 -45l-125 -12c-22.667 -6 -57 -27.667 -103 -65l-5 10c1.33301 3.33301 7.66602 15.666 18.999 36.999c9.33301 17.333 14 29 14 35v3c-28 24.667 -42 40.667 -42 48c0 12 17.333 34.667 52 68
c30 28.667 52.333 46.667 67 54c31.333 15.333 59 23 83 23c20 0 36.667 -6.33301 50 -19z" />
    <glyph glyph-name="u0627" unicode="&#x627;" horiz-adv-x="390" arabic-form="isolated" 
d="M234 1034c-7.33301 -24.667 -11 -51.001 -11 -79.001c0 -53.333 7 -121.666 21 -204.999c17.333 -104.667 27.666 -173 30.999 -205c12 -125.333 18 -266.666 18 -423.999c-9.33301 -18 -39 -65 -89 -141c11.333 31.333 17 76 17 134c0 35.333 -6 104.666 -18 207.999
c-34.667 297.333 -52 493 -52 587c26.667 43.333 54.334 85 83.001 125z" />
    <glyph glyph-name="u0628" unicode="&#x628;" horiz-adv-x="1066" arabic-form="isolated" 
d="M454 -288c5.33301 10 17.667 26.334 37 49.001c21.333 25.333 35 38 41 38c6.66699 0 23.334 -12.833 50.001 -38.5s40 -41.834 40 -48.501c0 -8 -10.333 -24 -31 -48s-35.334 -37.667 -44.001 -41c-8 0 -25 12.5 -51 37.5s-40 42.167 -42 51.5zM450.001 -56.999
c-260 0 -390 74.6689 -390 224.002c0 73.333 30.667 135.666 92 186.999l8 1c-33.333 -90.667 -49.666 -146.334 -48.999 -167.001l1 -24c1.33301 -37.333 45.666 -65.666 132.999 -84.999c60 -13.333 119.667 -20 179 -20c50.667 0 82 0.333008 94 1
c59.333 3.33301 134.333 15.333 225 36c119.333 27.333 179 55 179 83c0 23.333 -15.333 65.666 -46 126.999c19.333 36 41 70.333 65 103c36 -96 54 -169.333 54 -220c0 -106 -69.333 -177.667 -208 -215c-76.667 -20.667 -189 -31 -337 -31z" />
    <glyph glyph-name="u0629" unicode="&#x629;" horiz-adv-x="550" arabic-form="isolated" 
d="M243 433c42.667 -10 87.999 -30 135.999 -60c60 -37.333 90 -72.333 90 -105c0 -76.667 -22.333 -144 -67 -202c-48 -63.333 -109.333 -95 -184 -95c-39.333 0 -72.666 11.333 -99.999 34c-29.333 24 -44 55 -44 93c0 50.667 18.667 111 56 181
c34 64.667 71.667 116 113 154zM231.999 91c30.667 0 65.668 8.66797 105.001 26.001c44 18.667 71.667 40 83 64c-0.666992 25.333 -29 54.666 -85 87.999c-52.667 31.333 -93.334 47 -122.001 47c-57.333 -78.667 -86 -131 -86 -157c0 -22 12.667 -39.333 38 -52
c20.667 -10.667 43 -16 67 -16zM344 749.001l5 -12.999c0 -18 -14.333 -29.333 -43 -34c-19.333 16 -38.333 24 -57 24c-23.333 0 -58.333 -22.667 -105 -68c16 -32 47 -48 93 -48h36c5.33301 1.33301 30 6 74 14c4.66699 -2.66699 8.33398 -6.66699 11.001 -12
c0 -28.667 -8 -43.667 -24 -45l-125 -12c-22.667 -6 -57 -27.667 -103 -65l-5 10c1.33301 3.33301 7.66602 15.666 18.999 36.999c9.33301 17.333 14 29 14 35v3c-28 24.667 -42 40.667 -42 48c0 12 17.333 34.667 52 68c30 28.667 52.333 46.667 67 54
c31.333 15.333 59 23 83 23c20 0 36.667 -6.33301 50 -19z" />
    <glyph glyph-name="u062A" unicode="&#x62a;" horiz-adv-x="1102" arabic-form="isolated" 
d="M390 531c0 8.66699 11.335 24.667 34.002 48c19.333 20 33.666 33 42.999 39c11.333 -6.66699 28.666 -20.334 51.999 -41.001c26 -23.333 39 -38.666 39 -45.999c-29.333 -50.667 -54.333 -80 -75 -88c-6 0 -23 13.333 -51 40s-42 42.667 -42 48zM558.002 531
c2 7.33301 13.5 22.833 34.5 46.5s35.167 37.167 42.5 40.5c10 -6 27.333 -20 52 -42c27.333 -24.667 41 -39.667 41 -45c0 -6 -11.5 -22.167 -34.5 -48.5s-37.167 -39.5 -42.5 -39.5c-6.66699 0 -23.167 12.667 -49.5 38s-40.833 42 -43.5 50zM469.002 -64
c-260 0 -390 74.6689 -390 224.002c0 73.333 30.667 135.666 92 186.999l8 1c-33.333 -90.667 -49.666 -146.334 -48.999 -167.001l1 -24c1.33301 -37.333 45.666 -65.666 132.999 -84.999c60 -13.333 119.667 -20 179 -20c50.667 0 82 0.333008 94 1
c59.333 3.33301 134.333 15.333 225 36c119.333 27.333 179 55 179 83c0 23.333 -15.333 65.666 -46 126.999c19.333 36 41 70.333 65 103c36 -96 54 -169.333 54 -220c0 -106 -69.333 -177.667 -208 -215c-76.667 -20.667 -189 -31 -337 -31z" />
    <glyph glyph-name="u062B" unicode="&#x62b;" horiz-adv-x="1122" arabic-form="isolated" 
d="M394 543c0 8.66699 11.335 24.667 34.002 48c19.333 20 33.666 33 42.999 39c11.333 -6.66699 28.666 -20.334 51.999 -41.001c26 -23.333 39 -38.666 39 -45.999c-29.333 -50.667 -54.333 -80 -75 -88c-6 0 -23 13.333 -51 40s-42 42.667 -42 48zM562.002 543
c2 7.33301 13.5 22.833 34.5 46.5s35.167 37.167 42.5 40.5c10 -6 27.333 -20 52 -42c27.333 -24.667 41 -39.667 41 -45c0 -6 -11.5 -22.167 -34.5 -48.5s-37.167 -39.5 -42.5 -39.5c-6.66699 0 -23.167 12.667 -49.5 38s-40.833 42 -43.5 50zM473.002 -52
c-260 0 -390 74.6689 -390 224.002c0 73.333 30.667 135.666 92 186.999l8 1c-33.333 -90.667 -49.666 -146.334 -48.999 -167.001l1 -24c1.33301 -37.333 45.666 -65.666 132.999 -84.999c60 -13.333 119.667 -20 179 -20c50.667 0 82 0.333008 94 1
c59.333 3.33301 134.333 15.333 225 36c119.333 27.333 179 55 179 83c0 23.333 -15.333 65.666 -46 126.999c19.333 36 41 70.333 65 103c36 -96 54 -169.333 54 -220c0 -106 -69.333 -177.667 -208 -215c-76.667 -20.667 -189 -31 -337 -31zM475.002 694.002
c0 8.66699 11.335 24.667 34.002 48c19.333 20 33.666 33 42.999 39c11.333 -6.66699 28.666 -20.334 51.999 -41.001c26 -23.333 39 -38.666 39 -45.999c-29.333 -50.667 -54.333 -80 -75 -88c-6 0 -23 13.333 -51 40s-42 42.667 -42 48z" />
    <glyph glyph-name="u062C" unicode="&#x62c;" horiz-adv-x="866" arabic-form="isolated" 
d="M417 -154c4 9.33301 15.832 26.167 35.499 50.5s32.5 36.5 38.5 36.5c12.667 -5.33301 30.334 -18 53.001 -38c26 -22.667 39.333 -39 40 -49c-4 -9.33301 -15.5 -25.333 -34.5 -48s-32.167 -36 -39.5 -40c-6.66699 0 -23.167 12.667 -49.5 38s-40.833 42 -43.5 50z
M245.999 381.001c26 0 64.333 -4.33105 115 -12.998s89 -13 115 -13c76 0 164 15 264 45c-26 -44 -59 -92.667 -99 -146l-165 -13c-101.333 -8 -190.333 -49.667 -267 -125c-79.333 -77.333 -119 -166 -119 -266c0 -106 52.333 -187 157 -243c84 -44.667 184 -67 300 -67
c115.333 0 230.666 9.33301 345.999 28c-72 -62.667 -129.333 -103.334 -172 -122.001c-50.667 -22 -119 -33 -205 -33c-119.333 0 -220 21.333 -302 64c-101.333 52.667 -157.666 132.667 -168.999 240c-4 38 -6 74 -6 108c0 79.333 19 153.333 57 222
c8.66699 15.333 54 80.666 136 195.999c0 17.333 -12.667 31.333 -38 42c-19.333 8 -39.333 12 -60 12c-22 0 -63.333 -7 -124 -21c2 4 25 20.333 69 49c57.333 37.333 113 56 167 56z" />
    <glyph glyph-name="u062D" unicode="&#x62d;" horiz-adv-x="866" arabic-form="isolated" 
d="M246 381c26 0 64.333 -4.33105 115 -12.998s89 -13 115 -13c76 0 164 15 264 45c-26 -44 -59 -92.667 -99 -146l-165 -13c-101.333 -8 -190.333 -49.667 -267 -125c-79.333 -77.333 -119 -166 -119 -266c0 -106 52.333 -187 157 -243c84 -44.667 184 -67 300 -67
c115.333 0 230.666 9.33301 345.999 28c-72 -62.667 -129.333 -103.334 -172 -122.001c-50.667 -22 -119 -33 -205 -33c-119.333 0 -220 21.333 -302 64c-101.333 52.667 -157.666 132.667 -168.999 240c-4 38 -6 74 -6 108c0 79.333 19 153.333 57 222
c8.66699 15.333 54 80.666 136 195.999c0 17.333 -12.667 31.333 -38 42c-19.333 8 -39.333 12 -60 12c-22 0 -63.333 -7 -124 -21c2 4 25 20.333 69 49c57.333 37.333 113 56 167 56z" />
    <glyph glyph-name="u062E" unicode="&#x62e;" horiz-adv-x="866" arabic-form="isolated" 
d="M372 677c0 6 11.499 22.168 34.499 48.501s37.5 39.833 43.5 40.5c6 0 22.5 -13.333 49.5 -40s40.5 -43 40.5 -49c0 -20.667 -25 -49.667 -75 -87c-7.33301 0 -24.666 12.667 -51.999 38s-41 41.666 -41 48.999zM257.999 369.001c26 0 64.333 -4.33105 115 -12.998
s89 -13 115 -13c76 0 164 15 264 45c-26 -44 -59 -92.667 -99 -146l-165 -13c-101.333 -8 -190.333 -49.667 -267 -125c-79.333 -77.333 -119 -166 -119 -266c0 -106 52.333 -187 157 -243c84 -44.667 184 -67 300 -67c115.333 0 230.666 9.33301 345.999 28
c-72 -62.667 -129.333 -103.334 -172 -122.001c-50.667 -22 -119 -33 -205 -33c-119.333 0 -220 21.333 -302 64c-101.333 52.667 -157.666 132.667 -168.999 240c-4 38 -6 74 -6 108c0 79.333 19 153.333 57 222c8.66699 15.333 54 80.666 136 195.999
c0 17.333 -12.667 31.333 -38 42c-19.333 8 -39.333 12 -60 12c-22 0 -63.333 -7 -124 -21c2 4 25 20.333 69 49c57.333 37.333 113 56 167 56z" />
    <glyph glyph-name="u062F" unicode="&#x62f;" horiz-adv-x="681" arabic-form="isolated" 
d="M456 582c16.667 0 29 -5.33496 37 -16.002c38 -52 71.667 -120.333 101 -205c18 -52 27 -102.333 27 -151c0 -44 -7 -73 -21 -87c-38 -37.333 -92.667 -67.666 -164 -90.999c-64.667 -21.333 -126.667 -32 -186 -32c-72.667 0 -109 34.333 -109 103
c0 41.333 13.333 74 40 98c6.66699 -22 13.667 -43.667 21 -65c10.667 -22.667 28.334 -34 53.001 -34c67.333 0 142.333 19 225 57c70.667 32.667 106 54 106 64c0 22.667 -17.667 59.667 -53 111c-32 46.667 -59.333 79.334 -82 98.001c-4.66699 11.333 -18 17 -40 17
c-6.66699 0 -29.334 -3.33301 -68.001 -10c-11.333 -2 -17 2.66699 -17 14c0 18 15.333 50.667 46 98c4.66699 6.66699 17.667 13.667 39 21c19.333 6.66699 34.333 10 45 10z" />
    <glyph glyph-name="u0630" unicode="&#x630;" horiz-adv-x="681" arabic-form="isolated" 
d="M300 927c0 6.66699 11.167 23.168 33.5 49.501s36.5 39.5 42.5 39.5c8 0 25.333 -12.833 52 -38.5s40 -42.5 40 -50.5c0 -20.667 -25 -49.667 -75 -87c-10 5.33301 -27.333 18.666 -52 39.999c-27.333 24 -41 39.667 -41 47zM469 590.001
c18.667 0 32.002 -5.33691 40.002 -16.0039c84.667 -115.333 127 -234.666 127 -357.999c0 -43.333 -6.66699 -71.666 -20 -84.999c-39.333 -39.333 -100.333 -71.666 -183 -96.999c-74 -22.667 -143 -34 -207 -34c-48 -0 -72 38.333 -72 115c0 42 16.667 71 50 87
c5.33301 -32 10.333 -52.667 15 -62c10 -20 27 -30 51 -30c67.333 0 142.666 19.333 225.999 58c70 32.667 105 53.667 105 63c0 26 -21.667 69.833 -65 131.5s-77 92.5 -101 92.5c-6 -2 -30.333 -8 -73 -18l-13 15c-0.666992 10.667 2 23.334 8 38.001
c15.333 38.667 27.666 63 36.999 73c16 18 41 27 75 27z" />
    <glyph glyph-name="u0631" unicode="&#x631;" horiz-adv-x="690" arabic-form="isolated" 
d="M511 463c74 -116 111 -237.334 111 -364.001c0 -70.667 -45.5 -153.167 -136.5 -247.5s-171.833 -141.5 -242.5 -141.5c-56.667 0 -123.667 51 -201 153l7 5c16 -2 46 -12.333 90 -31c40 -16.667 68.667 -25 86 -25c40.667 0 108 43.667 202 131
c97.333 90.667 146 161 146 211c0 45.333 -47.333 107 -142 185l-2 5c0.666992 30.667 28 70.334 82 119.001z" />
    <glyph glyph-name="u0632" unicode="&#x632;" horiz-adv-x="702" arabic-form="isolated" 
d="M296 689c0 8 10.6689 23.333 32.002 46c18.667 19.333 33.667 33 45 41c12 -6.66699 29.333 -20.334 52 -41.001c26 -23.333 39 -38.666 39 -45.999c0 -8 -10.333 -24 -31 -48s-35.334 -37.667 -44.001 -41c-6.66699 0 -23.834 13.167 -51.501 39.5
s-41.5 42.833 -41.5 49.5zM522.002 463c74 -116 111 -237.334 111 -364.001c0 -70.667 -45.5 -153.167 -136.5 -247.5s-171.833 -141.5 -242.5 -141.5c-56.667 0 -123.667 51 -201 153l7 5c16 -2 46 -12.333 90 -31c40 -16.667 68.667 -25 86 -25
c40.667 0 108 43.667 202 131c97.333 90.667 146 161 146 211c0 45.333 -47.333 107 -142 185l-2 5c0.666992 30.667 28 70.334 82 119.001z" />
    <glyph glyph-name="u0633" unicode="&#x633;" horiz-adv-x="1454" arabic-form="isolated" 
d="M1307 173c2 4.66699 -17.9971 40.001 -59.9971 106.001l66 99c46 -66.667 69 -130.667 69 -192c0 -51.333 -15.667 -94.666 -47 -129.999c-32.667 -37.333 -74.334 -56 -125.001 -56c-24 0 -54.333 13 -91 39c-40 27.333 -58 52 -54 74
c-50.667 -76.667 -106.667 -115 -168 -115c-11.333 0 -24.666 3.66699 -39.999 11c-20 9.33301 -32.333 15 -37 17c-10.667 -66.667 -23.334 -137 -38.001 -211c-24 -50.667 -77.333 -89.334 -160 -116.001c-66 -21.333 -134 -32 -204 -32c-92 0 -171 21.333 -237 64
c-77.333 50 -116 118.333 -116 205v31c0 16 12.333 54 37 114c22.667 56 38.334 90 47.001 102c-18 -82.667 -27 -143 -27 -181c0 -75.333 39 -132 117 -170c61.333 -30 133.666 -45 216.999 -45c59.333 0 118.666 8.33301 177.999 25c82.667 23.333 124 56.333 124 99v44
c0 52.667 -5 93.667 -15 123c-3.33301 10.667 -21.333 50 -54 118c13.333 26.667 35 61 65 103c44 -124 108.333 -186 193 -186c52 0 89 21 111 63c9.33301 18 21.666 63 36.999 135c36.667 -134 84.667 -201 144 -201c22 0 37.667 5.66699 47 17
c4 5.33301 11 20.666 21 45.999z" />
    <glyph glyph-name="u0634" unicode="&#x634;" horiz-adv-x="1442" arabic-form="isolated" 
d="M886 541c0 8 10.335 23.333 31.002 46c17.333 19.333 32 33 44 41c11.333 -6 29 -19.333 53 -40c26.667 -23.333 40 -39 40 -47s-10.333 -24 -31 -48s-35.334 -37.667 -44.001 -41c-6.66699 0 -23.834 13.167 -51.501 39.5s-41.5 42.833 -41.5 49.5zM1054 541
c10.667 30.667 36.333 59.667 77 87c11.333 -6 29 -19.333 53 -40c26.667 -23.333 40 -39 40 -47c0 -8.66699 -10.5 -24.667 -31.5 -48s-36.167 -37 -45.5 -41c-8 0 -25 12.5 -51 37.5s-40 42.167 -42 51.5zM961.001 717c10.667 30.667 36.333 59.667 77 87
c11.333 -6 29 -19.333 53 -40c26.667 -23.333 40 -39 40 -47c0 -8.66699 -10.5 -24.667 -31.5 -48s-36.167 -37 -45.5 -41c-8 0 -25 12.5 -51 37.5s-40 42.167 -42 51.5zM1296 175c2 4.66699 -17.9971 40.001 -59.9971 106.001l66 99c46 -66.667 69 -130.667 69 -192
c0 -51.333 -15.667 -94.666 -47 -129.999c-32.667 -37.333 -74.334 -56 -125.001 -56c-24 0 -54.333 13 -91 39c-40 27.333 -58 52 -54 74c-50.667 -76.667 -106.667 -115 -168 -115c-11.333 0 -24.666 3.66699 -39.999 11c-20 9.33301 -32.333 15 -37 17
c-10.667 -66.667 -23.334 -137 -38.001 -211c-24 -50.667 -77.333 -89.334 -160 -116.001c-66 -21.333 -134 -32 -204 -32c-92 0 -171 21.333 -237 64c-77.333 50 -116 118.333 -116 205v31c0 16 12.333 54 37 114c22.667 56 38.334 90 47.001 102
c-18 -82.667 -27 -143 -27 -181c0 -75.333 39 -132 117 -170c61.333 -30 133.666 -45 216.999 -45c59.333 0 118.666 8.33301 177.999 25c82.667 23.333 124 56.333 124 99v44c0 52.667 -5 93.667 -15 123c-3.33301 10.667 -21.333 50 -54 118c13.333 26.667 35 61 65 103
c44 -124 108.333 -186 193 -186c52 0 89 21 111 63c9.33301 18 21.666 63 36.999 135c36.667 -134 84.667 -201 144 -201c22 0 37.667 5.66699 47 17c4 5.33301 11 20.666 21 45.999z" />
    <glyph glyph-name="u0635" unicode="&#x635;" horiz-adv-x="1674" arabic-form="isolated" 
d="M828 23c-10.667 -66.667 -23.3301 -136.998 -37.9971 -210.998c-24 -50.667 -77.333 -89.334 -160 -116.001c-66 -21.333 -134 -32 -204 -32c-92 0 -171 21.333 -237 64c-77.333 50 -116 118.333 -116 205v31c0 15.333 12.333 53 37 113
c22.667 56 38.334 90.333 47.001 103c-18 -82.667 -27 -143 -27 -181c0 -75.333 39 -132 117 -170c61.333 -30 133.666 -45 216.999 -45c59.333 0 118.666 8.33301 177.999 25c82.667 23.333 124 56.333 124 99v44c0 52.667 -5 93.667 -15 123
c-3.33301 10.667 -21.333 50 -54 118c13.333 26.667 35 61 65 103c44 -123.333 97.667 -185 161 -185c10 0 17 1.66699 21 5l256 216c42 34.667 91.333 52 148 52c33.333 0 81.666 -10.667 144.999 -32c71.333 -24 107 -48 107 -72c0 -26 -12.667 -66.333 -38 -121
c-27.333 -58.667 -51 -90.334 -71 -95.001c-186 -42.667 -358.333 -64 -517 -64c-84.667 0 -133.334 7.66699 -146.001 23zM1535 205.002c-76.667 56.667 -166.666 85 -269.999 85c-22 0 -63.667 -23 -125 -69c-50.667 -38 -89.334 -71 -116.001 -99l4 -2
c18 -0.666992 31 -1 39 -1c61.333 0 145.333 7.66699 252 23c130.667 18.667 202.667 39.667 216 63z" />
    <glyph glyph-name="u0636" unicode="&#x636;" horiz-adv-x="1670" arabic-form="isolated" 
d="M1069 649c0 7.33301 10.332 22.667 30.999 46s35.334 37 44.001 41c38.667 -22.667 69.667 -51.667 93 -87c-29.333 -50.667 -54.333 -80 -75 -88c-6 0 -23 13.333 -51 40s-42 42.667 -42 48zM819.999 23.001c-10.667 -66.667 -23.3301 -136.998 -37.9971 -210.998
c-24 -50.667 -77.333 -89.334 -160 -116.001c-66 -21.333 -134 -32 -204 -32c-92 0 -171 21.333 -237 64c-77.333 50 -116 118.333 -116 205v31c0 15.333 12.333 53 37 113c22.667 56 38.334 90.333 47.001 103c-18 -82.667 -27 -143 -27 -181c0 -75.333 39 -132 117 -170
c61.333 -30 133.666 -45 216.999 -45c59.333 0 118.666 8.33301 177.999 25c82.667 23.333 124 56.333 124 99v44c0 52.667 -5 93.667 -15 123c-3.33301 10.667 -21.333 50 -54 118c13.333 26.667 35 61 65 103c44 -123.333 97.667 -185 161 -185c10 0 17 1.66699 21 5
l256 216c42 34.667 91.333 52 148 52c33.333 0 81.666 -10.667 144.999 -32c71.333 -24 107 -48 107 -72c0 -26 -12.667 -66.333 -38 -121c-27.333 -58.667 -51 -90.334 -71 -95.001c-186 -42.667 -358.333 -64 -517 -64c-84.667 0 -133.334 7.66699 -146.001 23z
M1527 205.003c-76.667 56.667 -166.666 85 -269.999 85c-22 0 -63.667 -23 -125 -69c-50.667 -38 -89.334 -71 -116.001 -99l4 -2c18 -0.666992 31 -1 39 -1c61.333 0 145.333 7.66699 252 23c130.667 18.667 202.667 39.667 216 63z" />
    <glyph glyph-name="u0637" unicode="&#x637;" horiz-adv-x="1046" arabic-form="isolated" 
d="M306 130c-14 355.333 -51.667 624 -113 806l65 99c16 -44 32.667 -75 50 -93l81 -62l7 -7c-52.667 -22 -79 -42.667 -79 -62c0 12.667 5 -14 15 -80c11.333 -74.667 17 -161.334 17 -260.001c0 -153.333 -8 -261 -24 -323c84.667 74 180 150.333 286 229
c26.667 6 54.667 9 84 9c37.333 0 86.333 -10.333 147 -31c72 -24.667 108 -49.667 108 -75c0 -24 -13.667 -62.167 -41 -114.5s-51 -85.5 -71 -99.5c-64 -44 -214.667 -66 -452 -66c-84.667 0 -142 4.66699 -172 14c-34.667 10.667 -86 41.334 -154 92.001
c51.333 -1.33301 128 2.66699 230 12zM882 207c-19.333 14.667 -42.999 31.332 -70.999 49.999c-34.667 23.333 -101.334 35 -200.001 35c-23.333 0 -65 -22.667 -125 -68c-46.667 -35.333 -85 -68.666 -115 -99.999c14 -5.33301 48.667 -8 104 -8
c66.667 0 138.667 6.33301 216 19c105.333 17.333 169 41.333 191 72z" />
    <glyph glyph-name="u0638" unicode="&#x638;" horiz-adv-x="1042" arabic-form="isolated" 
d="M494 688c28 50.667 53.001 80.333 75.001 89c9.33301 0 27.166 -12.667 53.499 -38s39.5 -42.333 39.5 -51c0 -20.667 -25 -49.667 -75 -87c-6.66699 0 -37.667 29 -93 87zM325.001 147.999c84.667 74 180 150.333 286 229c26.667 6 54.667 9 84 9
c37.333 0 86.333 -10.333 147 -31c72 -24.667 108 -49.667 108 -75c0 -24 -13.667 -62.167 -41 -114.5s-51 -85.5 -71 -99.5c-64 -44 -214.667 -66 -452 -66c-84.667 0 -142 4.66699 -172 14c-34.667 10.667 -86 41.334 -154 92.001c51.333 -1.33301 128 2.66699 230 12
l16 12c-14 355.333 -51.667 624 -113 806l65 99c16 -44 32.667 -75 50 -93l81 -62l7 -7c-52.667 -22 -79 -42.667 -79 -62c0 12.667 5 -14 15 -80c11.333 -74.667 17 -161.334 17 -260.001c0 -153.333 -8 -261 -24 -323zM882.001 206.999
c-19.333 14.667 -42.999 31.332 -70.999 49.999c-34.667 23.333 -101.334 35 -200.001 35c-23.333 0 -65 -22.667 -125 -68c-46.667 -35.333 -85 -68.666 -115 -99.999c14 -5.33301 48.667 -8 104 -8c66.667 0 138.667 6.33301 216 19c105.333 17.333 169 41.333 191 72z
" />
    <glyph glyph-name="u0639" unicode="&#x639;" horiz-adv-x="778" arabic-form="isolated" 
d="M955 -323c-82 -128.667 -258.33 -192.999 -528.997 -192.999c-112.667 0 -202.334 29.333 -269.001 88c-70.667 61.333 -106 147.666 -106 258.999c0 134 45 264.667 135 392c2.66699 3.33301 5.66699 7.66602 9 12.999c0 -2 -13.667 12.333 -41 43s-41 57.667 -41 81
c0 70 6.33301 122.333 19 157c16.667 46 50.667 85.667 102 119c7.33301 4.66699 15.666 7 24.999 7c55.333 0 114.333 -36 177 -108c-164 0 -246 -32 -246 -96c0 -62 28 -93 84 -93c40 0 140.333 39.667 301 119c-24.667 -43.333 -54.334 -88.666 -89.001 -135.999
c-256 -105.333 -384 -247.333 -384 -426c0 -200.667 159.333 -301 478 -301c96 0 221 25 375 75z" />
    <glyph glyph-name="u063A" unicode="&#x63a;" horiz-adv-x="778" arabic-form="isolated" 
d="M187 927c0 7.33301 10.834 23.667 32.501 49s35.834 38 42.501 38c8 0 25.5 -12.5 52.5 -37.5s40.5 -41.5 40.5 -49.5s-10.333 -24 -31 -48s-35.334 -37.667 -44.001 -41c-6.66699 0 -23.834 13.167 -51.501 39.5s-41.5 42.833 -41.5 49.5zM959.001 -322.999
c-82 -128.667 -258.33 -192.999 -528.997 -192.999c-112.667 0 -202.334 29.333 -269.001 88c-70.667 61.333 -106 147.666 -106 258.999c0 134 45 264.667 135 392c2.66699 3.33301 5.66699 7.66602 9 12.999c0 -2 -13.667 12.333 -41 43s-41 57.667 -41 81
c0 70 6.33301 122.333 19 157c16.667 46 50.667 85.667 102 119c7.33301 4.66699 15.666 7 24.999 7c55.333 0 114.333 -36 177 -108c-164 0 -246 -32 -246 -96c0 -62 28 -93 84 -93c40 0 140.333 39.667 301 119c-24.667 -43.333 -54.334 -88.666 -89.001 -135.999
c-256 -105.333 -384 -247.333 -384 -426c0 -200.667 159.333 -301 478 -301c96 0 221 25 375 75z" />
    <glyph glyph-name="u0641" unicode="&#x641;" horiz-adv-x="1326" arabic-form="isolated" 
d="M581 74c202 0 409.002 41.668 621.002 125.001c-4.66699 26.667 -8.66699 46 -12 58c-8.66699 30 -18 45 -28 45c-48.667 -30 -94.334 -45 -137.001 -45c-70 0 -105 36.667 -105 110c0 41.333 12.667 86.666 38 135.999c29.333 56.667 62 85 98 85
c60.667 0 110 -45.333 148 -136c30 -72 45 -144.333 45 -217c0 -186.667 -235.667 -280 -707 -280c-110.667 0 -211.334 20.333 -302.001 61c-116 52 -174 126.333 -174 223c0 52.667 27.333 118.667 82 198l3 -11c-8.66699 -70 -12.667 -116.333 -12 -139l1 -27
c2.66699 -64 62.667 -113.333 180 -148c85.333 -25.333 172.333 -38 261 -38zM918.002 849.001c0 6 11.501 22.335 34.501 49.002s37.167 40 42.5 40c7.33301 0 24.5 -13 51.5 -39s40.5 -42.667 40.5 -50c-26.667 -46.667 -52.334 -75.334 -77.001 -86.001
c-9.33301 5.33301 -26.333 18.666 -51 39.999c-27.333 24 -41 39.333 -41 46zM976.003 414.003c0 -39.333 20.668 -59 62.001 -59c30 0 55 12 75 36c-46.667 70.667 -77.334 106 -92.001 106c-14 0 -25.333 -10.667 -34 -32c-7.33301 -17.333 -11 -34.333 -11 -51z" />
    <glyph glyph-name="u0642" unicode="&#x642;" horiz-adv-x="938" arabic-form="isolated" 
d="M741 197c-54 -37.333 -97.332 -55.9971 -129.999 -55.9971c-44.667 0 -67 40.333 -67 121c0 29.333 13 65.666 39 108.999c28 47.333 55.333 71 82 71c39.333 0 78.666 -31.333 117.999 -94c36 -57.333 55.667 -107.666 59 -150.999c2 -26.667 3 -44 3 -52
c0 -87.333 -61 -169.333 -183 -246c-110.667 -69.333 -212.334 -104 -305.001 -104c-88.667 0 -159 23.833 -211 71.5s-78 115.5 -78 203.5c0 24.667 13.667 68 41 130c28.667 65.333 51.334 98.666 68.001 99.999v-15c0 -10 -10.5 -43.167 -31.5 -99.5
s-31.5 -98.5 -31.5 -126.5c0 -48.667 32 -86.334 96 -113.001c49.333 -20.667 103 -31 161 -31c146 0 276.667 49.667 392 149c2 6 3 13 3 21c0 51.333 -8.33301 88.666 -25 111.999zM614.001 657.003c0 8 10.668 24.833 32.001 50.5s35.666 38.5 42.999 38.5
c8 0 25 -12.667 51 -38s39.667 -42.333 41 -51c-30.667 -44 -55.667 -72.667 -75 -86c-10 6 -27.333 19.667 -52 41c-26.667 24 -40 39 -40 45zM446.002 657.003c0 7.33301 11 24 33 50s36.333 39 43 39c7.33301 0 24.5 -13 51.5 -39s40.5 -42.667 40.5 -50
c-19.333 -34 -44.333 -62.667 -75 -86c-6 0 -23 13 -51 39s-42 41.667 -42 47zM587.002 285.003c0 -26.667 13.667 -40 41 -40c22 0 49.333 10.333 82 31c-36.667 55.333 -64 83 -82 83c-12 0 -22 -9.66699 -30 -29c-7.33301 -16 -11 -31 -11 -45z" />
    <glyph glyph-name="u0643" unicode="&#x643;" horiz-adv-x="1342" arabic-form="isolated" 
d="M344 -34c-66 0 -127.002 13 -183.002 39c-70.667 32.667 -106 78.334 -106 137.001c0 75.333 29 158 87 248c-1.33301 -10.667 -7.33301 -42.667 -18 -96c-8 -40 -12 -72 -12 -96c0 -76 137.333 -114 412 -114c290 0 487.333 20.333 592 61
c-24.667 82 -63.667 143.667 -117 185c-23.333 18 -87.666 53 -192.999 105c-73.333 36 -115 74.667 -125 116c-4.66699 19.333 -7 31.666 -7 36.999c0 110.667 234 215.667 702 315c-22 -34.667 -45.667 -69 -71 -103c-222.667 -26.667 -417 -94 -583 -202
c10.667 -20.667 55.667 -51 135 -91c96.667 -48.667 164.334 -89.667 203.001 -123c69.333 -60 104 -128.333 104 -205c0 -42 -4.66699 -80.667 -14 -116c-17.333 -64.667 -286 -97 -806 -97z" />
    <glyph glyph-name="u0644" unicode="&#x644;" horiz-adv-x="894" arabic-form="isolated" 
d="M118 162c0 -63.333 36.999 -109.662 110.999 -138.995c52.667 -20.667 117 -31 193 -31c57.333 0 111 6 161 18c70 16.667 112.333 42.334 127 77.001c4 9.33301 6 27.666 6 54.999c0 89.333 -14.333 224 -43 404c-30 187.333 -59 317.666 -87 390.999l65 101
c6.66699 -48 20.334 -84 41.001 -108c12 -14 44 -38 96 -72c-5.33301 -4 -21 -7.66699 -47 -11c-16.667 -2 -25 -17.667 -25 -47c0 -64.667 9 -161.5 27 -290.5s27 -225.833 27 -290.5c0 -26.667 -1 -58.334 -3 -95.001c-0.666992 -12.667 -13 -46.334 -37 -101.001
c-59.333 -94.667 -200 -142 -422 -142c-67.333 0 -122.666 21.667 -165.999 65s-65 98.666 -65 165.999c0 39.333 11.333 88.666 34 147.999c23.333 62 48.666 105.333 75.999 130c-46 -107.333 -69 -183.333 -69 -228z" />
    <glyph glyph-name="u0645" unicode="&#x645;" horiz-adv-x="654" arabic-form="isolated" 
d="M371 177c-34.667 34.667 -68 51.9971 -100 51.9971c-26 0 -47.667 -15.667 -65 -47c-2.66699 -4 -13.334 -30 -32.001 -78c-0.666992 5.33301 -1 17.333 -1 36c0 41.333 14.667 83.333 44 126c31.333 47.333 66.666 71 105.999 71c22.667 0 43.334 -9.66699 62.001 -29
c46.667 -48.667 87.667 -86.334 123 -113.001c58 -44 87 -68.667 87 -74c0 -14 -10.167 -33.833 -30.5 -59.5s-37.166 -38.5 -50.499 -38.5c-14 0 -39.667 7 -77 21s-65 21 -83 21c-80.667 0 -145.667 -21.333 -195 -64c-10.667 -9.33301 -16 -30.666 -16 -63.999
c0 -46 6.83301 -115 20.5 -207s20.5 -161 20.5 -207c0 -32 -2.33301 -60.667 -7 -86c-11.333 -61.333 -25 -115.666 -41 -162.999c-7.33301 0 -11 70 -11 210c0 46.667 -7 116.334 -21 209.001s-21 162.334 -21 209.001c0 84 28.667 148 86 192c38 29.333 105.333 57 202 83
z" />
    <glyph glyph-name="u0646" unicode="&#x646;" horiz-adv-x="934" arabic-form="isolated" 
d="M335 -250c-86 0 -151.333 26.667 -196 80c-42 49.333 -63 117.666 -63 204.999c0 31.333 8 83.333 24 156c18 82 34.333 123.667 49 125l3 -14c0 -25.333 -4.5 -63 -13.5 -113s-13.5 -87.667 -13.5 -113c0 -61.333 20.333 -110.833 61 -148.5s92 -56.5 154 -56.5
c170 0 323.667 75.333 461 226c1.33301 2.66699 2.33301 6.33398 3 11.001c0 23.333 -41.333 102.333 -124 237c13.333 28 37 64 71 108c61.333 -102 92 -185 92 -249c0 -53.333 -9.33301 -119.333 -28 -198c-7.33301 -30 -45 -69.667 -113 -119
c-126.667 -91.333 -249 -137 -367 -137zM321 580c10.667 28 36 57.667 76 89h1c8 0.666992 25.333 -12 52 -38s40 -43 40 -51s-10.833 -24.5 -32.5 -49.5s-36.167 -37.5 -43.5 -37.5c-6.66699 0 -23.167 12.5 -49.5 37.5s-40.833 41.5 -43.5 49.5z" />
    <glyph glyph-name="u0647" unicode="&#x647;" horiz-adv-x="546" arabic-form="isolated" 
d="M231 441c42.667 -10 87.999 -30 135.999 -60c60 -37.333 90 -72.333 90 -105c0 -76.667 -22.333 -144 -67 -202c-48 -63.333 -109.333 -95 -184 -95c-39.333 0 -72.666 11.333 -99.999 34c-29.333 24 -44 55 -44 93c0 50.667 18.667 111 56 181
c34 64.667 71.667 116 113 154zM219.999 99c30.667 0 65.668 8.66797 105.001 26.001c44 18.667 71.667 40 83 64c-0.666992 25.333 -29 54.666 -85 87.999c-52.667 31.333 -93.334 47 -122.001 47c-57.333 -78.667 -86 -131 -86 -157c0 -22 12.667 -39.333 38 -52
c20.667 -10.667 43 -16 67 -16z" />
    <glyph glyph-name="u0648" unicode="&#x648;" horiz-adv-x="698" arabic-form="isolated" 
d="M238 -270c207.333 106.667 311.003 209.668 311.003 309.001h-18c-60.667 -5.33301 -94 -8 -100 -8c-28.667 0 -54.334 6.66699 -77.001 20c-27.333 16 -41 37.333 -41 64c0 40.667 14 92 42 154c32 70.667 64 106 96 106c3.33301 0.666992 5.66602 0.666992 6.99902 0
c45.333 -14.667 81.333 -58 108 -130c21.333 -58 32 -116 32 -174c0 -134.667 -55.667 -253.334 -167 -356.001c-46.667 -43.333 -83.667 -65 -111 -65c-18.667 0 -67.334 10.333 -146.001 31c-81.333 21.333 -124 37.333 -128 48c5.33301 5.33301 22.333 8 51 8
c42.667 0 89.667 -2.33301 141 -7zM416.003 272.001c-10 0 -21.5 -13.5 -34.5 -40.5s-19.5 -46.5 -19.5 -58.5l5 -10c17.333 -10.667 40.333 -16 69 -16h25c3.33301 0 20 3.33301 50 10c-40 76.667 -71.667 115 -95 115z" />
    <glyph glyph-name="u0649" unicode="&#x649;" horiz-adv-x="1082" arabic-form="isolated" 
d="M128 108c0 -67.333 30.668 -118.003 92.001 -152.003c49.333 -27.333 110.666 -41 183.999 -41c160 0 302.333 40.667 427 122c10.667 6.66699 17.334 13.334 20.001 20.001c-0.666992 8 -29.667 17 -87 27c-76 12.667 -128 24.667 -156 36
c-63.333 24.667 -95 60.667 -95 108c0 68 45.667 142.333 137 223s171.333 121 240 121c27.333 0 51.333 -17.667 72 -53c18 -31.333 27 -62 27 -92c0 -27.333 -9 -41 -27 -41c-6.66699 0 -23 13.167 -49 39.5s-47.333 39.5 -64 39.5c-31.333 0 -82 -21.333 -152 -64
c-73.333 -44.667 -110 -80.667 -110 -108c0 -54 99 -92.667 297 -116c28.667 -3.33301 43 -18.666 43 -45.999c0 -47.333 -32.333 -100.666 -97 -159.999c-127.333 -117.333 -273.333 -176 -438 -176h-34c-180.667 0 -271 99.333 -271 298c0 114 32.667 212.667 98 296
c19.333 24.667 37.666 46 54.999 64c-74.667 -147.333 -112 -262.333 -112 -345z" />
    <glyph glyph-name="u064A" unicode="&#x64a;" horiz-adv-x="1082" arabic-form="isolated" 
d="M128 108c0 -67.333 30.668 -118.003 92.001 -152.003c49.333 -27.333 110.666 -41 183.999 -41c160 0 302.333 40.667 427 122c10.667 6.66699 17.334 13.334 20.001 20.001c-0.666992 8 -29.667 17 -87 27c-76 12.667 -128 24.667 -156 36
c-63.333 24.667 -95 60.667 -95 108c0 68 45.667 142.333 137 223s171.333 121 240 121c27.333 0 51.333 -17.667 72 -53c18 -31.333 27 -62 27 -92c0 -27.333 -9 -41 -27 -41c-6.66699 0 -23 13.167 -49 39.5s-47.333 39.5 -64 39.5c-31.333 0 -82 -21.333 -152 -64
c-73.333 -44.667 -110 -80.667 -110 -108c0 -54 99 -92.667 297 -116c28.667 -3.33301 43 -18.666 43 -45.999c0 -47.333 -32.333 -100.666 -97 -159.999c-127.333 -117.333 -273.333 -176 -438 -176h-34c-180.667 0 -271 99.333 -271 298c0 114 32.667 212.667 98 296
c19.333 24.667 37.666 46 54.999 64c-74.667 -147.333 -112 -262.333 -112 -345z" />
    <glyph glyph-name="u067E" unicode="&#x67e;" horiz-adv-x="1070" arabic-form="isolated" 
d="M713 -275c0 -7.33301 -10.668 -23.667 -32.001 -49s-35.333 -38 -42 -38h-1c-8 0 -25.333 12.5 -52 37.5s-40 41.5 -40 49.5s10.333 24 31 48s35.334 37.667 44.001 41c38 -23.333 68.667 -53 92 -89zM545.999 -275.001c0 -7.33301 -10.834 -23.667 -32.501 -49
s-35.834 -38 -42.501 -38h-1c-8 0 -25.333 12.5 -52 37.5s-40 41.5 -40 49.5s10.333 24 31 48s35.334 37.667 44.001 41c6.66699 0 23.834 -13.167 51.501 -39.5s41.5 -42.833 41.5 -49.5zM638.998 -450.002c0 -7.33301 -10.832 -23.666 -32.499 -48.999
s-35.834 -38 -42.501 -38h-1c-8 0 -25.333 12.5 -52 37.5s-40 41.5 -40 49.5c4.66699 9.33301 16.667 25.666 36 48.999c21.333 26 34.333 39 39 39c8 0 24.333 -12.667 49 -38c22 -22 36.667 -38.667 44 -50zM460.999 -56.002c-260 0 -390 74.6689 -390 224.002
c0 73.333 30.667 135.666 92 186.999l8 1c-33.333 -90.667 -49.666 -146.334 -48.999 -167.001l1 -24c1.33301 -37.333 45.666 -65.666 132.999 -84.999c60 -13.333 119.667 -20 179 -20c50.667 0 82 0.333008 94 1c59.333 3.33301 134.333 15.333 225 36
c119.333 27.333 179 55 179 83c0 23.333 -15.333 65.666 -46 126.999c19.333 36 41 70.333 65 103c36 -96 54 -169.333 54 -220c0 -106 -69.333 -177.667 -208 -215c-76.667 -20.667 -189 -31 -337 -31z" />
    <glyph glyph-name="u0686" unicode="&#x686;" horiz-adv-x="842" arabic-form="isolated" 
d="M651 -87c0 -6.66699 -11.001 -21.667 -33.001 -45c-19.333 -21.333 -34 -35.333 -44 -42h-1c-7.33301 -0.666992 -24.5 11.833 -51.5 37.5s-40.5 42.167 -40.5 49.5c0 8.66699 10.5 24.667 31.5 48s36.167 37 45.5 41c6.66699 0 23.834 -13.167 51.501 -39.5
s41.5 -42.833 41.5 -49.5zM480.999 -87c0 -7.33301 -10.833 -23.667 -32.5 -49s-35.834 -38 -42.501 -38c-8 0 -25.333 12.5 -52 37.5s-40 41.5 -40 49.5s10.333 24 31 48s35.334 37.667 44.001 41c12.667 -8.66699 30 -23 52 -43c26.667 -24.667 40 -40 40 -46z
M573.999 -263.001c-4.66699 -10 -16.333 -26.333 -35 -49c-20 -24.667 -33.333 -37 -40 -37c-8.66699 0 -26.167 12.333 -52.5 37s-39.5 41 -39.5 49s10.167 23.833 30.5 47.5s34.833 37.5 43.5 41.5c7.33301 0 24 -12.667 50 -38s40.333 -42.333 43 -51zM242 380.999
c26 0 64.333 -4.33105 115 -12.998s89 -13 115 -13c76 0 164 15 264 45c-26 -44 -59 -92.667 -99 -146l-165 -13c-101.333 -8 -190.333 -49.667 -267 -125c-79.333 -77.333 -119 -166 -119 -266c0 -106 52.333 -187 157 -243c84 -44.667 184 -67 300 -67
c115.333 0 230.666 9.33301 345.999 28c-72 -62.667 -129.333 -103.334 -172 -122.001c-50.667 -22 -119 -33 -205 -33c-119.333 0 -220 21.333 -302 64c-101.333 52.667 -157.666 132.667 -168.999 240c-4 38 -6 74 -6 108c0 79.333 19 153.333 57 222
c8.66699 15.333 54 80.666 136 195.999c0 17.333 -12.667 31.333 -38 42c-19.333 8 -39.333 12 -60 12c-22 0 -63.333 -7 -124 -21c2 4 25 20.333 69 49c57.333 37.333 113 56 167 56z" />
    <glyph glyph-name="u0698" unicode="&#x698;" horiz-adv-x="702" arabic-form="isolated" 
d="M323 691c0 8 10.6689 23.333 32.002 46c18.667 19.333 33.667 33 45 41c12 -6.66699 29.333 -20.334 52 -41.001c26 -23.333 39 -38.666 39 -45.999c0 -8 -10.333 -24 -31 -48s-35.334 -37.667 -44.001 -41c-6.66699 0 -23.834 13.167 -51.501 39.5
s-41.5 42.833 -41.5 49.5zM491.002 691c10.667 30.667 36.333 59.667 77 87c8 0 25.5 -12.5 52.5 -37.5s40.5 -41.5 40.5 -49.5c0 -8.66699 -10.5 -24.667 -31.5 -48s-36.167 -37 -45.5 -41c-8 0 -25 12.5 -51 37.5s-40 42.167 -42 51.5zM400.001 867
c5.33301 10.667 16.999 27 34.999 49c20 24.667 33.333 37 40 37s23.834 -12.833 51.501 -38.5s41.5 -41.5 41.5 -47.5c0 -7.33301 -11.167 -24 -33.5 -50s-36.833 -39 -43.5 -39s-23 12.833 -49 38.5s-40 42.5 -42 50.5zM549 465c74 -116 111 -237.334 111 -364.001
c0 -70.667 -45.5 -153.167 -136.5 -247.5s-171.833 -141.5 -242.5 -141.5c-56.667 0 -123.667 51 -201 153l7 5c16 -2 46 -12.333 90 -31c40 -16.667 68.667 -25 86 -25c40.667 0 108 43.667 202 131c97.333 90.667 146 161 146 211c0 45.333 -47.333 107 -142 185l-2 5
c0.666992 30.667 28 70.334 82 119.001z" />
    <glyph glyph-name="u06AF" unicode="&#x6af;" horiz-adv-x="1310" arabic-form="isolated" 
d="M334 -33c-66 0 -127.002 13 -183.002 39c-70.667 32.667 -106 78.334 -106 137.001c0 75.333 29 158 87 248c-1.33301 -10.667 -7.33301 -42.667 -18 -96c-8 -40 -12 -72 -12 -96c0 -76 137.333 -114 412 -114c290 0 487.333 20.333 592 61
c-24.667 82 -63.667 143.667 -117 185c-23.333 18 -87.666 53 -192.999 105c-73.333 36 -115 74.667 -125 116c-4.66699 19.333 -7 31.666 -7 36.999c0 110.667 234 215.667 702 315c-22 -34.667 -45.667 -69 -71 -103c-222.667 -26.667 -417 -94 -583 -202
c10.667 -20.667 55.667 -51 135 -91c96.667 -48.667 164.334 -89.667 203.001 -123c69.333 -60 104 -128.333 104 -205c0 -42 -4.66699 -80.667 -14 -116c-17.333 -64.667 -286 -97 -806 -97zM823.998 811c20 34.667 42.667 71 68 109c141.333 67.333 288.333 127 441 179
c-18 -34 -40.333 -69.667 -67 -107l-225 -81c-78 -30 -150.333 -63.333 -217 -100z" />
    <glyph glyph-name="uFB57" unicode="&#x67e;" horiz-adv-x="1258" arabic-form="final" 
d="M773 -269c0 -5.33301 -11.833 -21.167 -35.5 -47.5s-37.834 -39.5 -42.501 -39.5c-8 0 -25.333 12.5 -52 37.5s-40 41.5 -40 49.5c0 7.33301 11.167 24 33.5 50s36.833 39 43.5 39s23.834 -13.167 51.501 -39.5s41.5 -42.833 41.5 -49.5zM603 -269.001
c0 -7.33301 -10.668 -23.667 -32.001 -49s-35.333 -38 -42 -38h-1c-8 0 -25.333 12.5 -52 37.5s-40 41.5 -40 49.5c0 7.33301 10.833 24 32.5 50s35.834 39 42.501 39s23.667 -13.167 51 -39.5s41 -42.833 41 -49.5zM695.999 -444.002
c-6 -12.667 -17.334 -29.333 -34.001 -50c-20 -24.667 -33.667 -37 -41 -37c-8 0 -25.333 12.5 -52 37.5s-40 41.5 -40 49.5c6.66699 12 18.334 28.667 35.001 50c20 25.333 33 38 39 38c8 0 24.333 -12.667 49 -38c22 -22 36.667 -38.667 44 -50zM1056 308.999
c20.667 -76 39.666 -124.334 56.999 -145.001c26.667 -31.333 82.334 -47 167.001 -47l2 -117h-92c-39.333 0 -72 10.333 -98 31c-18.667 14.667 -40.667 41.334 -66 80.001l-49 -47c-65.333 -62.667 -208.666 -94 -429.999 -94c-115.333 0 -214.666 11.667 -297.999 35
c-128 36 -192 95 -192 177c0 53.333 26 113.333 78 180c-15.333 -42.667 -23 -80.334 -23 -113.001c0 -87.333 114 -140.666 342 -159.999c47.333 -4 96.666 -6 147.999 -6c173.333 0 299.666 21.333 378.999 64c32 17.333 57 71.333 75 162z" />
    <glyph glyph-name="uFB58" unicode="&#x67e;" horiz-adv-x="382" arabic-form="initial" 
d="M380 -317c0 -6.66699 -11.001 -21.667 -33.001 -45c-19.333 -21.333 -34 -35.333 -44 -42h-1c-7.33301 -0.666992 -24.5 11.833 -51.5 37.5s-40.5 42.167 -40.5 49.5c0 8.66699 10.5 24.667 31.5 48s36.167 37 45.5 41c6.66699 0 23.834 -13.167 51.501 -39.5
s41.5 -42.833 41.5 -49.5zM209.999 -317c0 -7.33301 -11.002 -23.667 -33.002 -49s-36.333 -38 -43 -38c-8 0 -25.333 12.5 -52 37.5s-40 41.5 -40 49.5s10.333 24 31 48s35.334 37.667 44.001 41c6.66699 0 23.834 -13.167 51.501 -39.5s41.5 -42.833 41.5 -49.5z
M302.997 -491.001c0 -7.33301 -11 -24 -33 -50s-36.333 -39 -43 -39c-8 0 -25.333 12.833 -52 38.5s-40 42.5 -40 50.5c28.667 49.333 53.667 78.333 75 87c36.667 -22 67.667 -51 93 -87zM274.997 173.999c0 10.667 -19.666 45 -58.999 103l65 99
c43.333 -63.333 65 -133.666 65 -210.999c0 -9.33301 -3.33301 -24 -10 -44c-8.66699 -26.667 -17 -46.667 -25 -60c-24 -41.333 -123 -62 -297 -62c-26.667 0 -41.334 0.333008 -44.001 1v117c186 0 283.667 8.66699 293 26c8 15.333 12 25.666 12 30.999z" />
    <glyph glyph-name="uFB59" unicode="&#x67e;" horiz-adv-x="511" arabic-form="medial" 
d="M442 -317c0 -6 -11.002 -21 -33.002 -45c-19.333 -20.667 -33.666 -34.667 -42.999 -42h-1c-7.33301 -0.666992 -24.5 11.833 -51.5 37.5s-40.5 42.167 -40.5 49.5c0 6 11.333 22.333 34 49s36.667 40 42 40c6.66699 0 23.834 -13.167 51.501 -39.5
s41.5 -42.833 41.5 -49.5zM272.998 -317c0 -7.33301 -11.002 -23.667 -33.002 -49s-36.333 -38 -43 -38c-8 0 -25.333 12.5 -52 37.5s-40 41.5 -40 49.5s10.333 24 31 48s35.334 37.667 44.001 41c6.66699 0 23.834 -13.167 51.501 -39.5s41.5 -42.833 41.5 -49.5z
M365.996 -491.001c0 -7.33301 -11 -24 -33 -50s-36.333 -39 -43 -39c-8 0 -25.333 12.833 -52 38.5s-40 42.5 -40 50.5c28.667 49.333 53.667 78.333 75 87c36.667 -22 67.667 -51 93 -87zM276.996 308.999c19.333 -71.333 35.334 -116 48.001 -134
c23.333 -32.667 64.666 -51.667 123.999 -57c44 -4 72.333 -4.33301 85 -1v-117h-123c-24.667 0 -57.667 11 -99 33c-45.333 24 -68 46.667 -68 68c0 3.33301 0.666992 6.66602 2 9.99902c-47.333 -74 -135.333 -111 -264 -111v117c157.333 0 243.333 22.333 258 67
c18 54.667 30.333 96.334 37 125.001z" />
    <glyph glyph-name="uFB7B" unicode="&#x686;" horiz-adv-x="886" arabic-form="final" 
d="M547 -93c0 -7.33301 -10.834 -23.667 -32.501 -49s-35.834 -38 -42.501 -38h-1c-8 0 -25.333 12.5 -52 37.5s-40 41.5 -40 49.5s10.333 24 31 48s35.334 37.667 44.001 41c6.66699 0 23.834 -13.167 51.501 -39.5s41.5 -42.833 41.5 -49.5zM378.999 -93.001
c0 -5.33301 -11.668 -21.167 -35.001 -47.5s-37.333 -39.5 -42 -39.5c-8 0 -25.333 12.5 -52 37.5s-40 41.5 -40 49.5c0 19.333 25.333 49 76 89c6.66699 0 23.834 -13.167 51.501 -39.5s41.5 -42.833 41.5 -49.5zM471.998 -269.002c0 -4.66699 -12.001 -20.333 -36.001 -47
s-37.667 -40 -41 -40c-8 0 -25.333 12.5 -52 37.5s-40 41.5 -40 49.5c0 6 11.333 22.333 34 49s36.667 40 42 40c6.66699 0 23.834 -13.167 51.501 -39.5s41.5 -42.833 41.5 -49.5zM245.997 375.999c26 0 64.832 -3.83203 116.499 -11.499s90.5 -11.5 116.5 -11.5
c87.333 0 176 15.667 266 47l-93 -143c-24.667 -10 -52.334 -13.667 -83.001 -11l-3 -15c0 -41.333 14.667 -76 44 -104c20.667 -6.66699 119.334 -10 296.001 -10v-117c-10.667 0 -27 -0.333008 -49 -1s-38.333 -1 -49 -1c-121.333 0 -197.333 10.667 -228 32
c-38.667 27.333 -63 97.333 -73 210c-83.333 0 -158.666 -21 -225.999 -63c-71.333 -44 -121.333 -103.667 -150 -179c-26.667 -70.667 -40 -125 -40 -163c0 -102.667 54.333 -181 163 -235c86.667 -43.333 186.334 -65 299.001 -65c130 0 241.667 7.66699 335 23
c-75.333 -64.667 -134.666 -105.334 -177.999 -122.001c-46.667 -18 -117.334 -27 -212.001 -27c-111.333 0 -207.333 23.667 -288 71c-94.667 55.333 -148.667 134.333 -162 237c-5.33301 41.333 -8 78.333 -8 111c0 71.333 21.333 144.333 64 219
c7.33301 13.333 51.666 77.666 132.999 192.999c-2.66699 16.667 -15 30.334 -37 41.001c-18.667 9.33301 -37.667 14 -57 14c-28 0 -71.333 -8.33301 -130 -25c99.333 70.667 177 106 233 106z" />
    <glyph glyph-name="uFB7C" unicode="&#x686;" horiz-adv-x="942" arabic-form="initial" 
d="M604 -196c0 -7.33301 -10.834 -23.667 -32.501 -49s-35.834 -38 -42.501 -38h-1c-8 0 -25.333 12.5 -52 37.5s-40 41.5 -40 49.5s10.333 24 31 48s35.334 37.667 44.001 41c6.66699 0 23.834 -13.167 51.501 -39.5s41.5 -42.833 41.5 -49.5zM435.999 -196.001
c0 -7.33301 -10.668 -23.667 -32.001 -49s-35.333 -38 -42 -38h-1c-8 0 -25.333 12.5 -52 37.5s-40 41.5 -40 49.5s10.167 23.833 30.5 47.5s34.833 37.5 43.5 41.5c6.66699 0 23.834 -13.167 51.501 -39.5s41.5 -42.833 41.5 -49.5zM528.998 -372.002
c0 -7.33301 -10.833 -23.668 -32.5 -49.001s-35.834 -38 -42.501 -38c-12 6 -29.667 19.333 -53 40c-26 22.667 -39 38.334 -39 47.001c0 8 10.167 23.833 30.5 47.5s34.833 37.5 43.5 41.5c6.66699 0 23.834 -13.167 51.501 -39.5s41.5 -42.833 41.5 -49.5z
M437.998 187.996c-12.667 24.667 -46.3379 49.334 -101.005 74.001c-50.667 23.333 -92 35 -124 35c-20 0 -43.833 -9.33301 -71.5 -28s-44.5 -28.334 -50.5 -29.001l-6 7c0 20 15.167 48.167 45.5 84.5s55.166 55.5 74.499 57.5c24.667 2.66699 38.667 4 42 4
c42 0 102.333 -20.333 181 -61c124.667 -64.667 196.334 -100.334 215.001 -107.001c63.333 -23.333 145.333 -35 246 -35c-20.667 -33.333 -43 -66.333 -67 -99h-53c-13.333 0 -33.166 2.33301 -59.499 7s-46.166 7 -59.499 7c-21.333 0 -51.333 -6.66699 -90 -20
c-81.333 -28 -175.666 -47.333 -282.999 -58c-57.333 -4.66699 -159.666 -13.667 -306.999 -27v117c126.667 4.66699 209 9.33398 247 14.001c76.667 9.33301 150.334 28.333 221.001 57z" />
    <glyph glyph-name="uFB7D" unicode="&#x686;" horiz-adv-x="806" arabic-form="medial" 
d="M570 -196c0 -7.33301 -10.834 -23.667 -32.501 -49s-35.834 -38 -42.501 -38h-1c-8 0 -25.333 12.5 -52 37.5s-40 41.5 -40 49.5s10.333 24 31 48s35.334 37.667 44.001 41c6.66699 0 23.834 -13.167 51.501 -39.5s41.5 -42.833 41.5 -49.5zM401.999 -196.001
c0 -8 -10.6689 -23.333 -32.002 -46c-18.667 -19.333 -33.667 -33 -45 -41c-13.333 6.66699 -31 19.667 -53 39c-25.333 22 -38 38 -38 48c0 8 10.333 24 31 48s35.334 37.667 44.001 41c6.66699 0 23.834 -13.167 51.501 -39.5s41.5 -42.833 41.5 -49.5zM494.997 -372.001
c0 -5.33301 -11.833 -21.167 -35.5 -47.5s-37.834 -39.5 -42.501 -39.5c-8 0 -25.333 12.5 -52 37.5s-40 41.5 -40 49.5c0 6 11.5 22.333 34.5 49s37.167 40 42.5 40c6.66699 0 23.834 -13.167 51.501 -39.5s41.5 -42.833 41.5 -49.5zM355.997 245.998
c-78 51.333 -140.666 76.998 -187.999 76.998c-20 0 -69.333 -13.333 -148 -40l7 22c75.333 78 132.666 117 171.999 117c31.333 0 97.166 -20.667 197.499 -62s178.5 -62 234.5 -62c30 0 62 3 96 9c-16 -35.333 -36.667 -69.666 -62 -102.999
c-17.333 -4.66699 -49.333 -7 -96 -7l-7 -1l-2 -12c0 -43.333 91 -65.666 273 -66.999v-117h-15c-71.333 0 -137.333 9 -198 27c-90 26.667 -135 70 -135 130l-64 6c-30 0 -51.667 -6 -65 -18c-99.333 -90.667 -224 -139 -374 -145v117
c174.667 19.333 299.334 62.333 374.001 129z" />
    <glyph glyph-name="uFB8B" unicode="&#x698;" horiz-adv-x="824" arabic-form="final" 
d="M321 580c0 8 10.335 23.333 31.002 46c17.333 19.333 32 33 44 41c11.333 -6 29 -19.333 53 -40c26.667 -23.333 40 -39 40 -47s-10.333 -24 -31 -48s-35.334 -37.667 -44.001 -41c-6.66699 0 -23.834 13.167 -51.501 39.5s-41.5 42.833 -41.5 49.5zM489.002 580
c0 8 10.334 23.334 31.001 46.001c17.333 19.333 32 33 44 41c12 -6 29.667 -19.333 53 -40c26 -22.667 39 -38.334 39 -47.001c0 -6.66699 -10.833 -23.167 -32.5 -49.5s-35.5 -39.5 -41.5 -39.5c-6.66699 0 -23.834 13.167 -51.501 39.5s-41.5 42.833 -41.5 49.5z
M396.003 755.001c2 6.66699 14.332 22.833 36.999 48.5s36.334 38.5 41.001 38.5c8 0 25 -12.5 51 -37.5s39 -41.5 39 -49.5c-29.333 -50.667 -54.333 -80 -75 -88c-6.66699 0 -23.167 12.667 -49.5 38s-40.833 42 -43.5 50zM850.002 117l0.000976562 -117.001l-179 -2
c-19.333 -77.333 -65.666 -148.333 -138.999 -213c-76.667 -68 -153.334 -102 -230.001 -102c-87.333 0 -157.666 43 -210.999 129c-14 22.667 -26.667 46.334 -38 71.001c26 -7.33301 61.667 -25 107 -53c31.333 -19.333 76.666 -29 135.999 -29
c128.667 0 236 72.333 322 217l-95 61c-16.667 18 -24.334 50.667 -23.001 98l1 29c38 -25.333 77.667 -50.333 119 -75c15.333 -9.33301 92 -14 230 -14z" />
    <glyph glyph-name="uFEDA" unicode="&#x6a9;" horiz-adv-x="1570" arabic-form="final" 
d="M33 150c0 28.667 10.334 70.332 31.001 124.999c19.333 52 38.333 91.333 57 118c-20.667 -109.333 -31 -171.333 -31 -186c0 -48 52.333 -82 157 -102c66 -12.667 138.333 -19 217 -19c241.333 0 450.333 15 627 45c-12.667 58 -26 94.333 -40 109
c-57.333 60.667 -90.333 94.667 -99 102c-42.667 36.667 -84 55 -124 55c-16 0 -30.333 13 -43 39c-11.333 22.667 -17 43 -17 61c0 130 231 260.667 693 392c-20.667 -34.667 -43 -69 -67 -103c-198 -38.667 -388.333 -127 -571 -265c33.333 -8 65 -24 95 -48l442 -356h234
v-117c-16 -1.33301 -44.333 -1.66602 -85 -0.999023l-104 1c-41.333 0.666992 -99.333 33.667 -174 99l-148 135c35.333 -106 53 -165 53 -177c0 -30.667 -80 -54.667 -240 -72c-114.667 -12.667 -212.334 -18.334 -293.001 -17.001c-108 1.33301 -193.667 5.33301 -257 12
c-112.667 11.333 -179 20.333 -199 27c-76 24.667 -114 72.334 -114 143.001z" />
    <glyph glyph-name="uFEDB" unicode="&#x6a9;" horiz-adv-x="810" arabic-form="initial" 
d="M745 903l-70.001 -103c-76 -9.33301 -164 -29.666 -264 -60.999c-213.333 -66.667 -320 -113.667 -320 -141c0 -9.33301 49.333 -39 148 -89c102.667 -52 170.334 -94 203.001 -126c56 -54.667 84 -128 84 -220c0 -28 -2 -54 -6 -78c-5.33301 -34 -84 -56.333 -236 -67
l-314 -18v117c11.333 -0.666992 23.666 -1 36.999 -1l241 5c78 1.33301 157 13.666 237 36.999c-43.333 100.667 -98.333 173.667 -165 219c-109.333 48 -166.666 73.333 -171.999 76c-70 40.667 -105 85.667 -105 135c0 110.667 234 215.667 702 315z" />
    <glyph glyph-name="uFEDC" unicode="&#x6a9;" horiz-adv-x="798" arabic-form="medial" 
d="M319 141c0 38.667 -12.0029 71.665 -36.0029 98.998c-92.667 104.667 -167 157 -223 157c-15.333 0 -29.666 13 -42.999 39c-12 22.667 -18 42.667 -18 60c0 136 231.333 267 694 393l-65 -103c-196.667 -38.667 -387.667 -127 -573 -265
c56 -13.333 155 -77.666 297 -192.999l238 -197c16.667 -13.333 66.334 -18.666 149.001 -15.999c38.667 1.33301 66.334 2 83.001 2v-117l-213 1c-20.667 0 -69.667 34.333 -147 103l-145 130c34 -104.667 51 -163.667 51 -177c0 -38 -42 -57 -126 -57h-260v117h288
c32.667 0 49 8 49 24z" />
    <glyph glyph-name="uFB93" unicode="&#x6af;" horiz-adv-x="1574" arabic-form="final" 
d="M45 150c0 28.667 10.334 70.333 31.001 125c19.333 52 38.333 91.333 57 118c-20.667 -109.333 -31 -171.333 -31 -186c0 -48 52.333 -82 157 -102c66 -12.667 138.333 -19 217 -19c241.333 0 450.333 15 627 45c-12.667 58 -26 94.333 -40 109
c-57.333 60.667 -90.333 94.667 -99 102c-42.667 36.667 -84 55 -124 55c-16 0 -30.333 13 -43 39c-11.333 22.667 -17 43 -17 61c0 130 231 260.667 693 392c-20.667 -34.667 -43 -69 -67 -103c-198 -38.667 -388.333 -127 -571 -265c33.333 -8 65 -24 95 -48l442 -356h230
v-117c-27.333 -0.666992 -54.333 -1 -81 -1l-104 1c-41.333 0.666992 -99.333 33.667 -174 99l-148 135c35.333 -106 53 -165 53 -177c0 -30.667 -80 -54.667 -240 -72c-114.667 -12.667 -212.334 -18.334 -293.001 -17.001c-108 1.33301 -193.667 5.33301 -257 12
c-112.667 11.333 -179 20.333 -199 27c-76 24.667 -114 72.334 -114 143.001zM828.001 809.999c20 34.667 42.667 71 68 109c141.333 67.333 288.333 127 441 179c-18 -34 -40.333 -69.667 -67 -107l-225 -81c-78 -30 -150.333 -63.333 -217 -100z" />
    <glyph glyph-name="uFB94" unicode="&#x6af;" horiz-adv-x="731" arabic-form="initial" 
d="M745 903l-70.001 -103c-76 -9.33301 -164 -29.666 -264 -60.999c-213.333 -66.667 -320 -113.667 -320 -141c0 -9.33301 49.333 -39 148 -89c102.667 -52 170.334 -94 203.001 -126c56 -54.667 84 -128 84 -220c0 -28 -2 -54 -6 -78c-5.33301 -34 -84 -56.333 -236 -67
l-314 -18v117c11.333 -0.666992 23.666 -1 36.999 -1l241 5c78 1.33301 157 13.666 237 36.999c-43.333 100.667 -98.333 173.667 -165 219c-109.333 48 -166.666 73.333 -171.999 76c-70 40.667 -105 85.667 -105 135c0 110.667 234 215.667 702 315zM146.999 760
c14.667 24.667 37.667 60.999 69 108.999c130 62.667 276.667 122.334 440 179.001c-28 -56 -50 -91.667 -66 -107l-226 -80c-72.667 -26 -145 -59.667 -217 -101z" />
    <glyph glyph-name="uFB95" unicode="&#x6af;" horiz-adv-x="798" arabic-form="medial" 
d="M319 141c0 38.667 -12.0029 71.665 -36.0029 98.998c-92.667 104.667 -167 157 -223 157c-15.333 0 -29.666 13 -42.999 39c-12 22.667 -18 42.667 -18 60c0 136 231.333 267 694 393l-65 -103c-196.667 -38.667 -387.667 -127 -573 -265
c56 -13.333 155 -77.666 297 -192.999l238 -197c16.667 -13.333 66.334 -18.666 149.001 -15.999c38.667 1.33301 66.334 2 83.001 2v-117l-213 1c-20.667 0 -69.667 34.333 -147 103l-145 130c34 -104.667 51 -163.667 51 -177c0 -38 -42 -57 -126 -57h-260v117h288
c32.667 0 49 8 49 24zM146.997 759.998c14.667 24.667 37.667 60.999 69 108.999c130 62.667 276.667 122.334 440 179.001c-28 -56 -50 -91.667 -66 -107l-226 -80c-72.667 -26 -145 -59.667 -217 -101z" />
    <glyph glyph-name="uFE94" unicode="&#x6c0;" horiz-adv-x="546" arabic-form="final" 
d="M282 206c-2.66699 -2 -9.99805 -11.667 -21.998 -29c-8.66699 -12.667 -17.667 -19 -27 -19c-18 0 -53.333 10.333 -106 31c-56 21.333 -84 37.666 -84 48.999c0 55.333 23.333 103.333 70 144c11.333 10 58.666 40.333 141.999 91v38c8 14.667 29.667 48.334 65 101.001
l-1 -62v-71c0 -109.333 11.667 -190.333 35 -243c35.333 -79.333 108.666 -119 219.999 -119v-117c-23.333 -1.33301 -45.333 -2 -66 -2c-100.667 0 -176 69.333 -226 208zM255.002 426c-26.667 -10.667 -55.333 -23.667 -86 -39c-41.333 -20 -62 -43 -62 -69
c0 -4 2 -10.333 6 -19c42.667 -20.667 77.667 -31 105 -31c18.667 0 33.667 3.66699 45 11c-3.33301 34.667 -6 83.667 -8 147zM271.003 843l5 -12.999c0 -18 -14.333 -29.333 -43 -34c-19.333 16 -38.333 24 -57 24c-23.333 0 -58.333 -22.667 -105 -68
c16 -32 47 -48 93 -48h36c5.33301 1.33301 30 6 74 14c4.66699 -2.66699 8.33398 -6.66699 11.001 -12c0 -28.667 -8 -43.667 -24 -45l-125 -12c-22.667 -6 -57 -27.667 -103 -65l-5 10c1.33301 3.33301 7.66602 15.666 18.999 36.999c9.33301 17.333 14 29 14 35v3
c-28 24.667 -42 40.667 -42 48c0 12 17.333 34.667 52 68c30 28.667 52.333 46.667 67 54c31.333 15.333 59 23 83 23c20 0 36.667 -6.33301 50 -19z" />
    <glyph glyph-name="uFEF2" unicode="&#x6cc;" horiz-adv-x="1022" arabic-form="final" 
d="M680 -91c89.333 -38.667 179.668 -81.6631 271.001 -128.996c6 -41.333 9 -68 9 -80c0 -36 -24 -67.333 -72 -94c-104.667 -58 -178.667 -95.333 -222 -112c-76 -28.667 -157.667 -43 -245 -43c-94.667 0 -178.667 22.333 -252 67c-86 52.667 -129 123 -129 211
c0 46 13.333 93.333 40 142l73 130c10.667 19.333 19.667 33.666 27 42.999c-44.667 -148.667 -67 -233.334 -67 -254.001c0 -81.333 39 -141 117 -179c59.333 -29.333 134.333 -44 225 -44c126.667 0 265 29.333 415 88c13.333 5.33301 20 11 20 17
c0 8 -44.333 32.667 -133 74s-133 62.666 -133 63.999c0 203.333 143.333 305.666 430 306.999v-117c-238.667 0 -363.334 -30.333 -374.001 -91z" />
    <glyph glyph-name="uFEF3" unicode="&#x6cc;" horiz-adv-x="390" arabic-form="initial" 
d="M180 -253c10.667 30.667 36.333 59.333 77 86c6.66699 0 23.667 -12.833 51 -38.5s41 -41.5 41 -47.5s-11.333 -22.333 -34 -49s-36.667 -40 -42 -40c-8 0 -25 12.667 -51 38s-40 42.333 -42 51zM11.999 -253.001c23.333 44 48.332 72.6689 74.999 86.002
c12 -6.66699 29.833 -20.334 53.5 -41.001s36.834 -35.667 39.501 -45c-26.667 -48.667 -51.667 -78.334 -75 -89.001c-8 0 -25 12.5 -51 37.5s-40 42.167 -42 51.5zM275.998 172.001c0 10.667 -20.002 45.333 -60.002 104l65 99c42 -60.667 63 -122 63 -184
c0 -41.333 -11 -85 -33 -131c-13.333 -28 -48.666 -45 -105.999 -51c-76 -8 -144.333 -11.333 -205 -10l-39 1v117c66.667 -3.33301 110.334 -5 131.001 -5c122.667 0 184 20 184 60z" />
    <glyph glyph-name="uFEF4" unicode="&#x6cc;" horiz-adv-x="517" arabic-form="medial" 
d="M257 -287c4 9.33301 15.833 26.499 35.5 51.499s32.5 37.5 38.5 37.5c6.66699 0 23.834 -13.167 51.501 -39.5s41.5 -42.833 41.5 -49.5c0 -7.33301 -10.833 -23.666 -32.5 -48.999s-35.834 -38 -42.501 -38c-46 27.333 -76.667 56.333 -92 87zM87 -287.001
c8 29.333 33.667 58.999 77 88.999c8 0 25.5 -12.833 52.5 -38.5s40.5 -42.5 40.5 -50.5c0 -7.33301 -10.667 -22.666 -32 -45.999s-36.333 -37 -45 -41c-6.66699 0 -23.167 12.5 -49.5 37.5s-40.833 41.5 -43.5 49.5zM277 308.998c20.667 -76 41.332 -125.333 61.999 -148
c27.333 -30 74 -45 140 -45c25.333 0 44.333 0.333008 57 1l2 -117h-127c-24.667 0 -57.667 11 -99 33c-45.333 24 -68 46.667 -68 68c0 3.33301 0.666992 6.66602 2 9.99902c-47.333 -74 -136.666 -111 -267.999 -111v117c160 0 247.333 22.333 262 67
c18 54.667 30.333 96.334 37 125.001z" />
    <glyph glyph-name="Hcircumflex" unicode="&#x622;" horiz-adv-x="491" arabic-form="final" 
d="M135 739c5.33301 12 27 45.001 65 99.001c32.667 -90.667 50 -177.334 52 -260.001c6.66699 -232.667 29 -370 67 -412c31.333 -34.667 99 -51 203 -49v-117c-190.667 -0 -294.667 69.333 -312 208l-17 134c-2 37.333 -6 104.333 -12 201
c-4.66699 76.667 -20 142 -46 196zM14 919.001c0 51.333 4.66699 87.333 14 108c14.667 32.667 44.334 49 89.001 49c27.333 0 68.333 -1.83301 123 -5.5s95.667 -5.5 123 -5.5c25.333 0 53 6.66699 83 20c36.667 16 55 34.667 55 56v4c-12.667 -74 -29 -119.667 -49 -137
c-34.667 -30.667 -121.334 -46 -260.001 -46c-7.33301 0 -17.833 1.83301 -31.5 5.5s-24.167 5.5 -31.5 5.5c-50.667 0 -89 -18 -115 -54z" />
    <glyph glyph-name="uFE84" unicode="&#x623;" horiz-adv-x="505" arabic-form="final" 
d="M299 1073c0 -15.333 -14.001 -25.668 -42.001 -31.001c-30 14.667 -49.333 22 -58 22c-26 0 -61.333 -22.667 -106 -68c17.333 -31.333 47 -47 89 -47h40c12 2.66699 37 7.33398 75 14.001c8 1.33301 12 -7 12 -25c0 -21.333 -8.66699 -32.333 -26 -33
c-68.667 -3.33301 -110.334 -7 -125.001 -11c-21.333 -6 -55.666 -28 -102.999 -66l-5 10l19 38c9.33301 18 14 29.667 14 35v2c-27.333 23.333 -41 39.333 -41 48c0 13.333 17.333 36.333 52 69c31.333 30 54 48.333 68 55c28.667 14 55.334 21 80.001 21
c38 0 57 -11 57 -33zM146.999 738.998c21.333 34.667 43.667 67.666 67 98.999c26.667 -77.333 43.667 -162 51 -254c2.66699 -50 8 -125.333 16 -226c10 -107.333 29.667 -174.333 59 -201s94 -40 194 -40v-117h-65c-44 0 -93.333 13.333 -148 40
c-81.333 40 -122 185.333 -122 436c0 102.667 -17.333 190.334 -52 263.001z" />
    <glyph glyph-name="uFE86" unicode="&#x624;" horiz-adv-x="690" arabic-form="final" 
d="M579 -4l-40 -105c-22 -58.667 -55 -109 -99 -151c-48.667 -47.333 -101.334 -74.333 -158.001 -81c-16.667 -2 -33.334 -3 -50.001 -3c-26 0 -63 7.33301 -111 22c-56.667 17.333 -85 34 -85 50c0 8.66699 19 13 57 13c8.66699 0 22 -0.666992 40 -2s31.333 -2 40 -2
c164.667 0 282.334 87 353.001 261c-21.333 -1.33301 -34 -2 -38 -2c-38.667 0 -75.667 14 -111 42s-53 61 -53 99c0 28 14.333 62 43 102c29.333 42.667 57.333 64 84 64c40.667 0 85.334 -62 134.001 -186h129v-117zM532 117c-26.667 80 -55.332 119.999 -85.999 119.999
c-12.667 0 -25.334 -8.16699 -38.001 -24.5s-19 -31.166 -19 -44.499c0 -35.333 34 -53 102 -53h23zM423.002 776.999l5 -12.999c0 -18 -14.333 -29.333 -43 -34c-19.333 16 -38.333 24 -57 24c-23.333 0 -58.333 -22.667 -105 -68c16 -32 47 -48 93 -48h36
c5.33301 1.33301 30 6 74 14c4.66699 -2.66699 8.33398 -6.66699 11.001 -12c0 -28.667 -8 -43.667 -24 -45l-125 -12c-22.667 -6 -57 -27.667 -103 -65l-5 10c1.33301 3.33301 7.66602 15.666 18.999 36.999c9.33301 17.333 14 29 14 35v3c-28 24.667 -42 40.667 -42 48
c0 12 17.333 34.667 52 68c30 28.667 52.333 46.667 67 54c31.333 15.333 59 23 83 23c20 0 36.667 -6.33301 50 -19z" />
    <glyph glyph-name="uFE88" unicode="&#x625;" horiz-adv-x="491" arabic-form="final" 
d="M135 935c5.33301 12 27.001 44.998 65.001 98.998c24 -65.333 38 -132 42 -200c1.33301 -7.33301 5.66602 -75.666 12.999 -204.999c1.33301 -19.333 5 -61.666 11 -126.999c5.33301 -52.667 8 -95 8 -127c0 -104.667 15.333 -173.667 46 -207
c32.667 -36 100 -53 202 -51v-117c-108 -0 -183 16.333 -225 49c-46.667 36 -75.667 106 -87 210c-4 29.333 -9.66699 86 -17 170c-1.33301 47.333 -4 132.333 -8 255c-4 104 -20.667 187.667 -50 251zM357.001 -115.002l5 -12.999c0 -18 -14.333 -29.333 -43 -34
c-19.333 16 -38.333 24 -57 24c-23.333 0 -58.333 -22.667 -105 -68c16 -32 47 -48 93 -48h36c5.33301 1.33301 30 6 74 14c4.66699 -2.66699 8.33398 -6.66699 11.001 -12c0 -28.667 -8 -43.667 -24 -45l-125 -12c-22.667 -6 -57 -27.667 -103 -65l-5 10
c1.33301 3.33301 7.66602 15.666 18.999 36.999c9.33301 17.333 14 29 14 35v3c-28 24.667 -42 40.667 -42 48c0 12 17.333 34.667 52 68c30 28.667 52.333 46.667 67 54c31.333 15.333 59 23 83 23c20 0 36.667 -6.33301 50 -19z" />
    <glyph glyph-name="uFE8A" unicode="&#x626;" horiz-adv-x="1006" arabic-form="final" 
d="M668 -91c89.333 -38.667 179.667 -81.6631 271 -128.996c6 -41.333 9 -68 9 -80c0 -36 -24 -67.333 -72 -94c-104.667 -58 -178.667 -95.333 -222 -112c-76 -28.667 -157.667 -43 -245 -43c-94.667 0 -178.667 22.333 -252 67c-86 52.667 -129 123 -129 211
c0 46 13.333 93.333 40 142l73 130c10.667 19.333 19.667 33.666 27 42.999c-44.667 -148.667 -67 -233.334 -67 -254.001c0 -81.333 39 -141 117 -179c59.333 -29.333 134.333 -44 225 -44c126.667 0 265 29.333 415 88c13.333 5.33301 20 11 20 17
c0 8 -44.333 32.667 -133 74s-133 62.666 -133 63.999c0 203.333 142 305.666 426 306.999v-117c-236 0 -359.333 -30.333 -370 -91zM568.001 533.004l5 -12.999c0 -18 -14.333 -29.333 -43 -34c-19.333 16 -38.333 24 -57 24c-23.333 0 -58.333 -22.667 -105 -68
c16 -32 47 -48 93 -48h36c5.33301 1.33301 30 6 74 14c4.66699 -2.66699 8.33398 -6.66699 11.001 -12c0 -28.667 -8 -43.667 -24 -45l-125 -12c-22.667 -6 -57 -27.667 -103 -65l-5 10c1.33301 3.33301 7.66602 15.666 18.999 36.999c9.33301 17.333 14 29 14 35v3
c-28 24.667 -42 40.667 -42 48c0 12 17.333 34.667 52 68c30 28.667 52.333 46.667 67 54c31.333 15.333 59 23 83 23c20 0 36.667 -6.33301 50 -19z" />
    <glyph glyph-name="uFE8B" unicode="&#x626;" horiz-adv-x="390" arabic-form="initial" 
d="M314 840c0 -19.333 -14.334 -30 -43.001 -32c-26 14.667 -45 22 -57 22c-21.333 0 -57 -22 -107 -66c18 -32.667 49 -49 93 -49h36c6 1.33301 31.333 6 76 14c4.66699 -2.66699 8.33398 -6.66699 11.001 -12v-11c0 -20.667 -8 -31.667 -24 -33l-126 -12
c-22.667 -6.66699 -56.667 -29 -102 -67l-5 11c0.666992 3.33301 7 15.333 19 36c8 14 12 26 12 36v4l-32 29l-8 18c0 12 17.333 34.333 52 67c32 30 54.333 48.333 67 55c28 14.667 55.333 22 82 22c30 0 48.667 -10.667 56 -32zM275.999 173
c0 10.667 -20 45.3311 -60 103.998l65 99c42.667 -65.333 64 -135 64 -209c0 -30 -12 -66.667 -36 -110c-18.667 -33.333 -127 -52.666 -325 -57.999l-8 1v117c115.333 -2 193.333 0 234 6c44 6.66699 66 23.334 66 50.001z" />
    <glyph glyph-name="uFE8C" unicode="&#x626;" horiz-adv-x="511" arabic-form="medial" 
d="M326 622c0 -19.333 -14.334 -30 -43.001 -32c-29.333 14.667 -48 22 -56 22c-20.667 0 -56 -22.333 -106 -67c16 -32 47 -48 93 -48h36c5.33301 1.33301 30 6 74 14c4.66699 -2.66699 8.33398 -6.66699 11.001 -12c0 -28.667 -8 -43.667 -24 -45l-126 -12
c-23.333 -6.66699 -57.333 -28.667 -102 -66l-5 10c22 55.333 33 80 33 74v3c-28 24 -42 39.667 -42 47c0 12 17.333 34.333 52 67c32 30 54.333 48.333 67 55c28 14.667 55.333 22 82 22c30 0 48.667 -10.667 56 -32zM276.999 309c22 -86 48.333 -139.666 79 -160.999
c28.667 -20.667 88.667 -31 180 -31l2 -117h-127c-24.667 0 -57.667 11 -99 33c-45.333 24 -68 46.667 -68 68c0 3.33301 0.666992 6.66602 2 9.99902c-47.333 -74 -136.666 -111 -267.999 -111v117c160 0 247.333 22.333 262 67c19.333 57.333 31.666 99 36.999 125z" />
    <glyph glyph-name="uFE8E" unicode="&#x627;" horiz-adv-x="491" arabic-form="final" 
d="M135 935c5.33301 12 26.999 44.9971 64.999 98.9971c24 -65.333 38 -132 42 -200c1.33301 -7.33301 5.66602 -75.666 12.999 -204.999c1.33301 -19.333 5 -61.666 11 -126.999c5.33301 -52.667 8 -95 8 -127c0 -103.333 14.667 -172 44 -206
c32.667 -36.667 99.334 -54 200.001 -52v-117c-106.667 0 -181 16.667 -223 50c-45.333 36.667 -73.666 106.334 -84.999 209.001c-4 29.333 -9.66699 86 -17 170c-1.33301 47.333 -4 132.333 -8 255c-4 104 -20.667 187.667 -50 251z" />
    <glyph glyph-name="uFE90" unicode="&#x628;" horiz-adv-x="1254" arabic-form="final" 
d="M474 -321c0 6 11.334 21.999 34.001 47.999s36.667 39 42 39c7.33301 0 24.5 -12.667 51.5 -38s40.5 -41.666 40.5 -48.999s-10.667 -22.666 -32 -45.999c-18.667 -20.667 -33 -34.334 -43 -41.001c-6.66699 0 -23.834 13 -51.501 39s-41.5 42 -41.5 48zM1052 308.999
c20.667 -76 39.666 -124.332 56.999 -144.999c26.667 -31.333 82.334 -47 167.001 -47l2 -117h-92c-40 0 -72.667 10 -98 30c-17.333 14 -39.333 41 -66 81c-60.667 -60 -134.667 -100 -222 -120c-60.667 -14 -146.334 -21 -257.001 -21c-116.667 0 -216 11.333 -298 34
c-128 35.333 -192 94.666 -192 177.999c0 53.333 26 113.333 78 180c-15.333 -48.667 -23 -92.667 -23 -132c0 -52.667 70.667 -92.667 212 -120c93.333 -18 186 -27 278 -27c247.333 0 387 36.333 419 109c6.66699 14.667 18.334 53.667 35.001 117z" />
    <glyph glyph-name="uFE91" unicode="&#x628;" horiz-adv-x="390" arabic-form="initial" 
d="M93 -317c0 6.66699 11.001 23.168 33.001 49.501s36 39.5 42 39.5c8 0 25.167 -12.667 51.5 -38s40.166 -42.333 41.499 -51c-29.333 -49.333 -54.333 -78.333 -75 -87c-6 0 -23 13.167 -51 39.5s-42 42.166 -42 47.499zM276.001 173.001
c0 10.667 -20 45.334 -60 104.001l65 99c42.667 -65.333 64 -135 64 -209c0 -26.667 -12 -63.334 -36 -110.001c-19.333 -38 -122.333 -57 -309 -57h-30v117h178c85.333 0 128 18.667 128 56z" />
    <glyph glyph-name="uFE92" unicode="&#x628;" horiz-adv-x="511" arabic-form="medial" 
d="M206 -317c0 7.33301 10.833 24.001 32.5 50.001s35.834 39 42.501 39c8 0 25.167 -12.667 51.5 -38s40.166 -42.333 41.499 -51c-29.333 -49.333 -54.333 -78.333 -75 -87c-6 0 -23 13.167 -51 39.5s-42 42.166 -42 47.499zM277 309.001
c20.667 -76 41.332 -125.333 61.999 -148c27.333 -30 74 -45 140 -45c25.333 0 44.333 0.333008 57 1l2 -117h-127c-24.667 0 -57.667 11 -99 33c-45.333 24 -68 46.667 -68 68c0 3.33301 0.666992 6.66602 2 9.99902c-47.333 -74 -136.666 -111 -267.999 -111v117
c160 0 247.333 22.333 262 67c18 54.667 30.333 96.334 37 125.001z" />
    <glyph glyph-name="uFE96" unicode="&#x62a;" horiz-adv-x="1242" arabic-form="final" 
d="M400 545c0 6.66699 10.167 21.667 30.5 45s34.833 37.333 43.5 42c56.667 -34.667 87.667 -63.667 93 -87c-4 -9.33301 -15.5 -25.333 -34.5 -48s-32.167 -36 -39.5 -40c-6 0 -23 13.333 -51 40s-42 42.667 -42 48zM567 545c2 7.33301 13.5 22.833 34.5 46.5
s35.167 37.167 42.5 40.5c10 -6 27.333 -20 52 -42c27.333 -24.667 41 -39.667 41 -45c0 -6 -11.5 -22.167 -34.5 -48.5s-37.167 -39.5 -42.5 -39.5c-6.66699 0 -23.167 12.667 -49.5 38s-40.833 42 -43.5 50zM1040 309c13.333 -69.333 32.333 -117.332 57 -143.999
c29.333 -32 86.333 -48 171 -48v-117h-94c-39.333 0 -72 10 -98 30c-18.667 14.667 -40.667 41.667 -66 81c-60.667 -60 -134.667 -100 -222 -120c-60.667 -14 -146.334 -21 -257.001 -21c-116.667 0 -216 11.333 -298 34c-128 35.333 -192 94.666 -192 177.999
c0 53.333 26 113.333 78 180c-15.333 -48.667 -23 -92.667 -23 -132c0 -52.667 70.667 -92.667 212 -120c93.333 -18 186 -27 278 -27c247.333 0 387 36.333 419 109c6.66699 14.667 18.334 53.667 35.001 117z" />
    <glyph glyph-name="uFE97" unicode="&#x62a;" horiz-adv-x="386" arabic-form="initial" 
d="M20 691c0 7.33301 10.834 23.667 32.501 49s35.834 38 42.501 38c8 0 25.5 -12.5 52.5 -37.5s40.5 -41.5 40.5 -49.5s-10.333 -24 -31 -48s-35.334 -37.667 -44.001 -41c-6.66699 0 -23.834 13.167 -51.501 39.5s-41.5 42.833 -41.5 49.5zM188.001 691.001
c0 8 10.335 23.333 31.002 46c17.333 19.333 32 33 44 41c8 0 25.5 -12.5 52.5 -37.5s40.5 -41.5 40.5 -49.5s-10.333 -24 -31 -48s-35.334 -37.667 -44.001 -41c-6.66699 0 -23.834 13.167 -51.501 39.5s-41.5 42.833 -41.5 49.5zM276.003 173.001
c0 10.667 -19.999 45.334 -59.999 104.001l65 99c42 -60.667 63 -122.334 63 -185.001c0 -40.667 -11 -83.667 -33 -129c-20.667 -42 -128.334 -63 -323.001 -63l-8 1v117h165c87.333 0 131 18.667 131 56z" />
    <glyph glyph-name="uFE98" unicode="&#x62a;" horiz-adv-x="511" arabic-form="medial" 
d="M121 691c0 7.33301 10.834 23.667 32.501 49s35.834 38 42.501 38c8 0 25.5 -12.5 52.5 -37.5s40.5 -41.5 40.5 -49.5s-10.333 -24 -31 -48s-35.334 -37.667 -44.001 -41c-6.66699 0 -23.834 13.167 -51.501 39.5s-41.5 42.833 -41.5 49.5zM289.001 691.001
c0 7.33301 10.834 23.667 32.501 49s35.834 38 42.501 38c8 0 25.5 -12.5 52.5 -37.5s40.5 -41.5 40.5 -49.5s-10.333 -24 -31 -48s-35.334 -37.667 -44.001 -41c-6.66699 0 -23.834 13.167 -51.501 39.5s-41.5 42.833 -41.5 49.5zM277.002 309.002
c19.333 -71.333 35.333 -116 48 -134c23.333 -32.667 64.666 -51.667 123.999 -57c48.667 -4.66699 79.667 -5 93 -1v-117h-131c-24.667 0 -57.667 11 -99 33c-45.333 24 -68 46.667 -68 68c0 3.33301 0.666992 6.66602 2 9.99902c-47.333 -74 -138 -111 -272 -111v117
c162.667 0 251.334 22.333 266.001 67c18 54.667 30.333 96.334 37 125.001z" />
    <glyph glyph-name="uFE9A" unicode="&#x62b;" horiz-adv-x="1242" arabic-form="final" 
d="M400 545c0 6.66699 10.167 21.667 30.5 45s34.833 37.333 43.5 42c56.667 -34.667 87.667 -63.667 93 -87c-4 -9.33301 -15.5 -25.333 -34.5 -48s-32.167 -36 -39.5 -40c-6 0 -23 13.333 -51 40s-42 42.667 -42 48zM567 545c2 7.33301 13.5 22.833 34.5 46.5
s35.167 37.167 42.5 40.5c10 -6 27.333 -20 52 -42c27.333 -24.667 41 -39.667 41 -45c0 -6 -11.5 -22.167 -34.5 -48.5s-37.167 -39.5 -42.5 -39.5c-6.66699 0 -23.167 12.667 -49.5 38s-40.833 42 -43.5 50zM1040 309c13.333 -69.333 32.333 -117.332 57 -143.999
c29.333 -32 86.333 -48 171 -48v-117h-94c-39.333 0 -72 10 -98 30c-18.667 14.667 -40.667 41.667 -66 81c-60.667 -60 -134.667 -100 -222 -120c-60.667 -14 -146.334 -21 -257.001 -21c-116.667 0 -216 11.333 -298 34c-128 35.333 -192 94.666 -192 177.999
c0 53.333 26 113.333 78 180c-15.333 -48.667 -23 -92.667 -23 -132c0 -52.667 70.667 -92.667 212 -120c93.333 -18 186 -27 278 -27c247.333 0 387 36.333 419 109c6.66699 14.667 18.334 53.667 35.001 117zM473 696.001c0 8.66699 11.335 24.667 34.002 48
c19.333 20 33.666 33 42.999 39c11.333 -6.66699 28.666 -20.334 51.999 -41.001c26 -23.333 39 -38.666 39 -45.999c-29.333 -50.667 -54.333 -80 -75 -88c-6 0 -23 13.333 -51 40s-42 42.667 -42 48z" />
    <glyph glyph-name="uFE9B" unicode="&#x62b;" horiz-adv-x="390" arabic-form="initial" 
d="M20 691c0 7.33301 10.834 23.667 32.501 49s35.834 38 42.501 38c8 0 25.5 -12.5 52.5 -37.5s40.5 -41.5 40.5 -49.5s-10.333 -24 -31 -48s-35.334 -37.667 -44.001 -41c-6.66699 0 -23.834 13.167 -51.501 39.5s-41.5 42.833 -41.5 49.5zM188.001 691.001
c0 8 10.335 23.333 31.002 46c17.333 19.333 32 33 44 41c8 0 25.5 -12.5 52.5 -37.5s40.5 -41.5 40.5 -49.5s-10.333 -24 -31 -48s-35.334 -37.667 -44.001 -41c-6.66699 0 -23.834 13.167 -51.501 39.5s-41.5 42.833 -41.5 49.5zM276.003 173.001
c0 10.667 -19.999 45.334 -59.999 104.001l65 99c42 -60.667 63 -122.334 63 -185.001c0 -40.667 -11 -83.667 -33 -129c-20.667 -42 -128.334 -63 -323.001 -63l-8 1v117h165c87.333 0 131 18.667 131 56zM98.0039 837.001c0 8.66699 11.335 24.667 34.002 48
c19.333 20 33.666 33 42.999 39c11.333 -6.66699 28.666 -20.334 51.999 -41.001c26 -23.333 39 -38.666 39 -45.999c-29.333 -50.667 -54.333 -80 -75 -88c-6 0 -23 13.333 -51 40s-42 42.667 -42 48z" />
    <glyph glyph-name="uFE9C" unicode="&#x62b;" horiz-adv-x="517" arabic-form="medial" 
d="M121 691c0 7.33301 10.834 23.667 32.501 49s35.834 38 42.501 38c8 0 25.5 -12.5 52.5 -37.5s40.5 -41.5 40.5 -49.5s-10.333 -24 -31 -48s-35.334 -37.667 -44.001 -41c-6.66699 0 -23.834 13.167 -51.501 39.5s-41.5 42.833 -41.5 49.5zM289.001 691.001
c0 7.33301 10.834 23.667 32.501 49s35.834 38 42.501 38c8 0 25.5 -12.5 52.5 -37.5s40.5 -41.5 40.5 -49.5s-10.333 -24 -31 -48s-35.334 -37.667 -44.001 -41c-6.66699 0 -23.834 13.167 -51.501 39.5s-41.5 42.833 -41.5 49.5zM277.002 309.002
c19.333 -71.333 35.333 -116 48 -134c23.333 -32.667 64.666 -51.667 123.999 -57c48.667 -4.66699 79.667 -5 93 -1v-117h-131c-24.667 0 -57.667 11 -99 33c-45.333 24 -68 46.667 -68 68c0 3.33301 0.666992 6.66602 2 9.99902c-47.333 -74 -136.666 -111 -267.999 -111
v117c160 0 247.333 22.333 262 67c18 54.667 30.333 96.334 37 125.001zM191.002 845.002c0 8.66699 11.335 24.667 34.002 48c19.333 20 33.666 33 42.999 39c11.333 -6.66699 28.666 -20.334 51.999 -41.001c26 -23.333 39 -38.666 39 -45.999
c-29.333 -50.667 -54.333 -80 -75 -88c-6 0 -23 13.333 -51 40s-42 42.667 -42 48z" />
    <glyph glyph-name="uFE9E" unicode="&#x62c;" horiz-adv-x="874" arabic-form="final" 
d="M233 378c26 0 64.8311 -3.83203 116.498 -11.499s90.5 -11.5 116.5 -11.5c87.333 0 176 15.667 266 47l-93 -143c-24.667 -10 -52.334 -13.667 -83.001 -11l-3 -15c0 -41.333 14.667 -76 44 -104c24.667 -8 126.334 -12 305.001 -12v-117
c-3.33301 0 -13.666 0.333008 -30.999 1h-37l-39 -1c-121.333 0 -197.333 10.667 -228 32c-38.667 27.333 -63 97.333 -73 210c-83.333 0 -158.666 -21 -225.999 -63c-71.333 -44 -121.333 -103.667 -150 -179c-26.667 -70.667 -40 -125 -40 -163
c0 -102.667 54.333 -181 163 -235c86.667 -43.333 186.334 -65 299.001 -65c130 0 241.667 7.66699 335 23c-75.333 -64.667 -134.666 -105.334 -177.999 -122.001c-46.667 -18 -117.334 -27 -212.001 -27c-111.333 0 -207.333 23.667 -288 71
c-94.667 55.333 -148.667 134.333 -162 237c-5.33301 41.333 -8 78.333 -8 111c0 71.333 21.333 144.333 64 219c7.33301 13.333 51.666 77.666 132.999 192.999c-2.66699 16.667 -15 30.334 -37 41.001c-18.667 9.33301 -37.667 14 -57 14c-28 0 -71.333 -8.33301 -130 -25
c99.333 70.667 177 106 233 106zM287.998 -140.999c0 7.33301 10.334 22.999 31.001 46.999s35 37.667 43 41c8 0 25.5 -12.667 52.5 -38s40.5 -42 40.5 -50c0 -7.33301 -10.833 -23.666 -32.5 -48.999s-35.834 -38 -42.501 -38c-10 5.33301 -27.333 19.333 -52 42
c-26.667 24 -40 39 -40 45z" />
    <glyph glyph-name="uFE9F" unicode="&#x62c;" horiz-adv-x="934" arabic-form="initial" 
d="M438 188c-12.667 24.667 -46.3379 49.334 -101.005 74.001c-50.667 23.333 -92 35 -124 35c-20 0 -43.833 -9.33301 -71.5 -28s-44.5 -28.334 -50.5 -29.001l-6 7c0 20 15.167 48.167 45.5 84.5s55.166 55.5 74.499 57.5c24.667 2.66699 38.667 4 42 4
c42 0 102.333 -20.333 181 -61c124.667 -64.667 196.334 -100.334 215.001 -107.001c63.333 -23.333 145.333 -35 246 -35c-20.667 -33.333 -43 -66.333 -67 -99h-53c-13.333 0 -33.166 2.33301 -59.499 7s-46.166 7 -59.499 7c-21.333 0 -51.333 -6.66699 -90 -20
c-81.333 -28 -175.666 -47.333 -282.999 -58c-57.333 -4.66699 -159.666 -13.667 -306.999 -27v117c126.667 4.66699 209 9.33398 247 14.001c76.667 9.33301 150.334 28.333 221.001 57zM332.996 -279c0 6.66699 11.001 23.166 33.001 49.499s36 39.5 42 39.5
c8 0 25.5 -12.833 52.5 -38.5s40.5 -42.5 40.5 -50.5c0 -7.33301 -10.667 -22.666 -32 -45.999c-18 -19.333 -32.333 -33 -43 -41c-6.66699 0 -23.834 13 -51.501 39s-41.5 42 -41.5 48z" />
    <glyph glyph-name="uFEA0" unicode="&#x62c;" horiz-adv-x="842" arabic-form="medial" 
d="M356 246c-78 51.333 -140.666 76.998 -187.999 76.998c-20 0 -69.333 -13.333 -148 -40l7 22c75.333 78 132.666 117 171.999 117c31.333 0 97.166 -20.667 197.499 -62s178.5 -62 234.5 -62c30 0 62 3 96 9c-16 -35.333 -36.667 -69.666 -62 -102.999
c-17.333 -4.66699 -49.333 -7 -96 -7l-7 -1l-2 -12c0 -43.333 102 -65.666 306 -66.999v-117h-33c-81.333 0 -152.333 9 -213 27c-90 26.667 -135 70 -135 130l-64 6c-30 0 -51.667 -6 -65 -18c-99.333 -90.667 -224 -139 -374 -145v117
c174.667 19.333 299.334 62.333 374.001 129zM341.001 -279.002c0 7.33301 10.833 23.999 32.5 49.999s35.834 39 42.501 39c8 0 25.5 -12.833 52.5 -38.5s40.5 -42.5 40.5 -50.5c0 -7.33301 -10.667 -22.666 -32 -45.999c-18 -19.333 -32.333 -33 -43 -41
c-6.66699 0 -23.834 13 -51.501 39s-41.5 42 -41.5 48z" />
    <glyph glyph-name="uFEA2" unicode="&#x62d;" horiz-adv-x="874" arabic-form="final" 
d="M238 376c26 0 64.833 -3.83203 116.5 -11.499s90.5 -11.5 116.5 -11.5c87.333 0 176 15.667 266 47l-93 -143c-24.667 -10 -52.334 -13.667 -83.001 -11l-3 -15c0 -41.333 14.667 -76 44 -104c20.667 -6.66699 124.667 -10 312 -10v-117
c-12.667 0 -31.667 -0.333008 -57 -1s-44.333 -1 -57 -1c-121.333 0 -197.333 10.667 -228 32c-38.667 27.333 -63 97.333 -73 210c-83.333 0 -158.666 -21 -225.999 -63c-71.333 -44 -121.333 -103.667 -150 -179c-26.667 -70.667 -40 -125 -40 -163
c0 -102.667 54.333 -181 163 -235c86.667 -43.333 186.334 -65 299.001 -65c130 0 241.667 7.66699 335 23c-75.333 -64.667 -134.666 -105.334 -177.999 -122.001c-46.667 -18 -117.334 -27 -212.001 -27c-111.333 0 -207.333 23.667 -288 71
c-94.667 55.333 -148.667 134.333 -162 237c-5.33301 41.333 -8 78.333 -8 111c0 71.333 21.333 144.333 64 219c7.33301 13.333 51.666 77.666 132.999 192.999c-2.66699 16.667 -15 30.334 -37 41.001c-18.667 9.33301 -37.667 14 -57 14c-28 0 -71.333 -8.33301 -130 -25
c99.333 70.667 177 106 233 106z" />
    <glyph glyph-name="uFEA3" unicode="&#x62d;" horiz-adv-x="942" arabic-form="initial" 
d="M438 188c-12.667 24.667 -46.333 49.332 -101 73.999c-50.667 23.333 -92 35 -124 35c-19.333 0 -43.333 -9.5 -72 -28.5s-45.334 -28.5 -50.001 -28.5l-6 7c0 20 15.167 48.167 45.5 84.5s55.166 55.5 74.499 57.5c24 2.66699 38 4 42 4
c42.667 0 103.334 -20.333 182.001 -61c126.667 -65.333 198 -101 214 -107c62.667 -23.333 144.667 -35 246 -35c-20.667 -33.333 -43 -66.333 -67 -99h-53c-13.333 0 -33.166 2.33301 -59.499 7s-46.166 7 -59.499 7c-31.333 0 -79.333 -9 -144 -27
c-73.333 -20 -123 -31.667 -149 -35l-391 -43v117c131.333 4.66699 215.666 9.33398 252.999 14.001c75.333 9.33301 148.333 28.333 219 57z" />
    <glyph glyph-name="uFEA4" unicode="&#x62d;" horiz-adv-x="842" arabic-form="medial" 
d="M356 246c-78 51.333 -140.665 76.998 -187.998 76.998c-20 0 -69.333 -13.333 -148 -40l7 22c75.333 78 132.666 117 171.999 117c31.333 0 97.166 -20.667 197.499 -62s178.5 -62 234.5 -62c30 0 62 3 96 9c-16 -35.333 -36.667 -69.666 -62 -102.999
c-17.333 -4.66699 -49.333 -7 -96 -7l-7 -1l-2 -12c0 -43.333 103.333 -65.666 310 -66.999v-117h-15c-246.667 -0 -370 52.333 -370 157l-64 6c-30 0 -51.667 -6 -65 -18c-99.333 -90.667 -225.333 -139 -378 -145v117c177.333 20 303.333 63 378 129z" />
    <glyph glyph-name="uFEA6" unicode="&#x62e;" horiz-adv-x="874" arabic-form="final" 
d="M359 685c0 6 11.499 22.168 34.499 48.501s37.5 39.833 43.5 40.5c6 0 22.5 -13.333 49.5 -40s40.5 -43 40.5 -49c0 -20.667 -25 -49.667 -75 -87c-7.33301 0 -24.666 12.667 -51.999 38s-41 41.666 -41 48.999zM241.999 376.001c26 0 64.835 -3.83203 116.502 -11.499
s90.5 -11.5 116.5 -11.5c87.333 0 176 15.667 266 47l-93 -143c-24.667 -10 -52.334 -13.667 -83.001 -11l-3 -15c0 -41.333 14.667 -76 44 -104c20.667 -6.66699 118 -10 292 -10v-117c-10.667 0 -26.334 -0.333008 -47.001 -1s-36.334 -1 -47.001 -1
c-121.333 0 -197.333 10.667 -228 32c-38.667 27.333 -63 97.333 -73 210c-83.333 0 -158.666 -21 -225.999 -63c-71.333 -44 -121.333 -103.667 -150 -179c-26.667 -70.667 -40 -125 -40 -163c0 -102.667 54.333 -181 163 -235c86.667 -43.333 186.334 -65 299.001 -65
c130 0 241.667 7.66699 335 23c-75.333 -64.667 -134.666 -105.334 -177.999 -122.001c-46.667 -18 -117.334 -27 -212.001 -27c-111.333 0 -207.333 23.667 -288 71c-94.667 55.333 -148.667 134.333 -162 237c-5.33301 41.333 -8 78.333 -8 111
c0 71.333 21.333 144.333 64 219c7.33301 13.333 51.666 77.666 132.999 192.999c-2.66699 16.667 -15 30.334 -37 41.001c-18.667 9.33301 -37.667 14 -57 14c-28 0 -71.333 -8.33301 -130 -25c99.333 70.667 177 106 233 106z" />
    <glyph glyph-name="uFEA7" unicode="&#x62e;" horiz-adv-x="942" arabic-form="initial" 
d="M210 622c0 8 10.002 23 30.002 45c16.667 18.667 31 32 43 40c18 -9.33301 36.333 -22 55 -38c26.667 -23.333 40 -39 40 -47s-10.333 -24 -31 -48s-35.334 -37.667 -44.001 -41c-6.66699 0 -23.834 13.167 -51.501 39.5s-41.5 42.833 -41.5 49.5zM440.002 190
c-12.667 24.667 -46.3359 49.333 -101.003 74c-50.667 23.333 -92 35 -124 35c-19.333 0 -43.333 -9.5 -72 -28.5s-45.334 -28.5 -50.001 -28.5l-6 7c0 20 15.167 48.167 45.5 84.5s55.166 55.5 74.499 57.5c24 2.66699 38 4 42 4c42.667 0 103.334 -20.333 182.001 -61
c126.667 -65.333 198 -101 214 -107c62.667 -23.333 144.667 -35 246 -35c-20.667 -33.333 -43 -66.333 -67 -99h-53c-13.333 0 -33.166 2.33301 -59.499 7s-46.166 7 -59.499 7c-23.333 0 -53.333 -6.66699 -90 -20c-44.667 -16 -113 -30 -205 -42
c-125.333 -16 -252 -31 -380 -45v117c7.33301 0 51.333 3.33301 132 10c88.667 7.33301 144.334 12.666 167.001 15.999c60.667 8.66699 115.334 24.334 164.001 47.001z" />
    <glyph glyph-name="uFEA8" unicode="&#x62e;" horiz-adv-x="842" arabic-form="medial" 
d="M341 675c0 6.66699 11.166 23.168 33.499 49.501s36.5 39.5 42.5 39.5c8 0 25.333 -12.833 52 -38.5s40 -42.5 40 -50.5c0 -20.667 -25 -49.667 -75 -87c-7.33301 0 -24.666 12.667 -51.999 38s-41 41.666 -41 48.999zM355.999 246.001
c-78 51.333 -140.666 76.998 -187.999 76.998c-20 0 -69.333 -13.333 -148 -40l7 22c75.333 78 132.666 117 171.999 117c31.333 0 97.166 -20.667 197.499 -62s178.5 -62 234.5 -62c30 0 62 3 96 9c-16 -35.333 -36.667 -69.666 -62 -102.999
c-17.333 -4.66699 -49.333 -7 -96 -7l-7 -1l-2 -12c0 -43.333 103.333 -65.666 310 -66.999v-117h-15c-246.667 0 -370 52.333 -370 157l-64 6c-30 0 -51.667 -6 -65 -18c-99.333 -90.667 -224 -139 -374 -145v117c174.667 19.333 299.334 62.333 374.001 129z" />
    <glyph glyph-name="uFEAA" unicode="&#x62f;" horiz-adv-x="941" arabic-form="final" 
d="M677 168c-71.333 -114.667 -178.334 -172 -321.001 -172c-56 0 -105.333 10.667 -148 32c-53.333 26.667 -80 65.334 -80 116.001c0 38 14.667 86.667 44 146c4 -20.667 6 -52 6 -94c0 -28.667 23 -50.334 69 -65.001c33.333 -10.667 68 -16 104 -16
c112 0 213.667 34.333 305 103c-42 132 -62.667 228.333 -62 289c12 23.333 34.333 57 67 101c10.667 -124 34.667 -227.333 72 -310c54.667 -120.667 132.334 -181 233.001 -181v-117h-39c-96 0 -179.333 56 -250 168z" />
    <glyph glyph-name="uFEAC" unicode="&#x630;" horiz-adv-x="941" arabic-form="final" 
d="M457 925c0 6.66699 11.001 23.166 33.001 49.499s36 39.5 42 39.5c8 0 25.333 -12.833 52 -38.5s40 -42.5 40 -50.5c0 -7.33301 -10.833 -23.666 -32.5 -48.999s-35.834 -38 -42.501 -38c-36 22.667 -66.667 51.667 -92 87zM677.001 167.999
c-71.333 -114.667 -178.334 -172 -321.001 -172c-56 0 -105.333 10.667 -148 32c-53.333 26.667 -80 65.334 -80 116.001c0 38 14.667 86.667 44 146c4 -20.667 6 -52 6 -94c0 -28.667 23 -50.334 69 -65.001c33.333 -10.667 68 -16 104 -16c112 0 213.667 34.333 305 103
c-42 132 -62.667 228.333 -62 289c12 23.333 34.333 57 67 101c10.667 -124 34.667 -227.333 72 -310c54.667 -120.667 132.334 -181 233.001 -181v-117h-39c-96 0 -179.333 56 -250 168z" />
    <glyph glyph-name="uFEAE" unicode="&#x631;" horiz-adv-x="824" arabic-form="final" 
d="M850 117l0.000976562 -117.001l-179 -2c-19.333 -77.333 -65.666 -148.333 -138.999 -213c-76.667 -68 -153.334 -102 -230.001 -102c-87.333 0 -157.666 43 -210.999 129c-14 22.667 -26.667 46.334 -38 71.001c26 -7.33301 61.667 -25 107 -53
c31.333 -19.333 76.666 -29 135.999 -29c128.667 0 236 72.333 322 217l-95 61c-16.667 18 -24.334 50.667 -23.001 98l1 29c38 -25.333 77.667 -50.333 119 -75c15.333 -9.33301 92 -14 230 -14z" />
    </font>
</defs>
</svg>
