<?xml version="1.0" standalone="no"?>
<!DOCTYPE svg PUBLIC "-//W3C//DTD SVG 1.1//EN" "http://www.w3.org/Graphics/SVG/1.1/DTD/svg11.dtd" >
<svg>
<metadata>
Created by FontForge 20090914 at Wed Oct 19 01:52:47 2011
 By www-data
(c) by Abolfazl Seilsepour - +98 912 591 3420  -  seilsepor@yahoo.com
</metadata>
<defs>
<font id="FarHamid" horiz-adv-x="0" >
  <font-face 
    font-family="Far.Hamid"
    font-weight="400"
    font-stretch="normal"
    units-per-em="2048"
    panose-1="0 0 4 0 0 0 0 0 0 0"
    ascent="1638"
    descent="-410"
    bbox="-531.001 -1540 2019 2158"
    underline-thickness="80"
    underline-position="-1080"
    unicode-range="U+0020-U+FEFC"
  />
<missing-glyph horiz-adv-x="1024" 
d="M128 0v1195h768v-1195h-768zM256 128h512v939h-512v-939z" />
    <glyph glyph-name="uE818" unicode="&#x651;&#x64b;" 
d="M336 1632c3.33301 -41.333 -4.66797 -78.001 -24.001 -110.001c-16.667 -26.667 -39.667 -40 -69 -40c-19.333 0 -38.666 6 -57.999 18c-3.33301 -20 -14.5 -37.833 -33.5 -53.5s-38.833 -23.5 -59.5 -23.5c-49.333 0 -74 32.333 -74 97
c0 18.667 3.33301 38.334 10 59.001l10 32l21 3c0 -66 11.667 -99 35 -99c37.333 0 64.333 48.333 81 145l16 6c12.667 -58.667 30 -88 52 -88c40 0 60 44 60 132l21 9l10 -48zM311.999 2084c0 -39.333 -10.667 -64.999 -32 -76.999l-272 -154c0 37.333 20 67.666 60 90.999
zM311.999 1953c0 -39.333 -10.667 -65 -32 -77l-272 -154c0 37.333 20 67.333 60 90z" />
    <glyph glyph-name="uFC5E" unicode="&#x651;&#x64c;" arabic-form="isolated" 
d="M360 1675c3.33301 -42 -4.66699 -79 -24 -111c-16.667 -26.667 -39.667 -40 -69 -40c-19.333 0 -38.333 6.33301 -57 19c-4 -20 -15.5 -38 -34.5 -54s-38.833 -24 -59.5 -24c-48.667 0 -73 32.333 -73 97c0 18.667 3.33301 38.667 10 60l9 31l21 4
c0 -66.667 11.667 -100 35 -100c37.333 0 64.333 48.333 81 145l16 6c12.667 -58.667 30 -88 52 -88c40 0 60 44 60 132l21 9l10 -48zM355 1921l-2 -53l-40 22l-43 31c-72 -75.333 -143.667 -119 -215 -131c25.333 53.333 38 92 38 116c0 33.333 -14.667 50 -44 50
c-24.667 0 -39.334 -23 -44.001 -69l-7 27l-2 20c0 24.667 6.33301 46.667 19 66c14.667 22 33.667 33 57 33c42 0 62 -30 60 -90l-1 -25l-4 -58c34 13.333 71 40.333 111 81c-22.667 15.333 -38.167 29.5 -46.5 42.5s-12.5 27.167 -12.5 42.5c0 29.333 10.667 58 32 86
c22.667 30.667 48.334 46 77.001 46c14.667 0 28.5 -8.16699 41.5 -24.5s19.5 -32.166 19.5 -47.5c0 -18.667 -3.33301 -36.334 -10 -53l-19 -50c24 -18 35.667 -38.667 35 -62zM286 2050c2 31.333 -10 47 -36 47c-13.333 0 -21.333 -6.66699 -24 -20
c0 -12.667 8 -25.667 24 -39l33 -23l2 17z" />
    <glyph glyph-name="uFC5F" unicode="&#x651;&#x64d;" arabic-form="isolated" 
d="M335 2013c2.66699 -42 -5.66699 -78.668 -25 -110.001c-16.667 -27.333 -39.667 -41 -69 -41c-19.333 0 -38.333 6.33301 -57 19c-4 -20 -15.5 -37.833 -34.5 -53.5s-38.833 -23.5 -59.5 -23.5c-48.667 0 -73 32.333 -73 97c0 18.667 3.33301 38.334 10 59.001l10 32
l20 3c0 -66 11.667 -99 35 -99c37.333 0 64.333 48.333 81 145l16 5c12.667 -58.667 30 -88 52 -88c40 0 60 44 60 132l21 9l10 -47zM368.999 1783c0 -39.333 -10.333 -65 -31 -77l-272 -154c0 37.333 19.667 67.333 59 90zM368.999 1652c0 -39.333 -10.333 -65 -31 -77
l-272 -155c0 38 19.667 68.333 59 91z" />
    <glyph glyph-name="uFC60" unicode="&#x651;&#x64e;" arabic-form="isolated" 
d="M338 1639c3.33301 -42 -4.66699 -78.668 -24 -110.001c-16.667 -27.333 -39.667 -41 -69 -41c-19.333 0 -38.333 6.33301 -57 19c-4 -20 -15.5 -37.833 -34.5 -53.5s-38.833 -23.5 -59.5 -23.5c-48.667 0 -73 32.333 -73 97c0 18.667 3.33301 38.334 10 59.001l9 31l21 4
c0 -66.667 11.667 -100 35 -100c37.333 0 64.333 48.667 81 146l16 5c12.667 -58.667 30 -88 52 -88c40 0 60 44 60 132l21 9l10 -48zM310 1978c0 -39.333 -10.333 -65 -31 -77l-272 -154c0 37.333 19.667 67.333 59 90z" />
    <glyph glyph-name="uFC61" unicode="&#x651;&#x64f;" arabic-form="isolated" 
d="M336 1582c3.33301 -42 -4.66797 -79 -24.001 -111c-16.667 -26.667 -39.667 -40 -69 -40c-19.333 0 -38.666 6.33301 -57.999 19c-3.33301 -20 -14.5 -37.833 -33.5 -53.5s-38.833 -23.5 -59.5 -23.5c-49.333 0 -74 32.333 -74 97c0 18 3.33301 37.667 10 59l10 31l21 4
c0 -66.667 11.667 -100 35 -100c37.333 0 64.333 48.667 81 146l16 5c12.667 -58.667 30 -88 52 -88c40 0 60 44 60 132l21 9l9 -48zM319.999 1908l-8.00098 -89.001l-33 21l-38 26c-72 -86 -131 -129 -177 -129c-10 0 -20.667 1.33301 -32 4l-21 7
c38.667 20.667 69.667 39.334 93 56.001c19.333 14 52 42 98 84c-36.667 28 -55 54.667 -55 80c0 28.667 11 62 33 100c18.667 34 42.334 51 71.001 51c40.667 0 61 -26.333 61 -79c0 -28.667 -9 -63.667 -27 -105l21 -17c8 -4.66699 12.667 -8 14 -10zM256.998 1987
c0 36.667 -16.001 55 -48.001 55c-2.66699 0 -6.66699 -1.66699 -12 -5c-1.33301 -2 -2.66602 -6.33301 -3.99902 -13c0 -18 19.333 -40.333 58 -67c4 12 6 22 6 30z" />
    <glyph glyph-name="uFC62" unicode="&#x651;&#x650;" arabic-form="isolated" 
d="M331 1839c3.33301 -42 -4.66699 -79 -24 -111c-16.667 -26.667 -39.667 -40 -69 -40c-19.333 0 -38.333 6.33301 -57 19c-4 -20 -15.5 -37.833 -34.5 -53.5s-38.833 -23.5 -59.5 -23.5c-48.667 0 -73 32.333 -73 97c0 18 3.33301 37.667 10 59l9 31l21 4
c0 -66.667 11.667 -100 35 -100c37.333 0 64.333 48.667 81 146l16 5c12.667 -58.667 30 -88 52 -88c40 0 60 44 60 132l21 9l10 -48zM355 1631c0 -40 -10.333 -65.999 -31 -77.999l-272 -154c0 37.333 19.667 67.666 59 90.999z" />
    <glyph glyph-name="uFDF2" unicode="&#xfedf;&#xfee0;&#xfeea;" horiz-adv-x="1442" arabic-form="isolated" 
d="M1173 994l114.999 -234l-40 29l11 -26l15 -41l16 -45l20 -58l17 -61l16 -60c7.33301 -30 11.333 -65.333 12 -106l1 -54l2 -35l5 -63c2 -20.667 0.333008 -49 -5 -85c-9.33301 -63.333 -38.666 -106.666 -87.999 -129.999c-35.333 -17.333 -70.666 -26 -105.999 -26
c-74 0 -126.333 40.333 -157 121c-19.333 50.667 -34.333 96 -45 136c-9.33301 28 -18.333 61.333 -27 100l-23 105l1 -26c0 -11.333 -1.33301 -32.333 -4 -63c-0.666992 -16 -4.66699 -44 -12 -84c-10 -58.667 -17 -89 -21 -91
c-79.333 -131.333 -158.666 -197 -237.999 -197c-36 0 -66.667 10.333 -92 31l-17 15l-13 13l-11 12l-10 13c-24 48 -36 111 -36 189c0 60 5.33301 116.667 16 170l13 71l12 45l1 18c0.666992 15.333 -2 26 -8 32c-2 5.33301 -5.33301 9.66602 -10 12.999
c-43.333 0 -80 -44.333 -110 -133l-40 -119l-32 -104c-17.333 -191.333 -62.333 -294.333 -135 -309c-41.333 23.333 -67 63 -77 119l-14 76l-3 31l-9 156c-0.666992 11.333 -1.33398 29 -2.00098 53c-0.666992 14 -1.33398 35.667 -2.00098 65
c-0.666992 106.667 6.33301 178 21 214c-11.333 -16 -17 -56.667 -17 -122c0 -54 2.33301 -102 7 -144v-25c0 -1.33301 0.5 -6.33301 1.5 -15s1.5 -17 1.5 -25l1 -17l6 -29c20.667 -111.333 49.667 -167 87 -167l4 1c30.667 12 55.334 38.333 74.001 79l24 54l16 44
c18 88.667 46.333 172.334 85 251.001l70 143l23 41c19.333 19.333 35 29 47 29c20 0 30 -26 30 -78v-21l-1 -13l-3 -17l-11 -54l-18 -120l-3 -57c-4 -93.333 15.333 -159 58 -197c38 -34 77.667 -51 119 -51l10 1h6c73.333 7.33301 122 34 146 80
c22.667 42.667 34.667 85 36 127l1 21c2 42 -5.33301 102 -22 180l-38 175l59 137l17 -48l23 -79l47 -243l36 -207c32.667 -100 94 -150 184 -150c34 0 64.667 9.33301 92 28s40.333 40.667 39 66l-1 12c-2.66699 33.333 -16.334 90.666 -41.001 171.999l-54 158l-28 85
c0 10.667 -8.33301 35 -25 73l-35 84zM999.999 1184l4 -61.998l3 -46c1.33301 -29.333 -3 -54.666 -13 -75.999c-10.667 -23.333 -30.667 -35 -60 -35l-16 2c-14.667 1.33301 -33 11 -55 29l-20 -20l-15 -11c-13.333 -8.66699 -27.333 -13 -42 -13c-48.667 0 -73 55 -73 165
c0 5.33301 5.33301 12 16 20l14 9l15 4v-54c0 -61.333 13.667 -92 41 -92c31.333 0 48.666 23 51.999 69c3.33301 53.333 10 83.666 20 90.999c4.66699 -9.33301 12 -42.333 22 -99c6 -35.333 18 -53 36 -53l15 2c16.667 3.33301 25 11.666 25 24.999
c0 8.66699 -4.16699 22 -12.5 40s-12.5 30.667 -12.5 38l3 18c4.66699 17.333 22.334 33.666 53.001 48.999zM869.999 1228c0 94.667 -14.001 150 -42.001 166l28 95c23.333 -53.333 35 -105 35 -155c0 -26 -2.66699 -49 -8 -69c-1.33301 -8 -5.66602 -20.333 -12.999 -37z
" />
    <glyph glyph-name="uFEF5" unicode="&#xfedf;&#xfe82;" horiz-adv-x="1252" arabic-form="isolated" 
d="M1106 1028l66.999 -228.001l-33 26v-851c0 -117.333 -53 -214.666 -159 -291.999c-82 -60 -195 -105.667 -339 -137c67.333 35.333 125.333 69 174 101c56.667 37.333 100.334 69.333 131.001 96c74.667 65.333 112 140 112 224v920c0 8.66699 -4.33301 17.667 -13 27
l-14 9zM154.999 790.999l214 -125.999h-66c4 -15.333 65.333 -72.333 184 -171l114 -91c77.333 -61.333 149 -113.333 215 -156c46.667 -30 87 -64.667 121 -104c54 -60.667 81 -122.334 81 -185.001c0 -14.667 -1.66699 -31.667 -5 -51
c-28 85.333 -102.667 173.333 -224 264l-151 112l-174 130c-48 37.333 -88 70.333 -120 99c-70 63.333 -111.667 114.333 -125 153h-64v126zM528.999 1088l-148.997 -124c-50.667 -27.333 -105.334 -41 -164.001 -41c-10.667 0 -24.334 2.33301 -41.001 7l-25 7l-37 10
c-15.333 4 -31 6 -47 6c-30 0 -61 -5.66699 -93 -17l-29 -12c-4.66699 -2 -11 -5.66699 -19 -11c-19.333 -10.667 -38 -23.667 -56 -39c78 117.333 163 176 255 176c17.333 0 35.666 -3 54.999 -9c37.333 -11.333 69.333 -17 96 -17c34 0 75 7.66699 123 23z" />
    <glyph glyph-name="uFEF6" unicode="&#xfee0;&#xfe82;" horiz-adv-x="1178" arabic-form="final" 
d="M144 916l213 -127.001h-66c3.33301 -16.667 50.666 -63 141.999 -139c105.333 -88.667 199 -160 281 -214c52.667 -34.667 94.334 -69.667 125.001 -105c53.333 -60.667 80 -122.667 80 -186c0 -15.333 -1.66699 -32 -5 -50c-23.333 72.667 -64.333 134.667 -123 186
l-29 25l-135 102l-174 129c-46 36 -86.333 69.333 -121 100c-68 60.667 -109.333 111.334 -124 152.001h-64v127zM1058 243.999l0.00195312 724l34 -27l-68 228l-73 -104l13 -10c8 -8 12.667 -17 14 -27v-919c0 -132 -78.333 -239.667 -235 -323l-183 -98
c61.333 7.33301 123.666 22 186.999 44c57.333 20 107.666 46.333 150.999 79c58 43.333 102 98 132 164l23 81l10 -17c19.333 -26 44 -39 74 -39h89v118l-18 -2c-36.667 0 -67 6.66699 -91 20c-39.333 21.333 -59 57.333 -59 108zM521.002 1205l-150 -125.001
c-50.667 -27.333 -105.334 -41 -164.001 -41c-10.667 0 -24 2.33301 -40 7l-25 7l-38 10c-14.667 4 -30 6 -46 6c-30 0 -61 -5.66699 -93 -17c-7.33301 -2 -17.333 -6 -30 -12c-4.66699 -2 -11 -5.33301 -19 -10c-18.667 -11.333 -37 -24.666 -55 -39.999
c77.333 117.333 162 176 254 176c17.333 0 36 -3 56 -9c36.667 -11.333 68.334 -17 95.001 -17c34 0 75 7.66699 123 23z" />
    <glyph glyph-name="uFEF7" unicode="&#xfedf;&#xfe84;" horiz-adv-x="1193" arabic-form="isolated" 
d="M1047 1043l66.999 -228l-33 27v-852c0 -116.667 -53 -214 -159 -292c-82 -60 -195 -105.333 -339 -136c67.333 34.667 125.333 68 174 100c56.667 38 100.334 70 131.001 96c74.667 65.333 112 140.333 112 225v919c0 8.66699 -4.66699 17.667 -14 27l-13 10zM95.999 807
l213.999 -126.997h-67c4.66699 -14.667 66.334 -71.334 185.001 -170.001c26.667 -22.667 64.667 -53.334 114 -92.001c77.333 -60.667 149 -112.667 215 -156c46 -30 86.333 -64.333 121 -103c54 -61.333 81 -123.333 81 -186c0 -14.667 -2 -31.334 -6 -50.001
c-27.333 85.333 -101.666 173.333 -222.999 264l-151 112l-174 129c-48 37.333 -88 70.666 -120 99.999c-70.667 62.667 -112.334 113.334 -125.001 152.001h-64v127zM180.998 1147c13.333 0 23.332 -2.66797 29.999 -8.00098c6 -7.33301 9 -15.666 9 -24.999
c0 -17.333 -5.66699 -32 -17 -44l-10 -12l-10 13l-10 9c-7.33301 4 -15.666 6 -24.999 6c-27.333 0 -42.333 -9.33301 -45 -28c14 -15.333 35.667 -23 65 -23c19.333 0 37 2.66699 53 8l29 10c11.333 3.33301 23.666 9 36.999 17l2 -12c0 -24 -33.667 -50 -101 -78l-159 -67
c8 22 16 38 24 48l25 30c-15.333 10 -23 25 -23 45c0 30 13.333 56 40 78s55.334 33 86.001 33z" />
    <glyph glyph-name="uFEF8" unicode="&#xfee0;&#xfe84;" horiz-adv-x="1096" arabic-form="final" 
d="M56 916l213 -127.001h-66c3.33301 -16.667 50.666 -63 141.999 -139c105.333 -88.667 199 -160 281 -214c52.667 -34.667 94.334 -69.667 125.001 -105c53.333 -60.667 80 -122.667 80 -186c0 -15.333 -1.66699 -32 -5 -50c-23.333 72.667 -64.333 134.667 -123 186
l-29 25l-136 102l-173 129c-46 36 -86.333 69.333 -121 100c-68 60.667 -109.667 111.334 -125 152.001h-63v127zM969 243.999l0.000976562 724l34 -27l-67 228l-74 -104l14 -10c8 -8 12.333 -17 13 -27v-919c0 -132 -78 -239.667 -234 -323l-183 -98
c60.667 7.33301 123 22 187 44c57.333 20 107.666 46.333 150.999 79c58 43.333 101.667 98 131 164l24 81l10 -17c18.667 -26 43 -39 73 -39h90v118l-18 -2c-36.667 0 -67 6.66699 -91 20c-40 21.333 -60 57.333 -60 108zM154.001 1234c14 0 24.333 -2.66797 31 -8.00098
c5.33301 -7.33301 8 -15.666 8 -24.999c0 -17.333 -5.33301 -32 -16 -44l-11 -12l-9 13l-11 9c-6.66699 4 -14.667 6 -24 6c-28 0 -43 -9.33301 -45 -28c14 -16 35.667 -24 65 -24c19.333 0 37 3 53 9l29 10c10.667 3.33301 23 9 37 17l2 -12
c0 -24.667 -34 -50.667 -102 -78l-158 -67c8 22 16 38 24 48l25 30c-16 10 -24 25 -24 45c0 30 14 56.333 42 79c26 21.333 54 32 84 32z" />
    <glyph glyph-name="uFEF9" unicode="&#xfedf;&#xfe88;" horiz-adv-x="1191" arabic-form="isolated" 
d="M1005 1157l66.999 -228l-33 27v-852c0 -116.667 -53 -213.667 -159 -291c-82 -60.667 -195 -106.334 -339 -137.001c67.333 35.333 125.333 69 174 101c56.667 37.333 100.334 69.333 131.001 96c74.667 64.667 112 139.334 112 224.001v919
c0 9.33301 -4.33301 18.333 -13 27l-14 10zM53.999 921l213.999 -125.997h-67c4.66699 -15.333 66.334 -72.333 185.001 -171l114 -92c77.333 -60.667 149 -112.334 215 -155.001c46 -30.667 86.333 -65.334 121 -104.001c54 -60.667 81 -122.667 81 -186
c0 -14 -2 -30.667 -6 -50c-27.333 85.333 -101.666 173.333 -222.999 264l-151 112l-174 129c-48 37.333 -88 70.666 -120 99.999c-70.667 63.333 -112.334 114.333 -125.001 153h-64v126zM984.998 -320.997c13.333 0 23.332 -2.66699 29.999 -8c6 -7.33301 9 -15.333 9 -24
c0 -18 -5.66699 -33 -17 -45l-10 -12l-10 13l-10 10c-7.33301 3.33301 -15.666 5 -24.999 5c-27.333 0 -42.333 -9.33301 -45 -28c14 -15.333 35.667 -23 65 -23c19.333 0 37 2.66699 53 8l29 10c11.333 4 23.666 9.66699 36.999 17l2 -12c0 -24 -33.667 -50 -101 -78
l-159 -67c8 22.667 16.333 39 25 49l24 30c-15.333 10 -23 24.667 -23 44c0 30 13.333 56 40 78s55.334 33 86.001 33z" />
    <glyph glyph-name="uFEFA" unicode="&#xfee0;&#xfe88;" horiz-adv-x="1094" arabic-form="final" 
d="M61 916l213 -127.001h-66c3.33301 -16.667 50.666 -63 141.999 -139c105.333 -88.667 199 -160 281 -214c52.667 -34.667 94.334 -69.667 125.001 -105c53.333 -60.667 80 -122.667 80 -186c0 -15.333 -1.66699 -32 -5 -50c-23.333 72.667 -64.333 134.667 -123 186
l-29 25l-135 102l-174 129c-46 36 -86.333 69.333 -121 100c-68 60.667 -109.333 111.334 -124 152.001h-64v127zM975 243.999l0.00195312 724l34 -27l-68 228l-73 -104l13 -10c8 -8 12.667 -17 14 -27v-919c0 -132 -78.333 -240 -235 -324l-183 -97
c61.333 7.33301 123.666 22 186.999 44c57.333 20 107.666 46.333 150.999 79c58 43.333 102 98 132 164l23 81l10 -17c19.333 -26 44 -39 74 -39h89v118l-18 -2c-36.667 0 -67 6.66699 -91 20c-39.333 21.333 -59 57.333 -59 108zM951.002 -305.001
c14 0 24.333 -2.66797 31 -8.00098c5.33301 -7.33301 8 -15.666 8 -24.999c0 -17.333 -5.33301 -32 -16 -44l-11 -12l-9 13l-11 9c-6.66699 4 -14.667 6 -24 6c-28 0 -43 -9.33301 -45 -28c14 -15.333 35.667 -23 65 -23c19.333 0 37 2.66699 53 8l29 10
c10.667 3.33301 23 9 37 17l2 -12c0 -24 -34 -50 -102 -78l-158 -67c8 22 16 38 24 48l25 30c-16 10 -24 25 -24 45c0 30 14 56.333 42 79c26 21.333 54 32 84 32z" />
    <glyph glyph-name="uFEFB" unicode="&#xfedf;&#xfe8e;" horiz-adv-x="1145" arabic-form="isolated" 
d="M999 1169l68 -228.001l-34 27v-852c0 -117.333 -53 -214.666 -159 -291.999c-82 -60 -195 -105.333 -339 -136c67.333 34.667 125.333 68 174 100c57.333 37.333 101 69.333 131 96c75.333 65.333 113 140.333 113 225v919c0 8.66699 -4.66699 17.667 -14 27l-13 9z
M49 932.999l213 -126.999h-66c4 -14.667 65.667 -71.667 185 -171l114 -91c77.333 -61.333 148.666 -113.333 213.999 -156c46.667 -30 87.334 -64.667 122.001 -104c53.333 -60.667 80 -122.334 80 -185.001c0 -14.667 -1.66699 -31.667 -5 -51
c-27.333 86 -102 174 -224 264l-150 112l-175 130c-47.333 37.333 -87.333 70.333 -120 99c-70 63.333 -111.667 114.333 -125 153h-63v127z" />
    <glyph glyph-name="uFEFC" unicode="&#xfee0;&#xfe8e;" horiz-adv-x="1109" arabic-form="final" 
d="M63 916l214.002 -127.001h-67c3.33301 -16.667 50.666 -63 141.999 -139c106 -88.667 199.667 -160 281 -214c53.333 -34.667 95.333 -69.667 126 -105c52.667 -60.667 79 -122.667 79 -186c0 -15.333 -1.66699 -32 -5 -50c-23.333 72 -64.333 134 -123 186l-29 25
l-135 102l-173 129c-46.667 36 -87.334 69.333 -122.001 100c-68 60.667 -109.333 111.334 -124 152.001h-64v127zM977.002 243.999v724l34 -27l-68 228l-73 -105l13 -9c8 -8 12.667 -17 14 -27v-919c0 -132 -78.333 -240 -235 -324l-183 -97c61.333 7.33301 124 22 188 44
c56.667 20 106.667 46.333 150 79c58 43.333 102 98 132 164l23 81l10 -17c19.333 -26 44 -39 74 -39h89v118l-18 -2c-36.667 0 -67 6.33301 -91 19c-39.333 22 -59 58.333 -59 109z" />
    <glyph glyph-name="u0652_u064E.liga" unicode="&#x652;&#x64e;" horiz-adv-x="1" 
d="M188 914c0 -4 -6.33301 -12.667 -19 -26l-7 -6l-13 -10v258l-11 7l39 27l31 -72l-20 10v-188z" />
    <glyph glyph-name="u0652_u064B.liga" unicode="&#x652;&#x64b;" horiz-adv-x="1" 
d="M234 763l-43 -74l-122 93l55 94l107 -82l45 77l121 -93l-59 -96z" />
    <glyph glyph-name="u0652_u064D.liga" unicode="&#x652;&#x64d;" horiz-adv-x="1" 
d="M518 -745l-43 -74l-122 93l55 94l107 -82l45 77l121 -93l-59 -96z" />
    <glyph glyph-name="u0622" unicode="&#x622;" horiz-adv-x="343" arabic-form="isolated" 
d="M226 166c0 -15.333 -13 -49 -39 -101l-13 -26l-26 -39v1033l-22 29l79 107l61 -289l-40 39v-753zM494 1430l-136.002 -112.999c-46 -24.667 -95.667 -37 -149 -37c-9.33301 0 -21.666 2 -36.999 6l-22 7l-34 9c-14 3.33301 -28 5 -42 5c-27.333 0 -55.666 -5 -84.999 -15
c-6 -2.66699 -15 -6.33398 -27 -11.001c-4 -2 -9.66699 -5.33301 -17 -10c-17.333 -10 -34 -22 -50 -36c70.667 106.667 147.667 160 231 160c15.333 0 32 -2.66699 50 -8c33.333 -10 62.333 -15 87 -15c30.667 0 67.667 6.66699 111 20z" />
    <glyph glyph-name="u0623" unicode="&#x623;" horiz-adv-x="398" arabic-form="isolated" 
d="M267 166c0 -15.333 -12.667 -48.667 -38 -100l-14 -27l-26 -39v1033l-22 29l79 107l62 -289l-41 39v-753zM211 1436c13.333 0 23.332 -2.66797 29.999 -8.00098c6 -7.33301 9 -15.666 9 -24.999c0 -17.333 -5.66699 -32 -17 -44l-10 -12l-10 13l-10 9
c-7.33301 4 -15.666 6 -24.999 6c-27.333 0 -42.333 -9.33301 -45 -28c14 -15.333 35.667 -23 65 -23c19.333 0 37 2.66699 53 8l29 10c11.333 3.33301 23.666 9 36.999 17l2 -12c0 -24 -33.667 -50 -101 -78l-159 -67c8 22 16 38 24 48l25 30c-15.333 10 -23 25 -23 45
c0 30 13.333 56 40 78s55.334 33 86.001 33z" />
    <glyph glyph-name="u0624" unicode="&#x624;" horiz-adv-x="729" arabic-form="isolated" 
d="M406 646c14 0 24.333 -2.66699 31 -8c5.33301 -7.33301 8 -15.333 8 -24c0 -17.333 -5.33301 -32.333 -16 -45l-11 -12l-9 14l-11 9c-7.33301 4 -15.333 6 -24 6c-28 0 -43 -9.66699 -45 -29c14 -15.333 35.667 -23 65 -23c18.667 0 36 2.66699 52 8l30 10
c10.667 4 23 9.66699 37 17l2 -12c0 -24 -34 -49.667 -102 -77l-158 -67c8 22 16 38 24 48l24 30c-15.333 10 -23 25 -23 45c0 29.333 14 55.333 42 78c26 21.333 54 32 84 32zM648 24l2.00098 -23.0039c2.66699 -28.667 -8.33301 -64 -33 -106
c-34.667 -60.667 -91 -113.667 -169 -159c-157.333 -93.333 -312 -163.666 -464 -210.999c-45.333 -14 -90.333 -26.333 -135 -37l-167 25c0 -0.666992 -2 -1.66699 -6 -3v0c7.33301 2.66699 50.666 20.334 129.999 53.001l282 116c50.667 20.667 129 55.667 235 105
c186 86.667 279 143 279 169c0 24 -27.333 41.667 -82 53l-152 29c-54.667 16 -82 41.667 -82 77l2 19c4 42.667 22.667 80.334 56 113.001c30.667 29.333 64.667 44 102 44c46 0 87.333 -20.667 124 -62c45.333 -51.333 71.333 -118.666 78 -201.999zM359.001 157.996
c18 -19.333 41.667 -29 71 -29s49.333 9.66699 60 29l-36 14c-10.667 4 -21 5.66699 -31 5l-25 -2l-15 -5z" />
    <glyph glyph-name="u0625" unicode="&#x625;" horiz-adv-x="319" arabic-form="isolated" 
d="M170 166c0 -15.333 -13 -49 -39 -101l-13 -26l-26 -39v1033l-23 29l79 107l62 -289l-40 39v-753zM171 -93c14 0 24.334 -2.66699 31.001 -8c5.33301 -7.33301 8 -15.333 8 -24c0 -18 -5.33301 -33 -16 -45l-11 -12l-9 13l-11 10c-6.66699 3.33301 -14.667 5 -24 5
c-28 0 -43 -9.33301 -45 -28c14 -15.333 35.667 -23 65 -23c19.333 0 36.666 2.66699 51.999 8l30 10c10.667 4 23 9.66699 37 17l2 -12c0 -24 -34 -50 -102 -78l-158 -67c8 22.667 16 39 24 49l25 30c-16 10 -24 24.667 -24 44c0 30 14 56.333 42 79c26 21.333 54 32 84 32
z" />
    <glyph glyph-name="u0626" unicode="&#x626;" horiz-adv-x="1140" arabic-form="isolated" 
d="M1009 376c10 0 22.3291 -10.334 36.9961 -31.001c10.667 -20.667 16 -43.334 16 -68.001c0 -30.667 -11 -53.334 -33 -68.001c-2.66699 2 -10.667 11 -24 27c-9.33301 11.333 -19 18 -29 20c-16 0 -58 -30.667 -126 -92c-72.667 -64.667 -109 -114.334 -109 -149.001
c0 -20.667 26.667 -35.334 80 -44.001c85.333 -14 134.666 -23 147.999 -27c52.667 -18 79 -48.333 79 -91c0 -105.333 -90.667 -199.666 -272 -282.999c-148.667 -68.667 -279 -106 -391 -112l-31 -2c-75.333 -4.66699 -143.333 22.333 -204 81
c-63.333 60 -93.666 136 -90.999 228l1 35c0 12 1 21.333 3 28c1.33301 14.667 5.66602 36.334 12.999 65.001c12.667 46.667 32.334 94 59.001 142l-5 -29l-7 -55l-4 -78c-5.33301 -118 29.334 -203.667 104.001 -257c48 -34.667 113.667 -52 197 -52
c79.333 0 175.333 26 288 78l83 37c14.667 7.33301 38 20.333 70 39c14.667 8.66699 24.334 14.834 29.001 18.501s14.5 11 29.5 22s31.167 24.833 48.5 41.5c-17.333 12 -60.666 24 -129.999 36c-113.333 20.667 -170 69.334 -170 146.001c0 62.667 41 143.334 123 242.001
c84.667 101.333 157.334 152 218.001 152zM481.996 331.999c14 0 24.332 -2.66797 30.999 -8.00098c5.33301 -7.33301 8 -15.666 8 -24.999c0 -17.333 -5.33301 -32 -16 -44l-11 -12l-9 13l-11 9c-7.33301 4 -15.333 6 -24 6c-28 0 -43.333 -9.33301 -46 -28
c14.667 -15.333 36.667 -23 66 -23c18.667 0 36 2.66699 52 8l30 10c10.667 3.33301 23 9 37 17l2 -12c0 -24 -34 -50 -102 -78l-159 -67c8.66699 22 17 38 25 48l24 30c-15.333 10 -23 25 -23 45c0 30 13.333 56 40 78s55.334 33 86.001 33z" />
    <glyph glyph-name="u0627" unicode="&#x627;" horiz-adv-x="282" arabic-form="isolated" 
d="M163 166c0 -15.333 -13 -49 -39 -101l-13 -26l-26 -39v1033l-23 29l79 107l62 -289l-40 39v-753z" />
    <glyph glyph-name="u0628" unicode="&#x628;" horiz-adv-x="1392" arabic-form="isolated" 
d="M1217 537c64 -82 96.001 -153.669 96.001 -215.002c0 -57.333 -29.667 -106.666 -89 -147.999l-111 -54l-23 -10c-124.667 -57.333 -239.334 -99 -344.001 -125c-100.667 -25.333 -192 -38 -274 -38c-136 0 -242 34.333 -318 103c-63.333 56.667 -95 125.667 -95 207v29
c0 43.333 11 73.666 33 90.999c0 -125.333 47.667 -215.666 143 -270.999c68 -39.333 146.333 -57.333 235 -54l42 2l28 2l8 -1c19.333 0 82.666 12.667 189.999 38c20.667 4.66699 50.667 12 90 22c15.333 4 43.333 12 84 24c32 10 57.667 18.333 77 25
c2.66699 1.33301 27.334 11 74.001 29c118 45.333 180.667 84.333 188 117l-37 64c-22 38.667 -34.333 64.334 -37 77.001zM760.001 -321.002l122 -94l-56 -93l-122 93z" />
    <glyph glyph-name="u0629" unicode="&#x629;" horiz-adv-x="639" arabic-form="isolated" 
d="M561 652l-0.00195312 -95l-77 -80c-52 -53.333 -85 -94.333 -99 -123c82.667 -51.333 124 -107 124 -167c0 -48.667 -26 -94 -78 -136c-49.333 -40 -98.666 -60 -147.999 -60c-70.667 0 -106 42.333 -106 127c0 34 7.33301 69.333 22 106s33.667 66.667 57 90l-145 142
c-17.333 16.667 -34.666 25 -51.999 25v120l184 -114l-40 -10l32 -31l35 -29l35 -23zM248.998 105l37 2.99902c54.667 5.33301 110 29.333 166 72c-4.66699 12 -21.5 30.333 -50.5 55s-50.167 39.667 -63.5 45l-20 -22l-25 -29
c-31.333 -37.333 -46.333 -72.666 -45 -105.999zM300.998 868.999c13.333 0 23.666 -2.66699 30.999 -8c5.33301 -7.33301 8 -15.333 8 -24c0 -17.333 -5.66699 -32.333 -17 -45l-10 -12l-10 14l-10 9c-7.33301 4 -15.666 6 -24.999 6c-27.333 0 -42.333 -9.66699 -45 -29
c14 -15.333 35.667 -23 65 -23c19.333 0 37 2.66699 53 8l29 10c11.333 4 23.666 9.66699 36.999 17l2 -12c0 -24 -33.667 -49.667 -101 -77l-159 -67c8 22 16.333 38 25 48l24 30c-15.333 10 -23 25 -23 45c0 29.333 13.333 55 40 77s55.334 33 86.001 33z" />
    <glyph glyph-name="u062A" unicode="&#x62a;" horiz-adv-x="1392" arabic-form="isolated" 
d="M1217 539c64 -82 96.001 -154 96.001 -216c0 -56.667 -29.667 -105.667 -89 -147l-112 -55l-22 -10c-124.667 -56.667 -239.334 -98 -344.001 -124c-100.667 -25.333 -192 -38 -274 -38c-136 0 -242 34 -318 102c-63.333 57.333 -95 126.666 -95 207.999v29
c0 43.333 11 73.666 33 90.999c0 -125.333 47.667 -215.666 143 -270.999c68 -40 146.333 -58 235 -54l42 2l28 2l8 -1c19.333 0 82.666 12.333 189.999 37l90 23c15.333 4 43.333 12 84 24c32 10 57.667 18.333 77 25c2.66699 0.666992 27.334 10.334 74.001 29.001
c118 45.333 180.667 84.333 188 117l-37 63c-22 39.333 -34.333 65 -37 77zM595.001 525l-43 -74l-122 94l55 93l107 -82l45 78l120 -94l-58 -96z" />
    <glyph glyph-name="u062B" unicode="&#x62b;" horiz-adv-x="1392" arabic-form="isolated" 
d="M1217 538c64 -81.333 96.001 -153.001 96.001 -215.001c0 -56.667 -29.667 -105.667 -89 -147l-116 -57l-18 -8c-124.667 -56.667 -239.334 -98.334 -344.001 -125.001c-100.667 -24.667 -192 -37 -274 -37c-136 0 -242 34 -318 102c-63.333 56.667 -95 125.667 -95 207
v30c0 43.333 11 73.666 33 90.999c0 -125.333 47.667 -215.666 143 -270.999c68 -40 146.333 -58 235 -54l42 1l28 2l8 -1c19.333 0 82.666 12.667 189.999 38c20.667 4.66699 50.667 12 90 22l84 25c32 10 57.667 18.333 77 25
c2.66699 0.666992 27.334 10.334 74.001 29.001c118 45.333 180.667 84 188 116l-37 64c-22 38.667 -34.333 64.334 -37 77.001zM547.001 805.999l122 -95l-56 -93l-122 93zM631.001 507.999l-43 -73l-122 93l55 94l107 -82l45 77l120 -93l-58 -96z" />
    <glyph glyph-name="u062C" unicode="&#x62c;" horiz-adv-x="1305" arabic-form="isolated" 
d="M1278 -525c-51.333 -24 -98.001 -43.335 -140.001 -58.002c-64.667 -23.333 -124.667 -40 -180 -50l-31 -6l-73 -11l-68 -6l-64 -3c-157.333 -6.66699 -296 31.333 -416 114c-110 75.333 -165 173.333 -165 294c0 66.667 16.333 134.334 49 203.001
c11.333 22.667 25 46.667 41 72c66.667 103.333 165.667 206.333 297 309l-32 6l-44 9l-49 5l-53 2c-32.667 0.666992 -70 -2 -112 -8c-18.667 -2.66699 -37.667 -7.66699 -57 -15c-16.667 -3.33301 -35 -9.66602 -55 -18.999h-67c10.667 96 104.334 143 281.001 141l132 -2
l495 -3l87 11l-104 -117c-145.333 0 -300.333 -58.667 -465 -176c-176.667 -126 -265 -258.333 -265 -397c0 -94.667 50 -169 150 -223c113.333 -61.333 291 -92 533 -92c110.667 0 235.667 6.66699 375 20zM665.999 -128.002l122 -94l-55 -94l-122 94z" />
    <glyph glyph-name="u062D" unicode="&#x62d;" horiz-adv-x="1305" arabic-form="isolated" 
d="M1278 -525c-51.333 -24 -98.001 -43.335 -140.001 -58.002c-64.667 -23.333 -124.667 -40 -180 -50l-31 -6l-73 -11l-68 -6l-64 -3c-157.333 -6.66699 -296 31.333 -416 114c-110 75.333 -165 173.333 -165 294c0 66.667 16.333 134.334 49 203.001
c11.333 22.667 25 46.667 41 72c66.667 103.333 165.667 206.333 297 309l-32 6l-44 9l-49 5l-53 2c-32.667 0.666992 -70 -2 -112 -8c-18.667 -2.66699 -37.667 -7.66699 -57 -15c-16.667 -3.33301 -35 -9.66602 -55 -18.999h-67c10.667 96 104.334 143 281.001 141l132 -2
l495 -3l87 11l-104 -117c-145.333 0 -300.333 -58.667 -465 -176c-176.667 -126 -265 -258.333 -265 -397c0 -94.667 50 -169 150 -223c113.333 -61.333 291 -92 533 -92c110.667 0 235.667 6.66699 375 20z" />
    <glyph glyph-name="u062E" unicode="&#x62e;" horiz-adv-x="1305" arabic-form="isolated" 
d="M1278 -567c-51.333 -24 -98.001 -43.335 -140.001 -58.002c-64.667 -23.333 -124.667 -40 -180 -50l-31 -6l-73 -11l-68 -6l-64 -3c-157.333 -6.66699 -296 31.333 -416 114c-110 75.333 -165 173.333 -165 294c0 66.667 16.333 134.334 49 203.001
c11.333 22.667 25 46.667 41 72c66.667 103.333 165.667 206.333 297 309l-32 6l-44 9l-49 5l-53 2c-32.667 0.666992 -70 -2 -112 -8c-18.667 -3.33301 -37.667 -8.33301 -57 -15c-16.667 -3.33301 -35 -9.66602 -55 -18.999h-67c10.667 96 104.334 143 281.001 141l132 -2
l495 -3l87 11l-104 -117c-145.333 0 -300.333 -58.667 -465 -176c-176.667 -126 -265 -258.333 -265 -397c0 -94.667 50 -169 150 -223c113.333 -61.333 291 -92 533 -92c110.667 0 235.667 6.66699 375 20zM265.999 964.998l122 -94l-56 -94l-122 94z" />
    <glyph glyph-name="u062F" unicode="&#x62f;" horiz-adv-x="983" arabic-form="isolated" 
d="M360 691l220.002 -134.999l-120 -29c137.333 -44.667 247.333 -91.334 330 -140.001c76.667 -45.333 115 -97 115 -155c0 -42 -36.333 -88.667 -109 -140c-33.333 -23.333 -81 -50.333 -143 -81l-86 -40l-197 -86c-73.333 -32 -134 -48 -182 -48c-86 0 -129 35 -129 105
c0 44.667 21.333 102.667 64 174v-66c0 -39.333 3 -66.333 9 -81c10 -24.667 31.333 -37 64 -37c9.33301 0 56.666 16 141.999 48c98.667 37.333 189 76 271 116c112 54 193 102 243 144c-22.667 28 -71.334 55 -146.001 81l-134 48c-16.667 6 -39 15.333 -67 28
c-72.667 34 -122.667 76.667 -150 128h-40z" />
    <glyph glyph-name="u0630" unicode="&#x630;" horiz-adv-x="983" arabic-form="isolated" 
d="M360 538l220.002 -134.999l-120 -29c137.333 -44.667 247.333 -91.334 330 -140.001c76.667 -45.333 115 -97 115 -155c0 -42 -36.333 -88.667 -109 -140c-33.333 -23.333 -81 -50.333 -143 -81l-86 -40l-197 -86c-73.333 -32 -134 -48 -182 -48c-86 0 -129 35 -129 105
c0 44.667 21.333 102.667 64 174v-66c0 -39.333 3 -66.333 9 -81c10 -24.667 31.333 -37 64 -37c9.33301 0 56.666 16 141.999 48c98.667 37.333 189 76 271 116c112 54 193 102 243 144c-22.667 28 -71.334 55 -146.001 81l-134 48c-16.667 6 -39 15.333 -67 28
c-72.667 34 -122.667 76.667 -150 128h-40zM249.002 1102l122 -94l-56 -94l-122 94z" />
    <glyph glyph-name="u0631" unicode="&#x631;" horiz-adv-x="771" arabic-form="isolated" 
d="M471 367l180.999 -147c26.667 -26.667 40 -53.334 40 -80.001c0 -56.667 -72 -141 -216 -253l-40 -30l-66 -47l-53 -36l-57 -36c-29.333 -18 -74.666 -43 -135.999 -75l-517 -150l221 113c158.667 80.667 306.667 164.334 444 251.001c172.667 108 288 199 346 273
l-27 27l-29 26l-31 28l-42 34c-41.333 33.333 -82.333 62.333 -123 87l-40 -5l25 169l235 -107z" />
    <glyph glyph-name="u0632" unicode="&#x632;" horiz-adv-x="771" arabic-form="isolated" 
d="M471 351l180.999 -147c26.667 -26.667 40 -53.667 40 -81c0 -56.667 -72 -140.667 -216 -252l-40 -30l-66 -47l-53 -36l-57 -36c-29.333 -18.667 -74.666 -43.667 -135.999 -75l-517 -150l221 113c158.667 80.667 306.667 164 444 250
c172.667 108.667 288 199.667 346 273l-27 28l-29 26l-31 28l-42 34c-41.333 33.333 -82.333 62.333 -123 87l-40 -5l25 169l235 -107zM247.999 916l122 -94l-56 -93l-122 93z" />
    <glyph glyph-name="u0633" unicode="&#x633;" horiz-adv-x="1641" arabic-form="isolated" 
d="M1399 5c-39.333 0 -78.333 20 -117 60l-63 -49c-28.667 -21.333 -66.334 -32 -113.001 -32v-57c0 -16.667 -1.33301 -28.667 -4 -36c0 -82 -52.333 -157.667 -157 -227c-82 -54 -189 -100.667 -321 -140c-108.667 -32 -193 -48 -253 -48c-112.667 0 -194.667 31 -246 93
c-44 52.667 -66 122 -66 208c0 60 10.333 116.167 31 168.5s43.334 85.166 68.001 98.499l-13 -46l-12 -54l-8 -48l-2 -31v-15c0 -120.667 52 -198.334 156 -233.001c42 -14 90.667 -21 146 -21c74.667 0 194.334 32.667 359.001 98c180.667 71.333 271 135 271 191
c0 12.667 -4.66699 31 -14 55c-2.66699 8 -12 29.667 -28 65l-27 60l-11 31l44 128c40 -86.667 81.667 -130 125 -130c28 0 62 15.667 102 47l123 97c0 -24 -7 -51.333 -21 -82l-12 -19c10.667 -5.33301 25 -11.333 43 -18l22 -4l23 -2
c48.667 -3.33301 74 7.33398 76 32.001l-14 46c0 4.66699 -2 11.334 -6 20.001l-7 21l44 115l19 -37c5.33301 -10 10.666 -23 15.999 -39l7 -37l3 -36c2.66699 -44 -13 -87.167 -47 -129.5s-72.667 -63.5 -116 -63.5z" />
    <glyph glyph-name="u0634" unicode="&#x634;" horiz-adv-x="1641" arabic-form="isolated" 
d="M1399 -19c-39.333 0 -78.333 19.999 -117 59.999l-63 -48c-28.667 -21.333 -66.334 -32 -113.001 -32v-57c0 -16.667 -1.33301 -29 -4 -37c0 -81.333 -52.333 -156.666 -157 -225.999c-82 -54 -189 -100.667 -321 -140c-108.667 -32 -193 -48 -253 -48
c-112.667 0 -194.667 31 -246 93c-44 52 -66 121 -66 207c0 60.667 10.333 117.167 31 169.5s43.334 85.166 68.001 98.499l-13 -46l-12 -55l-8 -47l-2 -32v-14c0 -121.333 52 -199.333 156 -234c42 -13.333 90.667 -20 146 -20c74.667 0 194.334 32.333 359.001 97
c180.667 72 271 136 271 192c0 12.667 -4.66699 30.667 -14 54c-2.66699 8.66699 -12 30.334 -28 65.001l-27 60l-11 32l44 128c40 -86.667 81.667 -130 125 -130c28 0 62 15.667 102 47l123 97c0 -24 -7 -51.333 -21 -82l-12 -19c10.667 -5.33301 25 -11.333 43 -18l22 -4
l23 -2c48.667 -4 74 6.33301 76 31l-14 47c0 4 -2 10.667 -6 20l-7 20l44 115l19 -37c5.33301 -9.33301 10.666 -22 15.999 -38l7 -37l3 -37c2.66699 -43.333 -13 -86.333 -47 -129s-72.667 -64 -116 -64zM1177 795.999l123 -95l-56 -93l-122 93zM1263 481.999l-43 -74
l-122 94l55 93l107 -82l45 77l120 -93l-58 -96z" />
    <glyph glyph-name="u0635" unicode="&#x635;" horiz-adv-x="1976" arabic-form="isolated" 
d="M1897 290c0 -74.667 -65.999 -144.001 -197.999 -208.001c-122 -59.333 -241.333 -89 -358 -89c-54 0 -94.333 8 -121 24c0 -144 -120 -263 -360 -357c-66 -26 -138 -48.667 -216 -68c-120.667 -30.667 -214.334 -46 -281.001 -46c-87.333 0 -158.333 21.333 -213 64
c-60.667 46.667 -91 112.334 -91 197.001c0 40.667 7 85.834 21 135.501s34.667 102.167 62 157.5l-20 -133l-3 -30v-11c0 -186 90.333 -279 271 -279c82 0 189.333 22.667 322 68c33.333 10.667 81 29 143 55c198 81.333 297 139 297 173c0 18.667 -18 64 -54 136l-21 43
l-32 55l40 127l116 -147c182 238.667 341 358 477 358c68.667 0 125 -32.333 169 -97c33.333 -48.667 50 -91.334 50 -128.001zM1288 130.999c32 -10.667 68 -16 108 -16c66 0 138.667 12.333 218 37c76 24 145.333 59 208 105c-60.667 82.667 -130 124 -208 124
c-117.333 0 -226 -83.333 -326 -250z" />
    <glyph glyph-name="u0636" unicode="&#x636;" horiz-adv-x="1976" arabic-form="isolated" 
d="M1897 303c0 -74.667 -65.999 -143.999 -197.999 -207.999c-122 -59.333 -241.333 -89 -358 -89c-54 0 -94.333 7.66699 -121 23c0 -144 -120 -262.667 -360 -356c-66 -26 -138 -49 -216 -69c-120.667 -30 -214.334 -45 -281.001 -45c-87.333 0 -158.333 21 -213 63
c-60.667 46.667 -91 112.667 -91 198c0 40 7 84.833 21 134.5s34.667 102.5 62 158.5l-20 -133l-3 -31v-11c0 -186 90.333 -279 271 -279c82 0 189.333 22.667 322 68c33.333 11.333 81 29.666 143 54.999c198 81.333 297 139 297 173c0 18.667 -18 64 -54 136l-21 43
l-32 56l40 126l116 -147c182 238.667 341 358 477 358c68.667 0 125 -32.333 169 -97c33.333 -48.667 50 -91 50 -127zM1288 143.001c32 -10 68 -15 108 -15c66 0 138.667 12.333 218 37c76 23.333 145.333 58.333 208 105c-60.667 82 -130 123 -208 123
c-117.333 0 -226 -83.333 -326 -250zM1408 939.001l122 -94l-56 -94l-122 94z" />
    <glyph glyph-name="u0637" unicode="&#x637;" horiz-adv-x="1384" arabic-form="isolated" 
d="M625 123c5.33301 -2 14.999 -3 28.999 -3c42.667 0 123.334 8.33301 242.001 25c156.667 21.333 258.667 45 306 71c-38.667 37.333 -86.667 61.333 -144 72c-19.333 4 -38.333 6 -57 6c-73.333 0 -150 -21.333 -230 -64c-67.333 -35.333 -116 -71 -146 -107z
M591.999 1024l-32.001 29.999l79 107l87 -289l-56 57v-471c-1.33301 -8.66699 -2.33301 -18 -3 -28l-10 -90c0 -13.333 -2 -29.666 -6 -48.999l-8 -44c84.667 62 164 107.667 238 137c64 25.333 125.333 38 184 38c72.667 0 133 -20 181 -60c40 -33.333 60 -66 60 -98
c0 -92 -92.667 -163 -278 -213c-124.667 -33.333 -245.334 -50 -362.001 -50h-283c-58 11.333 -103.333 22.333 -136 33c-95.333 31.333 -158 68 -188 110c22.667 -12 84.334 -21.667 185.001 -29l159 -12c48.667 -3.33301 93.334 16.667 134.001 60
c36.667 40 55 86.667 55 140v721z" />
    <glyph glyph-name="u0638" unicode="&#x638;" horiz-adv-x="1384" arabic-form="isolated" 
d="M625 123c5.33301 -2 14.999 -3 28.999 -3c42.667 0 123.334 8.33301 242.001 25c156.667 21.333 258.667 45 306 71c-38.667 37.333 -86.667 61.333 -144 72c-19.333 4 -38.333 6 -57 6c-73.333 0 -150 -21.333 -230 -64c-67.333 -35.333 -116 -71 -146 -107z
M591.999 1024l-32.001 29.999l79 107l87 -289l-56 57v-471c-1.33301 -8.66699 -2.33301 -18 -3 -28l-10 -90c0 -13.333 -2 -29.666 -6 -48.999l-8 -44c84.667 62 164 107.667 238 137c64 25.333 125.333 38 184 38c72.667 0 133 -20 181 -60c40 -33.333 60 -66 60 -98
c0 -92 -92.667 -163 -278 -213c-124.667 -33.333 -245.334 -50 -362.001 -50h-283c-58 11.333 -103.333 22.333 -136 33c-95.333 31.333 -158 68 -188 110c22.667 -12 84.334 -21.667 185.001 -29l159 -12c48.667 -3.33301 93.334 16.667 134.001 60
c36.667 40 55 86.667 55 140v721zM915.998 1008l122 -94l-55 -93l-123 93z" />
    <glyph glyph-name="u0639" unicode="&#x639;" horiz-adv-x="1338" arabic-form="isolated" 
d="M708 608c-39.333 16.667 -94.668 25 -166.001 25c-93.333 0 -186 -13 -278 -39s-138 -54.667 -138 -86c0 -22.667 40.667 -60 122 -112c92.667 -59.333 183.334 -89 272.001 -89c18 0 52.667 10 104 30c12 4.66699 31.667 13.334 59 26.001l292 136
c-46.667 -82 -80 -128.667 -100 -140c-36 -12.667 -71 -27 -105 -43l-122 -55c-117.333 -53.333 -214.666 -114 -291.999 -182c-106.667 -94 -160 -190.667 -160 -290c0 -108 64.833 -197.833 194.5 -269.5s304.5 -107.5 524.5 -107.5c10 0 73.667 3 191 9
c56.667 2 125 11 205 27c-198.667 -98 -391.334 -147 -578.001 -147c-159.333 0 -295.666 37 -408.999 111c-132 85.333 -198 203.666 -198 354.999c0 75.333 23 160.666 69 255.999c12 24.667 30.333 52.667 55 84c31.333 40.667 65.666 78.667 102.999 114
c-42.667 0 -98.667 22.667 -168 68c-84 54.667 -126 114.334 -126 179.001c0 78 37.333 139.333 112 184c66.667 40 147.667 60 243 60c139.333 0 237.333 -34.667 294 -104z" />
    <glyph glyph-name="u063A" unicode="&#x63a;" horiz-adv-x="1338" arabic-form="isolated" 
d="M708 608c-39.333 16.667 -94.668 24.999 -166.001 24.999c-93.333 0 -186 -13.167 -278 -39.5s-138 -54.833 -138 -85.5c0 -22.667 40.667 -60 122 -112c92.667 -59.333 183.334 -89 272.001 -89c18 0 52.667 10 104 30c12 4.66699 31.667 13.334 59 26.001l292 135
c-46.667 -81.333 -80 -127.666 -100 -138.999c-36 -12.667 -71 -27 -105 -43l-122 -55c-117.333 -53.333 -214.666 -114 -291.999 -182c-106.667 -94 -160 -190.667 -160 -290c0 -108 64.833 -198 194.5 -270s304.5 -108 524.5 -108c10 0 73.667 3 191 9
c56.667 2.66699 125 12 205 28c-198.667 -98 -391.334 -147 -578.001 -147c-159.333 0 -295.666 37 -408.999 111c-132 85.333 -198 203.666 -198 354.999c0 75.333 23 160.666 69 255.999c12 24 30.333 52 55 84c31.333 40.667 65.666 78.667 102.999 114
c-42.667 0 -98.667 22.667 -168 68c-84 54.667 -126 114.334 -126 179.001c0 78 37.333 139.333 112 184c66.667 40 147.667 60 243 60c139.333 0 237.333 -34.667 294 -104zM145.998 1147l123 -94l-56 -94l-122 94z" />
    <glyph glyph-name="u0641" unicode="&#x641;" horiz-adv-x="1476" arabic-form="isolated" 
d="M1396 284l1.00098 -11.999c4 -51.333 -55.667 -108 -179 -170c-58.667 -29.333 -120.667 -56 -186 -80c-95.333 -34.667 -206.666 -66 -333.999 -94l-101 -21c-60 -10.667 -111.667 -16 -155 -16c-114 0 -205 22 -273 66c-73.333 47.333 -110 118.333 -110 213
c0 35.333 4.33301 71.666 13 108.999c2 8 6 21 12 39c22 -133.333 63.333 -222.666 124 -267.999c40 -30 109 -45 207 -45c86 0 202.333 17.667 349 53c156 37.333 288.333 76.666 397 117.999c115.333 43.333 176 77 182 101v12c1.33301 14 -4.33398 26 -17.001 36
c-15.333 8.66699 -34.333 13 -57 13l-35 -11c-32.667 -6 -61 -9 -85 -9c-106.667 0 -160 47 -160 141c0 34 16 66 48 96c29.333 28 67.666 42 114.999 42c124.667 0 206 -104.333 244 -313zM1096 455.001c14.667 -11.333 29 -17 43 -17c16 0 32.667 5.66699 50 17
c-12.667 15.333 -27 23 -43 23c-19.333 0 -36 -7.66699 -50 -23zM1039 766.001l-122 94l55 94l122 -94z" />
    <glyph glyph-name="u0642" unicode="&#x642;" horiz-adv-x="1225" arabic-form="isolated" 
d="M959 345c30.667 0 67.999 -31.665 111.999 -94.998c50.667 -71.333 76 -147 76 -227c0 -104 -56.333 -198.667 -169 -284c-83.333 -63.333 -194.666 -118 -333.999 -164c-109.333 -36 -191.333 -54 -246 -54c-74.667 0 -146.667 25.333 -216 76
c-80 58 -120 134.667 -120 230c0 44.667 6.33301 83 19 115c2.66699 14 11 34.333 25 61l17 31c6 10.667 13.333 21.667 22 33l-16 -92l-6 -42l-1 -42c-4.66699 -96.667 27 -167.334 95 -212.001c42.667 -29.333 99 -44 169 -44c112 0 228.667 24.667 350 74
c98 40 186.333 90.333 265 151c70 54 105 93 105 117c0 44.667 -47.667 69.667 -143 75c-50 2.66699 -85.667 12.667 -107 30c-24.667 19.333 -37 46.666 -37 81.999c0 30.667 15.667 67.667 47 111c33.333 46.667 64.333 70 93 70zM876.999 178.002
c33.333 -8.66699 56.667 -12.333 70 -11l23 2l38 9l-18 17l-22 16c-18 10.667 -33.333 16 -46 16c-10.667 0 -19.667 -4 -27 -12c-6 -4.66699 -12 -17 -18 -37zM874 562.003l-43 -74l-122 94l54 94l108 -82l45 76l120 -93l-58 -95z" />
    <glyph glyph-name="u0643" unicode="&#x643;" horiz-adv-x="1996" arabic-form="isolated" 
d="M813 106c-92.667 -38.667 -149.004 -61.3359 -169.004 -68.0029c-52.667 -17.333 -108 -26.333 -166 -27c-3.33301 0 -20 -1 -50 -3c-24.667 -1.33301 -41.667 -1.66602 -51 -0.999023c-63.333 5.33301 -98 8.33301 -104 9c-33.333 6.66699 -62.666 20.667 -87.999 42
c-48 40 -75.333 87 -82 141c-6 46.667 2.66699 91 26 133c-24.667 -39.333 -42.667 -79.333 -54 -120c-12.667 -44.667 -18 -77.667 -16 -99c4.66699 -55.333 36 -105 94 -149c26.667 -20 56.667 -33 90 -39c8.66699 -1.33301 42.667 -3.66602 102 -6.99902
c43.333 -2.66699 116.333 6 219 26c76 14.667 145.667 33.667 209 57c100 37.333 191.333 82.666 274 135.999c39.333 25.333 85.333 60 138 104c47.333 40 71 61.667 71 65c-6.66699 59.333 -26.334 114.666 -59.001 165.999c-40 62.667 -105 135.334 -195 218.001l-58 63
l-75 66c111.333 71.333 249.333 136 414 194c102 36 192 63.667 270 83c13.333 3.33301 51 12 113 26c89.333 20.667 145.333 32 168 34h13c66 4.66699 99 27.334 99 68.001c0 14 -4.33301 26.333 -13 37c-15.333 14 -37.666 21 -66.999 21c-21.333 0 -119 -24 -293 -72
c-219.333 -60 -393.666 -118.667 -522.999 -176c-187.333 -84 -281 -161.333 -281 -232c0 -34 33.333 -84.333 100 -151l189 -188c16.667 -17.333 47.334 -65.666 92.001 -144.999c-101.333 -89.333 -213.666 -160 -336.999 -212z" />
    <glyph glyph-name="u0644" unicode="&#x644;" horiz-adv-x="1055" arabic-form="isolated" 
d="M852 775l-41.002 48.001l79 107l86 -294l-46 45v-513c0 -107.333 -43 -200.333 -129 -279c-31.333 -28.667 -69.666 -56.334 -114.999 -83.001c-41.333 -24 -91.333 -46.667 -150 -68c-89.333 -32 -161.333 -50 -216 -54l-27 -1c-58 -4 -112.667 16.667 -164 62
c-46.667 41.333 -70 94.666 -70 159.999c0 70 32.333 144.333 97 223c-30.667 -69.333 -46 -129.666 -46 -180.999c0 -106.667 70 -160 210 -160c76.667 0 176.334 22.333 299.001 67c155.333 56.667 233 122.667 233 198v723z" />
    <glyph glyph-name="u0645" unicode="&#x645;" horiz-adv-x="882" arabic-form="isolated" 
d="M432 271c0 -10.667 8.66895 -33.332 26.002 -67.999l11 -23l12 -21c6.66699 -12 12.667 -19.667 18 -23l7 -2c10 0 28 4 54 12c39.333 11.333 69.666 22.666 90.999 33.999c5.33301 4 8.66602 9.66699 9.99902 17c0 22 -26.667 43.667 -80 65c-46 18 -82.667 27 -110 27
c-22.667 0 -35.667 -6 -39 -18zM169.002 -157.998c-9.33301 -7.33301 -14.501 -17.501 -15.501 -30.501s-2.16699 -26.167 -3.5 -39.5c-5.33301 -31.333 -7.33301 -64.333 -6 -99c2.66699 -32.667 5 -65.667 7 -99c0 -89.333 3 -186 9 -290l2 -25
c1.33301 -20 3.33301 -52.667 6 -98c1.33301 -54.667 0.666016 -90 -2.00098 -106c-6.66699 -44.667 -19 -87 -37 -127l-17 -45c-20 166 -33 305.667 -39 419c0 0.666992 -1.33301 37.334 -4 110.001l-10 260c-2 54.667 4 109.667 18 165c2 10.667 7 27 15 49
c6 11.333 22.667 30.833 50 58.5s46.333 45.5 57 53.5c18.667 14.667 44.334 29 77.001 43l47 20l39 16l63 22c-37.333 62 -56 117 -56 165c0 38 14.333 67.667 43 89c25.333 18.667 57.333 28 96 28c54 0 114.667 -21 182 -63c75.333 -46.667 113 -96.667 113 -150
c0 -30 -10 -56 -30 -78l-41 -6l-29 -6l-41 -11c-33.333 -8.66699 -66.666 -20.667 -99.999 -36l8 -40l4 -35c0 -26.667 -6.66699 -50.334 -20 -71.001c-10 31.333 -18.333 54 -25 68c-10.667 22.667 -24.667 42.334 -42 59.001l-74 -27l-52 -17l-70 -30
c-47.333 -19.333 -88 -51.333 -122 -96z" />
    <glyph glyph-name="u0646" unicode="&#x646;" horiz-adv-x="1308" arabic-form="isolated" 
d="M1187 198l-76.999 19l67 -98c14 -20.667 27 -50 39 -88c8.66699 -30 13 -61 13 -93c0 -78 -97.333 -165.667 -292 -263c-202.667 -101.333 -394 -152 -574 -152c-73.333 0 -141 27.333 -203 82c-67.333 60 -101 133.667 -101 221c0 25.333 1.66699 45.666 5 60.999l8 30
l10 31c12 34 29.667 67.667 53 101l21 27l-27 -115l-8 -50c-2.66699 -14.667 -4 -28.334 -4 -41.001c0 -141.333 86.667 -223.666 260 -246.999h11c23.333 0 53.333 4.33301 90 13c57.333 14 107.666 28.667 150.999 44l92 31l88 33c48.667 18.667 107 43.334 175 74.001
c118.667 54.667 178 92.667 178 114c0 27.333 -21.667 85 -65 173c-54 108.667 -106.333 163 -157 163l63 113zM586.001 105l-122 93l55 95l122 -95z" />
    <glyph glyph-name="u0647" unicode="&#x647;" horiz-adv-x="639" arabic-form="isolated" 
d="M561 661l-0.00195312 -94l-77 -80c-52 -53.333 -85 -94.666 -99 -123.999c82.667 -50.667 124 -106.334 124 -167.001c0 -48 -26 -93 -78 -135c-49.333 -40.667 -98.666 -61 -147.999 -61c-70.667 0 -106 42.667 -106 128c0 33.333 7.66699 69 23 107
c14 35.333 32.667 65 56 89l-145 141c-17.333 17.333 -34.666 26 -51.999 26v120l184 -114l-40 -10l32 -31l35 -29l35 -24zM248.998 114l37 3.99902c54.667 5.33301 110 29.333 166 72c-4.66699 11.333 -21.5 29.333 -50.5 54s-50.167 39.667 -63.5 45l-20 -21l-25 -30
c-31.333 -37.333 -46.333 -72.666 -45 -105.999z" />
    <glyph glyph-name="u0648" unicode="&#x648;" horiz-adv-x="729" arabic-form="isolated" 
d="M648 24l2.00098 -23.0039c2.66699 -28.667 -8.33301 -64 -33 -106c-34.667 -60.667 -91 -113.667 -169 -159c-157.333 -93.333 -312 -163.666 -464 -210.999c-45.333 -14 -90.333 -26.333 -135 -37l-167 25c0 -0.666992 -2 -1.66699 -6 -3v0
c7.33301 2.66699 50.666 20.334 129.999 53.001l282 116c50.667 20.667 129 55.667 235 105c186 86.667 279 143 279 169c0 24 -27.333 41.667 -82 53l-152 29c-54.667 16 -82 41.667 -82 77l2 19c4 42.667 22.667 80.334 56 113.001c30.667 29.333 64.667 44 102 44
c46 0 87.333 -20.667 124 -62c45.333 -51.333 71.333 -118.666 78 -201.999zM359.001 157.996c18 -19.333 41.667 -29 71 -29s49.333 9.66699 60 29l-36 14c-10.667 4 -21 5.66699 -31 5l-25 -2l-15 -5z" />
    <glyph glyph-name="u0649" unicode="&#x649;" horiz-adv-x="1140" arabic-form="isolated" 
d="M1009 364c10 0 22.3291 -10.332 36.9961 -30.999c10.667 -20.667 16 -43.334 16 -68.001c0 -30.667 -11 -53.334 -33 -68.001c-2.66699 1.33301 -10.667 10.333 -24 27c-9.33301 10.667 -19 17 -29 19c-16 0 -58 -30.333 -126 -91c-72.667 -65.333 -109 -115 -109 -149
c0 -20.667 26.667 -35.334 80 -44.001c85.333 -14 134.666 -23.333 147.999 -28c52.667 -18 79 -48.333 79 -91c0 -105.333 -90.667 -199.333 -272 -282c-148.667 -68.667 -279 -106.334 -391 -113.001l-31 -1c-75.333 -4.66699 -143.333 22 -204 80
c-63.333 60 -93.666 136.333 -90.999 229l1 34c0 12 1 21.667 3 29c1.33301 14.667 5.66602 36.334 12.999 65.001c12.667 46.667 32.334 94 59.001 142l-5 -29l-7 -55l-4 -78c-5.33301 -118.667 29.334 -204.667 104.001 -258c48 -34 113.667 -51 197 -51
c79.333 0 175.333 25.667 288 77l83 38c14.667 6.66699 38 19.667 70 39c14.667 8.66699 24.334 14.667 29.001 18l29.5 22c15 11.333 31.167 25 48.5 41c-17.333 12.667 -60.666 25 -129.999 37c-113.333 20.667 -170 69.334 -170 146.001c0 62.667 41 143.334 123 242.001
c84.667 101.333 157.334 152 218.001 152z" />
    <glyph glyph-name="u064A" unicode="&#x64a;" horiz-adv-x="1140" arabic-form="isolated" 
d="M1009 364c10 0 22.3291 -10.332 36.9961 -30.999c10.667 -20.667 16 -43.334 16 -68.001c0 -30.667 -11 -53.334 -33 -68.001c-2.66699 1.33301 -10.667 10.333 -24 27c-9.33301 10.667 -19 17 -29 19c-16 0 -58 -30.333 -126 -91c-72.667 -65.333 -109 -115 -109 -149
c0 -20.667 26.667 -35.334 80 -44.001c85.333 -14 134.666 -23.333 147.999 -28c52.667 -18 79 -48.333 79 -91c0 -105.333 -90.667 -199.333 -272 -282c-148.667 -68.667 -279 -106.334 -391 -113.001l-31 -1c-75.333 -4.66699 -143.333 22 -204 80
c-63.333 60 -93.666 136.333 -90.999 229l1 34c0 12 1 21.667 3 29c1.33301 14.667 5.66602 36.334 12.999 65.001c12.667 46.667 32.334 94 59.001 142l-5 -29l-7 -55l-4 -78c-5.33301 -118.667 29.334 -204.667 104.001 -258c48 -34 113.667 -51 197 -51
c79.333 0 175.333 25.667 288 77l83 38c14.667 6.66699 38 19.667 70 39c14.667 8.66699 24.334 14.667 29.001 18l29.5 22c15 11.333 31.167 25 48.5 41c-17.333 12.667 -60.666 25 -129.999 37c-113.333 20.667 -170 69.334 -170 146.001c0 62.667 41 143.334 123 242.001
c84.667 101.333 157.334 152 218.001 152z" />
    <glyph glyph-name="u067E" unicode="&#x67e;" horiz-adv-x="1392" arabic-form="isolated" 
d="M1217 537c64 -81.333 96.001 -153.002 96.001 -215.002c0 -56.667 -29.667 -105.667 -89 -147c-26 -13.333 -65 -32.333 -117 -57l-17 -8c-124.667 -56.667 -239.334 -98.334 -344.001 -125.001c-100.667 -24.667 -192 -37 -274 -37c-136 0 -242 34 -318 102
c-63.333 56.667 -95 125.667 -95 207v30c0 43.333 11 73.666 33 90.999c0 -125.333 47.667 -215.666 143 -270.999c68 -40 146.333 -58 235 -54l42 1l28 2l8 -1c19.333 0 82.666 12.667 189.999 38c20.667 4.66699 50.667 12.334 90 23.001c15.333 4 43.333 12 84 24
c32 10 57.667 18.333 77 25c2.66699 0.666992 27.334 10.334 74.001 29.001c118 45.333 180.667 84 188 116l-37 64c-22 38.667 -34.333 64.334 -37 77.001zM828.001 -448.002l122 -94l-55 -93l-123 93zM788.001 -347.002l-43 -74l-122 94l54 93l108 -82l45 78l120 -94
l-58 -96z" />
    <glyph glyph-name="u0686" unicode="&#x686;" horiz-adv-x="1305" arabic-form="isolated" 
d="M1278 -525c-51.333 -24 -98.001 -43.335 -140.001 -58.002c-64.667 -23.333 -124.667 -40 -180 -50l-31 -6l-73 -11l-68 -6l-64 -3c-157.333 -6.66699 -296 31.333 -416 114c-110 75.333 -165 173.333 -165 294c0 66.667 16.333 134.334 49 203.001
c11.333 22.667 25 46.667 41 72c66.667 103.333 165.667 206.333 297 309l-32 6l-44 9l-49 5l-53 2c-32.667 0.666992 -70 -2 -112 -8c-18.667 -2.66699 -37.667 -7.66699 -57 -15c-16.667 -3.33301 -35 -9.66602 -55 -18.999h-67c10.667 96 104.334 143 281.001 141l132 -2
l495 -3l87 11l-104 -117c-145.333 0 -300.333 -58.667 -465 -176c-176.667 -126 -265 -258.333 -265 -397c0 -94.667 50 -169 150 -223c113.333 -61.333 291 -92 533 -92c110.667 0 235.667 6.66699 375 20zM716.999 -222.002l122 -94l-55 -93l-122 93zM702.999 -138.002
l-43 -74l-122 93l54 94l108 -82l45 77l120 -93l-58 -96z" />
    <glyph glyph-name="u0698" unicode="&#x698;" horiz-adv-x="771" arabic-form="isolated" 
d="M471 368l180.999 -147.001c26.667 -26.667 40 -53.334 40 -80.001c0 -57.333 -72 -141.666 -216 -252.999l-40 -30l-66 -47l-53 -36l-57 -36c-29.333 -18.667 -74.666 -43.667 -135.999 -75l-517 -150l221 113c158.667 80.667 306.667 164.334 444 251.001
c172.667 108 288 198.667 346 272l-27 28l-29 26l-31 28l-42 34c-41.333 33.333 -82.333 62.333 -123 87l-40 -5l25 169l235 -107zM170.999 1052l122 -94l-56 -93l-122 93zM263.999 745.999l-43 -74l-122 94l55 93l107 -82l45 78l121 -94l-59 -96z" />
    <glyph glyph-name="u06AF" unicode="&#x6af;" horiz-adv-x="1996" arabic-form="isolated" 
d="M982 1208c67.333 28.667 145.332 57.333 233.999 86c97.333 32 195.333 61.333 294 88c60 16 152.667 37.333 278 64c33.333 5.33301 50 -13.667 50 -57c0 -32 -8 -48.333 -24 -49l-211 -51c-62.667 -14 -127.667 -30.667 -195 -50l-94 -27l-96 -32
c-71.333 -24 -137.666 -50 -198.999 -78zM812.999 105.999c-92.667 -38.667 -149.004 -61.3359 -169.004 -68.0029c-52.667 -17.333 -108 -26.333 -166 -27c-3.33301 0 -20 -1 -50 -3c-24.667 -1.33301 -41.667 -1.66602 -51 -0.999023c-63.333 5.33301 -98 8.33301 -104 9
c-33.333 6.66699 -62.666 20.667 -87.999 42c-48 40 -75.333 87 -82 141c-6 46.667 2.66699 91 26 133c-24.667 -39.333 -42.667 -79.333 -54 -120c-12.667 -44.667 -18 -77.667 -16 -99c4.66699 -55.333 36 -105 94 -149c26.667 -20 56.667 -33 90 -39
c8.66699 -1.33301 42.667 -3.66602 102 -6.99902c43.333 -2.66699 116.333 6 219 26c76 14.667 145.667 33.667 209 57c100 37.333 191.333 82.666 274 135.999c39.333 25.333 85.333 60 138 104c47.333 40 71 61.667 71 65
c-6.66699 59.333 -26.334 114.666 -59.001 165.999c-40 62.667 -105 135.334 -195 218.001l-58 63l-75 66c111.333 71.333 249.333 136 414 194c102 36 192 63.667 270 83c13.333 3.33301 51 12 113 26c89.333 20.667 145.333 32 168 34h13c66 4.66699 99 27.334 99 68.001
c0 14 -4.33301 26.333 -13 37c-15.333 14 -37.666 21 -66.999 21c-21.333 0 -119 -24 -293 -72c-219.333 -60 -393.666 -118.667 -522.999 -176c-187.333 -84 -281 -161.333 -281 -232c0 -34 33.333 -84.333 100 -151l189 -188
c16.667 -17.333 47.334 -65.666 92.001 -144.999c-101.333 -89.333 -213.666 -160 -336.999 -212z" />
    <glyph glyph-name="uFB57" unicode="&#x67e;" horiz-adv-x="1520" arabic-form="final" 
d="M140 428l-13.9951 -47.001c-5.33301 -19.333 -8.66602 -34.333 -9.99902 -45l3 -25c19.333 -84 83.666 -145.333 192.999 -184c79.333 -28 172.666 -42 279.999 -42c92 0 187.333 8.66699 286 26c19.333 3.33301 51.666 10.333 96.999 21
c139.333 33.333 282 81.666 428 144.999c12 -64 21.333 -101 28 -111c22 -32.667 66 -49 132 -49v-117h-87c-42.667 0 -79.334 25 -110.001 75c-6.66699 10.667 -16.667 36 -30 76c-62.667 -26.667 -127.667 -50 -195 -70c-84.667 -25.333 -152.667 -42.666 -204 -51.999
l-94 -17l-47 -8l-54 -7c-60.667 -7.33301 -122.334 -11 -185.001 -11c-122.667 0 -226.334 15.667 -311.001 47c-124.667 44.667 -187 117.334 -187 218.001c0 32 6.66699 65 20 99c16 40 36.333 66 61 78zM700.005 -493.001l122 -94l-55 -94l-122 94zM682.005 -404.001
l-43 -73l-122 93l55 93l107 -81l45 77l121 -94l-59 -96z" />
    <glyph glyph-name="uFB58" unicode="&#x67e;" horiz-adv-x="446" arabic-form="initial" 
d="M164 0l-178 0.000976562v117h198c28 0 46.667 1.33301 56 4c30.667 4 51.667 11 63 21l-73 145l67 133c25.333 -34.667 43.5 -66.834 54.5 -96.501s16.5 -62.167 16.5 -97.5c0 -59.333 -19 -111.333 -57 -156c-40 -46.667 -89 -70 -147 -70zM196 -407.999l122 -94
l-55 -93l-123 93zM155 -341.999l-43 -73l-122 93l55 93l108 -81l45 77l120 -94l-59 -96z" />
    <glyph glyph-name="uFB59" unicode="&#x67e;" horiz-adv-x="385" arabic-form="medial" 
d="M290 263l-3.00098 -26.999c0 -78.667 44.667 -118 134 -118v-118h-74c-11.333 0 -22 2 -32 6s-21 10.333 -33 19c-22 16 -43.667 38.333 -65 67c-65.333 -61.333 -113.666 -92 -144.999 -92h-87v118c88.667 0 153.667 20 195 60c49.333 47.333 86 75.666 110 84.999z
M150.999 -398.999l122 -94l-56 -94l-122 94zM143.999 -334.999l-43 -74l-122 93l55 94l108 -82l45 77l120 -93l-58 -96z" />
    <glyph glyph-name="uFB7B" unicode="&#x686;" horiz-adv-x="1169" arabic-form="final" 
d="M1054 461l-88 -86.998c-75.333 -6.66699 -113 -23.334 -113 -50.001l1 -10c13.333 -56.667 30.666 -99.667 51.999 -129c6.66699 -9.33301 14.334 -17.666 23.001 -24.999c32 -28 82 -42 150 -42h150v-118h-205c-40 0 -81.333 23.333 -124 70
c-56.667 62 -94 148 -112 258c-108.667 0 -237.334 -64 -386.001 -192c-156 -135.333 -234 -263.333 -234 -384c0 -89.333 47 -159.333 141 -210c115.333 -62 285.333 -91.667 510 -89l145 1c27.333 0 42.333 1.66699 45 5h18l43 2l156 16c-194 -97.333 -383 -146 -567 -146
c-140 0 -259.333 29.667 -358 89c-117.333 71.333 -176 172.666 -176 303.999c0 142.667 73.667 291.667 221 447c52 54.667 112.667 109.334 182 164.001l-32 5l-44 9l-49 6l-53 1c-32.667 1.33301 -70 -1.33398 -112 -8.00098
c-18.667 -2.66699 -37.667 -7.33398 -57 -14.001c-16.667 -3.33301 -35 -10 -55 -20h-67c10.667 96.667 104.334 143.667 281.001 141l132 -2l495 -2zM624 -228.998l122 -94l-56 -93l-122 93zM606 -150.998l-43 -74l-122 94l54 93l108 -82l45 77l120 -93l-58 -96z" />
    <glyph glyph-name="uFB7C" unicode="&#x686;" horiz-adv-x="1311" arabic-form="initial" 
d="M1053 285l179.001 -0.000976562l-113 -113l-50 6l-54 4l-60 3l-74 -2l-25 -4l-30 -7l-121 -44c-90 -31.333 -181.333 -59 -274 -83c-116.667 -30 -213 -45 -289 -45h-169v117c60 0 121 3 183 9c69.333 6.66699 134.666 15.334 195.999 26.001
c134 22.667 227.333 46.667 280 72c-59.333 26.667 -119.666 49.667 -180.999 69c-16 4.66699 -40.333 9.33398 -73 14.001c-24.667 3.33301 -45.334 5 -62.001 5c-29.333 0 -54 -3.66699 -74 -11c-4 -0.666992 -11.333 -5.33398 -22 -14.001h-136l110 110
c53.333 18.667 103 27 149 25l44 -2l50 -6c29.333 -4 66.333 -12.333 111 -25l233 -68c32 -10 79.333 -19 142 -27c44 -6 87.333 -9 130 -9zM364.001 -459.001l122 -94l-56 -93l-122 93zM350.001 -374.001l-43 -73l-122 93l55 93l107 -81l45 77l120 -93l-58 -96z" />
    <glyph glyph-name="uFB7D" unicode="&#x686;" horiz-adv-x="1186" arabic-form="medial" 
d="M1169 0l73.9971 -0.000976562v118h-77c-31.333 0 -63 11 -95 33c-14 9.33301 -27.667 20.333 -41 33l99 -12l114 114h-180c-84 0 -170.667 11.667 -260 35l-126 34l-124 35c-82.667 23.333 -150.667 35 -204 35h-19l-21 -1c-14 -0.666992 -28.333 -2.66699 -43 -6
c-9.33301 0 -21.666 -2.66699 -36.999 -8l-31 -11l-110 -110h137l10 7c22.667 12 51.667 18 87 18c84 0 189.667 -29.333 317 -88c-45.333 -23.333 -140.666 -47.333 -285.999 -72c-142 -24 -267.667 -36 -377 -36v-118h170c79.333 0 176.333 14.667 291 44
c102.667 26.667 194.334 54.334 275.001 83.001l133 48l15 3l37 4l70 4c50.667 -124 118 -186 202 -186zM422.997 -493.001l122 -94l-55 -94l-122 94zM407.997 -395.001l-43 -74l-122 94l55 93l108 -82l45 77l120 -93l-58 -96z" />
    <glyph glyph-name="uFB8B" unicode="&#x698;" horiz-adv-x="670" arabic-form="final" 
d="M712 118l-0.00195312 -118c-59.333 0 -107.666 4 -144.999 12c18 -22.667 27 -46 27 -70c0 -59.333 -50.667 -123 -152 -191c-90.667 -61.333 -196 -114.666 -316 -159.999l-145 -55c-34 -12.667 -75.667 -25.667 -125 -39l-33 -6l-48 -9l-141 -22l-165 -24l227 81
c175.333 62.667 327 123.667 455 183c182 84.667 305 159.667 369 225l-93 174l64 162c24.667 -50.667 43.334 -82.334 56.001 -95.001c33.333 -32 88.333 -48 165 -48zM336.998 802l122 -94l-56 -93l-122 93zM434.998 488l-43 -74l-122 94l55 93l108 -82l44 78l121 -94
l-59 -96z" />
    <glyph glyph-name="uFEDA" unicode="&#x6a9;" horiz-adv-x="1810" arabic-form="final" 
d="M807 79c-113.333 -35.333 -179.331 -55.333 -197.998 -60c-65.333 -16 -133 -24 -203 -24c-24 0 -63 3 -117 9l-42 9l-33 10c-60.667 26 -93 81.667 -97 167l1 21c-0.666992 9.33301 0.666016 24 3.99902 44l14 66c-12.667 -22 -24.334 -45.667 -35.001 -71
c-5.33301 -12 -13 -32.333 -23 -61c-14.667 -48.667 -21 -83.667 -19 -105c5.33301 -56.667 45.666 -109.334 120.999 -158.001c35.333 -23.333 73.666 -37.333 114.999 -42c20.667 -2 61.667 -2 123 0c50.667 1.33301 119.334 13.333 206.001 36
c28 6.66699 73 18.667 135 36c140.667 42.667 232.667 71.334 276 86.001c92.667 32 165.334 63.667 218.001 95c8 -35.333 30.667 -68 68 -98c32 -26 58 -39 78 -39h455v118c-306 0 -468 10.667 -486 32c-22.667 28.667 -37.334 62.334 -44.001 101.001
c-8 50 -26.333 99.667 -55 149c-12 21.333 -39.333 56 -82 104c-28 33.333 -66 71.333 -114 114l-47 49l-85 81c111.333 71.333 249 136 413 194c102.667 36 193 63.667 271 83c13.333 3.33301 51 12 113 26c89.333 20.667 145.333 31.667 168 33l13 1
c66.667 4.66699 100 24.667 100 60c0 18 -4.66699 32.667 -14 44c-15.333 14.667 -37.666 22 -66.999 22c-21.333 0 -119.333 -24 -294 -72c-218.667 -60 -392.667 -119 -522 -177c-187.333 -83.333 -281 -160.333 -281 -231c0 -36 33.333 -86.333 100 -151l185 -181
c60 -58.667 90 -103.334 90 -134.001c0 -5.33301 -1.66699 -10 -5 -14c-30 -36.667 -85.667 -69.667 -167 -99z" />
    <glyph glyph-name="uFEDB" unicode="&#x6a9;" horiz-adv-x="1189" arabic-form="initial" 
d="M235 117c64 0 96.002 15.3311 96.002 45.998c0 32.667 -33.333 81.334 -100 146.001l-186 181c-66 64.667 -99 115 -99 151c0 70.667 93.667 147.667 281 231c129.333 58 303.333 117 522 177c174.667 48 272.667 72 294 72c29.333 0 51.666 -7 66.999 -21
c11.333 -14.667 17.333 -29 18 -43c1.33301 -19.333 -9.66699 -33 -33 -41c-8.66699 -3.33301 -31.334 -7.66602 -68.001 -12.999c-3.33301 -0.666992 -8 -1 -14 -1l-170 -41l-114 -26c-77.333 -19.333 -167.333 -47 -270 -83c-164 -58 -302 -122.667 -414 -194l69 -68
l64 -61c90 -82.667 155.333 -155.334 196 -218.001c36.667 -57.333 55 -106.666 55 -147.999c0 -52 -31 -92.167 -93 -120.5s-155 -42.5 -279 -42.5h-130v117h308z" />
    <glyph glyph-name="uFEDC" unicode="&#x6a9;" horiz-adv-x="1089" arabic-form="medial" 
d="M1010 118h170.004v-118h-181c-62.667 0 -143.334 29.667 -242.001 89l-49 32l-113 82l-157 118l25 -62c5.33301 -12.667 8 -27.334 8 -44.001c0 -70 -40.667 -125.667 -122 -167c-64.667 -32 -135.334 -48 -212.001 -48h-194v118h187c55.333 0 107 6 155 18
c4.66699 2 15.667 6.33301 33 13c58 21.333 87 38.666 87 51.999c0 30 -33.667 71.667 -101 125l-200 159c-70.667 55.333 -113.334 107.666 -128.001 156.999l-1 10v9c0 68 94 142.333 282 223c67.333 28.667 145.333 57.334 234 86.001c97.333 32 195.333 61.333 294 88
c167.333 46 265 69 293 69h3c31.333 0 53.666 -7.33301 66.999 -22c6.66699 -7.33301 11.667 -17.666 15 -30.999c1.33301 -4 2 -8 2 -12c0 -30 -34.667 -50.333 -104 -61l-44 -7c-22.667 -3.33301 -68.667 -12.666 -138 -27.999c-63.333 -14 -128.666 -30.667 -195.999 -50
l-93 -27l-97 -33c-118 -38.667 -226.667 -85.667 -326 -141c-28.667 -16 -58.667 -34 -90 -54l114 -79l191 -130l74 -46l67 -44c41.333 -26.667 102.666 -63.667 183.999 -111c155.333 -88.667 256.333 -133 303 -133z" />
    <glyph glyph-name="uFB93" unicode="&#x6af;" horiz-adv-x="1810" arabic-form="final" 
d="M1043 1129c67.333 28.667 145.332 57.3311 233.999 85.998c97.333 32 195.333 61.333 294 88c60 16.667 152.667 38.334 278 65.001c33.333 4.66699 50 -14.666 50 -57.999c0 -32 -8 -48.333 -24 -49c-47.333 -12 -117.666 -28.667 -210.999 -50
c-62.667 -14.667 -127.667 -31.667 -195 -51l-94 -27l-97 -32c-70.667 -23.333 -136.667 -49.333 -198 -78zM806.999 78.9971c-113.333 -35.333 -179.331 -55.333 -197.998 -60c-65.333 -16 -133 -24 -203 -24c-24 0 -63 3 -117 9l-42 9l-33 10
c-60.667 26 -93 81.667 -97 167l1 21c-0.666992 9.33301 0.666016 24 3.99902 44l14 66c-12.667 -22 -24.334 -45.667 -35.001 -71c-5.33301 -12 -13 -32.333 -23 -61c-14.667 -48.667 -21 -83.667 -19 -105c5.33301 -56.667 45.666 -109.334 120.999 -158.001
c35.333 -23.333 73.666 -37.333 114.999 -42c20.667 -2 61.667 -2 123 0c50.667 1.33301 119.334 13.333 206.001 36c28 6.66699 73 18.667 135 36c140.667 42.667 232.667 71.334 276 86.001c92.667 32 165.334 63.667 218.001 95c8 -35.333 30.667 -68 68 -98
c32 -26 58 -39 78 -39h455v118c-306 0 -468 10.667 -486 32c-22.667 28.667 -37.334 62.334 -44.001 101.001c-8 50 -26.333 99.667 -55 149c-12 21.333 -39.333 56 -82 104c-28 33.333 -66 71.333 -114 114l-47 49l-85 81c111.333 71.333 249 136 413 194
c102.667 36 193 63.667 271 83c13.333 3.33301 51 12 113 26c89.333 20.667 145.333 31.667 168 33l13 1c66.667 4.66699 100 24.667 100 60c0 18 -4.66699 32.667 -14 44c-15.333 14.667 -37.666 22 -66.999 22c-21.333 0 -119.333 -24 -294 -72
c-218.667 -60 -392.667 -119 -522 -177c-187.333 -83.333 -281 -160.333 -281 -231c0 -36 33.333 -86.333 100 -151l185 -181c60 -58.667 90 -103.334 90 -134.001c0 -5.33301 -1.66699 -10 -5 -14c-30 -36.667 -85.667 -69.667 -167 -99z" />
    <glyph glyph-name="uFB94" unicode="&#x6af;" horiz-adv-x="1170" arabic-form="initial" 
d="M135 1035c67.333 28.667 144.998 57.332 232.998 85.999c98 32 196.333 61.333 295 88c60 16.667 152.667 38.334 278 65.001c33.333 5.33301 50 -14 50 -58c0 -32 -8 -48.333 -24 -49c-47.333 -12 -117.666 -28.667 -210.999 -50
c-63.333 -14.667 -128.666 -31.667 -195.999 -51l-93 -27l-97 -32c-70.667 -23.333 -136.667 -49.333 -198 -78zM215.998 116.998c64 0 96.001 15.3311 96.001 45.998c0 32.667 -33 81.334 -99 146.001l-186 181c-66.667 64.667 -100 115 -100 151
c0 70.667 93.667 147.667 281 231c129.333 58 303.666 117 522.999 177c174 48 271.667 72 293 72c29.333 0 51.666 -7 66.999 -21c11.333 -14.667 17.333 -29 18 -43c1.33301 -19.333 -9.66699 -33 -33 -41c-8 -3.33301 -30.667 -7.66602 -68 -12.999
c-3.33301 -0.666992 -7.66602 -1 -12.999 -1l-171 -41l-113 -26c-78 -19.333 -168 -47 -270 -83c-164.667 -58 -302.667 -122.667 -414 -194l68 -68l65 -61c90 -82.667 155 -155.334 195 -218.001c36.667 -57.333 55 -106.666 55 -147.999c0 -52 -31 -92.167 -93 -120.5
s-155 -42.5 -279 -42.5h-51v117h229z" />
    <glyph glyph-name="uFB95" unicode="&#x6af;" horiz-adv-x="1040" arabic-form="medial" 
d="M140 1038c67.333 28.667 145.331 57.333 233.998 86c98 32 196 61.333 294 88c60 16 152.667 37.333 278 64c33.333 5.33301 50 -13.667 50 -57c0 -32 -7.66699 -48.333 -23 -49l-211 -51c-63.333 -14 -128.666 -30.667 -195.999 -50l-93 -27l-97 -32
c-71.333 -24 -137.666 -50 -198.999 -78zM976.998 117.999h91.0029v-118h-102c-62.667 0 -143.334 29.667 -242.001 89l-49 32l-113 82l-157 118l25 -62c5.33301 -12.667 8 -27.334 8 -44.001c0 -70 -40.667 -125.667 -122 -167c-64.667 -32 -135.334 -48 -212.001 -48h-115
v118h108c55.333 0 107 6 155 18c4.66699 2 15.667 6.33301 33 13c58 21.333 87 38.666 87 51.999c0 30 -33.667 71.667 -101 125l-200 159c-70.667 55.333 -113.334 107.666 -128.001 156.999l-1 10v9c0 68 94 142.333 282 223c67.333 28.667 145.333 57.334 234 86.001
c97.333 32 195.333 61.333 294 88c167.333 46 265 69 293 69h3c31.333 0 53.666 -7.33301 66.999 -22c6.66699 -7.33301 11.667 -17.666 15 -30.999c1.33301 -4 2 -8 2 -12c0 -30 -34.667 -50.333 -104 -61l-44 -7c-23.333 -3.33301 -69.666 -12.666 -138.999 -27.999
c-62.667 -14 -127.667 -30.667 -195 -50l-94 -27l-97 -33c-117.333 -38.667 -225.666 -85.667 -324.999 -141c-29.333 -16 -59.333 -34 -90 -54l114 -79l191 -130l74 -46l67 -44c41.333 -26.667 102.666 -63.667 183.999 -111c155.333 -88.667 256.333 -133 303 -133z" />
    <glyph glyph-name="uFE94" unicode="&#x6c0;" horiz-adv-x="626" arabic-form="final" 
d="M403 663l21.999 -56l15 -42l11 -35l49 32l74 52l26 20l2 -22c2.66699 -30 -12 -62.333 -44 -97l-91 -99l2 -89c0.666992 -19.333 3.33398 -41.333 8.00098 -66c15.333 -92.667 45.666 -139 90.999 -139l21 -4h83v-118h-79c-37.333 0 -74.333 20 -111 60
c-42.667 46.667 -67.667 110 -75 190l-30 -33l-24 -23c-34 -32.667 -72 -56 -114 -70c-35.333 -11.333 -63.666 -17 -84.999 -17c-34.667 0 -55.667 12 -63 36l-4 33c0 64 30.333 119 91 165l195 149c0 12 -3.33301 29.667 -10 53l-4 12l-8 15zM390.999 405
c-122.667 -45.333 -193.667 -102.333 -213 -171c10 -10 23 -15 39 -15c26 0 60.5 13.833 103.5 41.5s69.167 53.5 78.5 77.5zM210.999 873c13.333 0 23.332 -2.66699 29.999 -8c6 -7.33301 9 -15.333 9 -24c0 -17.333 -5.66699 -32.333 -17 -45l-10 -12l-10 14l-10 9
c-7.33301 4 -15.666 6 -24.999 6c-27.333 0 -42.333 -9.66699 -45 -29c14 -15.333 35.667 -23 65 -23c19.333 0 37 2.66699 53 8l29 10c11.333 4 23.666 9.66699 36.999 17l2 -12c0 -24 -33.667 -49.667 -101 -77l-159 -67c8 22 16 38 24 48l25 30
c-15.333 10 -23 24.667 -23 44c0 30 13.333 56 40 78s55.334 33 86.001 33z" />
    <glyph glyph-name="uFEF2" unicode="&#x6cc;" horiz-adv-x="1091" arabic-form="final" 
d="M1048 -130l2 -22.999c5.33301 -66 -40.667 -130.333 -138 -193c-75.333 -48.667 -171 -90.334 -287 -125.001c-48.667 -14.667 -89.667 -25.667 -123 -33c-16.667 -4 -37.667 -8 -63 -12l-54 -9l-32 -2c-74 -4 -141.5 22.833 -202.5 80.5s-91.5 134.167 -91.5 229.5
c0 43.333 5.66699 85.333 17 126l9 33l14 37l16 35l19 38l-6 -41l-5 -43l-4 -78c-5.33301 -118.667 29.334 -204.667 104.001 -258c47.333 -33.333 113 -50 197 -50c74 0 175.333 26 304 78s219 104 271 156c-166.667 0 -250 39.667 -250 119c0 36 19.667 75.5 59 118.5
s76.666 64.5 111.999 64.5h229v-118l-190 -3l-41 -4c-41.333 -4.66699 -62 -12 -62 -22c0 -4.66699 32.5 -20.167 97.5 -46.5s97.833 -44.5 98.5 -54.5z" />
    <glyph glyph-name="uFEF3" unicode="&#x6cc;" horiz-adv-x="402" arabic-form="initial" 
d="M112 0l-137.999 0.000976562v116h159c27.333 0 45.666 1.66699 54.999 5c30.667 4 51.667 11 63 21l-73 145l67 133c26 -34.667 44.333 -66.834 55 -96.501s16 -62.167 16 -97.5c0 -59.333 -19 -111.333 -57 -156c-40 -46.667 -89 -70 -147 -70zM161.001 -337.999
l-43 -74l-122 94l54 93l108 -82l45 78l120 -94l-58 -96z" />
    <glyph glyph-name="uFEF4" unicode="&#x6cc;" horiz-adv-x="357" arabic-form="medial" 
d="M272 263l-3.00098 -26.999c0 -78.667 44.667 -118 134 -118v-118h-74c-11.333 0 -22 2 -32 6s-21.333 10.333 -34 19c-21.333 16 -42.666 38.333 -63.999 67c-65.333 -61.333 -114 -92 -146 -92h-86v118c88.667 0 153.667 20 195 60c49.333 47.333 86 75.666 110 84.999z
M167.999 -322.999l-43 -74l-122 93l54 94l108 -82l45 77l120 -93l-58 -96z" />
    <glyph glyph-name="Hcircumflex" unicode="&#x622;" horiz-adv-x="313" arabic-form="final" 
d="M131 1169l19.998 -13.999l12 -10c21.333 -19.333 32 -41 32 -65v-886c0 -30 9.33301 -51.667 28 -65c14.667 -10 35.334 -14.333 62.001 -13l51 2v-118h-134c-18 0 -35.333 13 -52 39c-21.333 32 -32 79 -32 141v799c0 30 -9.33301 52.667 -28 68
c-9.33301 7.33301 -14.666 15.666 -15.999 24.999zM455.998 1430l-135 -113c-46 -24.667 -95.667 -37 -149 -37c-10 0 -22.333 2 -37 6l-23 7l-34 9c-13.333 3.33301 -27.333 5 -42 5c-27.333 0 -55.333 -5 -84 -15l-27 -11c-4 -2 -9.66699 -5.33301 -17 -10
c-17.333 -10 -34 -22 -50 -36c70 106.667 146.667 160 230 160c16 0 33 -2.66699 51 -8c33.333 -10 62.333 -15 87 -15c30.667 0 67.667 6.66699 111 20z" />
    <glyph glyph-name="uFE84" unicode="&#x623;" horiz-adv-x="380" arabic-form="final" 
d="M222 1169l19.998 -13.999l12 -10c21.333 -19.333 32 -41 32 -65v-886c0 -30 9.33301 -51.667 28 -65c14.667 -10 35.334 -14.333 62.001 -13l51 2v-118h-134c-18 0 -35.333 13 -52 39c-21.333 32.667 -32 79.667 -32 141v799c0 30 -9.33301 52.667 -28 68
c-9.33301 7.33301 -14.666 15.666 -15.999 24.999zM210.998 1432c13.333 0 23.332 -2.66797 29.999 -8.00098c6 -7.33301 9 -15.666 9 -24.999c0 -17.333 -5.66699 -32 -17 -44l-10 -12l-10 13l-10 10c-7.33301 3.33301 -15.666 5 -24.999 5
c-27.333 0 -42.333 -9.33301 -45 -28c14 -15.333 35.667 -23 65 -23c19.333 0 37 2.66699 53 8l29 10c11.333 3.33301 23.666 9 36.999 17l2 -12c0 -24 -33.667 -50 -101 -78l-159 -67c8 22.667 16 38.667 24 48l25 31c-15.333 10 -23 24.667 -23 44c0 30 13.333 56 40 78
s55.334 33 86.001 33z" />
    <glyph glyph-name="uFE86" unicode="&#x624;" horiz-adv-x="559" arabic-form="final" 
d="M317 615c13.333 0 23.332 -2.66797 29.999 -8.00098c5.33301 -7.33301 8 -15.666 8 -24.999c0 -17.333 -5.33301 -32 -16 -44l-10 -12l-10 13l-11 10c-6.66699 3.33301 -14.667 5 -24 5c-27.333 0 -42.333 -9.33301 -45 -28c14 -15.333 35.667 -23 65 -23
c19.333 0 37 2.66699 53 8l29 10c10.667 4 23 9.66699 37 17l2 -12c0 -24 -33.667 -50 -101 -78l-159 -67c8 22.667 16 38.667 24 48l25 31c-15.333 10 -23 24.667 -23 44c0 30 13.333 56 40 78s55.334 33 86.001 33zM333.999 290.999
c25.333 0 60.165 -28.8311 104.498 -86.498s89.833 -86.5 136.5 -86.5h25v-118h-78l2 -21v-23c0 -82.667 -48.333 -161 -145 -235c-89.333 -68.667 -185.666 -119.667 -288.999 -153l-117 -37c-6.66699 -2.66699 -20.667 -6.66699 -42 -12c-10 -4 -28 -8 -54 -12l-243 -6
c62.667 17.333 131.667 40.666 207 69.999c109.333 42.667 218 91 326 145c209.333 103.333 314 171.666 314 204.999c0 50 -50 75 -150 75s-150 37.667 -150 113c0 31.333 17.833 69.5 53.5 114.5s68.834 67.5 99.501 67.5zM231.998 144.001
c14.667 -11.333 29.001 -19.668 43.001 -25.001c7.33301 -3.33301 13.666 -5.66602 18.999 -6.99902l15 -3l23 -5l21 -2h40l9 2c-7.33301 17.333 -21.666 33 -42.999 47c-20 10 -41.667 15 -65 15c-26.667 0 -47.334 -7.33301 -62.001 -22z" />
    <glyph glyph-name="uFE88" unicode="&#x625;" horiz-adv-x="337" arabic-form="final" 
d="M116 1169l18.999 -14l13 -10c20.667 -19.333 31 -41 31 -65v-886c0 -30 9.66699 -51.667 29 -65c14 -9.33301 34.667 -13.666 62 -12.999l90 2v-118h-174c-17.333 0 -34.666 13 -51.999 39c-21.333 32.667 -32 79.667 -32 141v799c0 30 -9.33301 52.667 -28 68
c-8.66699 7.33301 -13.667 15.666 -15 24.999zM214.999 -148c14 0 24.333 -2.66699 31 -8c5.33301 -7.33301 8 -15.333 8 -24c0 -18 -5.33301 -33 -16 -45l-11 -12l-9 13l-11 10c-6.66699 3.33301 -14.667 5 -24 5c-28 0 -43 -9.33301 -45 -28c14 -15.333 35.667 -23 65 -23
c19.333 0 37 2.66699 53 8l29 10c10.667 4 23 9.66699 37 17l2 -12c0 -24 -34 -50 -102 -78l-158 -67c8 22.667 16 39 24 49l25 30c-16 10 -24 24.667 -24 44c0 30 14 56.333 42 79c26 21.333 54 32 84 32z" />
    <glyph glyph-name="uFE8A" unicode="&#x626;" horiz-adv-x="1087" arabic-form="final" 
d="M1048 -130l2 -21.998c5.33301 -66.667 -40.667 -131.334 -138 -194.001c-75.333 -48.667 -171 -90.334 -287 -125.001c-48.667 -14.667 -89.667 -25.667 -123 -33c-16.667 -4 -37.667 -8 -63 -12l-54 -9l-32 -2c-74 -4 -141.5 22.833 -202.5 80.5
s-91.5 134.167 -91.5 229.5c0 43.333 5.66699 85.333 17 126l9 33l14 37l16 35l19 38l-6 -41l-5 -43l-4 -78c-5.33301 -118.667 29.334 -204.667 104.001 -258c47.333 -33.333 113 -50 197 -50c74 0 175.333 26 304 78s219 104 271 156c-166.667 0 -250 39.667 -250 119
c0 36 19.667 75.5 59 118.5s76.666 64.5 111.999 64.5h229v-118l-190 -3l-41 -4c-41.333 -4.66699 -62 -12 -62 -22c0 -4.66699 32.5 -20.167 97.5 -46.5s97.833 -44.5 98.5 -54.5zM518 324.002c13.333 0 23.332 -2.66797 29.999 -8.00098
c5.33301 -7.33301 8 -15.666 8 -24.999c0 -17.333 -5.33301 -32 -16 -44l-11 -12l-9 13l-11 10c-6.66699 3.33301 -14.667 5 -24 5c-27.333 0 -42.333 -9.33301 -45 -28c14 -15.333 35.667 -23 65 -23c19.333 0 37 2.66699 53 8l29 10c10.667 4 23 9.66699 37 17l2 -12
c0 -24 -34 -50 -102 -78l-158 -67c8 22.667 16 38.667 24 48l25 31c-15.333 10 -23 24.667 -23 44c0 30 13.333 56 40 78s55.334 33 86.001 33z" />
    <glyph glyph-name="uFE8B" unicode="&#x626;" horiz-adv-x="395" arabic-form="initial" 
d="M113 0l-137.999 0.000976562v117h159c27.333 0 45.666 1.33301 54.999 4c30.667 4 51.667 11 63 21l-73 145l67 133c26 -34.667 44.333 -66.834 55 -96.501s16 -62.167 16 -97.5c0 -59.333 -19 -111.333 -57 -156c-40 -46.667 -89 -70 -147 -70zM198.001 780.001
c13.333 0 23.332 -2.66699 29.999 -8c5.33301 -7.33301 8 -15.333 8 -24c0 -18 -5.33301 -33 -16 -45l-11 -12l-9 13l-11 10c-6.66699 3.33301 -14.667 5 -24 5c-27.333 0 -42.333 -9.33301 -45 -28c14 -15.333 35.667 -23 65 -23c19.333 0 37 2.66699 53 8l29 10
c10.667 4 23 9.66699 37 17l2 -12c0 -24 -34 -50 -102 -78l-158 -67c8 22.667 16 39 24 49l25 30c-15.333 10 -23 24.667 -23 44c0 30 13.333 56 40 78s55.334 33 86.001 33z" />
    <glyph glyph-name="uFE8C" unicode="&#x626;" horiz-adv-x="365" arabic-form="medial" 
d="M279 263l-2.00098 -26.999c0 -78.667 44.333 -118 133 -118v-118h-73c-11.333 0 -22.166 2 -32.499 6s-21.5 10.333 -33.5 19c-21.333 16 -42.666 38.667 -63.999 68c-65.333 -62 -114 -93 -146 -93h-86v118c88.667 0 153.667 20 195 60
c49.333 47.333 85.666 75.666 108.999 84.999zM212.999 678.001c14 0 24.333 -2.66797 31 -8.00098c5.33301 -7.33301 8 -15.666 8 -24.999c0 -17.333 -5.33301 -32 -16 -44l-11 -12l-9 13l-11 9c-7.33301 4 -15.333 6 -24 6c-28 0 -43 -9.33301 -45 -28
c14 -15.333 35.667 -23 65 -23c18.667 0 36 2.66699 52 8l30 10c10.667 3.33301 23 9 37 17l2 -12c0 -24 -34 -50 -102 -78l-158 -67c8 22.667 16 38.667 24 48l25 30c-16 10.667 -24 25.667 -24 45c0 30 14 56.333 42 79c26 21.333 54 32 84 32z" />
    <glyph glyph-name="uFE8E" unicode="&#x627;" horiz-adv-x="280" arabic-form="final" 
d="M116 1169l18.998 -13.999l13 -10c20.667 -19.333 31 -41 31 -65v-886c0 -30 9.66699 -51.667 29 -65c14.667 -10 35.334 -14.333 62.001 -13l50 2v-118h-134c-17.333 0 -34.666 13 -51.999 39c-21.333 32 -32 79 -32 141v799c0 30 -9.33301 52.667 -28 68
c-8.66699 7.33301 -13.667 15.666 -15 24.999z" />
    <glyph glyph-name="uFE90" unicode="&#x628;" horiz-adv-x="1521" arabic-form="final" 
d="M140 428l-13.9951 -46c-5.33301 -19.333 -8.66602 -34.666 -9.99902 -45.999l3 -24c19.333 -84.667 83.666 -146.334 192.999 -185.001c79.333 -28 172.666 -42 279.999 -42c92 0 187.333 8.66699 286 26c19.333 3.33301 51.666 10.333 96.999 21
c139.333 33.333 282 81.666 428 144.999c12 -64 21.333 -101 28 -111c22 -32 66 -48 132 -48v-118h-87c-42.667 0 -79.334 25 -110.001 75c-6.66699 11.333 -16.667 36.666 -30 75.999c-62.667 -26.667 -127.667 -50 -195 -70
c-84.667 -25.333 -152.667 -42.666 -204 -51.999l-94 -17c-15.333 -2.66699 -31 -5 -47 -7l-54 -8c-60.667 -6.66699 -122.334 -10 -185.001 -10c-122.667 0 -226.334 15.333 -311.001 46c-124.667 44.667 -187 117.334 -187 218.001c0 32.667 6.66699 66 20 100
c16 39.333 36.333 65 61 77zM649.005 -374l122 -94l-55 -93l-122 93z" />
    <glyph glyph-name="uFE91" unicode="&#x628;" horiz-adv-x="407" arabic-form="initial" 
d="M124 1l-138 0.000976562v116h159c27.333 0 46 1.66699 56 5c30.667 4 51.667 11 63 21l-73 145l66 133c26 -34.667 44.333 -66.834 55 -96.501s16 -62.167 16 -97.5c0 -59.333 -19 -111.333 -57 -156c-39.333 -46.667 -88.333 -70 -147 -70zM100 -236.999l122 -94
l-56 -93l-122 93z" />
    <glyph glyph-name="uFE92" unicode="&#x628;" horiz-adv-x="389" arabic-form="medial" 
d="M289 263l-3.00098 -26.999c0 -78.667 44.667 -118 134 -118v-118h-74c-11.333 0 -22 2 -32 6s-21 10.333 -33 19c-21.333 16 -43 38.667 -65 68c-65.333 -62 -113.666 -93 -144.999 -93h-86v118c88 0 152.667 20 194 60c49.333 47.333 86 75.666 110 84.999z
M66.999 -245.999l122 -94l-56 -93l-122 93z" />
    <glyph glyph-name="uFE96" unicode="&#x62a;" horiz-adv-x="1515" arabic-form="final" 
d="M140 428l-13.9951 -47.001c-5.33301 -19.333 -8.66602 -34.333 -9.99902 -45l3 -25c19.333 -84 83.666 -145.333 192.999 -184c79.333 -28 172.666 -42 279.999 -42c92 0 187.333 8.66699 286 26c19.333 3.33301 51.666 10.333 96.999 21
c139.333 33.333 282 81.666 428 144.999c12 -64 21.333 -101 28 -111c22 -32 66 -48 132 -48v-118h-87c-42.667 0 -79.334 25 -110.001 75c-6.66699 10.667 -16.667 36 -30 76c-62.667 -26.667 -127.667 -50 -195 -70c-84.667 -25.333 -152.667 -42.666 -204 -51.999
l-94 -17l-47 -8l-54 -7c-60.667 -7.33301 -122.334 -11 -185.001 -11c-122.667 0 -226.334 15.667 -311.001 47c-124.667 44.667 -187 117.334 -187 218.001c0 32 6.66699 65 20 99c16 40 36.333 66 61 78zM694.005 509.999l-43 -73l-122 93l55 94l108 -82l45 77l120 -93
l-58 -96z" />
    <glyph glyph-name="uFE97" unicode="&#x62a;" horiz-adv-x="414" arabic-form="initial" 
d="M127 0l-138 0.000976562v117h158c28 0 46.667 1.33301 56 4c30.667 4 51.667 11 63 21l-73 145l67 133c25.333 -34.667 43.5 -66.834 54.5 -96.501s16.5 -62.167 16.5 -97.5c0 -59.333 -19 -111 -57 -155c-40 -47.333 -89 -71 -147 -71zM193 678.001l-43 -73l-122 93
l54 94l108 -82l45 77l120 -93l-58 -96z" />
    <glyph glyph-name="uFE98" unicode="&#x62a;" horiz-adv-x="384" arabic-form="medial" 
d="M289 263l-3.00098 -26.999c0 -78.667 44.667 -118 134 -118v-118h-74c-11.333 0 -22 2 -32 6s-21 10.333 -33 19c-21.333 16 -43 38.667 -65 68c-65.333 -62 -113.666 -93 -144.999 -93h-86v118c88 0 152.667 20 194 60c49.333 47.333 86 75.666 110 84.999z
M227.999 589.001l-43 -74l-122 93l55 94l107 -82l45 77l121 -93l-59 -96z" />
    <glyph glyph-name="uFE9A" unicode="&#x62b;" horiz-adv-x="1520" arabic-form="final" 
d="M140 428l-13.9951 -46c-5.33301 -19.333 -8.66602 -34.666 -9.99902 -45.999l3 -24c19.333 -84.667 83.666 -146.334 192.999 -185.001c79.333 -28 172.666 -42 279.999 -42c92 0 187.333 8.66699 286 26c19.333 3.33301 51.666 10.333 96.999 21
c139.333 33.333 282 81.666 428 144.999c12 -64 21.333 -101 28 -111c22 -32 66 -48 132 -48v-118h-87c-42.667 0 -79.334 25 -110.001 75c-6.66699 11.333 -16.667 36.666 -30 75.999c-62.667 -26.667 -127.667 -50 -195 -70
c-84.667 -25.333 -152.667 -42.666 -204 -51.999l-94 -17c-15.333 -2.66699 -31 -5 -47 -7l-54 -8c-60.667 -6.66699 -122.334 -10 -185.001 -10c-122.667 0 -226.334 15.333 -311.001 46c-124.667 44.667 -187 117.334 -187 218.001c0 32.667 6.66699 66 20 100
c16 39.333 36.333 65 61 77zM615.005 862l122 -94l-55 -94l-123 94zM739.005 545l-43 -73l-122 93l54 94l108 -82l45 77l120 -93l-58 -96z" />
    <glyph glyph-name="uFE9B" unicode="&#x62b;" horiz-adv-x="407" arabic-form="initial" 
d="M123 0l-137.999 0.000976562v117h159c27.333 0 45.666 1.33301 54.999 4c30.667 4 51.667 11 63 21l-72 145l66 133c26 -34.667 44.333 -66.834 55 -96.501s16 -62.167 16 -97.5c0 -59.333 -19 -111.333 -57 -156c-40 -46.667 -89 -70 -147 -70zM107.001 964.001l122 -94
l-56 -94l-122 94zM215.001 639.001l-43 -74l-122 93l55 94l107 -82l45 77l120 -93l-58 -96z" />
    <glyph glyph-name="uFE9C" unicode="&#x62b;" horiz-adv-x="384" arabic-form="medial" 
d="M289 263l-3.00098 -26.999c0 -78.667 44.667 -118 134 -118v-118h-74c-11.333 0 -22 2 -32 6s-21 10.333 -33 19c-21.333 16 -43 38.333 -65 67c-65.333 -61.333 -113.666 -92 -144.999 -92h-86v118c88 0 152.667 20 194 60c49.333 47.333 86 75.666 110 84.999z
M115.999 836.001l122 -94l-56 -93l-122 93zM213.999 517.001l-43 -74l-122 93l54 94l108 -82l45 77l120 -93l-58 -96z" />
    <glyph glyph-name="uFE9E" unicode="&#x62c;" horiz-adv-x="1183" arabic-form="final" 
d="M1054 461l-88 -86.998c-75.333 -6.66699 -113 -23.334 -113 -50.001l1 -10c13.333 -56.667 30.666 -99.667 51.999 -129c6.66699 -9.33301 14.334 -17.666 23.001 -24.999c32 -28 82 -42 150 -42h150v-118h-205c-40 0 -81.333 23.333 -124 70
c-56.667 62 -94 148 -112 258c-108.667 0 -237.334 -64 -386.001 -192c-156 -135.333 -234 -263.333 -234 -384c0 -89.333 47 -159.333 141 -210c115.333 -62 285.333 -91.667 510 -89l145 1c27.333 0 42.333 1.66699 45 5h18l43 2l156 16c-194 -97.333 -383 -146 -567 -146
c-140 0 -259.333 29.667 -358 89c-117.333 71.333 -176 172.666 -176 303.999c0 142.667 73.667 291.667 221 447c52 54.667 112.667 109.334 182 164.001l-32 5l-44 9l-49 6l-53 1c-32.667 1.33301 -70 -1.33398 -112 -8.00098
c-18.667 -2.66699 -37.667 -7.33398 -57 -14.001c-16.667 -3.33301 -35 -10 -55 -20h-67c10.667 96.667 104.334 143.667 281.001 141l132 -2l495 -2zM632 -160.998l122 -94l-55 -93l-123 93z" />
    <glyph glyph-name="uFE9F" unicode="&#x62c;" horiz-adv-x="1311" arabic-form="initial" 
d="M1053 285l179.001 -0.000976562l-113 -114l-50 7l-54 4l-60 3l-74 -2l-25 -4l-30 -8l-121 -43c-90 -32 -181.333 -59.667 -274 -83c-116.667 -30 -213 -45 -289 -45h-169v117c60 0 121 3 183 9c69.333 6.66699 134.666 15.334 195.999 26.001
c134 22.667 227.333 46.667 280 72c-59.333 26.667 -119.666 49.667 -180.999 69c-16 4.66699 -40.333 9.33398 -73 14.001c-24.667 3.33301 -45.334 5 -62.001 5c-29.333 0 -54 -3.66699 -74 -11c-4 -0.666992 -11.333 -5.33398 -22 -14.001h-136l110 110
c53.333 18.667 103 27 149 25l44 -2l50 -6c29.333 -4 66.333 -12.333 111 -25l233 -69c32 -9.33301 79.333 -18 142 -26c44 -6 87.333 -9 130 -9zM279.001 -288.001l122 -95l-56 -93l-122 93z" />
    <glyph glyph-name="uFEA0" unicode="&#x62c;" horiz-adv-x="1189" arabic-form="medial" 
d="M1169 6h73.9971v118h-77c-31.333 0 -63 11 -95 33c-14 9.33301 -27.667 20.333 -41 33l99 -12l114 114h-180c-84 0 -170.667 11.667 -260 35l-126 34l-124 35c-82.667 23.333 -150.667 35 -204 35h-19l-21 -1c-14 -0.666992 -28.333 -2.66699 -43 -6
c-9.33301 0 -21.666 -2.66699 -36.999 -8l-31 -10l-110 -111h137l10 7c22.667 12 51.667 18 87 18c84 0 189.667 -29.333 317 -88c-45.333 -23.333 -140.666 -47.333 -285.999 -72c-142 -24 -267.667 -36 -377 -36v-118h170c79.333 0 176.333 14.667 291 44
c102.667 26.667 194.334 54.667 275.001 84l133 47l15 3l37 4l70 4c50.667 -124 118 -186 202 -186zM294.997 -274l122 -94l-55 -93l-122 93z" />
    <glyph glyph-name="uFEA2" unicode="&#x62d;" horiz-adv-x="1182" arabic-form="final" 
d="M1054 461l-88 -86.998c-75.333 -6.66699 -113 -23.334 -113 -50.001l1 -10c13.333 -56.667 30.666 -99.667 51.999 -129c6.66699 -9.33301 14.334 -17.666 23.001 -24.999c32 -28 82 -42 150 -42h150v-118h-205c-40 0 -81.333 23.333 -124 70
c-56.667 62 -94 148 -112 258c-108.667 0 -237.334 -64 -386.001 -192c-156 -135.333 -234 -263.333 -234 -384c0 -89.333 47 -159.333 141 -210c115.333 -62 285.333 -91.667 510 -89l145 1c27.333 0 42.333 1.66699 45 5h18l43 2l156 16c-194 -97.333 -383 -146 -567 -146
c-140 0 -259.333 29.667 -358 89c-117.333 71.333 -176 172.666 -176 303.999c0 142.667 73.667 291.667 221 447c52 54.667 112.667 109.334 182 164.001l-32 5l-44 9l-49 6l-53 1c-32.667 1.33301 -70 -1.33398 -112 -8.00098
c-18.667 -2.66699 -37.667 -7.33398 -57 -14.001c-16.667 -3.33301 -35 -10 -55 -20h-67c10.667 96.667 104.334 143.667 281.001 141l132 -2l495 -2z" />
    <glyph glyph-name="uFEA3" unicode="&#x62d;" horiz-adv-x="1311" arabic-form="initial" 
d="M1053 285l179.001 -0.000976562l-113 -114l-50 7l-54 4l-60 3l-74 -2l-25 -4l-30 -8l-121 -43c-90 -32 -181.333 -59.667 -274 -83c-116.667 -30 -213 -45 -289 -45h-169v117c60 0 121 3 183 9c69.333 6.66699 134.666 15.334 195.999 26.001
c134 22.667 227.333 46.667 280 72c-59.333 26.667 -119.666 49.667 -180.999 69c-16 4.66699 -40.333 9.33398 -73 14.001c-24.667 3.33301 -45.334 5 -62.001 5c-29.333 0 -54 -3.66699 -74 -11c-4 -0.666992 -11.333 -5.33398 -22 -14.001h-136l110 110
c53.333 18.667 103 27 149 25l44 -2l50 -6c29.333 -4 66.333 -12.333 111 -25l233 -69c32 -9.33301 79.333 -18.333 142 -27c44 -5.33301 87.333 -8 130 -8z" />
    <glyph glyph-name="uFEA4" unicode="&#x62d;" horiz-adv-x="1204" arabic-form="medial" 
d="M1169 0l73.9971 -0.000976562v118h-77c-31.333 0 -63 11 -95 33c-14 9.33301 -27.667 20.333 -41 33l99 -12l114 114h-180c-84 0 -170.667 11.667 -260 35l-126 34l-124 35c-82.667 23.333 -150.667 35 -204 35h-19l-21 -1c-14 -0.666992 -28.333 -2.66699 -43 -6
c-9.33301 0 -21.666 -2.66699 -36.999 -8l-31 -11l-110 -110h137l10 7c22.667 12 51.667 18 87 18c84 0 189.667 -29.333 317 -88c-45.333 -23.333 -140.666 -47.333 -285.999 -72c-142 -24 -267.667 -36 -377 -36v-118h170c79.333 0 176.333 14.667 291 44
c102.667 26.667 194.334 54.334 275.001 83.001l133 48l15 3l37 4l70 4c50.667 -124 118 -186 202 -186z" />
    <glyph glyph-name="uFEA6" unicode="&#x62e;" horiz-adv-x="1182" arabic-form="final" 
d="M1054 461l-88 -86.998c-75.333 -6.66699 -113 -23.334 -113 -50.001l1 -10c13.333 -56.667 30.666 -99.667 51.999 -129c6.66699 -9.33301 14.334 -17.666 23.001 -24.999c32 -28 82 -42 150 -42h150v-118h-205c-40 0 -81.333 23.333 -124 70
c-56.667 62 -94 148 -112 258c-108.667 0 -237.334 -64 -386.001 -192c-156 -135.333 -234 -263.333 -234 -384c0 -89.333 47 -159.333 141 -210c115.333 -62 285.333 -91.667 510 -89l145 1c27.333 0 42.333 1.66699 45 5h18l43 2l156 16c-194 -97.333 -383 -146 -567 -146
c-140 0 -259.333 29.667 -358 89c-117.333 71.333 -176 172.666 -176 303.999c0 142.667 73.667 291.667 221 447c52 54.667 112.667 109.334 182 164.001l-32 5l-44 9l-49 6l-53 1c-32.667 1.33301 -70 -1.33398 -112 -8.00098
c-18.667 -2.66699 -37.667 -7.33398 -57 -14.001c-16.667 -3.33301 -35 -10 -55 -20h-67c10.667 96.667 104.334 143.667 281.001 141l132 -2l495 -2zM300 981.002l122 -94l-56 -93l-122 93z" />
    <glyph glyph-name="uFEA7" unicode="&#x62e;" horiz-adv-x="1303" arabic-form="initial" 
d="M1045 285l179 -0.000976562l-113 -114l-50 7l-54 4l-60 3l-74 -2l-25 -4l-30 -8l-121 -43c-89.333 -32 -180.333 -59.667 -273 -83c-117.333 -30 -213.666 -45 -288.999 -45h-170v117c60 0 121 3 183 9c69.333 6.66699 135 15.334 197 26.001
c133.333 22.667 226.666 46.667 279.999 72c-60 26.667 -120.667 49.667 -182 69c-16 4.66699 -40 9.33398 -72 14.001c-25.333 3.33301 -46 5 -62 5c-30 0 -55 -3.66699 -75 -11c-4 -0.666992 -11 -5.33398 -21 -14.001h-137l111 110c53.333 18.667 103 27 149 25l43 -2
l50 -6c30 -4 67 -12.333 111 -25l233 -69c32 -9.33301 79.333 -18 142 -26c44 -6 87.333 -9 130 -9zM194 886.999l122 -94l-56 -93l-122 93z" />
    <glyph glyph-name="uFEA8" unicode="&#x62e;" horiz-adv-x="1200" arabic-form="medial" 
d="M1169 0l73.9971 -0.000976562v118h-77c-31.333 0 -63 11 -95 33c-14 9.33301 -27.667 20.333 -41 33l99 -12l114 114h-180c-84 0 -170.667 11.667 -260 35l-126 34l-124 35c-82.667 23.333 -150.667 35 -204 35h-19l-21 -1c-14 -0.666992 -28.333 -2.66699 -43 -6
c-9.33301 0 -21.666 -2.66699 -36.999 -8l-31 -11l-110 -110h137l10 7c22.667 12 51.667 18 87 18c84 0 189.667 -29.333 317 -88c-45.333 -23.333 -140.666 -47.333 -285.999 -72c-142 -24 -267.667 -36 -377 -36v-118h170c79.333 0 176.333 14.667 291 44
c102.667 26.667 194.334 54.334 275.001 83.001l133 48l15 3l37 4l70 4c50.667 -124 118 -186 202 -186zM218.997 938.999l122 -95l-56 -93l-122 93z" />
    <glyph glyph-name="uFEAA" unicode="&#x62f;" horiz-adv-x="1031" arabic-form="final" 
d="M1081 118l-0.00195312 -117.999h-68c-27.333 0 -55.666 22 -84.999 66c-3.33301 4.66699 -9.33301 16 -18 34c-3.33301 6 -8 15.333 -14 28l-37 91l-112 -91c-18 -15.333 -60.333 -46 -127 -92c-50 -34.667 -91.667 -61.334 -125 -80.001
c-109.333 -62 -197.666 -93 -264.999 -93c-38 0 -74.333 15.333 -109 46c-41.333 37.333 -62 83.333 -62 138c0 36.667 10.333 76.667 31 120c10 22 23 44 39 66c20.667 28 40.667 52.333 60 73c-34 -60 -58.333 -115 -73 -165c-5.33301 -26.667 -8 -49.667 -8 -69
c0 -62 34.667 -93 104 -93c80.667 0 202.667 45.667 366 137c170 94.667 255 171.667 255 231c0 42.667 -23.667 112.667 -71 210l-70 143l57 109c16 -26.667 27.667 -48 35 -64l28 -60l23 -47c44 -92 79 -198 105 -318l26 -126c16.667 -50.667 55 -76 115 -76z" />
    <glyph glyph-name="uFEAC" unicode="&#x630;" horiz-adv-x="1032" arabic-form="final" 
d="M1081 118l-0.00195312 -117.999h-68c-27.333 0 -55.666 22 -84.999 66c-3.33301 4.66699 -9.33301 16 -18 34c-3.33301 6 -8 15.333 -14 28l-37 91l-112 -91c-18 -15.333 -60.333 -46 -127 -92c-50 -34.667 -91.667 -61.334 -125 -80.001
c-109.333 -62 -197.666 -93 -264.999 -93c-38 0 -74.333 15.333 -109 46c-41.333 36.667 -62 82.667 -62 138c0 36.667 10.333 76.667 31 120c10 22 23 44 39 66c20.667 28 40.667 52.333 60 73c-34 -60 -58.333 -115 -73 -165c-5.33301 -26.667 -8 -49.667 -8 -69
c0 -62.667 34.667 -94 104 -94c80.667 0 202.667 46 366 138c170 94.667 255 171.667 255 231c0 42.667 -23.667 112.667 -71 210l-70 143l57 109c16 -26.667 27.667 -48 35 -64l28 -60l23 -47c44 -92 79 -198 105 -318l26 -126c16.667 -50.667 55 -76 115 -76z
M614.998 1262l122 -94l-55 -93l-123 93z" />
    <glyph glyph-name="uFEAE" unicode="&#x631;" horiz-adv-x="675" arabic-form="final" 
d="M712 118l-0.00195312 -118c-59.333 0 -107.666 4 -144.999 12c18 -22.667 27 -46 27 -70c0 -59.333 -50.667 -123.333 -152 -192c-90.667 -61.333 -196 -114.333 -316 -159l-145 -55c-34 -12.667 -75.667 -26 -125 -40l-33 -5l-48 -9l-141 -22l-165 -24l227 81
c175.333 62.667 327 123.667 455 183c182 84.667 305 159.667 369 225l-93 174l64 162c24.667 -51.333 43.334 -83 56.001 -95c33.333 -32 88.333 -48 165 -48z" />
    <glyph glyph-name="uFEB0" unicode="&#x632;" horiz-adv-x="660" arabic-form="final" 
d="M712 105l-0.00195312 -117.002c-59.333 0 -107.666 4 -144.999 12c18 -23.333 27 -46.666 27 -69.999c0 -59.333 -50.667 -123.333 -152 -192c-90.667 -61.333 -196 -114.333 -316 -159l-145 -55c-34 -12.667 -75.667 -26 -125 -40l-33 -5l-48 -9l-141 -22l-165 -24
l227 81c175.333 62 327 123 455 183c182 84.667 305 159.334 369 224.001l-93 175l64 162c24.667 -51.333 43.334 -83 56.001 -95c33.333 -32.667 88.333 -49 165 -49zM391.998 636.998l122 -95l-56 -93l-122 93z" />
    <glyph glyph-name="uFEB2" unicode="&#x633;" horiz-adv-x="1835" arabic-form="final" 
d="M1470 226c-32 -26.667 -48.0029 -49.665 -48.0029 -68.998c0 -25.333 24.667 -38 74 -38c34 0 65.333 10.667 94 32c64.667 48 111.334 72 140.001 72l-18 -34l-9 -26c0 -30 28 -45 84 -45h110v-118h-142c-24 0 -44.667 4 -62 12l-21 11l-68 56
c-32 -26 -65 -45.667 -99 -59c-15.333 -5.33301 -29.333 -8 -42 -8c-27.333 0 -52.666 11.667 -75.999 35l-21 25c-36 -28 -67.667 -48.667 -95 -62l-62 -19c-8.66699 -5.33301 -14.667 -22.333 -18 -51c-10 -80 -21.667 -134 -35 -162s-87.666 -75 -222.999 -141
c-58 -28.667 -110.667 -52.334 -158 -71.001c-15.333 -6.66699 -41.333 -17 -78 -31c-132 -46.667 -246.667 -70 -344 -70c-196 0 -294 93 -294 279c8 57.333 15.333 98 22 122c20.667 81.333 45.667 129 75 143c-14.667 -70 -22 -129.333 -22 -178
c0 -175.333 91.333 -263 274 -263c40 0 119 18.667 237 56c112 35.333 218 77 318 125c109.333 52.667 164 95.667 164 129c0 20.667 -18 62.667 -54 126l-37 64l-16 25l53 116c18.667 -30.667 31.667 -49.334 39 -56.001c25.333 -31.333 60 -47 104 -47
c32.667 0 74.5 20 125.5 60s93.833 60 128.5 60z" />
    <glyph glyph-name="uFEB3" unicode="&#x633;" horiz-adv-x="1044" arabic-form="initial" 
d="M797 12c-32 0 -56.5 11.8291 -73.5 35.4961s-32.167 36.167 -45.5 37.5l-32 -27l-23 -16c-40.667 -29.333 -78.334 -44 -113.001 -44c-31.333 0 -60 13.667 -86 41l-53 72c-38 -30 -90.667 -57.333 -158 -82c-52 -19.333 -88 -29 -108 -29h-146v117
c58.667 0 113.667 3.66699 165 11c65.333 10 117 22.667 155 38l192 76l-20 -41c-7.33301 -15.333 -12 -29.666 -14 -42.999c0 -31.333 31.333 -47 94 -47c50.667 0 100 20.667 148 62c58 49.333 95.333 77 112 83l-13 -28l-11 -31l-6 -21l-3 -18c0 -14 6.66699 -25 20 -33
l22 -8c6.66699 -2.66699 14.667 -4 24 -4h12c15.333 0 29.666 4 42.999 12c16.667 9.33301 25 20.333 25 33c0 8 -4.16699 20.5 -12.5 37.5s-13.166 29.167 -14.499 36.5c0 10.667 8 31.334 24 62.001c8.66699 16.667 18.334 29.334 29.001 38.001
c23.333 -37.333 35 -77.666 35 -120.999c0 -49.333 -15.333 -94 -46 -134c-33.333 -43.333 -74 -65 -122 -65z" />
    <glyph glyph-name="uFEB4" unicode="&#x633;" horiz-adv-x="1102" arabic-form="medial" 
d="M1095 263l-20.999 -46.001c-5.33301 -11.333 -9.33301 -26.333 -12 -45c0 -36 31.333 -54 94 -54v-118h-47c-57.333 0 -108 26.333 -152 79c-64 -52.667 -117.667 -79 -161 -79c-31.333 0 -60.333 23.333 -87 70l-23 22c-38.667 -32.667 -72.667 -56 -102 -70
c-32 -14.667 -59 -22 -81 -22c-32 0 -63 16.333 -93 49c-32.667 37.333 -50 56.333 -52 57l-56 -31l-43 -21c-72 -36 -130.667 -54 -176 -54h-104v118c93.333 0 177 9.66699 251 29l242 92l-28 -45c-10.667 -16.667 -17.334 -31 -20.001 -43l2 -6
c28 -33.333 60.667 -50 98 -50c35.333 0 78.333 17.333 129 52l153 105l-25 -46c-14.667 -27.333 -22 -42.666 -22 -45.999c24 -40.667 52.667 -61 86 -61s78.333 23.333 135 70z" />
    <glyph glyph-name="uFEB6" unicode="&#x634;" horiz-adv-x="1833" arabic-form="final" 
d="M1470 226c-32 -26.667 -48.0029 -49.666 -48.0029 -68.999c0 -26 24.667 -39 74 -39c34 0 65.333 11 94 33c64.667 48 111.334 72 140.001 72l-18 -34l-9 -27c0 -29.333 28 -44 84 -44h110v-118h-142c-24 0 -44.667 4 -62 12l-21 11l-68 56
c-32 -26.667 -65 -46.334 -99 -59.001c-15.333 -5.33301 -29.333 -8 -42 -8c-27.333 0 -52.666 11.667 -75.999 35l-21 25c-36 -28 -67.667 -48.667 -95 -62l-62 -19c-8.66699 -5.33301 -14.667 -22.333 -18 -51c-10 -80 -21.667 -134 -35 -162
s-87.666 -75.333 -222.999 -142c-58 -28 -110.667 -51.333 -158 -70c-15.333 -6.66699 -41.333 -17 -78 -31c-132 -46.667 -246.667 -70 -344 -70c-196 0 -294 93 -294 279c8 57.333 15.333 98 22 122c20.667 81.333 45.667 129 75 143c-14.667 -70 -22 -129.333 -22 -178
c0 -175.333 91.333 -263 274 -263c40 0 119 18.667 237 56c112 35.333 218 77 318 125c109.333 52.667 164 95.667 164 129c0 20.667 -18 62.667 -54 126l-37 64l-16 24l53 117c18.667 -31.333 31.667 -50 39 -56c25.333 -31.333 60 -47 104 -47c32.667 0 74.5 20 125.5 60
s93.833 60 128.5 60zM1314 836.001l122 -94l-56 -93l-122 93zM1421 524.001l-43 -74l-122 94l55 93l107 -82l45 77l120 -93l-58 -96z" />
    <glyph glyph-name="uFEB7" unicode="&#x634;" horiz-adv-x="1060" arabic-form="initial" 
d="M813 12c-32 0 -56.5 11.8291 -73.5 35.4961s-32.167 36.167 -45.5 37.5l-33 -27l-22 -16c-40.667 -29.333 -78.334 -44 -113.001 -44c-31.333 0 -60 13.667 -86 41l-53 72c-38.667 -30 -91.334 -57.333 -158.001 -82c-52 -19.333 -88 -29 -108 -29h-146v117
c58.667 0 113.667 3.66699 165 11c65.333 10 117 22.667 155 38l191 76l-19 -41c-7.33301 -15.333 -12 -29.666 -14 -42.999c0 -31.333 31 -47 93 -47c51.333 0 100.666 20.667 147.999 62c58.667 49.333 96.334 77 113.001 83l-13 -28l-11 -31l-7 -21l-2 -18
c0 -14 6.66699 -25 20 -33l22 -8c6 -2.66699 14 -4 24 -4h12c14.667 0 29 4 43 12c16.667 9.33301 25 20.333 25 33c0 8 -4.16699 20.5 -12.5 37.5s-13.166 29.167 -14.499 36.5c0 10.667 8 31.334 24 62.001c8.66699 16.667 18.334 29.334 29.001 38.001
c23.333 -37.333 35 -77.666 35 -120.999c0 -49.333 -15.333 -94 -46 -134c-33.333 -43.333 -74 -65 -122 -65zM608 920.996l122 -94l-56 -93l-122 93zM707 609.996l-43 -74l-122 94l55 93l108 -82l45 78l120 -94l-58 -96z" />
    <glyph glyph-name="uFEB8" unicode="&#x634;" horiz-adv-x="1113" arabic-form="medial" 
d="M1095 263l-20.999 -46.001c-5.33301 -11.333 -9.33301 -26.333 -12 -45c0 -36 31.333 -54 94 -54v-118h-47c-57.333 0 -108 26.333 -152 79c-64 -52.667 -117.667 -79 -161 -79c-31.333 0 -60.333 23.333 -87 70l-23 22c-38.667 -32.667 -72.667 -56 -102 -70
c-32 -14.667 -59 -22 -81 -22c-32 0 -63 16.667 -93 50c-32.667 36.667 -50 55.334 -52 56.001l-56 -31l-43 -21c-72 -36 -130.667 -54 -176 -54h-104v118c93.333 0 177 9.66699 251 29l242 92l-28 -45c-10.667 -16.667 -17.334 -31 -20.001 -43l2 -6
c28 -33.333 60.667 -50 98 -50c35.333 0 78.333 17.333 129 52l153 105l-25 -46c-14.667 -26.667 -22 -42 -22 -46c24 -40.667 52.667 -61 86 -61s78.333 23.333 135 70zM693.001 886.999l122 -94l-56 -93l-122 93zM795.001 588.999l-43 -74l-122 93l54 94l108 -82l45 77
l120 -93l-58 -96z" />
    <glyph glyph-name="uFEBA" unicode="&#x635;" horiz-adv-x="1844" arabic-form="final" 
d="M1897 300c0 -43.333 -11.666 -79.333 -34.999 -108l-66 -59l-15 -15h116v-118h-773c0 -42 -31.333 -98.333 -94 -169c-70.667 -80 -159.334 -146.333 -266.001 -199c-130 -64.667 -268 -97 -414 -97c-86.667 0 -156.334 22.667 -209.001 68
c-54.667 48.667 -82 115.667 -82 201c0 39.333 6.33301 83.333 19 132l9 35l13 39c8 21.333 20 49.666 36 84.999l-9 -74l-2 -71c-4 -99.333 17.333 -176.333 64 -231c43.333 -50 121.333 -75 234 -75c86 0 213.667 44 383 132c163.333 84.667 245 142.334 245 173.001l-1 3
c-4.66699 25.333 -23.667 68.333 -57 129l-50 91l47 128l48 -68c32 -44 56 -66 72 -66c6 0 53.667 46.667 143 140c54 56.667 118.333 102.667 193 138c78.667 37.333 155.334 56 230.001 56c147.333 0 221 -66.667 221 -200zM1193 132l30 -10.999l38 -9
c22.667 -5.33301 49.334 -8 80.001 -8c65.333 0 137 11 215 33c94.667 27.333 185 63.666 271 108.999c-26 51.333 -56 88.333 -90 111s-74.667 34 -122 34c-74.667 0 -159.334 -33.333 -254.001 -100c-64 -46 -120 -99 -168 -159z" />
    <glyph glyph-name="uFEBB" unicode="&#x635;" horiz-adv-x="1233" arabic-form="initial" 
d="M1155 264c0 -75.333 -63.998 -141.332 -191.998 -197.999c-51.333 -22 -110.666 -40 -177.999 -54c-60 -12.667 -122 -19 -186 -19c-27.333 0 -55 1.66699 -83 5h-106c-18 -28 -40.667 -58 -68 -90c-5.33301 0 -8 5.66699 -8 17c0 9.33301 3 23.666 9 42.999l12 37
c0 9.33301 -15 24.333 -45 45l-48 28c-21.333 -20 -36.333 -32.667 -45 -38c-37.333 -26.667 -73.333 -40 -108 -40h-126v117c109.333 0 188 16.333 236 49l123 85c0 -28.667 4.33301 -56.667 13 -84c12.667 -37.333 31 -56 55 -56c5.33301 0 17.666 14 36.999 42
c43.333 60 104.666 119.333 183.999 178c69.333 51.333 139.666 86 210.999 104c35.333 9.33301 67.333 14 96 14c64.667 0 117 -17.5 157 -52.5s60 -79.167 60 -132.5zM509.002 111.001c18.667 -9.33301 48.6689 -14.001 90.002 -14.001c72 0 155 11.667 249 35
c101.333 24.667 179.333 54.334 234 89.001c-26.667 32.667 -51.334 57.667 -74.001 75c-38.667 30 -80.334 45 -125.001 45c-106 0 -230.667 -76.667 -374 -230z" />
    <glyph glyph-name="uFEBC" unicode="&#x635;" horiz-adv-x="1114" arabic-form="medial" 
d="M1101 257c0 -58.667 -33.668 -105.333 -101.001 -140h153v-117h-689c-18.667 0 -32.667 1 -42 3c-15.333 1.33301 -30.333 5.33301 -45 12c-24 -23.333 -48 -43 -72 -59c-18 -13.333 -40.333 -26 -67 -38c9.33301 12 22.333 34 39 66l23 46
c-8.66699 1.33301 -20.334 6 -35.001 14c-6 3.33301 -19 18.666 -39 45.999l-70 -45c-47.333 -30 -97.333 -45 -150 -45h-41v117c76 0 133.667 9 173 27c19.333 8.66699 40 22.334 62 41.001c18 16 40.333 40 67 72c0 -95.333 18.667 -143 56 -143l20 3
c12 0 28.333 12.333 49 37c66.667 81.333 127.334 141 182.001 179c104.667 72 209.334 108 314.001 108c66 0 118 -14.833 156 -44.5s57 -76.167 57 -139.5zM444.999 108.001c36 -13.333 79.998 -20 131.998 -20c70.667 0 144 8.66699 220 26
c20.667 5.33301 45.334 12.333 74.001 21c99.333 31.333 152 62 158 92c-26.667 40 -55 68 -85 84c-33.333 17.333 -69 26 -107 26c-69.333 0 -143.666 -25.333 -222.999 -76c-62.667 -40.667 -119 -91.667 -169 -153z" />
    <glyph glyph-name="uFEBE" unicode="&#x636;" horiz-adv-x="1844" arabic-form="final" 
d="M1897 300c0 -43.333 -11.666 -79.333 -34.999 -108l-66 -59l-15 -15h116v-118h-773c0 -42 -31.333 -98.333 -94 -169c-70.667 -80 -159.334 -146.333 -266.001 -199c-130 -64.667 -268 -97 -414 -97c-86.667 0 -156.334 22.667 -209.001 68
c-54.667 48.667 -82 115.667 -82 201c0 39.333 6.33301 83.333 19 132l9 35l13 39c8 21.333 20 49.666 36 84.999l-9 -74l-2 -71c-4 -99.333 17.333 -176.333 64 -231c43.333 -50 121.333 -75 234 -75c86 0 213.667 44 383 132c163.333 84.667 245 142.334 245 173.001l-1 3
c-4.66699 25.333 -23.667 68.333 -57 129l-50 91l47 128l48 -68c32 -44 56 -66 72 -66c6 0 53.667 46.667 143 140c54 56.667 118.333 102.667 193 138c78.667 37.333 155.334 56 230.001 56c147.333 0 221 -66.667 221 -200zM1193 132l30 -10.999l38 -9
c22.667 -5.33301 49.334 -8 80.001 -8c65.333 0 137 11 215 33c94.667 27.333 185 63.666 271 108.999c-26 51.333 -56 88.333 -90 111s-74.667 34 -122 34c-74.667 0 -159.334 -33.333 -254.001 -100c-64 -46 -120 -99 -168 -159zM1365 964.001l122 -94l-56 -93l-122 93z
" />
    <glyph glyph-name="uFEBF" unicode="&#x636;" horiz-adv-x="1218" arabic-form="initial" 
d="M1139 264c0 -75.333 -64 -140.999 -192 -196.999c-50.667 -22.667 -110 -41 -178 -55c-60 -12.667 -122 -19 -186 -19c-27.333 0 -55 1.66699 -83 5h-106c-17.333 -28 -40 -57.667 -68 -89c-4.66699 0 -7 5.33301 -7 16c0 9.33301 3 23.666 9 42.999l11 37
c0 9.33301 -15 24.333 -45 45l-48 28c-20.667 -19.333 -35.667 -32 -45 -38c-37.333 -26.667 -73.333 -40 -108 -40h-126v117c110 0 188.667 16.333 236 49l123 85c0 -28.667 4.66699 -56.667 14 -84c12.667 -37.333 30.667 -56 54 -56c5.33301 0 18 14 38 42
c42.667 60 104 119.333 184 178c69.333 51.333 139.666 86 210.999 104c34.667 9.33301 66.334 14 95.001 14c64.667 0 117 -17.5 157 -52.5s60 -79.167 60 -132.5zM494 111.001c18 -9.33301 47.666 -14.001 88.999 -14.001c72 0 155.333 11.667 250 35
c100.667 24.667 178.334 54.334 233.001 89.001c-26.667 33.333 -51 58.333 -73 75c-38.667 30 -80.667 45 -126 45c-92 0 -198 -58 -318 -174c-18 -17.333 -36.333 -36 -55 -56zM650.999 930l122 -94l-55 -93l-122 93z" />
    <glyph glyph-name="uFEC0" unicode="&#x636;" horiz-adv-x="1107" arabic-form="medial" 
d="M1101 258c0 -59.333 -33.668 -105.999 -101.001 -139.999h153v-118h-689c-18.667 0 -32.667 1.33301 -42 4c-15.333 1.33301 -30.333 5 -45 11c-24 -23.333 -48 -43 -72 -59c-18 -12.667 -40.333 -25.334 -67 -38.001c9.33301 12 22.333 34.333 39 67l23 45
c-8.66699 1.33301 -20.334 6 -35.001 14c-6 3.33301 -19 19 -39 47l-70 -45c-47.333 -30.667 -97.333 -46 -150 -46h-41v118c76 0 133.667 8.66699 173 26c19.333 9.33301 40 23.333 62 42c18 15.333 40.333 39.333 67 72c0 -96 18.667 -144 56 -144l20 4
c12 0 28.333 12 49 36c66.667 82 127.334 141.667 182.001 179c104.667 72.667 209.334 109 314.001 109c66 0 118 -15 156 -45s57 -76.333 57 -139zM444.999 109.001c36 -13.333 79.998 -20 131.998 -20c70.667 0 144 8.66699 220 26
c20.667 4.66699 45.334 11.334 74.001 20.001c99.333 32 152 62.667 158 92c-26.667 40.667 -55 68.667 -85 84c-33.333 17.333 -69 26 -107 26c-69.333 0 -143.666 -25.333 -222.999 -76c-62.667 -40.667 -119 -91.334 -169 -152.001zM639.997 913.001l122 -94l-55 -94
l-122 94z" />
    <glyph glyph-name="uFEC2" unicode="&#x637;" horiz-adv-x="1264" arabic-form="final" 
d="M619 118c9.33301 0 23.334 0.332031 42.001 0.999023s32.667 1 42 1c13.333 0 43 2.66699 89 8l78 9c192 22.667 311.667 43.334 359 62.001c-20.667 34.667 -45.5 59.167 -74.5 73.5s-63.833 21.5 -104.5 21.5c-80.667 0 -167.334 -26.333 -260.001 -79z
M592.001 407.999l0.00195312 620.001l-31 32l78 107l87 -287l-55 54v-475c0 -0.666992 -0.666992 -6.33398 -2 -17.001l-5 -51l-13 -94l-7 -41l67 30c15.333 7.33301 38.333 17.666 69 30.999l123 47c75.333 29.333 146 44 212 44c53.333 0 99.333 -14.667 138 -44
s58 -66 58 -110c0 -49.333 -25 -94.666 -75 -135.999h75v-118h-926c-46.667 0 -108.834 16.667 -186.501 50s-124.167 63 -139.5 89c39.333 -9.33301 92.333 -18 159 -26c80 -9.33301 140 -14 180 -14c79.333 0 133.666 30 162.999 90c20.667 44 31 117 31 219z" />
    </font>
</defs>
</svg>
