<?xml version="1.0" standalone="no"?>
<!DOCTYPE svg PUBLIC "-//W3C//DTD SVG 1.1//EN" "http://www.w3.org/Graphics/SVG/1.1/DTD/svg11.dtd" >
<svg>
<metadata>
Created by FontForge 20090914 at Wed Oct 19 02:04:34 2011
 By www-data
(c) by Abolfazl Seilsepour - +98 912 591 3420  -  seilsepor@yahoo.com
</metadata>
<defs>
<font id="FarJalal" horiz-adv-x="0" >
  <font-face 
    font-family="Far.Jalal"
    font-weight="400"
    font-stretch="normal"
    units-per-em="2048"
    panose-1="0 0 4 0 0 0 0 0 0 0"
    ascent="1638"
    descent="-410"
    bbox="-188 -1266 2167 1920"
    underline-thickness="100"
    underline-position="-850"
    unicode-range="U+0020-U+FEFC"
  />
<missing-glyph horiz-adv-x="1024" 
d="M128 0v1234h768v-1234h-768zM256 128h512v978h-512v-978z" />
    <glyph glyph-name="uE818" unicode="&#x651;&#x64b;" 
d="M330 1848l-19 -66l-268 -134l28 68zM330 1715l-19 -67l-268 -133l28 68zM346 1410c0 -32 -9.33203 -60 -27.999 -84c-20 -26 -45.667 -39 -77 -39c-12 0 -22.667 2.33301 -32 7c-34.667 -58 -68.667 -87 -102 -87c-47.333 0 -71 26.667 -71 80
c0 63.333 15.333 102.666 46 117.999c5.33301 -4 8 -9 8 -15c0 -5.33301 -1.16699 -13.5 -3.5 -24.5s-3.5 -19.167 -3.5 -24.5c0 -30.667 12.667 -46 38 -46c26 0 43.667 24 53 72c10.667 54 22.667 84.667 36 92c5.33301 -2 11.666 -14.333 18.999 -37
c6.66699 -20 16.667 -30 30 -30c22.667 0 38.667 19.667 48 59l17 71c14.667 -25.333 22 -62.666 22 -111.999z" />
    <glyph glyph-name="uFC5E" unicode="&#x651;&#x64c;" arabic-form="isolated" 
d="M385 1824c0 -37.333 -24.665 -79.666 -73.998 -126.999c7.33301 -4 29.666 -10.667 66.999 -20l-61 -55c-25.333 4 -51 15.333 -77 34c-32.667 -24 -74.334 -45.333 -125.001 -64c-54 -20 -99.667 -30 -137 -30l28 67c12.667 3.33301 32 7.66602 58 12.999
c-18.667 25.333 -28 49 -28 71c0 35.333 8.33301 69 25 101l60 28c-18.667 -34.667 -28 -66 -28 -94c0 -38 11 -66.333 33 -85c30 8 54.667 18.333 74 31c-25.333 27.333 -38 56 -38 86c0 22 19 50.167 57 84.5s68.333 51.5 91 51.5c50 0 75 -30.667 75 -92zM335.002 1415
c0 -32.667 -9.33203 -60.998 -27.999 -84.998c-20 -26 -45.667 -39 -77 -39c-12 0 -22.667 2.33301 -32 7c-34.667 -58 -68.667 -87 -102 -87c-47.333 0 -71 26.667 -71 80c0 63.333 15.333 102.666 46 117.999c5.33301 -4 8 -9 8 -15c0 -5.33301 -1.16699 -13.333 -3.5 -24
s-3.5 -18.667 -3.5 -24c0 -31.333 12.667 -47 38 -47c26 0 43.667 24.333 53 73c10.667 54 22.667 84.667 36 92c6.66699 -2.66699 13 -15.334 19 -38.001c5.33301 -20 15 -30 29 -30c23.333 0 39.666 19.667 48.999 59l17 71c14.667 -25.333 22 -62.333 22 -111z
M317.003 1813c0 32.667 -13.001 49 -39.001 49c-13.333 0 -26.666 -5.33301 -39.999 -16s-20 -22.334 -20 -35.001c0 -27.333 17 -55.666 51 -84.999c32 20.667 48 49.667 48 87z" />
    <glyph glyph-name="uFC5F" unicode="&#x651;&#x64d;" arabic-form="isolated" 
d="M337 1758c0 -34.667 -8.66699 -64 -26 -88c-19.333 -28 -45.666 -42 -78.999 -42c-12 0 -22.667 2.33301 -32 7c-30.667 -58 -64.667 -87 -102 -87c-47.333 0 -71 26.667 -71 80c0 62 15.333 101.333 46 118c5.33301 -3.33301 8 -8.33301 8 -15
c0 -5.33301 -1.16699 -13.333 -3.5 -24s-3.5 -18.667 -3.5 -24c0 -31.333 13 -47 39 -47c24.667 0 42 24.667 52 74c11.333 54 23.333 84.333 36 91c5.33301 -2 11.5 -13.833 18.5 -35.5s16.833 -32.5 29.5 -32.5c23.333 0 39.666 19.667 48.999 59l17 71
c14.667 -25.333 22 -60.333 22 -105zM321 1545l-18 -66l-268 -134l27 68zM321 1412l-18 -67l-268 -133l27 68z" />
    <glyph glyph-name="uFC60" unicode="&#x651;&#x64e;" arabic-form="isolated" 
d="M324 1734l-19 -66l-268 -134l27 68zM335 1430c0 -32.667 -9.33203 -60.998 -27.999 -84.998c-20 -26 -45.667 -39 -77 -39c-12 0 -22.667 2.33301 -32 7c-34.667 -58 -68.667 -87 -102 -87c-47.333 0 -71 26.667 -71 80c0 63.333 15.333 102.666 46 117.999
c5.33301 -4 8 -9 8 -15c0 -5.33301 -1.16699 -13.5 -3.5 -24.5s-3.5 -19.167 -3.5 -24.5c0 -30.667 12.667 -46 38 -46c26 0 43.667 24.333 53 73c10.667 54 22.667 84.667 36 92c6.66699 -2.66699 13 -15.334 19 -38.001c5.33301 -20 15 -30 29 -30
c23.333 0 39.666 19.667 48.999 59l17 71c14.667 -25.333 22 -62.333 22 -111z" />
    <glyph glyph-name="uFC61" unicode="&#x651;&#x64f;" arabic-form="isolated" 
d="M348 1828c0 -37.333 -24.332 -79.668 -72.999 -127.001c7.33301 -4.66699 29.333 -11.334 66 -20.001l-60 -55c-27.333 5.33301 -53 16.333 -77 33c-58.667 -42.667 -128.667 -70 -210 -82l27 68c61.333 14.667 108.666 32.334 141.999 53.001
c-25.333 28.667 -38 57.334 -38 86.001c0 22 19.167 50.167 57.5 84.5s68.833 51.5 91.5 51.5c49.333 0 74 -30.667 74 -92zM335.001 1430c0 -32.667 -9.33203 -60.998 -27.999 -84.998c-20 -26 -45.667 -39 -77 -39c-12 0 -22.667 2.33301 -32 7
c-34.667 -58 -68.667 -87 -102 -87c-47.333 0 -71 26.667 -71 80c0 63.333 15.333 102.666 46 117.999c5.33301 -4 8 -9 8 -15c0 -5.33301 -1.16699 -13.5 -3.5 -24.5s-3.5 -19.167 -3.5 -24.5c0 -30.667 12.667 -46 38 -46c26 0 43.667 24.333 53 73
c10.667 54 22.667 84.667 36 92c6.66699 -2.66699 13 -15.334 19 -38.001c5.33301 -20 15 -30 29 -30c23.333 0 39.666 19.667 48.999 59l17 71c14.667 -25.333 22 -62.333 22 -111zM281.002 1817c0 32 -13.333 48 -40 48c-14 0 -27.333 -5.16699 -40 -15.5
s-19 -22.5 -19 -36.5c0 -24 16.333 -51.667 49 -83c33.333 19.333 50 48.333 50 87z" />
    <glyph glyph-name="uFC62" unicode="&#x651;&#x650;" arabic-form="isolated" 
d="M324 1619c0 -32.667 -9.33203 -60.998 -27.999 -84.998c-20 -26 -45.667 -39 -77 -39c-12 0 -22.667 2.33301 -32 7c-34.667 -58 -68.667 -87 -102 -87c-47.333 0 -71 26.667 -71 80c0 63.333 15.333 102.666 46 117.999c5.33301 -4 8 -9 8 -15
c0 -5.33301 -1.16699 -13.5 -3.5 -24.5s-3.5 -19.167 -3.5 -24.5c0 -30.667 12.667 -46 38 -46c26 0 43.667 24.333 53 73c10 54 22 84.667 36 92c4.66699 -2.66699 10.667 -15.334 18 -38.001c7.33301 -20 17.333 -30 30 -30c23.333 0 39.666 19.667 48.999 59l17 71
c14.667 -25.333 22 -62.333 22 -111zM309.001 1410l-18 -67l-269 -133l27 68z" />
    <glyph glyph-name="uFDF2" unicode="&#xfedf;&#xfee0;&#xfeea;" horiz-adv-x="1533" arabic-form="isolated" 
d="M963 1226c-1.33301 2.66699 -6.16699 33.668 -14.5 93.001s-23.166 104.333 -44.499 135c8.66699 14.667 22.667 35.667 42 63c32 -24 48 -69.333 48 -136v-41c0 -10.667 -3.66699 -31 -11 -61c-8.66699 -34.667 -15.334 -52.334 -20.001 -53.001zM1126 1078
c0 -34.667 -9.66895 -65.668 -29.002 -93.001c-21.333 -30 -48.666 -45 -81.999 -45c-14 0 -27.667 2.66699 -41 8c-32 -63.333 -69 -95 -111 -95c-48.667 0 -73 29.333 -73 88s14.333 98.334 43 119.001l6 -11c-5.33301 -40 -8 -57.333 -8 -52c0 -36.667 16.667 -55 50 -55
c27.333 0 47.333 27.333 60 82c14 60 26.667 93 38 99l11 -12c11.333 -43.333 25.333 -65 42 -65c27.333 0 46 19.333 56 58c2.66699 10.667 8.33398 39.667 17.001 87l5 -3c10.667 -23.333 16 -60 16 -110zM1533 218c0 -88 -30.334 -147.332 -91.001 -177.999
c-42 -21.333 -110.333 -32 -205 -32c-59.333 0 -102.666 7.33301 -129.999 22c-38 20 -60.667 57.333 -68 112c-46.667 -94.667 -129.667 -142 -249 -142c-70.667 0 -123.167 11.333 -157.5 34s-65.166 66.334 -92.499 131.001c-22 -34 -59.333 -80.667 -112 -140h-48
c-35.333 0 -75.666 9.66699 -120.999 29c-54 23.333 -81 49 -81 77c0 10 7.66699 33.667 23 71c48 117.333 143.333 200.333 286 249l-6 56l104 94l20 -276c19.333 -100.667 79.666 -151 180.999 -151c38.667 0 75 3.66699 109 11c52 11.333 78 27.666 78 48.999
c0 53.333 -22 193.333 -66 420l124 132l13 -316c7.33301 -180 14.666 -274 21.999 -282c9.33301 -10 31 -15 65 -15c208 0 312 30 312 90c0 76.667 -12.333 185.667 -37 327l-61 332l133 132c36.667 -240.667 55 -519.334 55 -836.001zM533.996 208.001l-37 194.002
c-136.667 -84.667 -205 -138.334 -205 -161.001c0 -20.667 17 -37.334 51 -50.001c26.667 -10 52.667 -15 78 -15c39.333 0 77 10.667 113 32z" />
    <glyph glyph-name="uFEF5" unicode="&#xfedf;&#xfe82;" horiz-adv-x="1048" arabic-form="isolated" 
d="M1048 1029c0 -210.667 -67.332 -408.666 -201.999 -593.999c78.667 -122 118 -212 118 -270c0 -86 -4.33301 -135 -13 -147c-150 -26.667 -322 -40 -516 -40l-14 3c-2 4.66699 -3 10.334 -3 17.001c0 34 4 77.333 12 130c3.33301 22 20.666 41.667 51.999 59
c120.667 67.333 214 145.666 280 234.999c-96 116 -221.333 224.333 -376 325l-28 -48c-120 38.667 -180 85.667 -180 141c0 16.667 8.66699 42.667 26 78c18.667 38.667 34.667 58 48 58c20 0 60.333 -19.333 121 -58c152 -96.667 296.667 -241.334 434 -434.001
c74.667 116.667 112 285 112 505l123 140c4 -48 6 -81.333 6 -100zM793.001 377.001c-54.667 -72 -129.333 -144.667 -224 -218c212.667 0 319 18 319 54c0 32 -31.667 86.667 -95 164zM242.002 1066c-70 0 -120.667 13.3301 -152 39.9971
c-11.333 -28 -21.333 -49.667 -30 -65c-14.667 -26.667 -29.667 -44 -45 -52l-3 10c0 26.667 6.83301 62.334 20.5 107.001s28.5 76.334 44.5 95.001c59.333 -33.333 114.333 -50 165 -50c63.333 0 110.333 7.33301 141 22l105 51l6 -6
c-14 -45.333 -48 -82.666 -102 -111.999c-48.667 -26.667 -98.667 -40 -150 -40z" />
    <glyph glyph-name="uFEF6" unicode="&#xfee0;&#xfe82;" horiz-adv-x="1178" arabic-form="final" 
d="M1213 0l-94.998 -0.000976562c-100.667 0 -169 61.667 -205 185c-20 68 -31 171.667 -33 311c-37.333 -222 -90.333 -362 -159 -420s-215.334 -87 -440.001 -87c-13.333 0 -23.333 0.666992 -30 2l223 82c87.333 32.667 157.666 69.334 210.999 110.001
c11.333 8.66699 17 31.667 17 69c0 84 -35.333 175.667 -106 275c-60 84 -130 156 -210 216l-28 -48c-120 39.333 -180 86 -180 140c0 16.667 8.66699 42.667 26 78c18.667 38.667 34.667 58 48 58c24 0 64.667 -17.333 122 -52c106 -64 192.333 -148.667 259 -254
c72 -112 108 -226.667 108 -344c0 -32.667 -4 -66.334 -12 -101.001c38 34.667 67.333 94.334 88 179.001c16 66 24 134 24 204c0 60 -4.66699 129.667 -14 209c-1.33301 12 -10 81.667 -26 209l116 161l51 -831c4.66699 -72 9.66699 -114.667 15 -128
c14 -31.333 48.667 -47 104 -47c14 0 35 0.333008 63 1s49 1 63 1v-178zM239.002 1061c-70 0 -120.666 13.3301 -151.999 39.9971c-11.333 -28 -21.333 -49.667 -30 -65c-14.667 -26.667 -29.667 -44 -45 -52l-2 10c0 26.667 6.83301 62.334 20.5 107.001
s28.167 76.334 43.5 95.001c60 -34 115 -51 165 -51c63.333 0 110.666 7.66699 141.999 23l104 51l6 -6c-14 -45.333 -48 -82.666 -102 -111.999c-48.667 -26.667 -98.667 -40 -150 -40z" />
    <glyph glyph-name="uFEF7" unicode="&#xfedf;&#xfe84;" horiz-adv-x="1048" arabic-form="isolated" 
d="M1048 1029c0 -210.667 -67.332 -408.666 -201.999 -593.999c78.667 -122 118 -212 118 -270c0 -86 -4.33301 -135 -13 -147c-150 -26.667 -322 -40 -516 -40l-14 3c-2 4.66699 -3 10.334 -3 17.001c0 34 4 77.333 12 130c3.33301 22 20.666 41.667 51.999 59
c120.667 67.333 214 145.666 280 234.999c-96 116 -221.333 224.333 -376 325l-28 -48c-120 38.667 -180 85.667 -180 141c0 16.667 8.66699 42.667 26 78c18.667 38.667 34.667 58 48 58c20 0 60.333 -19.333 121 -58c152 -96.667 296.667 -241.334 434 -434.001
c74.667 116.667 112 285 112 505l123 140c4 -48 6 -81.333 6 -100zM793.001 377.001c-54.667 -72 -129.333 -144.667 -224 -218c212.667 0 319 18 319 54c0 32 -31.667 86.667 -95 164zM323.002 1094c-86.667 -25.333 -159.665 -64 -218.998 -116l-50 12
c8.66699 26.667 34.667 52.334 78 77.001c-41.333 14.667 -62 46 -62 94c0 36 12.667 70 38 102s55.666 48 90.999 48c25.333 0 50 -10.333 74 -31l-37 -67c-18 11.333 -35 17 -51 17c-37.333 0 -56 -15.333 -56 -46c0 -28.667 25.667 -43 77 -43c24 0 50 4.66699 78 14
l75 25l2 -3c-0.666992 -2.66699 -13.334 -30.334 -38.001 -83.001z" />
    <glyph glyph-name="uFEF8" unicode="&#xfee0;&#xfe84;" horiz-adv-x="1178" arabic-form="final" 
d="M1213 0l-94.998 -0.000976562c-100.667 0 -169 61.667 -205 185c-20 68 -31 171.667 -33 311c-37.333 -222 -90.333 -362 -159 -420s-215.334 -87 -440.001 -87c-13.333 0 -23.333 0.666992 -30 2l223 82c87.333 32.667 157.666 69.334 210.999 110.001
c11.333 8.66699 17 31.667 17 69c0 84 -35.333 175.667 -106 275c-60 84 -130 156 -210 216l-28 -48c-120 39.333 -180 86 -180 140c0 16.667 8.66699 42.667 26 78c18.667 38.667 34.667 58 48 58c24 0 64.667 -17.333 122 -52c106 -64 192.333 -148.667 259 -254
c72 -112 108 -226.667 108 -344c0 -32.667 -4 -66.334 -12 -101.001c38 34.667 67.333 94.334 88 179.001c16 66 24 134 24 204c0 60 -4.66699 129.667 -14 209c-1.33301 12 -10 81.667 -26 209l116 161l51 -831c4.66699 -72 9.66699 -114.667 15 -128
c14 -31.333 48.667 -47 104 -47c14 0 35 0.333008 63 1s49 1 63 1v-178zM317.002 1084c-86 -25.333 -159.001 -64.001 -219.001 -116.001l-49 12c8.66699 26.667 34.334 52.334 77.001 77.001c-40.667 14.667 -61 46 -61 94c0 36.667 12 70 36 100
c26 32.667 56.667 49 92 49c26 0 51 -10 75 -30l-38 -68c-17.333 12 -34 18 -50 18c-38 0 -57 -15.333 -57 -46c0 -28.667 25.667 -43 77 -43c26.667 0 78 13 154 39l2 -3c-0.666992 -3.33301 -13.667 -31 -39 -83z" />
    <glyph glyph-name="uFEF9" unicode="&#xfedf;&#xfe88;" horiz-adv-x="1048" arabic-form="isolated" 
d="M1048 1029c0 -210.667 -67.332 -408.666 -201.999 -593.999c78.667 -122 118 -212 118 -270c0 -86 -4.33301 -135 -13 -147c-150 -26.667 -322 -40 -516 -40l-14 3c-2 4.66699 -3 10.334 -3 17.001c0 34 4 77.333 12 130c3.33301 22 20.666 41.667 51.999 59
c120.667 67.333 214 145.666 280 234.999c-96 116 -221.333 224.333 -376 325l-28 -48c-120 38.667 -180 85.667 -180 141c0 16.667 8.66699 42.667 26 78c18.667 38.667 34.667 58 48 58c20 0 60.333 -19.333 121 -58c152 -96.667 296.667 -241.334 434 -434.001
c74.667 116.667 112 285 112 505l123 140c4 -48 6 -81.333 6 -100zM793.001 377.001c-54.667 -72 -129.333 -144.667 -224 -218c212.667 0 319 18 319 54c0 32 -31.667 86.667 -95 164zM513.002 -340.999c-86.667 -26 -159.999 -64.6689 -219.999 -116.002l-49 12
c8.66699 26.667 34.667 52.334 78 77.001c-41.333 14 -62 45 -62 93c0 36.667 12.333 70.834 37 102.501s55 47.5 91 47.5c26 0 51 -10 75 -30l-37 -68c-18 11.333 -35 17 -51 17c-37.333 0 -56 -15 -56 -45c0 -29.333 25.333 -44 76 -44c24.667 0 76 13.333 154 40l2 -3
c-0.666992 -3.33301 -13.334 -31 -38.001 -83z" />
    <glyph glyph-name="uFEFA" unicode="&#xfee0;&#xfe88;" horiz-adv-x="1178" arabic-form="final" 
d="M1213 0l-94.998 -0.000976562c-100.667 0 -169 61.667 -205 185c-20 68 -31 171.667 -33 311c-37.333 -222 -90.333 -362 -159 -420s-215.334 -87 -440.001 -87c-13.333 0 -23.333 0.666992 -30 2l223 82c87.333 32.667 157.666 69.334 210.999 110.001
c11.333 8.66699 17 31.667 17 69c0 84 -35.333 175.667 -106 275c-60 84 -130 156 -210 216l-28 -48c-120 39.333 -180 86 -180 140c0 16.667 8.66699 42.667 26 78c18.667 38.667 34.667 58 48 58c24 0 64.667 -17.333 122 -52c106 -64 192.333 -148.667 259 -254
c72 -112 108 -226.667 108 -344c0 -32.667 -4 -66.334 -12 -101.001c38 34.667 67.333 94.334 88 179.001c16 66 24 134 24 204c0 60 -4.66699 129.667 -14 209c-1.33301 12 -10 81.667 -26 209l116 161l51 -831c4.66699 -72 9.66699 -114.667 15 -128
c14 -31.333 48.667 -47 104 -47c14 0 35 0.333008 63 1s49 1 63 1v-178zM463.002 -372.001c-86.667 -26 -159.666 -64.668 -218.999 -116.001l-50 12c9.33301 26.667 35.333 52 78 76c-41.333 14.667 -62 46 -62 94c0 36.667 12.5 70.834 37.5 102.501s55.5 47.5 91.5 47.5
c26 0 50.667 -10 74 -30l-37 -68c-18 11.333 -34.667 17 -50 17c-38 0 -57 -15 -57 -45c0 -29.333 25.667 -44 77 -44c26 0 77 13.333 153 40l2 -3c-0.666992 -3.33301 -13.334 -31 -38.001 -83z" />
    <glyph glyph-name="uFEFB" unicode="&#xfedf;&#xfe8e;" horiz-adv-x="1048" arabic-form="isolated" 
d="M1048 1029c0 -210.667 -67.332 -408.666 -201.999 -593.999c78.667 -122 118 -212 118 -270c0 -86 -4.33301 -135 -13 -147c-150 -26.667 -322 -40 -516 -40l-14 3c-2 4.66699 -3 10.334 -3 17.001c0 34 4 77.333 12 130c3.33301 22 20.666 41.667 51.999 59
c120.667 67.333 214 145.666 280 234.999c-96 116 -221.333 224.333 -376 325l-28 -48c-120 38.667 -180 85.667 -180 141c0 16.667 8.66699 42.667 26 78c18.667 38.667 34.667 58 48 58c20 0 60.333 -19.333 121 -58c152 -96.667 296.667 -241.334 434 -434.001
c74.667 116.667 112 285 112 505l123 140c4 -48 6 -81.333 6 -100zM793.001 377.001c-54.667 -72 -129.333 -144.667 -224 -218c212.667 0 319 18 319 54c0 32 -31.667 86.667 -95 164z" />
    <glyph glyph-name="uFEFC" unicode="&#xfee0;&#xfe8e;" horiz-adv-x="1178" arabic-form="final" 
d="M1213 0l-94.998 -0.000976562c-100.667 0 -169 61.667 -205 185c-20 68 -31 171.667 -33 311c-37.333 -222 -90.333 -362 -159 -420s-215.334 -87 -440.001 -87c-13.333 0 -23.333 0.666992 -30 2l223 82c87.333 32.667 157.666 69.334 210.999 110.001
c11.333 8.66699 17 31.667 17 69c0 84 -35.333 175.667 -106 275c-60 84 -130 156 -210 216l-28 -48c-120 39.333 -180 86 -180 140c0 16.667 8.66699 42.667 26 78c18.667 38.667 34.667 58 48 58c24 0 64.667 -17.333 122 -52c106 -64 192.333 -148.667 259 -254
c72 -112 108 -226.667 108 -344c0 -32.667 -4 -66.334 -12 -101.001c38 34.667 67.333 94.334 88 179.001c16 66 24 134 24 204c0 60 -4.66699 129.667 -14 209c-1.33301 12 -10 81.667 -26 209l116 161l51 -831c4.66699 -72 9.66699 -114.667 15 -128
c14 -31.333 48.667 -47 104 -47c14 0 35 0.333008 63 1s49 1 63 1v-178z" />
    <glyph glyph-name="u0652_u064E.liga" unicode="&#x652;&#x64e;" horiz-adv-x="1" 
d="M139 1300l51 -43l-3 -268l-49 49z" />
    <glyph glyph-name="u0652_u064B.liga" unicode="&#x652;&#x64b;" horiz-adv-x="1" 
d="M573 937l-61 -115l-148 89l67 112zM291 899l-63 -114l-146 89l66 112z" />
    <glyph glyph-name="u0652_u064D.liga" unicode="&#x652;&#x64d;" horiz-adv-x="1" 
d="M1018 -617l-61 -115l-148 89l67 112zM736 -655l-63 -114l-146 89l66 112z" />
    <glyph glyph-name="u0622" unicode="&#x622;" horiz-adv-x="509" arabic-form="isolated" 
d="M283 1292c-70 0 -120.667 13.3311 -152 39.998c-12 -28.667 -22 -50.334 -30 -65.001c-14.667 -26 -29.667 -43.333 -45 -52l-2 10c0 26.667 6.83301 62.334 20.5 107.001s28.167 76.334 43.5 95.001c59.333 -33.333 114.333 -50 165 -50c64 0 111 7.33301 141 22l105 51
l6 -6c-14 -45.333 -48 -82.666 -102 -111.999c-48.667 -26.667 -98.667 -40 -150 -40zM386 235.998c0 -9.33301 -9.66699 -41.334 -29 -96.001c-18 -51.333 -30.667 -84 -38 -98c-20.667 222.667 -56.667 555.334 -108 998.001l117 162c0 -107.333 9.66699 -268.333 29 -483
s29 -375.667 29 -483z" />
    <glyph glyph-name="u0623" unicode="&#x623;" horiz-adv-x="418" arabic-form="isolated" 
d="M383 1328c-86.667 -25.333 -159.666 -64.001 -218.999 -116.001l-50 12c9.33301 26.667 35.333 52.334 78 77.001c-41.333 14.667 -62 46 -62 94c0 36.667 12.333 70 37 100c26 32.667 56.667 49 92 49c26 0 50.667 -10 74 -30l-37 -68c-18 11.333 -35 17 -51 17
c-37.333 0 -56 -15 -56 -45c0 -28.667 25.667 -43 77 -43c28 0 79 13 153 39l2 -3c-0.666992 -3.33301 -13.334 -31 -38.001 -83zM386.001 235.999c0 -9.33301 -9.66699 -41.334 -29 -96.001c-18 -51.333 -30.667 -84 -38 -98c-20.667 222.667 -56.667 555.334 -108 998.001
l117 162c0 -107.333 9.66699 -268.333 29 -483s29 -375.667 29 -483z" />
    <glyph glyph-name="u0624" unicode="&#x624;" horiz-adv-x="714" arabic-form="isolated" 
d="M488 799c-86.667 -26 -159.666 -64.668 -218.999 -116.001l-50 12c9.33301 26.667 35.333 52.334 78 77.001c-41.333 14 -62 45.333 -62 94c0 36.667 12.333 70 37 100c26 32.667 56.667 49 92 49c26 0 50.667 -10 74 -30l-37 -68c-18 11.333 -35 17 -51 17
c-37.333 0 -56 -15 -56 -45c0 -29.333 25.667 -44 77 -44c26 0 77 13.333 153 40l2 -3c-0.666992 -3.33301 -13.334 -31 -38.001 -83zM714.001 156.999c0 -144.667 -29.998 -269 -89.998 -373c-72.667 -126.667 -176 -190 -310 -190c-40.667 0 -90.334 17.667 -149.001 53
c-52 31.333 -94 65.333 -126 102c76.667 -20.667 135 -31 175 -31c95.333 0 183.666 31.333 264.999 94c84 64.667 133 143 147 235c-100 0 -176 10.333 -228 31c-79.333 32 -119 90.667 -119 176c0 67.333 20 136.333 60 207c45.333 80.667 99 121 161 121
c72 0 128 -55.667 168 -167c30.667 -84.667 46 -170.667 46 -258zM634.003 219.999c-12.667 46.667 -34 90.667 -64 132c-38 52 -76 78 -114 78c-20 0 -43 -14.667 -69 -44s-39 -54 -39 -74c0 -59.333 95.333 -90 286 -92z" />
    <glyph glyph-name="u0625" unicode="&#x625;" horiz-adv-x="418" arabic-form="isolated" 
d="M354 -288c-86.667 -26 -159.999 -64.668 -219.999 -116.001l-49 12c8.66699 26.667 34.667 52.334 78 77.001c-41.333 14.667 -62 46 -62 94c0 36.667 12 70 36 100c26 32.667 56.667 49 92 49c26 0 51 -10 75 -30l-37 -68c-18 11.333 -35 17 -51 17
c-37.333 0 -56 -15 -56 -45c0 -28.667 25.333 -43 76 -43c26 0 52.333 4.33301 79 13l75 26l2 -3c-0.666992 -3.33301 -13.334 -31 -38.001 -83zM386.001 235.999c0 -9.33301 -9.66699 -41.334 -29 -96.001c-18 -51.333 -30.667 -84 -38 -98
c-20.667 222.667 -56.667 555.334 -108 998.001l117 162c0 -107.333 9.66699 -268.333 29 -483s29 -375.667 29 -483z" />
    <glyph glyph-name="u0626" unicode="&#x626;" horiz-adv-x="1482" arabic-form="isolated" 
d="M1482 613l-71.001 -134.001c-20 36 -53.667 54 -101 54c-65.333 0 -138.333 -38 -219 -114c-66 -62 -118.333 -129 -157 -201l247 -71c130 -38 195 -73.333 195 -106c0 -110.667 -109.333 -220 -328 -328c-194 -96 -354.333 -144 -481 -144
c-119.333 0 -213 28.667 -281 86c-72 62 -108 151.667 -108 269c0 60.667 16.333 136.334 49 227.001c38.667 106.667 80.334 166.667 125.001 180l8 -10c-5.33301 -16.667 -26.333 -64.667 -63 -144c-26 -56 -39 -110.333 -39 -163c0 -89.333 33.333 -158 100 -206
c58.667 -41.333 134.667 -62 228 -62c90 0 192.667 15.333 308 46c126 33.333 220.667 74.333 284 123c17.333 13.333 26 24.333 26 33c0 14 -65.5 36.667 -196.5 68s-196.5 56 -196.5 74c0 107.333 64 235.333 192 384c131.333 152.667 250 229 356 229
c80 0 121 -30 123 -90zM449.999 533.999c-86 -25.333 -159.001 -64.001 -219.001 -116.001l-49 12c8.66699 26.667 34.334 52.334 77.001 77.001c-40.667 14.667 -61 46 -61 94c0 36.667 12 70 36 100c26 32.667 56.667 49 92 49c26 0 51 -10 75 -30l-38 -68
c-18 12 -34.667 18 -50 18c-38 0 -57 -15.333 -57 -46c0 -28.667 25.667 -43 77 -43c26.667 0 78 13 154 39l2 -3c-0.666992 -3.33301 -13.667 -31 -39 -83z" />
    <glyph glyph-name="u0627" unicode="&#x627;" horiz-adv-x="386" arabic-form="isolated" 
d="M386 236c0 -9.33301 -9.66699 -41.334 -29 -96.001c-18 -51.333 -30.667 -84 -38 -98c-20.667 222.667 -56.667 555.334 -108 998.001l117 162c0 -107.333 9.66699 -268.333 29 -483s29 -375.667 29 -483z" />
    <glyph glyph-name="u0628" unicode="&#x628;" horiz-adv-x="1293" arabic-form="isolated" 
d="M1290 274c0 -141.333 -80.334 -234.002 -241.001 -278.002c-80 -22 -217.333 -33 -412 -33c-135.333 0 -234.666 11.333 -297.999 34c-107.333 38.667 -161 112.334 -161 221.001c0 52 15.333 115 46 189c34.667 84 72.667 132.333 114 145l9 -11
c-2.66699 -18 -15.667 -47.667 -39 -89c-20.667 -36.667 -31 -68 -31 -94c0 -99.333 54 -164.333 162 -195c54 -15.333 149 -23 285 -23c91.333 0 181 6.33301 269 19c140.667 20 211 52.667 211 98c0 30.667 -33.333 85.334 -100 164.001l92 142
c62.667 -110 94 -206.333 94 -289zM818.999 -264.002l-63 -117l-153 94l68 115z" />
    <glyph glyph-name="u0629" unicode="&#x629;" horiz-adv-x="695" arabic-form="isolated" 
d="M478 860c-86.667 -26 -159.666 -65.002 -218.999 -117.002l-50 12c8.66699 26.667 34.667 52.334 78 77.001c-41.333 14.667 -62 46 -62 94c0 36.667 12.5 70.834 37.5 102.501s55.167 47.5 90.5 47.5c26 0 51 -10.333 75 -31l-37 -67c-18 11.333 -35 17 -51 17
c-37.333 0 -56 -15.333 -56 -46c0 -28.667 25.667 -43 77 -43c24 0 50 4.66699 78 14l75 25l2 -3c-0.666992 -2.66699 -13.334 -30 -38.001 -82zM693.001 283.998c0 -88.667 -24.667 -158.167 -74 -208.5s-118 -75.5 -206 -75.5c-85.333 0 -145.333 15 -180 45
c-36.667 32.667 -55 91 -55 175c0 136 69.667 292.667 209 470c204 -96.667 306 -232 306 -406zM600.001 270.998c0 36 -30 82 -90 138c-49.333 46.667 -96 81.667 -140 105c-66 -98.667 -99 -176 -99 -232c0 -69.333 40 -104 120 -104c40 0 81 6.66699 123 20
c57.333 18 86 42.333 86 73z" />
    <glyph glyph-name="u062A" unicode="&#x62a;" horiz-adv-x="1293" arabic-form="isolated" 
d="M1290 274c0 -141.333 -80.333 -234.001 -241 -278.001c-80 -22 -217.333 -33 -412 -33c-136 0 -235.667 11.333 -299 34c-107.333 38 -161 112 -161 222c0 51.333 15.667 114 47 188c35.333 84 73.333 132.333 114 145l9 -11c-2.66699 -18 -15.667 -47.667 -39 -89
c-20.667 -37.333 -31 -68.666 -31 -93.999c0 -99.333 54 -164.333 162 -195c54 -15.333 149 -23 285 -23c92.667 0 182.667 6.33301 270 19c140 20 210 52.667 210 98c0 31.333 -33.333 86 -100 164l92 142c62.667 -110 94 -206.333 94 -289zM992 746.999l-62 -115l-147 89
l66 112zM709 708.999l-63 -114l-146 89l67 112z" />
    <glyph glyph-name="u062B" unicode="&#x62b;" horiz-adv-x="1293" arabic-form="isolated" 
d="M1290 274c0 -141.333 -80.334 -234.002 -241.001 -278.002c-80 -22 -217.333 -33 -412 -33c-135.333 0 -234.666 11.333 -297.999 34c-107.333 38.667 -161 112.334 -161 221.001c0 52 15.333 115 46 189c34.667 84 72.667 132.333 114 145l9 -11
c-2.66699 -18 -15.667 -47.667 -39 -89c-20.667 -36.667 -31 -68 -31 -94c0 -99.333 54 -164.333 162 -195c54 -15.333 149 -23 285 -23c91.333 0 181 6.33301 269 19c140.667 20 211 52.667 211 98c0 30.667 -33.333 85.334 -100 164.001l92 142
c62.667 -110 94 -206.333 94 -289zM991.999 746.998l-62 -115l-147 89l66 112zM791.999 928.998l-62 -114l-125 75l67 113zM708.999 708.998l-63 -114l-146 89l67 112z" />
    <glyph glyph-name="u062C" unicode="&#x62c;" horiz-adv-x="970" arabic-form="isolated" 
d="M1086 -637c-62.667 -78.667 -118.333 -130.166 -167 -154.499s-122.667 -36.5 -222 -36.5c-330.667 0 -496 139.333 -496 418c0 114.667 29.667 232 89 352c60 122.667 135.667 217 227 283c-54 13.333 -100.667 20 -140 20c-46 0 -82.667 -6.66699 -110 -20
c-40 -19.333 -66.333 -30.333 -79 -33l-8 11c2 46.667 29.667 91 83 133c51.333 40.667 101 61 149 61c52 0 129.5 -9.33301 232.5 -28s180.833 -28 233.5 -28c58.667 0 123.667 6.33301 195 19l6 -7c-2 -6 -37.333 -59.333 -106 -160c-73.333 9.33301 -120.333 14 -141 14
c-138 0 -262.667 -49.667 -374 -149c-115.333 -102.667 -173 -222.334 -173 -359.001c0 -126 52.667 -221 158 -285c87.333 -53.333 198.333 -80 333 -80c74.667 0 178 9.66699 310 29zM807.001 -232.999l-63 -117l-153 93l68 116z" />
    <glyph glyph-name="u062D" unicode="&#x62d;" horiz-adv-x="976" arabic-form="isolated" 
d="M1086 -637c-62.667 -78.667 -118.333 -130.166 -167 -154.499s-122.667 -36.5 -222 -36.5c-330.667 0 -496 139.333 -496 418c0 114.667 29.667 232 89 352c60 122.667 135.667 217 227 283c-54 13.333 -100.667 20 -140 20c-46 0 -82.667 -6.66699 -110 -20
c-40 -19.333 -66.333 -30.333 -79 -33l-8 11c2 46.667 29.667 91 83 133c51.333 40.667 101 61 149 61c52 0 129.5 -9.33301 232.5 -28s180.833 -28 233.5 -28c58.667 0 123.667 6.33301 195 19l6 -7c-2 -6 -37.333 -59.333 -106 -160c-73.333 9.33301 -120.333 14 -141 14
c-138 0 -262.667 -49.667 -374 -149c-115.333 -102.667 -173 -222.334 -173 -359.001c0 -126 52.667 -221 158 -285c87.333 -53.333 198.333 -80 333 -80c74.667 0 178 9.66699 310 29z" />
    <glyph glyph-name="u062E" unicode="&#x62e;" horiz-adv-x="980" arabic-form="isolated" 
d="M1086 -637c-62.667 -78.667 -118.333 -130.166 -167 -154.499s-122.667 -36.5 -222 -36.5c-330.667 0 -496 139.333 -496 418c0 114.667 29.667 232 89 352c60 122.667 135.667 217 227 283c-54 13.333 -100.667 20 -140 20c-46 0 -82.667 -6.66699 -110 -20
c-40 -19.333 -66.333 -30.333 -79 -33l-8 11c2 46.667 29.667 91 83 133c51.333 40.667 101 61 149 61c52 0 129.5 -9.33301 232.5 -28s180.833 -28 233.5 -28c58.667 0 123.667 6.33301 195 19l6 -7c-2 -6 -37.333 -59.333 -106 -160c-73.333 9.33301 -120.333 14 -141 14
c-138 0 -262.667 -49.667 -374 -149c-115.333 -102.667 -173 -222.334 -173 -359.001c0 -126 52.667 -221 158 -285c87.333 -53.333 198.333 -80 333 -80c74.667 0 178 9.66699 310 29zM688.001 706.001l-63 -117l-153 94l67 115z" />
    <glyph glyph-name="u062F" unicode="&#x62f;" horiz-adv-x="806" arabic-form="isolated" 
d="M806 147c0 -54.667 -10.334 -93.666 -31.001 -116.999c-24.667 -28 -87 -51 -187 -69c-77.333 -14 -146.666 -21 -207.999 -21c-65.333 0 -112 7 -140 21c-41.333 20.667 -62 60 -62 118c0 21.333 9.66699 56 29 104c20.667 52 39 78.333 55 79l4 -8
c-11.333 -50.667 -17 -74.667 -17 -72c0 -42.667 52.667 -64 158 -64c47.333 0 106 5.66699 176 17c94.667 15.333 142 35.333 142 60c0 40.667 -20.667 108.667 -62 204c-36 83.333 -69.333 148 -100 194l101 167c44 -65.333 79.667 -164 107 -296
c23.333 -112.667 35 -218.334 35 -317.001z" />
    <glyph glyph-name="u0630" unicode="&#x630;" horiz-adv-x="808" arabic-form="isolated" 
d="M806 147c0 -54.667 -10.334 -93.666 -31.001 -116.999c-24.667 -28 -87 -51 -187 -69c-77.333 -14 -146.666 -21 -207.999 -21c-65.333 0 -112 7 -140 21c-41.333 20.667 -62 60 -62 118c0 21.333 9.66699 56 29 104c20.667 52 39 78.333 55 79l4 -8
c-11.333 -50.667 -17 -74.667 -17 -72c0 -42.667 52.667 -64 158 -64c47.333 0 106 5.66699 176 17c94.667 15.333 142 35.333 142 60c0 40.667 -20.667 108.667 -62 204c-36 83.333 -69.333 148 -100 194l101 167c44 -65.333 79.667 -164 107 -296
c23.333 -112.667 35 -218.334 35 -317.001zM626.999 918.001l-62 -117l-154 94l68 115z" />
    <glyph glyph-name="u0631" unicode="&#x631;" horiz-adv-x="631" arabic-form="isolated" 
d="M603 115c0 -100 -19.3359 -195.331 -58.0029 -285.998c-49.333 -116 -117.666 -174 -204.999 -174c-38 0 -94 17 -168 51s-124.333 65.333 -151 94l3 3c2 0 26 -5 72 -15c28 -6 52 -9 72 -9c93.333 0 178 34.333 254 103c72.667 66 118.667 145.667 138 239
c-8 31.333 -33.333 77.666 -76 138.999c-37.333 53.333 -70.666 95.666 -99.999 126.999l90 141c50.667 -66 85.334 -130.667 104.001 -194c16.667 -56.667 25 -129.667 25 -219z" />
    <glyph glyph-name="u0632" unicode="&#x632;" horiz-adv-x="631" arabic-form="isolated" 
d="M603 115c0 -100 -19.3359 -195.331 -58.0029 -285.998c-49.333 -116 -117.666 -174 -204.999 -174c-38 0 -94 17 -168 51s-124.333 65.333 -151 94l3 3c2 0 26 -5 72 -15c28 -6 52 -9 72 -9c93.333 0 178 34.333 254 103c72.667 66 118.667 145.667 138 239
c-8 31.333 -33.333 77.666 -76 138.999c-37.333 53.333 -70.666 95.666 -99.999 126.999l90 141c50.667 -66 85.334 -130.667 104.001 -194c16.667 -56.667 25 -129.667 25 -219zM448.997 837.002l-62 -117l-154 94l68 115z" />
    <glyph glyph-name="u0633" unicode="&#x633;" horiz-adv-x="1674" arabic-form="isolated" 
d="M1674 208c0 -146 -44.333 -219 -133 -219c-136 0 -225.333 40.667 -268 122c-45.333 -81.333 -110.666 -122 -195.999 -122c-50.667 0 -101.667 21 -153 63c-12 -127.333 -63 -228 -153 -302c-86.667 -72 -194.667 -108 -324 -108c-77.333 0 -140 18 -188 54
c-54 40 -81 97.667 -81 173c0 41.333 12.333 99.666 37 174.999c28 84.667 56 132.667 84 144l7 -12c-2.66699 -14 -12.334 -47 -29.001 -99c-12.667 -39.333 -19 -73.666 -19 -102.999c0 -102.667 69.333 -154 208 -154c172 0 300.333 57.667 385 173
c16 22 24 38.667 24 50c0 18 -11 48.333 -33 91c-20 38.667 -37.333 66.667 -52 84l90 126c41.333 -118 97 -177 167 -177c74 0 127 19.333 159 58c8 10 23 44.667 45 104c19.333 52.667 33 79 41 79c11.333 0 17 -10.667 17 -32c0 -13.333 -2.16699 -33.5 -6.5 -60.5
s-6.5 -47.167 -6.5 -60.5c0 -28 26.667 -52 80 -72c44 -16.667 83 -25 117 -25c66.667 0 100 16.667 100 50c0 49.333 -21.667 106 -65 170l72 121c49.333 -87.333 74 -184.333 74 -291z" />
    <glyph glyph-name="u0634" unicode="&#x634;" horiz-adv-x="1676" arabic-form="isolated" 
d="M1674 208c0 -146 -44.333 -219 -133 -219c-136 0 -225.333 40.667 -268 122c-45.333 -81.333 -110.666 -122 -195.999 -122c-50.667 0 -101.667 21 -153 63c-12 -127.333 -63 -228 -153 -302c-86.667 -72 -194.667 -108 -324 -108c-77.333 0 -140 18 -188 54
c-54 40 -81 97.667 -81 173c0 41.333 12.333 99.666 37 174.999c28 84.667 56 132.667 84 144l7 -12c-2.66699 -14 -12.334 -47 -29.001 -99c-12.667 -39.333 -19 -73.666 -19 -102.999c0 -102.667 69.333 -154 208 -154c172 0 300.333 57.667 385 173
c16 22 24 38.667 24 50c0 18 -11 48.333 -33 91c-20 38.667 -37.333 66.667 -52 84l90 126c41.333 -118 97 -177 167 -177c74 0 127 19.333 159 58c8 10 23 44.667 45 104c19.333 52.667 33 79 41 79c11.333 0 17 -10.667 17 -32c0 -13.333 -2.16699 -33.5 -6.5 -60.5
s-6.5 -47.167 -6.5 -60.5c0 -28 26.667 -52 80 -72c44 -16.667 83 -25 117 -25c66.667 0 100 16.667 100 50c0 49.333 -21.667 106 -65 170l72 121c49.333 -87.333 74 -184.333 74 -291zM1485 754l-62 -115l-147 89l66 112zM1285 936l-62 -114l-125 75l67 113zM1202 716
l-63 -114l-146 89l66 112z" />
    <glyph glyph-name="u0635" unicode="&#x635;" horiz-adv-x="1911" arabic-form="isolated" 
d="M1911 293c0 -84 -45.6641 -155.333 -136.997 -214c-82 -52.667 -167 -79 -255 -79h-402c-64.667 0 -115 12 -151 36c0 -154 -41.333 -275.333 -124 -364c-85.333 -90.667 -204.666 -136 -357.999 -136c-90.667 0 -163.334 22.667 -218.001 68
c-58.667 49.333 -88 118.333 -88 207c0 40 11.667 102.333 35 187c26 94.667 51 147.667 75 159l5 -11c-1.33301 -10 -8.33301 -44.333 -21 -103c-8.66699 -40 -13 -75.667 -13 -107c0 -75.333 26.667 -132.333 80 -171c46.667 -34 109 -51 187 -51
c71.333 0 145 11.667 221 35c102.667 31.333 154 74 154 128c0 33.333 -15.333 81.666 -46 144.999c-26.667 54.667 -53.334 99.334 -80.001 134.001l90 129c29.333 -44 56.666 -74 81.999 -90c29.333 -18 68.666 -27 117.999 -27l303 242c145.333 110.667 255 166 329 166
c53.333 0 103.333 -34.333 150 -103c42.667 -63.333 64 -123.333 64 -180zM1831 264c0 36.667 -29.666 73 -88.999 109c-54.667 33.333 -102.334 50 -143.001 50c-61.333 0 -137.666 -32.667 -228.999 -98l-211 -158c201.333 0 324.666 1.33301 369.999 4
c201.333 12 302 43 302 93z" />
    <glyph glyph-name="u0636" unicode="&#x636;" horiz-adv-x="1909" arabic-form="isolated" 
d="M1911 293c0 -84 -45.6641 -155.333 -136.997 -214c-82 -52.667 -167 -79 -255 -79h-402c-64.667 0 -115 12 -151 36c0 -154 -41.333 -275.333 -124 -364c-85.333 -90.667 -204.666 -136 -357.999 -136c-90.667 0 -163.334 22.667 -218.001 68
c-58.667 49.333 -88 118.333 -88 207c0 40 11.667 102.333 35 187c26 94.667 51 147.667 75 159l5 -11c-1.33301 -10 -8.33301 -44.333 -21 -103c-8.66699 -40 -13 -75.667 -13 -107c0 -75.333 26.667 -132.333 80 -171c46.667 -34 109 -51 187 -51
c71.333 0 145 11.667 221 35c102.667 31.333 154 74 154 128c0 33.333 -15.333 81.666 -46 144.999c-26.667 54.667 -53.334 99.334 -80.001 134.001l90 129c29.333 -44 56.666 -74 81.999 -90c29.333 -18 68.666 -27 117.999 -27l303 242c145.333 110.667 255 166 329 166
c53.333 0 103.333 -34.333 150 -103c42.667 -63.333 64 -123.333 64 -180zM1831 264c0 36.667 -29.666 73 -88.999 109c-54.667 33.333 -102.334 50 -143.001 50c-61.333 0 -137.666 -32.667 -228.999 -98l-211 -158c201.333 0 324.666 1.33301 369.999 4
c201.333 12 302 43 302 93zM1567 918l-63 -117l-154 94l68 115z" />
    <glyph glyph-name="u0637" unicode="&#x637;" horiz-adv-x="1289" arabic-form="isolated" 
d="M1289 293c0 -84 -45.666 -155.334 -136.999 -214.001c-82 -52.667 -167 -79 -255 -79h-580c-37.333 0 -71 17 -101 51c-27.333 30 -45 64.667 -53 104c5.33301 8 83.666 12.333 234.999 13c15.333 8.66699 48.333 32.334 99 71.001
c-16.667 157.333 -46.334 406.333 -89.001 747l139 146c14.667 -181.333 22 -373 22 -575c0 -114.667 -7 -207.667 -21 -279c262.667 198.667 438.334 298 527.001 298c53.333 0 103.333 -34.333 150 -103c42.667 -63.333 64 -123.333 64 -180zM1209 263.999
c0 36 -30 72.333 -90 109c-54.667 33.333 -102 50 -142 50c-62 0 -146 -32.333 -252 -97c-10 -6 -87.333 -59 -232 -159c202.667 0 333.667 1.66699 393 5c215.333 12 323 42.667 323 92z" />
    <glyph glyph-name="u0638" unicode="&#x638;" horiz-adv-x="1293" arabic-form="isolated" 
d="M1289 293c0 -84 -45.666 -155.334 -136.999 -214.001c-82 -52.667 -167 -79 -255 -79h-580c-37.333 0 -71 17 -101 51c-27.333 30 -45 64.667 -53 104c5.33301 8 83.666 12.333 234.999 13c15.333 8.66699 48.333 32.334 99 71.001
c-16.667 157.333 -46.334 406.333 -89.001 747l139 146c14.667 -181.333 22 -373 22 -575c0 -114.667 -7 -207.667 -21 -279c262.667 198.667 438.334 298 527.001 298c53.333 0 103.333 -34.333 150 -103c42.667 -63.333 64 -123.333 64 -180zM1209 263.999
c0 36 -30 72.333 -90 109c-54.667 33.333 -102 50 -142 50c-62 0 -146 -32.333 -252 -97c-10 -6 -87.333 -59 -232 -159c202.667 0 333.667 1.66699 393 5c215.333 12 323 42.667 323 92zM1027 917.999l-62 -117l-154 94l68 115z" />
    <glyph glyph-name="u0639" unicode="&#x639;" horiz-adv-x="914" arabic-form="isolated" 
d="M1086 -637c-62.667 -78.667 -118.332 -130.163 -166.999 -154.496s-122.667 -36.5 -222 -36.5c-330.667 0 -496 139.333 -496 418c0 187.333 74.667 353.666 224 498.999c-120 70 -180 151 -180 243c0 74 19.667 142.667 59 206c45.333 72.667 102.333 109 171 109
c38 0 84.333 -10.667 139 -32c59.333 -23.333 98 -49 116 -77l-13 -6c-11.333 1.33301 -34.333 4.66602 -69 9.99902c-30 4.66699 -53 7 -69 7c-50 0 -101 -19 -153 -57c-56 -41.333 -84 -86 -84 -134c0 -28.667 24.333 -56.334 73 -83.001c44 -24 82 -36 114 -36
c52 0 178 41 378 123l-65 -163c-136.667 -46 -254.334 -107.667 -353.001 -185c-128.667 -100.667 -193 -209.334 -193 -326.001c0 -124.667 51 -217.667 153 -279c83.333 -50 192.333 -75 327 -75c74.667 0 178 9.66699 310 29z" />
    <glyph glyph-name="u063A" unicode="&#x63a;" horiz-adv-x="833" arabic-form="isolated" 
d="M1086 -637c-62.667 -78.667 -118.332 -130.163 -166.999 -154.496s-122.667 -36.5 -222 -36.5c-330.667 0 -496 139.333 -496 418c0 187.333 74.667 353.666 224 498.999c-120 70 -180 151 -180 243c0 74 19.667 142.667 59 206c45.333 72.667 102.333 109 171 109
c38 0 84.333 -10.667 139 -32c59.333 -23.333 98 -49 116 -77l-13 -6c-11.333 1.33301 -34.333 4.66602 -69 9.99902c-30 4.66699 -53 7 -69 7c-50 0 -101 -19 -153 -57c-56 -41.333 -84 -86 -84 -134c0 -28.667 24.333 -56.334 73 -83.001c44 -24 82 -36 114 -36
c52 0 178 41 378 123l-65 -163c-136.667 -46 -254.334 -107.667 -353.001 -185c-128.667 -100.667 -193 -209.334 -193 -326.001c0 -124.667 51 -217.667 153 -279c83.333 -50 192.333 -75 327 -75c74.667 0 178 9.66699 310 29zM506.002 918.004l-63 -117l-153 94l68 115z
" />
    <glyph glyph-name="u0641" unicode="&#x641;" horiz-adv-x="1486" arabic-form="isolated" 
d="M1486 280c0 -118 -44.665 -200.333 -133.998 -247c-44.667 -23.333 -158.334 -41 -341.001 -53c-130.667 -8.66699 -255.334 -13 -374.001 -13c-135.333 0 -234.666 11.333 -297.999 34c-107.333 38 -161 111.667 -161 221c0 52.667 15.333 116 46 190
c35.333 84.667 73.666 133 114.999 145l8 -11c-2 -18.667 -12.667 -48.667 -32 -90c-18 -38 -27 -69 -27 -93c0 -102 54.333 -168 163 -198c50.667 -14 147 -21 289 -21c169.333 0 321.333 8.66699 456 26c-1.33301 13.333 -22.333 48.333 -63 105c-38 54 -57 101 -57 141
c0 47.333 19.667 104 59 170c42.667 71.333 85 107 127 107c58 0 111.667 -55.333 161 -166c42 -94.667 63 -177 63 -247zM1396 187c4 16 6 34 6 54c0 60 -13.333 116.333 -40 169c-32.667 64 -75.667 96 -129 96c-22.667 0 -43.5 -11 -62.5 -33s-28.5 -44.333 -28.5 -67
c0 -36.667 34 -77.667 102 -123zM1206 909l-69 -129l-168 104l73 126z" />
    <glyph glyph-name="u0642" unicode="&#x642;" horiz-adv-x="1031" arabic-form="isolated" 
d="M1031 112c0 -160 -52 -284.666 -156 -373.999c-98.667 -84.667 -229 -127 -391 -127c-91.333 0 -164 22.667 -218 68c-58.667 48.667 -88 117.667 -88 207c0 38.667 11.667 100.667 35 186c26 95.333 51 148.333 75 159l5 -10c-2 -16.667 -8.66699 -51 -20 -103
c-9.33301 -42 -14 -77.667 -14 -107c0 -75.333 26.667 -132.333 80 -171c46.667 -34 109 -51 187 -51c88.667 0 178.667 17.333 270 52c117.333 44.667 176 103.667 176 177c0 21.333 -3.33301 47 -10 77c-64.667 -26 -123.667 -39 -177 -39c-51.333 0 -93.5 16 -126.5 48
s-49.5 73.667 -49.5 125c0 65.333 21.333 134.666 64 207.999c48.667 83.333 102.334 125 161.001 125c71.333 0 124.666 -60.667 159.999 -182c24.667 -84 37 -173.333 37 -268zM928 241.001c0 36.667 -14.333 74 -43 112c-30.667 40 -64 60 -100 60c-28 0 -54 -15 -78 -45
s-36 -59.333 -36 -88c0 -34 47 -51 141 -51c47.333 0 86 4 116 12zM1021 915.001l-68 -126l-161 97l73 124zM710 873.001l-69 -126l-160 98l72 124z" />
    <glyph glyph-name="u0643" unicode="&#x643;" horiz-adv-x="1479" arabic-form="isolated" 
d="M1504 1140l-59.998 -177.999c-202.667 -57.333 -344.334 -127.333 -425.001 -210c306.667 -140.667 460 -298.667 460 -474c0 -138.667 -114 -231 -342 -277c-112.667 -22.667 -279.334 -34 -500.001 -34c-135.333 0 -234.666 11.333 -297.999 34
c-107.333 38 -161 111.667 -161 221c0 52.667 15.333 116 46 190c35.333 84.667 73.666 133 114.999 145l8 -11c-2 -18.667 -12.667 -48.667 -32 -90c-18 -38 -27 -69 -27 -93c0 -100 52 -165.333 156 -196c52 -15.333 145.333 -23 280 -23c77.333 0 190 6.66699 338 20
c176.667 16 279 33.667 307 53c16 11.333 24 26 24 44c0 71.333 -70.667 149 -212 233c-103.333 61.333 -207 108.666 -311 141.999v117c23.333 54.667 119 129 287 223c139.333 78 255 132.667 347 164z" />
    <glyph glyph-name="u0644" unicode="&#x644;" horiz-adv-x="967" arabic-form="isolated" 
d="M967 68c0 -139.333 -46 -251 -138 -335c-89.333 -82 -204.333 -123 -345 -123c-204 0 -306 102.667 -306 308c0 43.333 11.667 106 35 188c26.667 93.333 53 147.333 79 162l5 -12c-1.33301 -22 -8.33301 -57.333 -21 -106c-11.333 -45.333 -17 -81 -17 -107
c0 -81.333 24 -144.166 72 -188.499s113 -66.5 195 -66.5c80.667 0 155.667 13.667 225 41c92.667 36.667 139 88.334 139 155.001c0 58 -5.66699 128.333 -17 211l-29 210c-6.66699 54 -28 257.333 -64 610l-5 48l115 161c0 -128.667 12.833 -321.334 38.5 -578.001
s38.5 -449.334 38.5 -578.001z" />
    <glyph glyph-name="u0645" unicode="&#x645;" horiz-adv-x="828" arabic-form="isolated" 
d="M828 208c0 -16.667 -13.833 -56.998 -41.5 -120.998s-45.5 -96 -53.5 -96c-25.333 0 -62.833 6.83301 -112.5 20.5s-87.5 20.5 -113.5 20.5c-56 0 -112.667 -9 -170 -27c-77.333 -24 -116 -57.667 -116 -101c0 -4 10.333 -37.333 31 -100
c61.333 -186 92 -345.333 92 -478l-31 -90c-20 133.333 -47 262.666 -81 387.999c-36 132 -54 205.667 -54 221c0 39.333 16 91 48 155c36.667 72.667 79.334 124.167 128.001 154.5s113.334 45.5 194.001 45.5c35.333 0 72 -4.66699 110 -14
c-67.333 87.333 -134.666 131 -201.999 131c-28.667 0 -54 -6.33301 -76 -19c-4 -2 -24.333 -17.667 -61 -47l-2 7c5.33301 54 23.666 101 54.999 141c35.333 44.667 78.666 67 129.999 67s117.666 -30.333 198.999 -91c84.667 -62.667 127 -118.334 127 -167.001z" />
    <glyph glyph-name="u0646" unicode="&#x646;" horiz-adv-x="958" arabic-form="isolated" 
d="M637 630l-50 -128l-176 79l59 125zM958 39c0 -124.667 -48.667 -227.668 -146 -309.001c-92 -77.333 -201.333 -116 -328 -116c-204 0 -306 102.667 -306 308c0 44.667 11.667 107.667 35 189c26 92 52.333 146 79 162l5 -12c-1.33301 -22 -8.33301 -57.667 -21 -107
c-11.333 -45.333 -17 -81 -17 -107c0 -81.333 24 -144.166 72 -188.499s113 -66.5 195 -66.5s156.333 11 223 33c94 31.333 141 78.666 141 141.999c0 40.667 -13.333 87.667 -40 141c-24 48.667 -51.667 89.334 -83 122.001l90 139c67.333 -82 101 -192 101 -330z" />
    <glyph glyph-name="u0647" unicode="&#x647;" horiz-adv-x="693" arabic-form="isolated" 
d="M693 284c0 -88.667 -24.667 -158.167 -74 -208.5s-118 -75.5 -206 -75.5c-85.333 0 -145.333 15 -180 45c-36.667 32.667 -55 91 -55 175c0 136 69.667 292.667 209 470c204 -96.667 306 -232 306 -406zM600 271c0 36 -30 82 -90 138c-49.333 46.667 -96 81.667 -140 105
c-66 -98.667 -99 -176 -99 -232c0 -69.333 40 -104 120 -104c40 0 81 6.66699 123 20c57.333 18 86 42.333 86 73z" />
    <glyph glyph-name="u0648" unicode="&#x648;" horiz-adv-x="714" arabic-form="isolated" 
d="M714 157c0 -144.667 -29.998 -269 -89.998 -373c-72.667 -126.667 -176 -190 -310 -190c-40.667 0 -90.334 17.667 -149.001 53c-52 31.333 -94 65.333 -126 102c76.667 -20.667 135 -31 175 -31c95.333 0 183.666 31.333 264.999 94c84 64.667 133 143 147 235
c-100 0 -176 10.333 -228 31c-79.333 32 -119 90.667 -119 176c0 67.333 20 136.333 60 207c45.333 80.667 99 121 161 121c72 0 128 -55.667 168 -167c30.667 -84.667 46 -170.667 46 -258zM634.002 220c-12.667 46.667 -34 90.667 -64 132c-38 52 -76 78 -114 78
c-20 0 -43 -14.667 -69 -44s-39 -54 -39 -74c0 -59.333 95.333 -90 286 -92z" />
    <glyph glyph-name="u0649" unicode="&#x649;" horiz-adv-x="1482" arabic-form="isolated" 
d="M1482 613l-71.001 -134.001c-20 36 -53.667 54 -101 54c-65.333 0 -138.333 -38 -219 -114c-66 -62 -118.333 -129 -157 -201l247 -71c130 -38 195 -73.333 195 -106c0 -110.667 -109.333 -220 -328 -328c-194 -96 -354.333 -144 -481 -144
c-119.333 0 -213 28.667 -281 86c-72 62 -108 151.667 -108 269c0 60.667 16.333 136.334 49 227.001c38.667 106.667 80.334 166.667 125.001 180l8 -10c-5.33301 -16.667 -26.333 -64.667 -63 -144c-26 -56 -39 -110.333 -39 -163c0 -89.333 33.333 -158 100 -206
c58.667 -41.333 134.667 -62 228 -62c90 0 192.667 15.333 308 46c126 33.333 220.667 74.333 284 123c17.333 13.333 26 24.333 26 33c0 14 -65.5 36.667 -196.5 68s-196.5 56 -196.5 74c0 107.333 64 235.333 192 384c131.333 152.667 250 229 356 229
c80 0 121 -30 123 -90z" />
    <glyph glyph-name="u064A" unicode="&#x64a;" horiz-adv-x="1482" arabic-form="isolated" 
d="M1482 613l-71.001 -134.001c-20 36 -53.667 54 -101 54c-65.333 0 -138.333 -38 -219 -114c-66 -62 -118.333 -129 -157 -201l247 -71c130 -38 195 -73.333 195 -106c0 -110.667 -109.333 -220 -328 -328c-194 -96 -354.333 -144 -481 -144
c-119.333 0 -213 28.667 -281 86c-72 62 -108 151.667 -108 269c0 60.667 16.333 136.334 49 227.001c38.667 106.667 80.334 166.667 125.001 180l8 -10c-5.33301 -16.667 -26.333 -64.667 -63 -144c-26 -56 -39 -110.333 -39 -163c0 -89.333 33.333 -158 100 -206
c58.667 -41.333 134.667 -62 228 -62c90 0 192.667 15.333 308 46c126 33.333 220.667 74.333 284 123c17.333 13.333 26 24.333 26 33c0 14 -65.5 36.667 -196.5 68s-196.5 56 -196.5 74c0 107.333 64 235.333 192 384c131.333 152.667 250 229 356 229
c80 0 121 -30 123 -90z" />
    <glyph glyph-name="u067E" unicode="&#x67e;" horiz-adv-x="1293" arabic-form="isolated" 
d="M1290 274c0 -141.333 -80.334 -234.002 -241.001 -278.002c-80 -22 -217.333 -33 -412 -33c-135.333 0 -234.666 11.333 -297.999 34c-107.333 38.667 -161 112.334 -161 221.001c0 52 15.333 115 46 189c34.667 84 72.667 132.333 114 145l9 -11
c-2.66699 -18 -15.667 -47.667 -39 -89c-20.667 -36.667 -31 -68 -31 -94c0 -99.333 54 -164.333 162 -195c54 -15.333 149 -23 285 -23c91.333 0 181 6.33301 269 19c140.667 20 211 52.667 211 98c0 30.667 -33.333 85.334 -100 164.001l92 142
c62.667 -110 94 -206.333 94 -289zM1012 -259.002l-62 -115l-147 89l67 112zM910.999 -468.002l-67 -113l-120 74l63 114zM728.999 -297.002l-62 -114l-147 89l67 112z" />
    <glyph glyph-name="u0686" unicode="&#x686;" horiz-adv-x="982" arabic-form="isolated" 
d="M964 -178l-57 -104l-135 81l60 103zM857 -372l-56 -104l-111 68l60 103zM686 -212l-57 -104l-135 81l60 103zM1086 -637c-62.667 -78.667 -118.333 -130.166 -167 -154.499s-122.667 -36.5 -222 -36.5c-330.667 0 -496 139.333 -496 418c0 114.667 29.667 232 89 352
c60 122.667 135.667 217 227 283c-54 13.333 -100.667 20 -140 20c-46 0 -82.667 -6.66699 -110 -20c-40 -19.333 -66.333 -30.333 -79 -33l-8 11c2 46.667 29.667 91 83 133c51.333 40.667 101 61 149 61c52 0 129.5 -9.33301 232.5 -28s180.833 -28 233.5 -28
c58.667 0 123.667 6.33301 195 19l6 -7c-2 -6 -37.333 -59.333 -106 -160c-73.333 9.33301 -120.333 14 -141 14c-138 0 -262.667 -49.667 -374 -149c-115.333 -102.667 -173 -222.334 -173 -359.001c0 -126 52.667 -221 158 -285c87.333 -53.333 198.333 -80 333 -80
c74.667 0 178 9.66699 310 29z" />
    <glyph glyph-name="u0698" unicode="&#x698;" horiz-adv-x="646" arabic-form="isolated" 
d="M603 115c0 -100 -19.3359 -195.331 -58.0029 -285.998c-49.333 -116 -117.666 -174 -204.999 -174c-38 0 -94 17 -168 51s-124.333 65.333 -151 94l3 3c2 0 26 -5 72 -15c28 -6 52 -9 72 -9c93.333 0 178 34.333 254 103c72.667 66 118.667 145.667 138 239
c-8 31.333 -33.333 77.666 -76 138.999c-37.333 53.333 -70.666 95.666 -99.999 126.999l90 141c50.667 -66 85.334 -130.667 104.001 -194c16.667 -56.667 25 -129.667 25 -219zM617.997 868.002l-61 -116l-148 89l67 112zM417.997 1049l-61 -114l-126 75l67 113z
M334.997 829.002l-62 -114l-147 89l67 112z" />
    <glyph glyph-name="u06AF" unicode="&#x6af;" horiz-adv-x="1479" arabic-form="isolated" 
d="M1486 1314l-28.001 -92c-73.333 -22.667 -169.666 -67 -288.999 -133c-122 -68 -209.667 -127 -263 -177v69c0 30.667 86.333 92 259 184c160 85.333 267 135 321 149zM1504 1140l-59.998 -177.999c-202.667 -57.333 -344.334 -127.333 -425.001 -210
c306.667 -140.667 460 -298.667 460 -474c0 -138.667 -114 -231 -342 -277c-112.667 -22.667 -279.334 -34 -500.001 -34c-135.333 0 -234.666 11.333 -297.999 34c-107.333 38 -161 111.667 -161 221c0 52.667 15.333 116 46 190c35.333 84.667 73.666 133 114.999 145
l8 -11c-2 -18.667 -12.667 -48.667 -32 -90c-18 -38 -27 -69 -27 -93c0 -100 52 -165.333 156 -196c52 -15.333 145.333 -23 280 -23c77.333 0 190 6.66699 338 20c176.667 16 279 33.667 307 53c16 11.333 24 26 24 44c0 71.333 -70.667 149 -212 233
c-103.333 61.333 -207 108.666 -311 141.999v117c23.333 54.667 119 129 287 223c139.333 78 255 132.667 347 164z" />
    <glyph glyph-name="uFB57" unicode="&#x67e;" horiz-adv-x="1495" arabic-form="final" 
d="M1531 0l-105.002 -0.000976562c-37.333 0 -72 11.667 -104 35c-1.33301 0.666992 -29.666 25.667 -84.999 75c-52 -66.667 -144.667 -110.334 -278 -131.001c-68.667 -10.667 -176 -16 -322 -16c-135.333 0 -234.666 11.333 -297.999 34
c-107.333 38.667 -161 112.334 -161 221.001c0 52 15.333 115 46 189c34.667 84 72.667 132.333 114 145l9 -11c-2.66699 -17.333 -15.667 -47 -39 -89c-20.667 -37.333 -31 -68.666 -31 -93.999c0 -99.333 54 -164.333 162 -195c54 -15.333 149 -23 285 -23
c92 0 181.667 6.33301 269 19c140.667 20 211 52.667 211 98c0 30.667 -33.333 85.334 -100 164.001l92 142c62.667 -110 94 -206.333 94 -289c0 -24.667 -2.66699 -48.334 -8 -71.001c40 -16.667 123 -25 249 -25v-178zM1012 -259.001l-62 -115l-147 89l67 112z
M910.998 -468.001l-67 -113l-120 74l63 114zM728.998 -297.001l-62 -114l-147 89l67 112z" />
    <glyph glyph-name="uFB58" unicode="&#x67e;" horiz-adv-x="524" arabic-form="initial" 
d="M438 274c0 -94 -34.334 -164.668 -103.001 -212.001c-59.333 -41.333 -137.666 -62 -234.999 -62h-130v178c121.333 0 193.333 1 216 3c110.667 10 166 35.333 166 76c0 28.667 -32.667 83.334 -98 164.001l90 141c62.667 -106 94 -202 94 -288zM518.999 -259.001
l-61 -115l-148 89l67 112zM417.999 -468.001l-67 -113l-120 74l63 114zM235.999 -297.001l-62 -114l-147 89l67 112z" />
    <glyph glyph-name="uFB59" unicode="&#x67e;" horiz-adv-x="630" arabic-form="medial" 
d="M665 0l-101.998 -0.00195312c-37.333 0 -72.333 11.667 -105 35c-1.33301 1.33301 -29.333 26.333 -84 75c-58.667 -73.333 -155.334 -110 -290.001 -110h-114v178c123.333 0 192.666 0.666992 207.999 2c107.333 9.33301 161 35 161 77c0 28.667 -33 83.334 -99 164.001
l91 142c62.667 -103.333 94 -199.666 94 -288.999c0 -29.333 -2.33301 -53 -7 -71c38 -16.667 120.333 -25 247 -25v-178zM510.002 -259.002l-62 -115l-148 89l67 112zM409.002 -468.002l-67 -113l-120 74l62 114zM227.002 -297.002l-63 -114l-146 89l66 112z" />
    <glyph glyph-name="uFB7B" unicode="&#x686;" horiz-adv-x="1244" arabic-form="final" 
d="M964 -178l-57 -104l-135 81l60 103zM857 -372l-56 -104l-111 68l60 103zM686 -212l-57 -104l-135 81l60 103zM1282 0l-91.999 0.000976562c-144 0 -216 63.667 -216 191c-40.667 10.667 -88 16 -142 16c-138 0 -262.667 -49.667 -374 -149
c-115.333 -102.667 -173 -222.334 -173 -359.001c0 -125.333 52.667 -220.333 158 -285c87.333 -53.333 198.333 -80 333 -80c74.667 0 178 9.66699 310 29c-62.667 -78.667 -118.334 -130.167 -167.001 -154.5s-122.667 -36.5 -222 -36.5c-330.667 0 -496 139.333 -496 418
c0 114.667 29.667 232 89 352c60 122.667 135.667 217 227 283c-54 13.333 -100.667 20 -140 20c-46 0 -82.667 -6.66699 -110 -20c-40 -19.333 -66.333 -30.333 -79 -33l-8 11c2 46.667 29.667 91 83 133c51.333 40.667 101 61 149 61c52 0 129.5 -9.33301 232.5 -28
s180.833 -28 233.5 -28c58.667 0 123.667 6.33301 195 19l6 -7c-2 -6 -33.333 -52.667 -94 -140c7.33301 -28 55 -42 143 -42c17.333 0 43 1.16699 77 3.5s59.667 3.5 77 3.5v-178z" />
    <glyph glyph-name="uFB7C" unicode="&#x686;" horiz-adv-x="1155" arabic-form="initial" 
d="M1090 193c-54 4.66699 -108.664 7.00098 -163.997 7.00098c-56 0 -140.667 -19.667 -254 -59c-154.667 -54 -241 -83.333 -259 -88c-130.667 -35.333 -278.334 -53 -443.001 -53v178c150 0 279 7.66699 387 23c86.667 12 211.667 38.333 375 79
c-209.333 112 -350.333 168 -423 168c-32.667 0 -62 -7.66699 -88 -23c-38.667 -23.333 -63.334 -36.333 -74.001 -39l-1 7c0 45.333 21.667 89.333 65 132s87.666 64 132.999 64c64 0 177.833 -39.833 341.5 -119.5s292.5 -119.5 386.5 -119.5c24.667 0 49 2 73 6l11 -8
c-1.33301 -6.66699 -23.333 -58.334 -66 -155.001zM770.003 -258.999l-62 -115l-147 89l66 112zM669.003 -467.999l-67 -113l-120 74l62 114zM487.003 -296.999l-63 -114l-146 89l66 112z" />
    <glyph glyph-name="uFB7D" unicode="&#x686;" horiz-adv-x="1374" arabic-form="medial" 
d="M1412 0l-131 0.000976562c-110.667 0 -179 65 -205 195c-16.667 0 -41.667 0.833008 -75 2.5s-58.333 2.5 -75 2.5c-55.333 0 -140 -19.667 -254 -59l-259 -88c-130.667 -35.333 -278.334 -53 -443.001 -53v178c150 0 279 7.66699 387 23
c86.667 12 211.667 38.333 375 79c-209.333 112 -350.333 168 -423 168c-32.667 0 -62 -7.66699 -88 -23c-40 -23.333 -64.667 -36.333 -74 -39l-1 7c0 45.333 21.667 89.333 65 132s87.666 64 132.999 64c64 0 177.833 -39.833 341.5 -119.5s292.5 -119.5 386.5 -119.5
c24.667 0 49 2 73 6l11 -8c-1.33301 -6.66699 -22.333 -56.334 -63 -149.001c14.667 -18 64.667 -27 150 -27c18.667 0 46.834 1 84.501 3s65.834 3 84.501 3v-178zM770 -258.999l-62 -115l-147 89l66 112zM669 -467.999l-67 -113l-120 74l62 114zM487 -296.999l-63 -114
l-146 89l66 112z" />
    <glyph glyph-name="uFB8B" unicode="&#x698;" horiz-adv-x="808" arabic-form="final" 
d="M848 0h-87.998c-8.66699 0 -57.667 11.667 -147 35c0 -96.667 -21 -189.334 -63 -278.001c-52 -110 -122 -165 -210 -165c-38.667 0 -94.334 17 -167.001 51s-123.334 65.667 -152.001 95l5 1c16 0 39.667 -3.83301 71 -11.5s55 -11.5 71 -11.5
c92.667 0 177.334 34.667 254.001 104c74 67.333 120 147.333 138 240c-8.66699 32 -34 78.333 -76 139c-37.333 54 -70.666 95.667 -99.999 125l89 142c25.333 -33.333 49.666 -80 72.999 -140c25.333 -65.333 45.666 -109.666 60.999 -132.999
c6 -9.33301 27 -15.333 63 -18c24 -2 58.333 -2 103 0l75 3v-178zM618.002 868l-61 -116l-148 89l67 112zM418.002 1049l-61 -114l-126 75l67 113zM335.002 829l-62 -114l-147 89l67 112z" />
    <glyph glyph-name="uFEDA" unicode="&#x6a9;" horiz-adv-x="1680" arabic-form="final" 
d="M1710 0l-97.002 -0.00195312c-80.667 0 -143.667 43.333 -189 130c-97.333 -108.667 -359.666 -163 -786.999 -163c-135.333 0 -234.666 11.333 -297.999 34c-107.333 38 -161 111.667 -161 221c0 52 15.333 115 46 189c35.333 85.333 73.666 134 114.999 146l8 -11
c-2 -18.667 -12.667 -48.667 -32 -90c-18 -38 -27 -69 -27 -93c0 -100 52 -165.333 156 -196c52 -15.333 145.333 -23 280 -23c78.667 0 191.334 6.66699 338.001 20c174.667 16 277 33.667 307 53c16 10.667 24 25.334 24 44.001c0 70.667 -71 148.334 -213 233.001
c-104 62 -207.333 109.333 -310 142v117c23.333 54.667 119 129 287 223c140.667 78.667 256.334 133.334 347.001 164.001l-60 -178c-202.667 -57.333 -344.334 -127.333 -425.001 -210c306.667 -140.667 460 -298.667 460 -474c0 -36.667 -6 -67.334 -18 -92.001
c22 -5.33301 87.333 -8 196 -8h53v-178z" />
    <glyph glyph-name="uFEDB" unicode="&#x6a9;" horiz-adv-x="664" arabic-form="initial" 
d="M689 1140l-59.999 -177.999c-196 -51.333 -338 -121.333 -426 -210c307.333 -142 461 -300 461 -474c0 -185.333 -155 -278 -465 -278h-221v178c-31.333 0 -11.5 -0.833008 59.5 -2.5s117.833 -2.5 140.5 -2.5c266 0 399 29 399 87c0 71.333 -70.667 149.333 -212 234
c-102 60.667 -205.333 108 -310 142v117c23.333 55.333 118.666 129.666 285.999 222.999c138 77.333 254 132 348 164z" />
    <glyph glyph-name="uFEDC" unicode="&#x6a9;" horiz-adv-x="863" arabic-form="medial" 
d="M893 0l-95.002 -0.000976562c-78.667 0 -140.667 41.333 -186 124c-68 -82.667 -205.667 -124 -413 -124h-229v178h200c120.667 0 196.334 1.33301 227.001 4c120 10.667 180 36.667 180 78c0 71.333 -71 149.333 -213 234c-104 62 -207 109.333 -309 142v117
c22.667 54.667 118.334 129 287.001 223c141.333 78.667 257 133.334 347 164.001l-60 -178c-196 -51.333 -338 -121.333 -426 -210c307.333 -142 461 -300 461 -474c0 -32 -5.66699 -63 -17 -93c28 -4.66699 93 -7 195 -7h51v-178z" />
    <glyph glyph-name="uFB93" unicode="&#x6af;" horiz-adv-x="1673" arabic-form="final" 
d="M1486 1314l-28.001 -92c-73.333 -22.667 -169.666 -67 -288.999 -133c-122 -68 -209.667 -127 -263 -177v69c0 30.667 86.333 92 259 184c160 85.333 267 135 321 149zM1710 0l-97.002 -0.00195312c-80.667 0 -143.667 43.333 -189 130
c-97.333 -108.667 -359.666 -163 -786.999 -163c-135.333 0 -234.666 11.333 -297.999 34c-107.333 38 -161 111.667 -161 221c0 52 15.333 115 46 189c35.333 85.333 73.666 134 114.999 146l8 -11c-2 -18.667 -12.667 -48.667 -32 -90c-18 -38 -27 -69 -27 -93
c0 -100 52 -165.333 156 -196c52 -15.333 145.333 -23 280 -23c78.667 0 191.334 6.66699 338.001 20c174.667 16 277 33.667 307 53c16 10.667 24 25.334 24 44.001c0 70.667 -71 148.334 -213 233.001c-104 62 -207.333 109.333 -310 142v117
c23.333 54.667 119 129 287 223c140.667 78.667 256.334 133.334 347.001 164.001l-60 -178c-202.667 -57.333 -344.334 -127.333 -425.001 -210c306.667 -140.667 460 -298.667 460 -474c0 -36.667 -6 -67.334 -18 -92.001c22 -5.33301 87.333 -8 196 -8h53v-178z" />
    <glyph glyph-name="uFB94" unicode="&#x6af;" horiz-adv-x="663" arabic-form="initial" 
d="M658 1314l-28 -92c-74 -22.667 -170.333 -67 -289 -133c-121.333 -67.333 -209 -126.333 -263 -177v69c0 30 86.333 91.333 259 184c160 86 267 135.667 321 149zM689 1140l-59.999 -177.999c-196 -51.333 -338 -121.333 -426 -210c307.333 -142 461 -300 461 -474
c0 -185.333 -155 -278 -465 -278h-221v178c-31.333 0 -11.5 -0.833008 59.5 -2.5s117.833 -2.5 140.5 -2.5c266 0 399 29 399 87c0 71.333 -70.667 149.333 -212 234c-102 60.667 -205.333 108 -310 142v117c23.333 55.333 118.666 129.666 285.999 222.999
c138 77.333 254 132 348 164z" />
    <glyph glyph-name="uFB95" unicode="&#x6af;" horiz-adv-x="856" arabic-form="medial" 
d="M658 1314l-28 -92c-74 -22.667 -170.333 -67 -289 -133c-121.333 -67.333 -209 -126.333 -263 -177v69c0 30 86.333 91.333 259 184c160 86 267 135.667 321 149zM893 0l-95.002 -0.000976562c-78.667 0 -140.667 41.333 -186 124c-68 -82.667 -205.667 -124 -413 -124
h-229v178h200c120.667 0 196.334 1.33301 227.001 4c120 10.667 180 36.667 180 78c0 71.333 -71 149.333 -213 234c-104 62 -207 109.333 -309 142v117c22.667 54.667 118.334 129 287.001 223c141.333 78.667 257 133.334 347 164.001l-60 -178
c-196 -51.333 -338 -121.333 -426 -210c307.333 -142 461 -300 461 -474c0 -32 -5.66699 -63 -17 -93c28 -4.66699 93 -7 195 -7h51v-178z" />
    <glyph glyph-name="uFE94" unicode="&#x6c0;" horiz-adv-x="926" arabic-form="final" 
d="M478 860c-86.667 -26 -159.666 -65.002 -218.999 -117.002l-50 12c8.66699 26.667 34.667 52.334 78 77.001c-41.333 14.667 -62 46 -62 94c0 36.667 12.5 70.834 37.5 102.501s55.167 47.5 90.5 47.5c26 0 51 -10.333 75 -31l-37 -67c-18 11.333 -35 17 -51 17
c-37.333 0 -56 -15.333 -56 -46c0 -28.667 25.667 -43 77 -43c24 0 50 4.66699 78 14l75 25l2 -3c-0.666992 -2.66699 -13.334 -30 -38.001 -82zM964.001 -0.00195312l-252.997 -0.00195312c-60.667 0 -104.667 42.333 -132 127
c-10.667 32.667 -22.334 100.334 -35.001 203.001c-24 -50 -43 -84 -57 -102c-28.667 -36.667 -61 -55 -97 -55c-44.667 0 -88.667 9.66699 -132 29c-53.333 24 -80 55 -80 93c0 10.667 8 38.667 24 84c21.333 60.667 60.666 111.334 117.999 152.001l166 109
c8.66699 6 10.667 16 6 30l85 82c12.667 -46.667 22.667 -138.667 30 -276c6.66699 -128 16.667 -208.333 30 -241c15.333 -38 44.666 -57 87.999 -57h239v-178zM531.004 388.996c0 18 -8.33301 75.668 -25 173.001c-130.667 -72.667 -197 -128.334 -199 -167.001
c4.66699 -16 23.667 -30.333 57 -43c28.667 -10.667 53.667 -16 75 -16c61.333 0 92 17.667 92 53z" />
    <glyph glyph-name="uFEF2" unicode="&#x6cc;" horiz-adv-x="1331" arabic-form="final" 
d="M1365 0l-268.001 -0.000976562c108 -41.333 162 -87.333 162 -138c0 -78 -97.333 -158 -292 -240c-172.667 -72.667 -306 -109 -400 -109c-118.667 0 -212 29.333 -280 88c-72.667 62 -109 151.333 -109 268c0 60.667 16.333 136.334 49 227.001
c38 106 79.667 166 125 180l8 -10c-4.66699 -16 -25.667 -64 -63 -144c-26 -56 -39 -110.333 -39 -163c0 -90 33.333 -158.667 100 -206c58 -41.333 134 -62 228 -62c61.333 0 157.333 14.333 288 43c155.333 34 233 68.333 233 103c0 18 -83.333 51.667 -250 101
c-46.667 14 -69 25.333 -67 34l31 125c6.66699 26.667 90.334 48 251.001 64c114 11.333 211.667 17 293 17v-178z" />
    <glyph glyph-name="uFEF3" unicode="&#x6cc;" horiz-adv-x="544" arabic-form="initial" 
d="M438 274c0 -94 -34.334 -164.668 -103.001 -212.001c-59.333 -41.333 -137.666 -62 -234.999 -62h-130v178c121.333 0 193.333 1 216 3c110.667 10 166 35.333 166 76c0 28.667 -32.667 83.334 -98 164.001l90 141c62.667 -106 94 -202 94 -288zM483.999 -263.001
l-61 -115l-148 89l67 112zM201.999 -301.001l-63 -114l-146 89l66 112z" />
    <glyph glyph-name="uFEF4" unicode="&#x6cc;" horiz-adv-x="630" arabic-form="medial" 
d="M665 0l-101.998 -0.00195312c-37.333 0 -72.333 11.667 -105 35c-1.33301 1.33301 -29.333 26.333 -84 75c-58.667 -73.333 -155.334 -110 -290.001 -110h-114v178c123.333 0 192.666 0.666992 207.999 2c107.333 9.33301 161 35 161 77c0 28.667 -33 83.334 -99 164.001
l91 142c62.667 -103.333 94 -199.666 94 -288.999c0 -29.333 -2.33301 -53 -7 -71c38 -16.667 120.333 -25 247 -25v-178zM514.002 -263.002l-61 -115l-148 89l67 112zM232.002 -301.002l-63 -114l-146 89l66 112z" />
    <glyph glyph-name="Hcircumflex" unicode="&#x622;" horiz-adv-x="601" arabic-form="final" 
d="M313 1292c-70 0 -120.333 13.3311 -151 39.998c-14.667 -34 -24.667 -55.667 -30 -65c-14.667 -25.333 -30 -42.666 -46 -51.999l-2 10c0 26.667 6.66699 61.667 20 105c14 46 28.667 78.333 44 97c60 -33.333 115 -50 165 -50c64.667 0 112 7.33301 142 22l105 51l6 -6
c-14.667 -45.333 -49 -82.666 -103 -111.999c-48 -26.667 -98 -40 -150 -40zM636 -0.00195312l-91 0.000976562c-92 0 -155 35.667 -189 107c-18.667 40 -34 118 -46 234l-71 702l114 161l42 -852c3.33301 -70.667 8.33301 -113.334 15 -128.001c14 -32 49 -48 105 -48
c13.333 0 33.5 0.333008 60.5 1s47.167 1 60.5 1v-178z" />
    <glyph glyph-name="uFE84" unicode="&#x623;" horiz-adv-x="601" arabic-form="final" 
d="M383 1328c-86.667 -25.333 -159.666 -64.001 -218.999 -116.001l-50 12c9.33301 26.667 35.333 52.334 78 77.001c-41.333 14.667 -62 46 -62 94c0 36.667 12.333 70 37 100c26 32.667 56.667 49 92 49c26 0 50.667 -10 74 -30l-37 -68c-18 11.333 -35 17 -51 17
c-37.333 0 -56 -15 -56 -45c0 -28.667 25.667 -43 77 -43c28 0 79 13 153 39l2 -3c-0.666992 -3.33301 -13.334 -31 -38.001 -83zM636.001 -0.000976562l-91 0.000976562c-92 0 -155 35.667 -189 107c-18.667 40 -34 118 -46 234l-71 702l114 161l42 -852
c3.33301 -70.667 8.33301 -113.334 15 -128.001c14 -32 49 -48 105 -48c13.333 0 33.5 0.333008 60.5 1s47.167 1 60.5 1v-178z" />
    <glyph glyph-name="uFE86" unicode="&#x624;" horiz-adv-x="912" arabic-form="final" 
d="M468 799c-86.667 -26 -159.999 -64.668 -219.999 -116.001l-49 12c8.66699 26.667 34.667 52.334 78 77.001c-41.333 14 -62 45.333 -62 94c0 36.667 12 70 36 100c26 32.667 56.667 49 92 49c26 0 51 -10 75 -30l-37 -68c-18 11.333 -35 17 -51 17
c-37.333 0 -56 -15 -56 -45c0 -29.333 25.333 -44 76 -44c24.667 0 76 13.333 154 40l2 -3c-0.666992 -3.33301 -13.334 -31 -38.001 -83zM948.001 -0.000976562l-92.999 0.000976562c-72 0 -127 14.667 -165 44c-13.333 -128.667 -48 -234.667 -104 -318
c-68.667 -102.667 -162 -154 -280 -154c-40 0 -88.333 17 -145 51c-48.667 29.333 -89.334 62 -122.001 98c74.667 -20 131.334 -30 170.001 -30c92 0 177.667 30.667 257 92c82 63.333 129.667 139.666 143 228.999c-99.333 0 -173.333 9.66699 -222 29
c-76 30 -114 86.667 -114 170c0 65.333 19 132.333 57 201c43.333 78.667 95.333 118 156 118c61.333 0 111.666 -45.333 150.999 -136c28 -65.333 46 -137.333 54 -216h257v-178zM617.002 179c-12 43.333 -33.333 86 -64 128c-37.333 51.333 -74.333 77 -111 77
c-19.333 0 -41.333 -14.333 -66 -43s-37 -52.667 -37 -72c0 -59.333 92.667 -89.333 278 -90z" />
    <glyph glyph-name="uFE88" unicode="&#x625;" horiz-adv-x="601" arabic-form="final" 
d="M510 -336c-86.667 -26 -159.999 -64.668 -219.999 -116.001l-49 12c8.66699 26.667 34.667 52 78 76c-41.333 14.667 -62 46 -62 94c0 36.667 12.5 70.834 37.5 102.501s55.167 47.5 90.5 47.5c26 0 51 -10 75 -30l-37 -68c-18 11.333 -35 17 -51 17
c-37.333 0 -56 -15 -56 -45c0 -29.333 25.333 -44 76 -44c24.667 0 76 13.333 154 40l2 -3c-0.666992 -3.33301 -13.334 -31 -38.001 -83zM636.001 -0.000976562l-91 0.000976562c-92 0 -155 35.667 -189 107c-18.667 40 -34 118 -46 234l-71 702l114 161l42 -852
c3.33301 -70.667 8.33301 -113.334 15 -128.001c14 -32 49 -48 105 -48c13.333 0 33.5 0.333008 60.5 1s47.167 1 60.5 1v-178z" />
    <glyph glyph-name="uFE8A" unicode="&#x626;" horiz-adv-x="1331" arabic-form="final" 
d="M1365 0l-268.001 -0.000976562c108 -41.333 162 -87.333 162 -138c0 -78 -97.333 -158 -292 -240c-172.667 -72.667 -306 -109 -400 -109c-118.667 0 -212 29.333 -280 88c-72.667 62 -109 151.333 -109 268c0 60.667 16.333 136.334 49 227.001
c38 106 79.667 166 125 180l8 -10c-5.33301 -18 -26.333 -66.333 -63 -145c-26 -56 -39 -110 -39 -162c0 -90 33.333 -158.667 100 -206c58 -41.333 134 -62 228 -62c61.333 0 157.333 14.333 288 43c155.333 34 233 68.333 233 103c0 18 -83.333 51.667 -250 101
c-46.667 14 -69 25.333 -67 34l31 125c6.66699 26.667 90.334 48 251.001 64c114 11.333 211.667 17 293 17v-178zM456.999 487.999c-86.667 -26 -159.666 -64.668 -218.999 -116.001l-50 12c9.33301 26.667 35.333 52 78 76c-41.333 14.667 -62 46 -62 94
c0 36.667 12.5 70.834 37.5 102.501s55.5 47.5 91.5 47.5c26 0 50.667 -10 74 -30l-37 -68c-18 11.333 -35 17 -51 17c-37.333 0 -56 -15 -56 -45c0 -29.333 25.667 -44 77 -44c26 0 77 13.333 153 40l2 -3c-0.666992 -3.33301 -13.334 -31 -38.001 -83z" />
    <glyph glyph-name="uFE8B" unicode="&#x626;" horiz-adv-x="438" arabic-form="initial" 
d="M387 799c-86.667 -26 -159.666 -64.668 -218.999 -116.001l-50 12c9.33301 26.667 35.333 52.334 78 77.001c-41.333 14 -62 45.333 -62 94c0 36.667 12.333 70 37 100c26 32.667 56.667 49 92 49c26 0 50.667 -10 74 -30l-37 -68c-18 11.333 -35 17 -51 17
c-37.333 0 -56 -15 -56 -45c0 -29.333 25.667 -44 77 -44c26 0 77 13.333 153 40l2 -3c-0.666992 -3.33301 -13.334 -31 -38.001 -83zM438.001 273.999c0 -94 -34.334 -164.668 -103.001 -212.001c-59.333 -41.333 -137.666 -62 -234.999 -62h-130v178
c121.333 0 193.333 1 216 3c110.667 10 166 35.333 166 76c0 28.667 -32.667 83.334 -98 164.001l90 141c62.667 -106 94 -202 94 -288z" />
    <glyph glyph-name="uFE8C" unicode="&#x626;" horiz-adv-x="636" arabic-form="medial" 
d="M387 799c-86.667 -26 -159.666 -64.668 -218.999 -116.001l-50 12c9.33301 26.667 35.333 52.334 78 77.001c-41.333 14 -62 45.333 -62 94c0 36.667 12.333 70 37 100c26 32.667 56.667 49 92 49c26 0 50.667 -10 74 -30l-37 -68c-18 11.333 -35 17 -51 17
c-37.333 0 -56 -15 -56 -45c0 -29.333 25.667 -44 77 -44c26 0 77 13.333 153 40l2 -3c-0.666992 -3.33301 -13.334 -31 -38.001 -83zM665.001 -0.000976562l-101.998 -0.00195312c-37.333 0 -72.333 11.667 -105 35c-1.33301 1.33301 -29.333 26.333 -84 75
c-58.667 -73.333 -155.334 -110 -290.001 -110h-114v178c123.333 0 192.666 0.666992 207.999 2c107.333 9.33301 161 35 161 77c0 28.667 -33 83.334 -99 164.001l91 142c62.667 -103.333 94 -199.666 94 -288.999c0 -29.333 -2.33301 -53 -7 -71
c38 -16.667 120.333 -25 247 -25v-178z" />
    <glyph glyph-name="uFE8E" unicode="&#x627;" horiz-adv-x="555" arabic-form="final" 
d="M586 0h-91c-92.667 0 -156 35.667 -190 107c-18 37.333 -33 115.333 -45 234l-71 702l114 161l41 -852c3.33301 -71.333 8.33301 -114.333 15 -129c14.667 -31.333 50 -47 106 -47c13.333 0 33.5 0.333008 60.5 1s47.167 1 60.5 1v-178z" />
    <glyph glyph-name="uFE90" unicode="&#x628;" horiz-adv-x="1495" arabic-form="final" 
d="M1531 0l-105.002 -0.000976562c-37.333 0 -72 11.667 -104 35c-1.33301 0.666992 -29.666 25.667 -84.999 75c-52 -66.667 -144.667 -110.334 -278 -131.001c-68.667 -10.667 -176 -16 -322 -16c-135.333 0 -234.666 11.333 -297.999 34
c-107.333 38.667 -161 112.334 -161 221.001c0 52 15.333 115 46 189c34.667 84 72.667 132.333 114 145l9 -11c-2.66699 -17.333 -15.667 -47 -39 -89c-20.667 -37.333 -31 -68.666 -31 -93.999c0 -99.333 54 -164.333 162 -195c54 -15.333 149 -23 285 -23
c92 0 181.667 6.33301 269 19c140.667 20 211 52.667 211 98c0 30.667 -33.333 85.334 -100 164.001l92 142c62.667 -110 94 -206.333 94 -289c0 -24.667 -2.66699 -48.334 -8 -71.001c40 -16.667 123 -25 249 -25v-178zM818.998 -264.001l-63 -117l-153 94l68 115z" />
    <glyph glyph-name="uFE91" unicode="&#x628;" horiz-adv-x="428" arabic-form="initial" 
d="M438 274c0 -94 -34.334 -164.668 -103.001 -212.001c-59.333 -41.333 -137.666 -62 -234.999 -62h-130v178c121.333 0 193.333 1 216 3c110.667 10 166 35.333 166 76c0 28.667 -32.667 83.334 -98 164.001l90 141c62.667 -106 94 -202 94 -288zM274.999 -264.001
l-63 -117l-154 94l68 115z" />
    <glyph glyph-name="uFE92" unicode="&#x628;" horiz-adv-x="630" arabic-form="medial" 
d="M665 0l-101.998 -0.00195312c-37.333 0 -72.333 11.667 -105 35c-1.33301 1.33301 -29.333 26.333 -84 75c-58.667 -73.333 -155.334 -110 -290.001 -110h-114v178c123.333 0 192.666 0.666992 207.999 2c107.333 9.33301 161 35 161 77c0 28.667 -33 83.334 -99 164.001
l91 142c62.667 -103.333 94 -199.666 94 -288.999c0 -29.333 -2.33301 -53 -7 -71c38 -16.667 120.333 -25 247 -25v-178zM305.002 -264.002l-63 -117l-153 94l68 115z" />
    <glyph glyph-name="uFE96" unicode="&#x62a;" horiz-adv-x="1495" arabic-form="final" 
d="M1531 0l-105.002 -0.000976562c-37.333 0 -72 11.667 -104 35c-1.33301 0.666992 -29.666 25.667 -84.999 75c-52 -66.667 -144.667 -110.334 -278 -131.001c-68.667 -10.667 -176 -16 -322 -16c-135.333 0 -234.666 11.333 -297.999 34
c-107.333 38.667 -161 112.334 -161 221.001c0 52 15.333 115 46 189c34.667 84 72.667 132.333 114 145l9 -11c-2.66699 -17.333 -15.667 -47 -39 -89c-20.667 -37.333 -31 -68.666 -31 -93.999c0 -99.333 54 -164.333 162 -195c54 -15.333 149 -23 285 -23
c92 0 181.667 6.33301 269 19c140.667 20 211 52.667 211 98c0 30.667 -33.333 85.334 -100 164.001l92 142c62.667 -110 94 -206.333 94 -289c0 -24.667 -2.66699 -48.334 -8 -71.001c40 -16.667 123 -25 249 -25v-178zM991.998 746.999l-62 -115l-147 89l66 112z
M708.998 708.999l-63 -114l-146 89l67 112z" />
    <glyph glyph-name="uFE97" unicode="&#x62a;" horiz-adv-x="507" arabic-form="initial" 
d="M438 274c0 -94 -34.334 -164.668 -103.001 -212.001c-59.333 -41.333 -137.666 -62 -234.999 -62h-130v178c121.333 0 193.333 1 216 3c110.667 10 166 35.333 166 76c0 28.667 -32.667 83.334 -98 164.001l90 141c62.667 -106 94 -202 94 -288zM506.999 923.999
l-62 -115l-147 89l67 112zM223.999 885.999l-62 -114l-147 89l67 112z" />
    <glyph glyph-name="uFE98" unicode="&#x62a;" horiz-adv-x="636" arabic-form="medial" 
d="M665 0l-101.998 -0.00195312c-37.333 0 -72.333 11.667 -105 35c-1.33301 1.33301 -29.333 26.333 -84 75c-58.667 -73.333 -155.334 -110 -290.001 -110h-114v178c123.333 0 192.666 0.666992 207.999 2c107.333 9.33301 161 35 161 77c0 28.667 -33 83.334 -99 164.001
l91 142c62.667 -103.333 94 -199.666 94 -288.999c0 -29.333 -2.33301 -53 -7 -71c38 -16.667 120.333 -25 247 -25v-178zM537.002 923.998l-61 -115l-148 89l67 112zM255.002 885.998l-63 -114l-147 89l67 112z" />
    <glyph glyph-name="uFE9A" unicode="&#x62b;" horiz-adv-x="1495" arabic-form="final" 
d="M1531 0l-105.002 -0.000976562c-37.333 0 -72 11.667 -104 35c-1.33301 0.666992 -29.666 25.667 -84.999 75c-52 -66.667 -144.667 -110.334 -278 -131.001c-68.667 -10.667 -176 -16 -322 -16c-135.333 0 -234.666 11.333 -297.999 34
c-107.333 38.667 -161 112.334 -161 221.001c0 52 15.333 115 46 189c34.667 84 72.667 132.333 114 145l9 -11c-2.66699 -17.333 -15.667 -47 -39 -89c-20.667 -37.333 -31 -68.666 -31 -93.999c0 -99.333 54 -164.333 162 -195c54 -15.333 149 -23 285 -23
c92 0 181.667 6.33301 269 19c140.667 20 211 52.667 211 98c0 30.667 -33.333 85.334 -100 164.001l92 142c62.667 -110 94 -206.333 94 -289c0 -24.667 -2.66699 -48.334 -8 -71.001c40 -16.667 123 -25 249 -25v-178zM991.998 746.999l-62 -115l-147 89l66 112z
M791.998 928.999l-62 -114l-125 75l67 113zM708.998 708.999l-63 -114l-146 89l67 112z" />
    <glyph glyph-name="uFE9B" unicode="&#x62b;" horiz-adv-x="527" arabic-form="initial" 
d="M438 274c0 -94 -34.334 -164.668 -103.001 -212.001c-59.333 -41.333 -137.666 -62 -234.999 -62h-130v178c121.333 0 193.333 1 216 3c110.667 10 166 35.333 166 76c0 28.667 -32.667 83.334 -98 164.001l90 141c62.667 -106 94 -202 94 -288zM526.999 867.999
l-61 -116l-148 89l67 112zM326.999 1049l-61 -114l-126 75l67 113zM243.999 828.999l-62 -114l-147 89l67 112z" />
    <glyph glyph-name="uFE9C" unicode="&#x62b;" horiz-adv-x="638" arabic-form="medial" 
d="M665 0l-101.998 -0.00195312c-37.333 0 -72.333 11.667 -105 35c-1.33301 1.33301 -29.333 26.333 -84 75c-58.667 -73.333 -155.334 -110 -290.001 -110h-114v178c123.333 0 192.666 0.666992 207.999 2c107.333 9.33301 161 35 161 77c0 28.667 -33 83.334 -99 164.001
l91 142c62.667 -103.333 94 -199.666 94 -288.999c0 -29.333 -2.33301 -53 -7 -71c38 -16.667 120.333 -25 247 -25v-178zM527.002 867.998l-61 -116l-148 89l67 112zM327.002 1049l-61 -114l-126 75l67 113zM244.002 828.998l-62 -114l-147 89l67 112z" />
    <glyph glyph-name="uFE9E" unicode="&#x62c;" horiz-adv-x="1244" arabic-form="final" 
d="M1282 0l-91.999 0.000976562c-144 0 -216 63.667 -216 191c-40.667 10.667 -88 16 -142 16c-138 0 -262.667 -49.667 -374 -149c-115.333 -102.667 -173 -222.334 -173 -359.001c0 -125.333 52.667 -220.333 158 -285c87.333 -53.333 198.333 -80 333 -80
c74.667 0 178 9.66699 310 29c-62.667 -78.667 -118.334 -130.167 -167.001 -154.5s-122.667 -36.5 -222 -36.5c-330.667 0 -496 139.333 -496 418c0 114.667 29.667 232 89 352c60 122.667 135.667 217 227 283c-54 13.333 -100.667 20 -140 20
c-46 0 -82.667 -6.66699 -110 -20c-40 -19.333 -66.333 -30.333 -79 -33l-8 11c2 46.667 29.667 91 83 133c51.333 40.667 101 61 149 61c52 0 129.5 -9.33301 232.5 -28s180.833 -28 233.5 -28c58.667 0 123.667 6.33301 195 19l6 -7c-2 -6 -33.333 -52.667 -94 -140
c7.33301 -28 55 -42 143 -42c17.333 0 43 1.16699 77 3.5s59.667 3.5 77 3.5v-178zM807.001 -232.999l-63 -117l-153 93l68 116z" />
    <glyph glyph-name="uFE9F" unicode="&#x62c;" horiz-adv-x="1147" arabic-form="initial" 
d="M1090 193c-54 4.66699 -108.664 7.00098 -163.997 7.00098c-56 0 -140.667 -19.667 -254 -59c-154.667 -54 -241 -83.333 -259 -88c-130.667 -35.333 -278.334 -53 -443.001 -53v178c150 0 279 7.66699 387 23c86.667 12 211.667 38.333 375 79
c-209.333 112 -350.333 168 -423 168c-32.667 0 -62 -7.66699 -88 -23c-38.667 -23.333 -63.334 -36.333 -74.001 -39l-1 7c0 45.333 21.667 89.333 65 132s87.666 64 132.999 64c64 0 177.833 -39.833 341.5 -119.5s292.5 -119.5 386.5 -119.5c24.667 0 49 2 73 6l11 -8
c-1.33301 -6.66699 -23.333 -58.334 -66 -155.001zM500.003 -263.999l-63 -117l-153 94l67 115z" />
    <glyph glyph-name="uFEA0" unicode="&#x62c;" horiz-adv-x="1374" arabic-form="medial" 
d="M1412 0l-131 0.000976562c-110.667 0 -179 65 -205 195c-16.667 0 -41.667 0.833008 -75 2.5s-58.333 2.5 -75 2.5c-55.333 0 -140 -19.667 -254 -59l-259 -88c-130.667 -35.333 -278.334 -53 -443.001 -53v178c150 0 279 7.66699 387 23
c86.667 12 211.667 38.333 375 79c-209.333 112 -350.333 168 -423 168c-32.667 0 -62 -7.66699 -88 -23c-40 -23.333 -64.667 -36.333 -74 -39l-1 7c0 45.333 21.667 89.333 65 132s87.666 64 132.999 64c64 0 177.833 -39.833 341.5 -119.5s292.5 -119.5 386.5 -119.5
c24.667 0 49 2 73 6l11 -8c-1.33301 -6.66699 -22.333 -56.334 -63 -149.001c14.667 -18 64.667 -27 150 -27c18.667 0 46.834 1 84.501 3s65.834 3 84.501 3v-178zM500 -263.999l-63 -117l-153 94l67 115z" />
    <glyph glyph-name="uFEA2" unicode="&#x62d;" horiz-adv-x="1250" arabic-form="final" 
d="M1282 0l-91.999 0.000976562c-144 0 -216 63.667 -216 191c-40.667 10.667 -88 16 -142 16c-138 0 -262.667 -49.667 -374 -149c-115.333 -102.667 -173 -222.334 -173 -359.001c0 -125.333 52.667 -220.333 158 -285c87.333 -53.333 198.333 -80 333 -80
c74.667 0 178 9.66699 310 29c-62.667 -78.667 -118.334 -130.167 -167.001 -154.5s-122.667 -36.5 -222 -36.5c-330.667 0 -496 139.333 -496 418c0 114.667 29.667 232 89 352c60 122.667 135.667 217 227 283c-54 13.333 -100.667 20 -140 20
c-46 0 -82.667 -6.66699 -110 -20c-40 -19.333 -66.333 -30.333 -79 -33l-8 11c2 46.667 29.667 91 83 133c51.333 40.667 101 61 149 61c52 0 129.5 -9.33301 232.5 -28s180.833 -28 233.5 -28c58.667 0 123.667 6.33301 195 19l6 -7c-2 -6 -33.333 -52.667 -94 -140
c7.33301 -28 55 -42 143 -42c17.333 0 43 1.16699 77 3.5s59.667 3.5 77 3.5v-178z" />
    <glyph glyph-name="uFEA3" unicode="&#x62d;" horiz-adv-x="1157" arabic-form="initial" 
d="M1090 193c-54 4.66699 -108.664 7.00098 -163.997 7.00098c-56 0 -140.667 -19.667 -254 -59c-154.667 -54 -241 -83.333 -259 -88c-130.667 -35.333 -278.334 -53 -443.001 -53v178c150 0 279 7.66699 387 23c86.667 12 211.667 38.333 375 79
c-209.333 112 -350.333 168 -423 168c-32.667 0 -62 -7.66699 -88 -23c-38.667 -23.333 -63.334 -36.333 -74.001 -39l-1 7c0 45.333 21.667 89.333 65 132s87.666 64 132.999 64c64 0 177.833 -39.833 341.5 -119.5s292.5 -119.5 386.5 -119.5c24.667 0 49 2 73 6l11 -8
c-1.33301 -6.66699 -23.333 -58.334 -66 -155.001z" />
    <glyph glyph-name="uFEA4" unicode="&#x62d;" horiz-adv-x="1382" arabic-form="medial" 
d="M1412 0l-131 0.000976562c-110.667 0 -179 65 -205 195c-16.667 0 -41.667 0.833008 -75 2.5s-58.333 2.5 -75 2.5c-55.333 0 -140 -19.667 -254 -59l-259 -88c-130.667 -35.333 -278.334 -53 -443.001 -53v178c150 0 279 7.66699 387 23
c86.667 12 211.667 38.333 375 79c-209.333 112 -350.333 168 -423 168c-32.667 0 -62 -7.66699 -88 -23c-40 -23.333 -64.667 -36.333 -74 -39l-1 7c0 45.333 21.667 89.333 65 132s87.666 64 132.999 64c64 0 177.833 -39.833 341.5 -119.5s292.5 -119.5 386.5 -119.5
c24.667 0 49 2 73 6l11 -8c-1.33301 -6.66699 -22.333 -56.334 -63 -149.001c14.667 -18 64.667 -27 150 -27c18.667 0 46.834 1 84.501 3s65.834 3 84.501 3v-178z" />
    <glyph glyph-name="uFEA6" unicode="&#x62e;" horiz-adv-x="1244" arabic-form="final" 
d="M1282 0l-91.999 0.000976562c-144 0 -216 63.667 -216 191c-40.667 10.667 -88 16 -142 16c-138 0 -262.667 -49.667 -374 -149c-115.333 -102.667 -173 -222.334 -173 -359.001c0 -125.333 52.667 -220.333 158 -285c87.333 -53.333 198.333 -80 333 -80
c74.667 0 178 9.66699 310 29c-62.667 -78.667 -118.334 -130.167 -167.001 -154.5s-122.667 -36.5 -222 -36.5c-330.667 0 -496 139.333 -496 418c0 114.667 29.667 232 89 352c60 122.667 135.667 217 227 283c-54 13.333 -100.667 20 -140 20
c-46 0 -82.667 -6.66699 -110 -20c-40 -19.333 -66.333 -30.333 -79 -33l-8 11c2 46.667 29.667 91 83 133c51.333 40.667 101 61 149 61c52 0 129.5 -9.33301 232.5 -28s180.833 -28 233.5 -28c58.667 0 123.667 6.33301 195 19l6 -7c-2 -6 -33.333 -52.667 -94 -140
c7.33301 -28 55 -42 143 -42c17.333 0 43 1.16699 77 3.5s59.667 3.5 77 3.5v-178zM688.001 706.001l-63 -117l-153 94l67 115z" />
    <glyph glyph-name="uFEA7" unicode="&#x62e;" horiz-adv-x="1147" arabic-form="initial" 
d="M1090 193c-54 4.66699 -108.664 7.00098 -163.997 7.00098c-56 0 -140.667 -19.667 -254 -59c-154.667 -54 -241 -83.333 -259 -88c-130.667 -35.333 -278.334 -53 -443.001 -53v178c150 0 279 7.66699 387 23c86.667 12 211.667 38.333 375 79
c-209.333 112 -350.333 168 -423 168c-32.667 0 -62 -7.66699 -88 -23c-38.667 -23.333 -63.334 -36.333 -74.001 -39l-1 7c0 45.333 21.667 89.333 65 132s87.666 64 132.999 64c64 0 177.833 -39.833 341.5 -119.5s292.5 -119.5 386.5 -119.5c24.667 0 49 2 73 6l11 -8
c-1.33301 -6.66699 -23.333 -58.334 -66 -155.001zM456.003 918.001l-63 -117l-154 94l68 115z" />
    <glyph glyph-name="uFEA8" unicode="&#x62e;" horiz-adv-x="1374" arabic-form="medial" 
d="M1412 0l-131 0.000976562c-110.667 0 -179 65 -205 195c-16.667 0 -41.667 0.833008 -75 2.5s-58.333 2.5 -75 2.5c-55.333 0 -140 -19.667 -254 -59l-259 -88c-130.667 -35.333 -278.334 -53 -443.001 -53v178c150 0 279 7.66699 387 23
c86.667 12 211.667 38.333 375 79c-209.333 112 -350.333 168 -423 168c-32.667 0 -62 -7.66699 -88 -23c-40 -23.333 -64.667 -36.333 -74 -39l-1 7c0 45.333 21.667 89.333 65 132s87.666 64 132.999 64c64 0 177.833 -39.833 341.5 -119.5s292.5 -119.5 386.5 -119.5
c24.667 0 49 2 73 6l11 -8c-1.33301 -6.66699 -22.333 -56.334 -63 -149.001c14.667 -18 64.667 -27 150 -27c18.667 0 46.834 1 84.501 3s65.834 3 84.501 3v-178zM456 918.001l-63 -117l-154 94l68 115z" />
    <glyph glyph-name="uFEAA" unicode="&#x62f;" horiz-adv-x="890" arabic-form="final" 
d="M920 0l-59.998 -0.000976562c-66.667 0 -117 26.333 -151 79c-22.667 -33.333 -79.334 -59 -170.001 -77c-69.333 -14 -135 -21 -197 -21c-54 0 -91.667 4.33301 -113 13c-36 14.667 -54 44.667 -54 90c0 26 5.33301 59.333 16 100
c13.333 50.667 28.666 77.334 45.999 80.001l4 -4c0 -5.33301 -1.16699 -13.333 -3.5 -24s-3.5 -18.667 -3.5 -24c0 -38.667 39.333 -58 118 -58c98.667 0 190 18.667 274 56c-6 44 -26 105.333 -60 184c-32 76 -62 133.667 -90 173l83 152c42.667 -76 75.667 -163 99 -261
l60 -272c16 -6 37.333 -9.66699 64 -11c22 -1.33301 46 -1.33301 72 0c39.333 2 61.333 3 66 3v-178z" />
    <glyph glyph-name="uFEAC" unicode="&#x630;" horiz-adv-x="889" arabic-form="final" 
d="M920 0l-59.998 -0.000976562c-66.667 0 -117 26.333 -151 79c-22.667 -33.333 -79.334 -59 -170.001 -77c-69.333 -14 -135 -21 -197 -21c-54 0 -91.667 4.33301 -113 13c-36 14.667 -54 44.667 -54 90c0 26 5.33301 59.333 16 100
c13.333 50.667 28.666 77.334 45.999 80.001l4 -4c0 -5.33301 -1.16699 -13.333 -3.5 -24s-3.5 -18.667 -3.5 -24c0 -38.667 39.333 -58 118 -58c98.667 0 190 18.667 274 56c-6 44 -26 105.333 -60 184c-32 76 -62 133.667 -90 173l83 152c42.667 -76 75.667 -163 99 -261
l60 -272c16 -6 37.333 -9.66699 64 -11c22 -1.33301 46 -1.33301 72 0c39.333 2 61.333 3 66 3v-178zM591.002 917.999l-63 -117l-153 94l67 115z" />
    <glyph glyph-name="uFEAE" unicode="&#x631;" horiz-adv-x="808" arabic-form="final" 
d="M848 0h-87.998c-8.66699 0 -57.667 11.667 -147 35c0 -96.667 -21 -189.334 -63 -278.001c-52 -110 -122 -165 -210 -165c-38.667 0 -94.334 17 -167.001 51s-123.334 65.667 -152.001 95l5 1c16 0 39.667 -3.83301 71 -11.5s55 -11.5 71 -11.5
c92.667 0 177.334 34.667 254.001 104c74 67.333 120 147.333 138 240c-8.66699 32 -34 78.333 -76 139c-37.333 54 -70.666 95.667 -99.999 125l89 142c25.333 -33.333 49.666 -80 72.999 -140c25.333 -65.333 45.666 -109.666 60.999 -132.999
c6 -9.33301 27 -15.333 63 -18c24 -2 58.333 -2 103 0l75 3v-178z" />
    <glyph glyph-name="uFEB0" unicode="&#x632;" horiz-adv-x="808" arabic-form="final" 
d="M848 0h-87.998c-8.66699 0 -57.667 11.667 -147 35c0 -96.667 -21 -189.334 -63 -278.001c-52 -110 -122 -165 -210 -165c-38.667 0 -94.334 17 -167.001 51s-123.334 65.667 -152.001 95l5 1c16 0 39.667 -3.83301 71 -11.5s55 -11.5 71 -11.5
c92.667 0 177.334 34.667 254.001 104c74 67.333 120 147.333 138 240c-8.66699 32 -34 78.333 -76 139c-37.333 54 -70.666 95.667 -99.999 125l89 142c25.333 -33.333 49.666 -80 72.999 -140c25.333 -65.333 45.666 -109.666 60.999 -132.999
c6 -9.33301 27 -15.333 63 -18c24 -2 58.333 -2 103 0l75 3v-178zM449.002 837l-62 -117l-154 94l68 115z" />
    <glyph glyph-name="uFEB2" unicode="&#x633;" horiz-adv-x="1933" arabic-form="final" 
d="M1962 0h-69.001c-70 0 -128.333 28 -175 84c-28 -56 -64.667 -84 -110 -84c-56 0 -110.667 10.667 -164 32c-62.667 25.333 -105 59.333 -127 102c-19.333 -36 -48.333 -67 -87 -93c-40.667 -27.333 -80.667 -41 -120 -41c-51.333 0 -102.333 21 -153 63
c-12 -128 -68.667 -231.333 -170 -310c-95.333 -74 -208.666 -111 -339.999 -111c-77.333 0 -140 18 -188 54c-54 40 -81 97.667 -81 173c0 41.333 12.333 99.666 37 174.999c28 84.667 56 132.667 84 144l7 -12c-2.66699 -14 -12.334 -47 -29.001 -99
c-12.667 -39.333 -19 -73.666 -19 -102.999c0 -102.667 69.333 -154 208 -154c187.333 0 327 61.333 419 184c15.333 20.667 23 37.667 23 51c0 18.667 -10.667 48.667 -32 90c-19.333 38 -37 66 -53 84l90 127c42 -118.667 98 -178 168 -178c74 0 128.333 21.333 163 64
c8.66699 10.667 25.334 46.334 50.001 107.001c22 54 36 81 42 81c11.333 0 17 -10.667 17 -32c0 -13.333 -2.16699 -33.5 -6.5 -60.5s-6.5 -47.167 -6.5 -60.5c0 -27.333 30 -53 90 -77c52 -20.667 95 -31 129 -31c66.667 0 100 16.667 100 50
c0 50 -21.333 106.667 -64 170l71 121c20 -34.667 36.333 -74 49 -118c4 -40 12.333 -98.333 25 -175c4 -14.667 14.333 -25.334 31 -32.001c11.333 -4.66699 75 -7 191 -7v-178z" />
    <glyph glyph-name="uFEB3" unicode="&#x633;" horiz-adv-x="1243" arabic-form="initial" 
d="M1243 223c0 -146 -43.9971 -219 -131.997 -219c-144 0 -237.333 40.667 -280 122c-21.333 -38.667 -61 -70 -119 -94c-51.333 -21.333 -102 -32 -152 -32c-73.333 -0 -128.333 10.333 -165 31c-42.667 24.667 -74.667 69.667 -96 135c-24 -80 -65.667 -130 -125 -150
c-31.333 -10.667 -99.333 -16 -204 -16v178l148 -1c65.333 3.33301 113.333 16 144 38c17.333 12.667 34 33.667 50 63c19.333 36 33.666 58.667 42.999 68c10.667 -13.333 21 -38 31 -74c9.33301 -32 23 -54 41 -66c28 -18.667 76 -28 144 -28
c82.667 0 143.667 20.333 183 61c11.333 12 29.666 47 54.999 105c22.667 52.667 36.667 79 42 79c11.333 0 17 -10.333 17 -31c0 -13.333 -2.33301 -33.5 -7 -60.5s-7 -47.5 -7 -61.5c0 -27.333 28.667 -51 86 -71c47.333 -16.667 88.666 -25 123.999 -25
c66.667 0 100 16.333 100 49c0 51.333 -22 108 -66 170l72 121c48.667 -84.667 73 -181.667 73 -291z" />
    <glyph glyph-name="uFEB4" unicode="&#x633;" horiz-adv-x="1446" arabic-form="medial" 
d="M1476 0l-66.998 -0.000976562c-72.667 0 -131.334 28 -176.001 84c-28 -56 -64.667 -84 -110 -84c-56 0 -110.667 10.667 -164 32c-61.333 24.667 -103.666 58.334 -126.999 101.001c-21.333 -39.333 -61 -72 -119 -98c-52 -23.333 -103 -35 -153 -35
c-73.333 -0 -128.333 10.333 -165 31c-42.667 24.667 -74.667 69.667 -96 135c-24 -80 -65.667 -130 -125 -150c-31.333 -10.667 -99.333 -16 -204 -16v178l148 -1c65.333 3.33301 113.333 16 144 38c17.333 12.667 34 33.667 50 63c19.333 36 33.666 58.667 42.999 68
c10.667 -13.333 21 -38 31 -74c9.33301 -32 23 -54 41 -66c28 -18.667 76 -28 144 -28c78 0 136 19 174 57c29.333 29.333 57.333 85 84 167c6 18.667 13.667 28 23 28c11.333 0 17 -10.667 17 -32c0 -13.333 -2.33301 -33.5 -7 -60.5s-7 -47.167 -7 -60.5
c0 -27.333 30.333 -53 91 -77c52 -20.667 95.333 -31 130 -31c66.667 0 100 16.667 100 50c0 51.333 -22 108 -66 170l72 121c19.333 -34.667 35.333 -74 48 -118c4 -39.333 12.333 -97.666 25 -174.999c4 -14.667 14.333 -25.334 31 -32.001
c11.333 -4.66699 74.666 -7 189.999 -7v-178z" />
    <glyph glyph-name="uFEB6" unicode="&#x634;" horiz-adv-x="1939" arabic-form="final" 
d="M1962 0h-69.001c-70 0 -128.333 28 -175 84c-28 -56 -64.667 -84 -110 -84c-56 0 -110.667 10.667 -164 32c-62.667 25.333 -105 59.333 -127 102c-19.333 -36 -48.333 -67 -87 -93c-40.667 -27.333 -80.667 -41 -120 -41c-51.333 0 -102.333 21 -153 63
c-12 -128 -68.667 -231.333 -170 -310c-95.333 -74 -208.666 -111 -339.999 -111c-77.333 0 -140 18 -188 54c-54 40 -81 97.667 -81 173c0 41.333 12.333 99.666 37 174.999c28 84.667 56 132.667 84 144l7 -12c-2.66699 -14 -12.334 -47 -29.001 -99
c-12.667 -39.333 -19 -73.666 -19 -102.999c0 -102.667 69.333 -154 208 -154c187.333 0 327 61.333 419 184c15.333 20.667 23 37.667 23 51c0 18.667 -10.667 48.667 -32 90c-19.333 38 -37 66 -53 84l90 127c42 -118.667 98 -178 168 -178c74 0 128.333 21.333 163 64
c8.66699 10.667 25.334 46.334 50.001 107.001c22 54 36 81 42 81c11.333 0 17 -10.667 17 -32c0 -13.333 -2.16699 -33.5 -6.5 -60.5s-6.5 -47.167 -6.5 -60.5c0 -27.333 30 -53 90 -77c52 -20.667 95 -31 129 -31c66.667 0 100 16.667 100 50
c0 50 -21.333 106.667 -64 170l71 121c20 -34.667 36.333 -74 49 -118c4 -40 12.333 -98.333 25 -175c4 -14.667 14.333 -25.334 31 -32.001c11.333 -4.66699 75 -7 191 -7v-178zM1525 754l-62 -115l-147 89l67 112zM1325 936l-61 -114l-126 75l67 113zM1242 716l-62 -114
l-147 89l67 112z" />
    <glyph glyph-name="uFEB7" unicode="&#x634;" horiz-adv-x="1244" arabic-form="initial" 
d="M1243 223c0 -146 -43.9971 -219 -131.997 -219c-144 0 -237.333 40.667 -280 122c-21.333 -38.667 -61 -70 -119 -94c-51.333 -21.333 -102 -32 -152 -32c-73.333 -0 -128.333 10.333 -165 31c-42.667 24.667 -74.667 69.667 -96 135c-24 -80 -65.667 -130 -125 -150
c-31.333 -10.667 -99.333 -16 -204 -16v178l148 -1c65.333 3.33301 113.333 16 144 38c17.333 12.667 34 33.667 50 63c19.333 36 33.666 58.667 42.999 68c10.667 -13.333 21 -38 31 -74c9.33301 -32 23 -54 41 -66c28 -18.667 76 -28 144 -28
c82.667 0 143.667 20.333 183 61c11.333 12 29.666 47 54.999 105c22.667 52.667 36.667 79 42 79c11.333 0 17 -10.333 17 -31c0 -13.333 -2.33301 -33.5 -7 -60.5s-7 -47.5 -7 -61.5c0 -27.333 28.667 -51 86 -71c47.333 -16.667 88.666 -25 123.999 -25
c66.667 0 100 16.333 100 49c0 51.333 -22 108 -66 170l72 121c48.667 -84.667 73 -181.667 73 -291zM1038 754l-61 -115l-148 89l67 112zM838.003 936l-61 -114l-126 75l67 113zM755.003 716l-62 -114l-147 89l67 112z" />
    <glyph glyph-name="uFEB8" unicode="&#x634;" horiz-adv-x="1454" arabic-form="medial" 
d="M1476 0l-66.998 -0.000976562c-72.667 0 -131.334 28 -176.001 84c-28 -56 -64.667 -84 -110 -84c-56 0 -110.667 10.667 -164 32c-61.333 24.667 -103.666 58.334 -126.999 101.001c-21.333 -39.333 -61 -72 -119 -98c-52 -23.333 -103 -35 -153 -35
c-73.333 -0 -128.333 10.333 -165 31c-42.667 24.667 -74.667 69.667 -96 135c-24 -80 -65.667 -130 -125 -150c-31.333 -10.667 -99.333 -16 -204 -16v178l148 -1c65.333 3.33301 113.333 16 144 38c17.333 12.667 34 33.667 50 63c19.333 36 33.666 58.667 42.999 68
c10.667 -13.333 21 -38 31 -74c9.33301 -32 23 -54 41 -66c28 -18.667 76 -28 144 -28c78 0 136 19 174 57c29.333 29.333 57.333 85 84 167c6 18.667 13.667 28 23 28c11.333 0 17 -10.667 17 -32c0 -13.333 -2.33301 -33.5 -7 -60.5s-7 -47.167 -7 -60.5
c0 -27.333 30.333 -53 91 -77c52 -20.667 95.333 -31 130 -31c66.667 0 100 16.667 100 50c0 51.333 -22 108 -66 170l72 121c19.333 -34.667 35.333 -74 48 -118c4 -39.333 12.333 -97.666 25 -174.999c4 -14.667 14.333 -25.334 31 -32.001
c11.333 -4.66699 74.666 -7 189.999 -7v-178zM1038 753.999l-61 -115l-148 89l67 112zM838.002 935.999l-61 -114l-126 75l67 113zM755.002 715.999l-62 -114l-147 89l67 112z" />
    <glyph glyph-name="uFEBA" unicode="&#x635;" horiz-adv-x="2136" arabic-form="final" 
d="M2167 0l-93 -0.00195312c-90.667 0 -154.667 46.667 -192 140c-92 -93.333 -220.333 -140 -385 -140h-347c-64.667 0 -115 12 -151 36c0 -155.333 -47 -279.333 -141 -372s-218.667 -139 -374 -139c-91.333 0 -164 22.667 -218 68c-58.667 48.667 -88 117.667 -88 207
c0 40 11.667 102.333 35 187c26 94.667 51 147.334 75 158.001l5 -10c-1.33301 -10 -8.33301 -44.333 -21 -103c-8.66699 -40 -13 -75.667 -13 -107c0 -75.333 26.667 -132.333 80 -171c46.667 -34 109 -51 187 -51c72.667 0 152.334 13.333 239.001 40
c112.667 34.667 169 79.334 169 134.001c0 33.333 -15.333 81.666 -46 144.999c-26.667 54.667 -53.334 99.334 -80.001 134.001l90 129c30 -44 57.333 -74 82 -90c28.667 -18 68 -27 118 -27l303 242c145.333 110.667 255 166 329 166c53.333 0 103.333 -32.667 150 -98
c42.667 -60 64 -118 64 -174c0 -28 -7 -62 -21 -102c36.667 -16 118 -24 244 -24v-178zM1864 263.998c0 36 -29.667 72.333 -89 109c-54 33.333 -101.667 50 -143 50c-61.333 0 -137.666 -32.667 -228.999 -98l-210 -158c201.333 0 324.666 1.33301 369.999 4
c200.667 12 301 43 301 93z" />
    <glyph glyph-name="uFEBB" unicode="&#x635;" horiz-adv-x="1426" arabic-form="initial" 
d="M1426 293c0 -83.333 -45.668 -154.668 -137.001 -214.001c-81.333 -52.667 -166.333 -79 -255 -79h-474c-72 0 -126.667 10.667 -164 32c-43.333 24.667 -75.666 69.334 -96.999 134.001c-24 -80 -65.667 -130 -125 -150c-31.333 -10.667 -99.333 -16 -204 -16v178
l149 -1c64.667 3.33301 112.334 16 143.001 38c17.333 12.667 34 33.667 50 63c19.333 36 33.666 58.667 42.999 68c9.33301 -12 20 -37 32 -75c10.667 -34 26 -58 46 -72c29.333 -20.667 78.333 -31 147 -31l303 242c151.333 110.667 261 166 329 166
c54.667 0 105 -34.333 151 -103c42 -62.667 63 -122.667 63 -180zM1346 263.998c0 36.667 -29.666 73 -88.999 109c-54.667 33.333 -102.334 50 -143.001 50c-60.667 0 -136.667 -32.667 -228 -98l-210 -158c202.667 0 325.667 1.33301 369 4
c200.667 12.667 301 43.667 301 93z" />
    <glyph glyph-name="uFEBC" unicode="&#x635;" horiz-adv-x="1684" arabic-form="medial" 
d="M1715 0l-103.999 -0.000976562c-89.333 0 -153 46.667 -191 140c-91.333 -93.333 -220 -140 -386 -140h-474c-72 0 -126.667 10.667 -164 32c-43.333 24.667 -75.666 69.334 -96.999 134.001c-24 -80 -65.667 -130 -125 -150c-31.333 -10.667 -99.333 -16 -204 -16v178
l148 -1c66 3.33301 114 16 144 38c17.333 12.667 34 33.667 50 63c19.333 35.333 33.666 58 42.999 68c9.33301 -11.333 19.666 -36 30.999 -74c10 -34 25.333 -58 46 -72c30.667 -21.333 80 -32 148 -32l333 241c167.333 111.333 285.666 167 354.999 167
c54 0 104 -32.333 150 -97c42.667 -60 64 -118.333 64 -175c0 -31.333 -7 -65.333 -21 -102c36.667 -16 121.334 -24 254.001 -24v-178zM1402 274.999c0 36.667 -30 71.333 -90 104c-53.333 29.333 -100.666 44 -141.999 44c-62.667 0 -148.334 -32.333 -257.001 -97
c-32.667 -19.333 -111.667 -72.333 -237 -159c484 0 726 36 726 108z" />
    <glyph glyph-name="uFEBE" unicode="&#x636;" horiz-adv-x="2141" arabic-form="final" 
d="M2167 0l-93 -0.00195312c-90.667 0 -154.667 46.667 -192 140c-92 -93.333 -220.333 -140 -385 -140h-347c-64.667 0 -115 12 -151 36c0 -155.333 -47 -279.333 -141 -372s-218.667 -139 -374 -139c-91.333 0 -164 22.667 -218 68c-58.667 48.667 -88 117.667 -88 207
c0 40 11.667 102.333 35 187c26 94.667 51 147.334 75 158.001l5 -10c-1.33301 -10 -8.33301 -44.333 -21 -103c-8.66699 -40 -13 -75.667 -13 -107c0 -75.333 26.667 -132.333 80 -171c46.667 -34 109 -51 187 -51c72.667 0 152.334 13.333 239.001 40
c112.667 34.667 169 79.334 169 134.001c0 33.333 -15.333 81.666 -46 144.999c-26.667 54.667 -53.334 99.334 -80.001 134.001l90 129c30 -44 57.333 -74 82 -90c28.667 -18 68 -27 118 -27l303 242c145.333 110.667 255 166 329 166c53.333 0 103.333 -32.667 150 -98
c42.667 -60 64 -118 64 -174c0 -28 -7 -62 -21 -102c36.667 -16 118 -24 244 -24v-178zM1864 263.998c0 36 -29.667 72.333 -89 109c-54 33.333 -101.667 50 -143 50c-61.333 0 -137.666 -32.667 -228.999 -98l-210 -158c201.333 0 324.666 1.33301 369.999 4
c200.667 12 301 43 301 93zM1597 917.998l-63 -117l-153 94l67 115z" />
    <glyph glyph-name="uFEBF" unicode="&#x636;" horiz-adv-x="1430" arabic-form="initial" 
d="M1426 293c0 -83.333 -45.668 -154.668 -137.001 -214.001c-81.333 -52.667 -166.333 -79 -255 -79h-474c-72 0 -126.667 10.667 -164 32c-43.333 24.667 -75.666 69.334 -96.999 134.001c-24 -80 -65.667 -130 -125 -150c-31.333 -10.667 -99.333 -16 -204 -16v178
l149 -1c64.667 3.33301 112.334 16 143.001 38c17.333 12.667 34 33.667 50 63c19.333 36 33.666 58.667 42.999 68c9.33301 -12 20 -37 32 -75c10.667 -34 26 -58 46 -72c29.333 -20.667 78.333 -31 147 -31l303 242c151.333 110.667 261 166 329 166
c54.667 0 105 -34.333 151 -103c42 -62.667 63 -122.667 63 -180zM1346 263.998c0 36.667 -29.666 73 -88.999 109c-54.667 33.333 -102.334 50 -143.001 50c-60.667 0 -136.667 -32.667 -228 -98l-210 -158c202.667 0 325.667 1.33301 369 4
c200.667 12.667 301 43.667 301 93zM1152 917.998l-62 -117l-154 94l68 115z" />
    <glyph glyph-name="uFEC0" unicode="&#x636;" horiz-adv-x="1689" arabic-form="medial" 
d="M1715 0l-103.999 -0.000976562c-89.333 0 -153 46.667 -191 140c-91.333 -93.333 -220 -140 -386 -140h-474c-72 0 -126.667 10.667 -164 32c-43.333 24.667 -75.666 69.334 -96.999 134.001c-24 -80 -65.667 -130 -125 -150c-31.333 -10.667 -99.333 -16 -204 -16v178
l148 -1c66 3.33301 114 16 144 38c17.333 12.667 34 33.667 50 63c19.333 35.333 33.666 58 42.999 68c9.33301 -11.333 19.666 -36 30.999 -74c10 -34 25.333 -58 46 -72c30.667 -21.333 80 -32 148 -32l333 241c167.333 111.333 285.666 167 354.999 167
c54 0 104 -32.333 150 -97c42.667 -60 64 -118.333 64 -175c0 -31.333 -7 -65.333 -21 -102c36.667 -16 121.334 -24 254.001 -24v-178zM1402 274.999c0 36.667 -30 71.333 -90 104c-53.333 29.333 -100.666 44 -141.999 44c-62.667 0 -148.334 -32.333 -257.001 -97
c-32.667 -19.333 -111.667 -72.333 -237 -159c484 0 726 36 726 108zM1213 917.998l-63 -117l-153 94l68 115z" />
    <glyph glyph-name="uFEC2" unicode="&#x637;" horiz-adv-x="1484" arabic-form="final" 
d="M1514 0l-96.002 -0.000976562c-90 0 -154 46.667 -192 140c-91.333 -93.333 -219.666 -140 -384.999 -140h-524c-40.667 0 -77.667 20.667 -111 62c-21.333 27.333 -35.666 58.333 -42.999 93c5.33301 8 83.666 12.333 234.999 13
c15.333 8.66699 48.333 32.334 99 71.001c-16.667 157.333 -46.334 406.333 -89.001 747l139 146c14.667 -181.333 22 -373 22 -575c0 -114.667 -7 -207.667 -21 -279c262.667 198.667 438.334 298 527.001 298c52.667 0 102.334 -32.667 149.001 -98
c43.333 -60.667 65 -118.667 65 -174c0 -28 -7 -62 -21 -102c36 -16 118 -24 246 -24v-178zM1209 274.999c0 36.667 -30.001 71.333 -90.001 104c-53.333 29.333 -100.666 44 -141.999 44c-62 0 -146 -32.333 -252 -97c-10 -6 -87.333 -59 -232 -159
c477.333 0 716 36 716 108z" />
    <glyph glyph-name="uFEC3" unicode="&#x637;" horiz-adv-x="1033" arabic-form="initial" 
d="M1033 293c0 -84 -45.668 -155.332 -137.001 -213.999c-82 -52.667 -167 -79 -255 -79h-671v178h172c26.667 13.333 59.667 35.666 99 66.999c-19.333 174.667 -48.666 421.667 -87.999 741l139 146c14 -182 21 -373.667 21 -575c0 -114.667 -6.66699 -207.667 -20 -279
c262 198.667 437.333 298 526 298c54 0 104 -34.333 150 -103c42.667 -63.333 64 -123.333 64 -180zM952.999 275.001c0 36.667 -30.001 71.333 -90.001 104c-53.333 29.333 -100.666 44 -141.999 44c-62 0 -146 -32.333 -252 -97c-10 -6 -87.333 -59 -232 -159
c477.333 0 716 36 716 108z" />
    <glyph glyph-name="uFEC4" unicode="&#x637;" horiz-adv-x="1228" arabic-form="medial" 
d="M1258 0l-95.001 0.000976562c-90.667 0 -154.667 46.667 -192 140c-92 -93.333 -220.333 -140 -385 -140h-616v178h172c26.667 13.333 59.667 35.666 99 66.999c-19.333 175.333 -48.666 422.333 -87.999 741l139 146c14 -181.333 21 -373 21 -575
c0 -114.667 -6.66699 -207.667 -20 -279c262 198.667 437.333 298 526 298c53.333 0 103.333 -32.667 150 -98c42.667 -60 64 -118 64 -174c0 -28 -7 -62 -21 -102c36.667 -16 118.667 -24 246 -24v-178zM952.999 275.001c0 36.667 -30.001 71.333 -90.001 104
c-53.333 29.333 -100.666 44 -141.999 44c-62 0 -146 -32.333 -252 -97c-10 -6 -87.333 -59 -232 -159c477.333 0 716 36 716 108z" />
    <glyph glyph-name="uFEC6" unicode="&#x638;" horiz-adv-x="1495" arabic-form="final" 
d="M1514 0l-96.002 -0.000976562c-90 0 -154 46.667 -192 140c-91.333 -93.333 -219.666 -140 -384.999 -140h-524c-40.667 0 -77.667 20.667 -111 62c-21.333 27.333 -35.666 58.333 -42.999 93c5.33301 8 83.666 12.333 234.999 13
c15.333 8.66699 48.333 32.334 99 71.001c-16.667 157.333 -46.334 406.333 -89.001 747l139 146c14.667 -181.333 22 -373 22 -575c0 -114.667 -7 -207.667 -21 -279c262.667 198.667 438.334 298 527.001 298c52.667 0 102.334 -32.667 149.001 -98
c43.333 -60.667 65 -118.667 65 -174c0 -28 -7 -62 -21 -102c36 -16 118 -24 246 -24v-178zM1209 274.999c0 36.667 -30.001 71.333 -90.001 104c-53.333 29.333 -100.666 44 -141.999 44c-62 0 -146 -32.333 -252 -97c-10 -6 -87.333 -59 -232 -159
c477.333 0 716 36 716 108zM1027 917.998l-62 -117l-154 94l68 115z" />
    <glyph glyph-name="uFEC7" unicode="&#x638;" horiz-adv-x="1042" arabic-form="initial" 
d="M1033 293c0 -84 -45.668 -155.332 -137.001 -213.999c-82 -52.667 -167 -79 -255 -79h-671v178h172c26.667 13.333 59.667 35.666 99 66.999c-19.333 174.667 -48.666 421.667 -87.999 741l139 146c14 -182 21 -373.667 21 -575c0 -114.667 -6.66699 -207.667 -20 -279
c262 198.667 437.333 298 526 298c54 0 104 -34.333 150 -103c42.667 -63.333 64 -123.333 64 -180zM952.999 275.001c0 36.667 -30.001 71.333 -90.001 104c-53.333 29.333 -100.666 44 -141.999 44c-62 0 -146 -32.333 -252 -97c-10 -6 -87.333 -59 -232 -159
c477.333 0 716 36 716 108zM778.998 918l-63 -117l-153 94l67 115z" />
    <glyph glyph-name="uFEC8" unicode="&#x638;" horiz-adv-x="1236" arabic-form="medial" 
d="M1258 0l-95.001 0.000976562c-90.667 0 -154.667 46.667 -192 140c-92 -93.333 -220.333 -140 -385 -140h-616v178h172c26.667 13.333 59.667 35.666 99 66.999c-19.333 175.333 -48.666 422.333 -87.999 741l139 146c14 -181.333 21 -373 21 -575
c0 -114.667 -6.66699 -207.667 -20 -279c262 198.667 437.333 298 526 298c53.333 0 103.333 -32.667 150 -98c42.667 -60 64 -118 64 -174c0 -28 -7 -62 -21 -102c36.667 -16 118.667 -24 246 -24v-178zM952.999 275.001c0 36.667 -30.001 71.333 -90.001 104
c-53.333 29.333 -100.666 44 -141.999 44c-62 0 -146 -32.333 -252 -97c-10 -6 -87.333 -59 -232 -159c477.333 0 716 36 716 108zM778.998 918l-63 -117l-153 94l67 115z" />
    <glyph glyph-name="uFECA" unicode="&#x639;" horiz-adv-x="879" arabic-form="final" 
d="M1063 -634c-70.667 -83.333 -125.999 -135.335 -165.999 -156.002c-44 -22.667 -118.333 -34 -223 -34c-330.667 0 -496 139 -496 417c0 120 28.667 237.667 86 353c54.667 108.667 129 204.667 223 288c-32 61.333 -82.667 92 -152 92l-14 6
c-0.666992 36 16.666 84 51.999 144c46 31.333 111.667 47 197 47c110.667 0 166 -45 166 -135c0 -48 -29.333 -107 -88 -177c28 -22 115 -33 261 -33v-178h-61c-128 0 -221 43.333 -279 130c-197.333 -157.333 -296 -303.666 -296 -438.999
c0 -125.333 51 -218.666 153 -279.999c83.333 -49.333 192 -74 326 -74c77.333 0 181 9.66699 311 29z" />
    <glyph glyph-name="uFECB" unicode="&#x639;" horiz-adv-x="833" arabic-form="initial" 
d="M832 220l-45 -155c-148 -43.333 -308.667 -65 -482 -65h-335v178h277c-48.667 78.667 -73 143.667 -73 195c0 68.667 24 135.334 72 200.001c52 70 110.667 105 176 105c44 0 94 -13 150 -39c61.333 -28.667 100 -60.667 116 -96l-10 -7c-10.667 2 -36 8.66699 -76 20
c-30.667 8.66699 -57 13 -79 13c-46 0 -98 -17 -156 -51c-64.667 -38 -97 -78 -97 -120c0 -52.667 33.333 -103.334 100 -152.001c62.667 -45.333 122 -68 178 -68c83.333 0 178 14 284 42z" />
    <glyph glyph-name="uFECC" unicode="&#x639;" horiz-adv-x="806" arabic-form="medial" 
d="M836 0l-112.997 -0.000976562c-128 0 -223.333 45 -286 135c-100.667 -90 -226.334 -135 -377.001 -135h-90v178c244 0 380.333 11.333 409 34c-12.667 33.333 -34.167 60.333 -64.5 81s-62.833 29.334 -97.5 26.001l-10 7c12 61.333 28.667 109 50 143
c51.333 32.667 117.666 49 198.999 49c110.667 0 166 -45.333 166 -136c0 -47.333 -32 -103 -96 -167c35.333 -24.667 86.666 -37 153.999 -37h156v-178z" />
    <glyph glyph-name="uFECE" unicode="&#x63a;" horiz-adv-x="873" arabic-form="final" 
d="M1063 -634c-70.667 -83.333 -125.999 -135.335 -165.999 -156.002c-44 -22.667 -118.333 -34 -223 -34c-330.667 0 -496 139 -496 417c0 120 28.667 237.667 86 353c54.667 108.667 129 204.667 223 288c-32 61.333 -82.667 92 -152 92l-14 6
c-0.666992 36 16.666 84 51.999 144c46 31.333 111.667 47 197 47c110.667 0 166 -45 166 -135c0 -48 -29.333 -107 -88 -177c28 -22 115 -33 261 -33v-178h-61c-128 0 -221 43.333 -279 130c-197.333 -157.333 -296 -303.666 -296 -438.999
c0 -125.333 51 -218.666 153 -279.999c83.333 -49.333 192 -74 326 -74c77.333 0 181 9.66699 311 29zM627.001 917.998l-62 -117l-154 94l68 115z" />
    <glyph glyph-name="uFECF" unicode="&#x63a;" horiz-adv-x="832" arabic-form="initial" 
d="M832 220l-45 -155c-148 -43.333 -308.667 -65 -482 -65h-335v178h277c-48.667 78.667 -73 143.667 -73 195c0 68.667 24 135.334 72 200.001c52 70 110.667 105 176 105c44 0 94 -13 150 -39c61.333 -28.667 100 -60.667 116 -96l-10 -7c-10.667 2 -36 8.66699 -76 20
c-30.667 8.66699 -57 13 -79 13c-46 0 -98 -17 -156 -51c-64.667 -38 -97 -78 -97 -120c0 -52.667 33.333 -103.334 100 -152.001c62.667 -45.333 122 -68 178 -68c83.333 0 178 14 284 42zM476 918l-63 -117l-153 94l67 115z" />
    </font>
</defs>
</svg>
