<?xml version="1.0" standalone="no"?>
<!DOCTYPE svg PUBLIC "-//W3C//DTD SVG 1.1//EN" "http://www.w3.org/Graphics/SVG/1.1/DTD/svg11.dtd" >
<svg>
<metadata>
Created by FontForge 20090914 at Wed Oct 19 00:48:29 2011
 By www-data
(c) by Abolfazl Seilsepour - +98 912 591 3420  -  seilsepor@yahoo.com
</metadata>
<defs>
<font id="FarArash" horiz-adv-x="0" >
  <font-face 
    font-family="Far.Arash"
    font-weight="400"
    font-stretch="normal"
    units-per-em="2048"
    panose-1="0 0 4 0 0 0 0 0 0 0"
    ascent="1638"
    descent="-410"
    bbox="-192 -951.002 2403 2344"
    underline-thickness="60"
    underline-position="-650"
    unicode-range="U+0020-U+FEFC"
  />
<missing-glyph horiz-adv-x="1024" 
d="M128 0v1516h768v-1516h-768zM256 128h512v1260h-512v-1260z" />
    <glyph glyph-name="uE818" unicode="&#x651;&#x64b;" 
d="M620 1726l-9.99805 -23v-64c0 -94.667 -52.333 -142 -157 -142h-10c-22.667 0 -40.667 2.16699 -54 6.5s-23.666 10.5 -30.999 18.5c-23.333 -16.667 -57.333 -25 -102 -25c-59.333 0 -100 13 -122 39c-20.667 24 -31 66.333 -31 127v134c0 16 3.66699 24.333 11 25
c4 -2.66699 6.66699 -5 8 -7l10 -11l32 -32l36 -28c9.33301 -7.33301 15 -13.333 17 -18l-5 -8c-2 -1.33301 -4 -6.33301 -6 -15v-40c0 -26.667 3.5 -44 10.5 -52s20.167 -12 39.5 -12c32.667 0 49 19.333 49 58v140c0 16 4 24.333 12 25
c3.33301 -2.66699 5.66602 -5 6.99902 -7l11 -11l41 -38l30 -25c7.33301 -4.66699 11.666 -9.66699 12.999 -15c-2 -4 -3.66699 -6.66699 -5 -8c-3.33301 -1.33301 -5 -6.33301 -5 -15v-64c0 -26.667 16.667 -40 50 -40c18.667 0 31.167 4 37.5 12s9.5 25.333 9.5 52v134
c0 16 4 24.333 12 25c3.33301 -2 6.66602 -5 9.99902 -9l41 -41l36 -28c8.66699 -6 13.667 -12 15 -18zM539.002 2188c0 -8 -6.66797 -17.833 -20.001 -29.5s-26 -25.834 -38 -42.5c-4.66699 -6.66699 -8.66699 -12.667 -12 -18c-5.33301 -11.333 -12 -17 -20 -17
c-4 0 -12.333 1.5 -25 4.5s-23 4.5 -31 4.5h-266c-18.667 0 -28 4.66699 -28 14c0 6 0.666992 10.333 2 13l21 18c8.66699 7.33301 16.334 16 23.001 26l23 33c8 11.333 14.667 17 20 17l18 -4c12.667 -3.33301 25.667 -5 39 -5h265c19.333 0 29 -4.66699 29 -14z
M539.001 2004c0 -7.33301 -0.666016 -12 -1.99902 -14l-21 -18l-24 -25c-6.66699 -6.66699 -14.334 -17.667 -23.001 -33c-5.33301 -11.333 -12 -17 -20 -17c-4 0 -10 1.66699 -18 5l-38 4h-266c-18 0 -27.333 4 -28 12c0 7.33301 0.666992 12 2 14l21 17l11 11
c4.66699 4.66699 8.66699 10 12 16l23 33c6 11.333 12.667 17 20 17c4.66699 0 10.667 -1.33301 18 -4c10.667 -3.33301 23.667 -5 39 -5h265c19.333 0 29 -4.33301 29 -13z" />
    <glyph glyph-name="uFC5E" unicode="&#x651;&#x64c;" arabic-form="isolated" 
d="M608 1779l-9.99805 -23v-64c0 -94.667 -52.333 -142 -157 -142h-10c-22.667 0 -40.667 2.16699 -54 6.5s-23.666 10.5 -30.999 18.5c-23.333 -16.667 -57.333 -25 -102 -25c-59.333 0 -100 13 -122 39c-20.667 24 -31 66.333 -31 127v134c0 16 3.66699 24.333 11 25
c4 -2.66699 6.66699 -5 8 -7l10 -11l32 -32l36 -28c9.33301 -7.33301 15 -13.333 17 -18l-5 -8c-2 -1.33301 -4 -6.33301 -6 -15v-40c0 -26.667 3.5 -44 10.5 -52s20.167 -12 39.5 -12c32.667 0 49 19.333 49 58v140c0 16 4 24.333 12 25
c3.33301 -2.66699 5.66602 -5 6.99902 -7l11 -11l41 -38l30 -25c7.33301 -4.66699 11.666 -9.66699 12.999 -15c-2 -4 -3.66699 -6.66699 -5 -8c-3.33301 -1.33301 -5 -6.33301 -5 -15v-64c0 -26.667 16.667 -40 50 -40c18.667 0 31.167 4 37.5 12s9.5 25.333 9.5 52v134
c0 16 4 24.333 12 25c3.33301 -2 6.66602 -5 9.99902 -9l41 -41l36 -28c8.66699 -6 13.667 -12 15 -18zM474.002 2124c0 -27.333 -14.999 -58 -44.999 -92l43 -32l-47 -28l-34 24c-44 -41.333 -79 -62 -105 -62c-21.333 0 -41.833 10.833 -61.5 32.5s-32.5 32.5 -38.5 32.5
c-10.667 0 -20.5 -7 -29.5 -21s-15.833 -21 -20.5 -21c-9.33301 0 -14 5 -14 15c0 19.333 7.5 38.833 22.5 58.5s31.833 29.5 50.5 29.5c12 0 30.333 -14.333 55 -43c12.667 -14.667 23.667 -22 33 -22c15.333 0 34.666 12.667 57.999 38c-14 10 -27 23 -39 39
c-8 14.667 -12 32 -12 52c0 62.667 30.667 94 92 94c26.667 0 48.667 -9.16699 66 -27.5s26 -40.5 26 -66.5zM413.003 2127c0 9.33301 -2.5 17.166 -7.5 23.5c-5 6.33301 -12.833 9.5 -23.5 9.5c-16 0 -25.333 -11 -28 -33c0 -16 10 -32.333 30 -49
c18 17.333 27.667 33.666 29 49z" />
    <glyph glyph-name="uFC5F" unicode="&#x651;&#x64d;" arabic-form="isolated" 
d="M600 2248l-9.99805 -23v-64c0 -94.667 -52.333 -142 -157 -142h-10c-22.667 0 -40.667 2.16699 -54 6.5s-23.666 10.5 -30.999 18.5c-23.333 -16.667 -57.333 -25 -102 -25c-59.333 0 -100 13 -122 39c-20.667 24 -31 66.333 -31 127v134c0 16 3.66699 24.333 11 25
c4 -2.66699 6.66699 -5 8 -7l10 -11l32 -32l36 -28c9.33301 -7.33301 15 -13.333 17 -18l-5 -8c-2 -1.33301 -4 -6.33301 -6 -15v-40c0 -26.667 3.5 -44 10.5 -52s20.167 -12 39.5 -12c32.667 0 49 19.333 49 58v140c0 16 4 24.333 12 25
c3.33301 -2.66699 5.66602 -5 6.99902 -7l11 -11l41 -38l30 -25c7.33301 -4.66699 11.666 -9.66699 12.999 -15c-2 -4 -3.66699 -6.66699 -5 -8c-3.33301 -1.33301 -5 -6.33301 -5 -15v-64c0 -26.667 16.667 -40 50 -40c18.667 0 31.167 4 37.5 12s9.5 25.333 9.5 52v134
c0 16 4 24.333 12 25c3.33301 -2 6.66602 -5 9.99902 -9l41 -41l36 -28c8.66699 -6 13.667 -12 15 -18zM519.002 1829c0 -6 -0.666992 -10.333 -2 -13l-21 -18l-24 -26l-23 -33c-7.33301 -11.333 -14 -17 -20 -17c-4 0 -10 1.66699 -18 5l-38 4h-266
c-18.667 0 -28 4.66699 -28 14c0 6 0.666992 10 2 12l21 20l23 24c10 12.667 18 24.167 24 34.5s12.333 15.5 19 15.5c4.66699 0 10.667 -1.33301 18 -4c10.667 -3.33301 23.667 -5 39 -5h265c19.333 0 29 -4.33301 29 -13zM519.002 1645
c0 -8.66699 -6.50098 -18.502 -19.501 -29.502s-22.167 -20.167 -27.5 -27.5l-23 -33c-5.33301 -12 -12 -18 -20 -18c-4 0 -12.333 1.66699 -25 5s-23 5 -31 5h-266c-18.667 0 -28 4.33301 -28 13c0 6 0.666992 10.333 2 13l21 19c9.33301 8.66699 17 17.334 23 26.001
c10 12.667 17.667 23.334 23 32.001c6.66699 12 13.334 18 20.001 18l18 -5c12.667 -3.33301 25.667 -5 39 -5h265c19.333 0 29 -4.33301 29 -13z" />
    <glyph glyph-name="uFC60" unicode="&#x651;&#x64e;" arabic-form="isolated" 
d="M620 1796l-9.99805 -23v-64c0 -94.667 -52.333 -142 -157 -142h-10c-22.667 0 -40.667 2.16699 -54 6.5s-23.666 10.5 -30.999 18.5c-23.333 -16.667 -57.333 -25 -102 -25c-59.333 0 -100 13 -122 39c-20.667 24 -31 66.333 -31 127v134c0 16 3.66699 24.333 11 25
c4 -2.66699 6.66699 -5 8 -7l10 -11l32 -32l36 -28c9.33301 -7.33301 15 -13.333 17 -18l-5 -8c-2 -1.33301 -4 -6.33301 -6 -15v-40c0 -26.667 3.5 -44 10.5 -52s20.167 -12 39.5 -12c32.667 0 49 19.333 49 58v140c0 16 4 24.333 12 25
c3.33301 -2.66699 5.66602 -5 6.99902 -7l11 -11l41 -38l30 -25c7.33301 -4.66699 11.666 -9.66699 12.999 -15c-2 -4 -3.66699 -6.66699 -5 -8c-3.33301 -1.33301 -5 -6.33301 -5 -15v-64c0 -26.667 16.667 -40 50 -40c18.667 0 31.167 4 37.5 12s9.5 25.333 9.5 52v134
c0 16 4 24.333 12 25c3.33301 -2 6.66602 -5 9.99902 -9l41 -41l36 -28c8.66699 -6 13.667 -12 15 -18zM547.002 2064c0 -8 -0.666992 -12.668 -2 -14.001l-21 -18c-8.66699 -7.33301 -16.667 -15.666 -24 -24.999c-8 -11.333 -15.167 -22.5 -21.5 -33.5
s-13.5 -16.5 -21.5 -16.5c-4 0 -12.333 1.5 -25 4.5s-23 4.5 -31 4.5h-266c-18.667 0 -28 4 -28 12c0 7.33301 0.666992 12 2 14l21 17l23 26l23 34c8 12 14.667 18 20 18l18 -5c12.667 -2.66699 25.667 -4 39 -4h265c18 0 27.667 -4.66699 29 -14z" />
    <glyph glyph-name="uFC61" unicode="&#x651;&#x64f;" arabic-form="isolated" 
d="M610 1746l-9.99805 -23v-64c0 -94.667 -52.333 -142 -157 -142h-10c-22.667 0 -40.667 2.16699 -54 6.5s-23.666 10.5 -30.999 18.5c-23.333 -16.667 -57.333 -25 -102 -25c-59.333 0 -100 13 -122 39c-20.667 24 -31 66.333 -31 127v134c0 16 3.66699 24.333 11 25
c4 -2.66699 6.66699 -5 8 -7l10 -11l32 -32l36 -28c9.33301 -7.33301 15 -13.333 17 -18l-5 -8c-2 -1.33301 -4 -6.33301 -6 -15v-40c0 -26.667 3.5 -44 10.5 -52s20.167 -12 39.5 -12c32.667 0 49 19.333 49 58v140c0 16 4 24.333 12 25
c3.33301 -2.66699 5.66602 -5 6.99902 -7l11 -11l41 -38l30 -25c7.33301 -4.66699 11.666 -9.66699 12.999 -15c-2 -4 -3.66699 -6.66699 -5 -8c-3.33301 -1.33301 -5 -6.33301 -5 -15v-64c0 -26.667 16.667 -40 50 -40c18.667 0 31.167 4 37.5 12s9.5 25.333 9.5 52v134
c0 16 4 24.333 12 25c3.33301 -2 6.66602 -5 9.99902 -9l41 -41l36 -28c8.66699 -6 13.667 -12 15 -18zM471.002 2127c0 -25.333 -14.666 -56.001 -43.999 -92.001l41 -32l-45 -28l-34 23l-25 -22l-34 -27l-53 -33c-17.333 -8 -28.666 -12.667 -33.999 -14
c-9.33301 0 -14 4.33301 -14 13v24c0 11.333 7 19.333 21 24c30.667 14.667 61.667 38.667 93 72c-18.667 12.667 -33.334 26.334 -44.001 41.001c-8 15.333 -12.333 32.333 -13 51c0 26.667 8.66699 49 26 67s39.666 27 66.999 27s49.5 -9 66.5 -27s25.5 -40.333 25.5 -67z
M409.003 2130c0 10 -2.50098 17.999 -7.50098 23.999s-12.5 9 -22.5 9c-7.33301 0 -14 -3 -20 -9c-3.33301 -4.66699 -5.66602 -12.667 -6.99902 -24c0 -18.667 10 -35 30 -49c10.667 10.667 18 19.334 22 26.001c2 3.33301 3.66699 11 5 23z" />
    <glyph glyph-name="uFC62" unicode="&#x651;&#x650;" arabic-form="isolated" 
d="M620 1997l-9.99805 -23v-64c0 -94.667 -52.333 -142 -157 -142h-10c-22.667 0 -40.667 2.16699 -54 6.5s-23.666 10.5 -30.999 18.5c-23.333 -16.667 -57.333 -25 -102 -25c-59.333 0 -100 13 -122 39c-20.667 24 -31 66.333 -31 127v134c0 16 3.66699 24.333 11 25
c4 -2.66699 6.66699 -5 8 -7l10 -11l32 -32l36 -28c9.33301 -7.33301 15 -13.333 17 -18l-5 -8c-2 -1.33301 -4 -6.33301 -6 -15v-40c0 -26.667 3.5 -44 10.5 -52s20.167 -12 39.5 -12c32.667 0 49 19.333 49 58v140c0 16 4 24.333 12 25
c3.33301 -2.66699 5.66602 -5 6.99902 -7l11 -11l41 -38l30 -25c7.33301 -4.66699 11.666 -9.66699 12.999 -15c-2 -4 -3.66699 -6.66699 -5 -8c-3.33301 -1.33301 -5 -6.33301 -5 -15v-64c0 -26.667 16.667 -40 50 -40c18.667 0 31.167 4 37.5 12s9.5 25.333 9.5 52v134
c0 16 4 24.333 12 25c3.33301 -2 6.66602 -5 9.99902 -9l41 -41l36 -28c8.66699 -6 13.667 -12 15 -18zM542.002 1657c0 -6 -0.667969 -10.333 -2.00098 -13l-21 -18l-24 -26l-23 -33c-7.33301 -11.333 -14 -17 -20 -17c-4 0 -10 1.66699 -18 5l-38 4h-266
c-18.667 0 -28 4.66699 -28 14c0 6 0.666992 10 2 12l21 20l23 24c10 12.667 17.667 23.667 23 33c6.66699 12 13.334 18 20.001 18c4.66699 0 10.667 -1.66699 18 -5c10.667 -3.33301 23.667 -5 39 -5h265c19.333 0 29 -4.33301 29 -13z" />
    <glyph glyph-name="uFDF2" unicode="&#xfedf;&#xfee0;&#xfeea;" horiz-adv-x="1382" arabic-form="isolated" 
d="M912 1278c-1.33301 -9.33301 -3.66797 -17 -7.00098 -23c-5.33301 -11.333 -14.666 -21.666 -27.999 -30.999l-13 -4c-12.667 0 -19 16.333 -19 49c0 18.667 3.66699 44.667 11 78c9.33301 41.333 19.333 62.666 30 63.999c2 -0.666992 5 -2.66699 9 -6
c14.667 -25.333 22 -55 22 -89c0 -12.667 -1 -21.667 -3 -27zM1077 1158c10.667 0 18.499 -3.99902 23.499 -11.999s7.5 -17.667 7.5 -29c0 -60.667 -46 -101 -138 -121l-21 -2c-8.66699 -0.666992 -22.667 3.66602 -42 12.999c-8 4.66699 -17 7 -27 7l-89 -30
c-25.333 -8.66699 -46.666 -13 -63.999 -13c-34.667 0 -58 11.667 -70 35c-6 10.667 -9 23.667 -9 39c0 28 6.66699 53 20 75c15.333 25.333 28 38 38 38c11.333 0 17 -6.66699 17 -20c0 -7.33301 -1 -14.666 -3 -21.999c0 -10.667 -1 -19.334 -3 -26.001
c0 -13.333 3.33301 -23.333 10 -30s21 -10 43 -10c69.333 0 107.333 25.667 114 77c0 20.667 8 31 24 31c11.333 0 20 -14.333 26 -43c0 -28.667 14.667 -43 44 -43c50 0 75 18.333 75 55v17c2 9.33301 10 14 24 14zM1288 645.001c7.33301 -18 13.334 -39.667 18.001 -65
c10 -60 15 -123 15 -189c0 -160.667 -15.333 -261 -46 -301s-73.334 -60 -128.001 -60c-46 0 -86.333 10.333 -121 31l-98 70c-52 -87.333 -138 -131 -258 -131c-60.667 0 -105.667 19.333 -135 58l-45 133l-98 -44c-32 -14 -69.333 -21 -112 -21
c-139.333 0 -209 13.333 -209 40c0 34 5.33301 91.667 16 173c14.667 108 32.667 171.667 54 191c33.333 29.333 90.666 62.333 171.999 99l86 38l91 38c7.33301 3.33301 16.333 18 27 44c19.333 48.667 33.333 73 42 73c21.333 -0.666992 32 -48.334 32 -143.001
s3.66699 -157 11 -187c15.333 -64 51 -96 107 -96c40.667 0 93 17 157 51c20 10.667 30 38.667 30 84c0 30.667 -3.66699 67.334 -11 110.001c-17.333 101.333 -26 159.333 -26 174c0 18 2.33301 30.333 7 37c5.33301 10 11.333 20 18 30l11 19
c6.66699 8.66699 14.334 13.334 23.001 14.001c13.333 0 24.666 -34.333 33.999 -103c11.333 -90.667 22.666 -158.667 33.999 -204c20 -79.333 48.667 -127.333 86 -144c54.667 -24 96 -36 124 -36s42 14 42 42c0 23.333 -9.33301 57 -28 101
c-5.33301 12.667 -14 35 -26 67c-5.33301 11.333 -14.666 33 -27.999 65c-20 46.667 -30 82.667 -30 108c0 10 1 17.667 3 23c24.667 60.667 43.334 91 56.001 91c7.33301 0 23 -40.667 47 -122c18 -60.667 36.667 -113.334 56 -158.001zM485.998 620.001
c-13.333 4.66699 -51.332 -6.33691 -113.999 -33.0039s-94 -46.667 -94 -60c2.66699 -3.33301 8.66699 -5.66602 18 -6.99902l41 -3c17.333 -1.33301 50.333 0.333984 99 5.00098c24.667 2.66699 38.667 4.83398 42 6.50098s7.66602 9.16699 12.999 22.5
c4.66699 16 7 29.333 7 40c0 16.667 -4 26.334 -12 29.001z" />
    <glyph glyph-name="uFEF5" unicode="&#xfedf;&#xfe82;" horiz-adv-x="949" arabic-form="isolated" 
d="M919 1149c0 -14 -5.66797 -35.3359 -17.001 -64.0029c-12 -32 -23.333 -48.667 -34 -50c-18 2.66699 -28.333 -9.33301 -31 -36l-14 -142c-7.33301 -68 -32.666 -156 -75.999 -264l-2 -11l31 -93c9.33301 -28 14 -58.333 14 -91v-273
c0 -23.333 -0.666992 -36.666 -2 -39.999c0 -28.667 -7.66699 -48.334 -23 -59.001c-10.667 -6.66699 -33 -12.667 -67 -18c-50.667 -8.66699 -104.334 -13 -161.001 -13h-24l-34 1c-14 0.666992 -22.333 1.33398 -25 2.00098c-6 2.66699 -10.167 9.33398 -12.5 20.001
s-3.5 24.667 -3.5 42v196v80c0.666992 44.667 4.66699 67.334 12 68.001c3.33301 0 10 -1.66699 20 -5l23 -5c40 0 97.667 51.667 173 155c1.33301 2 2 4.33301 2 7c0 40 -72 129 -216 267c-66.667 63.333 -121.334 110.333 -164.001 141l-12 -5c-12 -4 -23.333 -6 -34 -6
c-50 0 -106 27.333 -168 82c-4 2.66699 -6 19 -6 49c0 88 12.333 127.667 37 119c171.333 -62.667 337 -202.334 497 -419.001l98 -132l37 71c27.333 118.667 41 236.667 41 354c0 -1.33301 -2.33301 13.334 -7 44.001l-7 40l3 18c40.667 93.333 66 140 76 140
c8 0.666992 12 -22.333 12 -69c-1.33301 -18.667 8.33398 -38.667 29.001 -60c22.667 -24 34.334 -37.667 35.001 -41zM738.999 420.997c0 50 -13.667 77.333 -41 82c-4 0.666992 -19.667 -17 -47 -53l-26 -50c37.333 4.66699 75.333 11.667 114 21zM654.999 1417
c4 -3.33301 6.33301 -8.99707 7 -16.9971c0 -18.667 -21.333 -43.667 -64 -75c-39.333 -28.667 -68 -44.334 -86 -47.001l-45 -4c-18 -1.33301 -52.667 2 -104 10c-95.333 15.333 -153 23 -173 23c-7.33301 0 -29.833 -7.16699 -67.5 -21.5s-63.5 -21.5 -77.5 -21.5l-16 3
c-3.33301 1.33301 -5 5 -5 11c0 16.667 23.333 40.667 70 72c42 29.333 74 46.666 96 51.999l22 2c12.667 1.33301 55 -5 127 -19c64 -12 109.333 -18 136 -18h21c28 9.33301 60.333 21.666 97 36.999c24.667 10.667 41.667 16 51 16z" />
    <glyph glyph-name="uFEF6" unicode="&#xfee0;&#xfe82;" horiz-adv-x="1051" arabic-form="final" 
d="M1084 0c-4.66699 -2.66699 -12.001 -4 -22.001 -4c-34.667 0 -68.667 6.66699 -102 20c-46 18.667 -76.667 46 -92 82c-19.333 46.667 -32.333 102 -39 166l-17 171c-5.33301 52.667 -11 79 -17 79c-4.66699 0 -13 -25.667 -25 -77
c-17.333 -72 -36.333 -131.667 -57 -179c-33.333 -78.667 -76.333 -142.334 -129 -191.001c-44 -40.667 -110.667 -72 -200 -94c-65.333 -16.667 -128 -25 -188 -25c-21.333 0 -33 1.66699 -35 5c-4 11.333 11 23 45 35l127 46
c69.333 24.667 133.666 81.334 192.999 170.001c62 92.667 93 190.667 93 294c0 74.667 -16.333 144.334 -49 209.001c-17.333 34 -61.333 90.333 -132 169c-75.333 82.667 -120.666 119.667 -135.999 111c-28 -16 -50.333 -24 -67 -24
c-23.333 0 -66.666 34.667 -129.999 104c-2 1.33301 -3 8.66602 -3 21.999c0 80 15 120 45 120l11 -2c106.667 -50.667 197.667 -113 273 -187c64 -62 131.333 -148.333 202 -259c10 -15.333 16 -30 18 -44l17 -127c2 -6 4 -9 6 -9c11.333 0 28 44 50 132
c11.333 43.333 17 91 17 143c0 5.33301 -0.333008 13.666 -1 24.999v24l1 161c0 28 1.33301 51.333 4 70c39.333 101.333 66.666 152 81.999 152c10.667 0 17 -34.667 19 -104l2 -150c4 -66 9.66699 -135.333 17 -208c15.333 -141.333 32 -249.666 50 -324.999
c16.667 -66.667 67.334 -100 152.001 -100h10l7 1v-402zM660.999 1417c3.33301 -3.33301 5.66602 -8.99707 6.99902 -16.9971c0 -18.667 -21.667 -43.667 -65 -75c-38.667 -28.667 -67 -44.334 -85 -47.001l-46 -4c-18 -1.33301 -52.333 2 -103 10
c-95.333 15.333 -153 23 -173 23c-7.33301 0 -29.833 -7.16699 -67.5 -21.5s-63.834 -21.5 -78.501 -21.5l-15 3c-4 1.33301 -6 5 -6 11c0 16.667 23.333 40.667 70 72c42.667 29.333 75 46.666 97 51.999l21 2c12.667 1.33301 55.334 -5 128.001 -19
c64 -12 109 -18 135 -18h21c28.667 9.33301 61.334 21.666 98.001 36.999c24 10.667 41 16 51 16z" />
    <glyph glyph-name="uFEF7" unicode="&#xfedf;&#xfe84;" horiz-adv-x="922" arabic-form="isolated" 
d="M879 1149c0 -14 -5.66895 -35.3359 -17.002 -64.0029c-12 -32 -23.333 -48.667 -34 -50c-18 2.66699 -28.333 -9.33301 -31 -36l-14 -142c-7.33301 -68 -32.666 -156 -75.999 -264l-2 -11l31 -93c9.33301 -28 14 -58.333 14 -91v-273
c0 -23.333 -0.666992 -36.666 -2 -39.999c0 -28.667 -7.66699 -48.334 -23 -59.001c-10.667 -6.66699 -33 -12.667 -67 -18c-51.333 -8.66699 -105 -13 -161 -13h-24l-34 1c-14 0.666992 -22.333 1.33398 -25 2.00098c-6 2.66699 -10.167 9.33398 -12.5 20.001
s-3.5 24.667 -3.5 42v196v80c0.666992 44.667 4.33398 67.334 11.001 68.001c4 0 11 -1.66699 21 -5l23 -5c40 0 97.667 51.667 173 155c1.33301 2 2 4.33301 2 7c0 40 -72 129 -216 267c-66.667 63.333 -121.334 110.333 -164.001 141l-12 -5c-12 -4 -23.333 -6 -34 -6
c-50 0 -106 27.333 -168 82c-4 2.66699 -6 19 -6 49c0 88 12.333 127.667 37 119c171.333 -62.667 336.666 -202.334 495.999 -419.001l99 -132l37 71c27.333 118.667 41 236.667 41 354c0 -1.33301 -2.33301 13.334 -7 44.001l-7 40l3 18c40.667 93.333 66 140 76 140
c8 0.666992 12 -22.333 12 -69c-1.33301 -18.667 8.33398 -38.667 29.001 -60c22.667 -24 34.334 -37.667 35.001 -41zM698.998 420.997c0 50 -13.667 77.333 -41 82c-4 0.666992 -19.667 -17 -47 -53l-26 -50c37.333 4.66699 75.333 11.667 114 21zM446.998 1314
c2 -2.66699 3.00195 -9 3.00195 -19c0 -16 -2.66699 -30 -8 -42c-4 -9.33301 -11.333 -14 -22 -14c-57.333 0 -104 -7.33301 -140 -22l-93 -40c-6 5.33301 -9 11 -9 17c0 4 5.5 13 16.5 27s16.5 25 16.5 33c0 10 -5.66699 20 -17 30c-14 12 -21 25.667 -21 41
c0 30.667 40 72.667 120 126l14 4c16 5.33301 30.333 8 43 8c10.667 0 20 -1.5 28 -4.5s15 -9.16699 21 -18.5c2 -4 3.66699 -9.66699 5 -17c0 -14 -7.33301 -28.333 -22 -43c-10.667 -8.66699 -19.334 -13 -26.001 -13c-2.66699 0 -5.33398 0.666992 -8.00098 2l-29 17
c-8.66699 5.33301 -15.667 8 -21 8c-10.667 0 -26.667 -10 -48 -30l24 -27c16.667 -12 29 -19.667 37 -23l17 -1l95 4c12 0.666992 20 -0.333008 24 -3z" />
    <glyph glyph-name="uFEF8" unicode="&#xfee0;&#xfe84;" horiz-adv-x="970" arabic-form="final" 
d="M1016 0c-4.66699 -2.66699 -11.668 -4.00098 -21.001 -4.00098c-34.667 0 -68.667 6.66699 -102 20c-46.667 18.667 -77.334 46 -92.001 82c-20 46.667 -33 102 -39 166l-18 171c-5.33301 52.667 -10.666 79 -15.999 79c-4.66699 0 -13 -25.667 -25 -77
c-17.333 -72 -36.333 -131.667 -57 -179c-33.333 -78.667 -76.333 -142.334 -129 -191.001c-44 -40.667 -110.667 -72 -200 -94c-65.333 -16.667 -128.333 -25 -189 -25c-21.333 0 -32.666 1.66699 -33.999 5c-4 11.333 10.667 23 44 35l128 46
c69.333 24.667 133.666 81.334 192.999 170.001c61.333 92.667 92 190.667 92 294c0 74.667 -16.333 144.334 -49 209.001c-16.667 34 -60.667 90.333 -132 169c-75.333 82.667 -120.333 119.667 -135 111c-28 -16 -50.667 -24 -68 -24c-22.667 0 -66 34.667 -130 104
c-1.33301 1.33301 -2 8.66602 -2 21.999c0 80 14.667 120 44 120l12 -2c106.667 -50.667 197.667 -113 273 -187c63.333 -62 130.666 -148.333 201.999 -259c9.33301 -15.333 15 -30 17 -44l18 -127c1.33301 -6 3.33301 -9 6 -9c10.667 0 27.334 44 50.001 132
c10.667 43.333 16 91 16 143v25c-0.666992 10.667 -1 18.667 -1 24l1 161c0.666992 28 2.33398 51.333 5.00098 70c39.333 101.333 66.666 152 81.999 152c10.667 0 17 -34.667 19 -104l2 -150c4 -66 9.66699 -135.333 17 -208c15.333 -141.333 32 -249.666 50 -324.999
c16.667 -66.667 67.334 -100 152.001 -100h9l7 1v-402zM477.999 1295c0 -16 -2.66699 -30 -8 -42c-4.66699 -9.33301 -12 -14 -22 -14c-58 0 -104.667 -7.33301 -140 -22l-94 -40c-5.33301 5.33301 -8 11 -8 17c0 4 5.33301 13 16 27s16 25 16 33c0 10 -5.66699 20 -17 30
c-14 12 -21 25.667 -21 41c0 30.667 40 72.667 120 126l14 4c16.667 5.33301 31.334 8 44.001 8c10 0 19.167 -1.5 27.5 -4.5s15.5 -9.16699 21.5 -18.5c2 -4 3.33301 -9.66699 4 -17c0 -14 -7.33301 -28.333 -22 -43c-10.667 -8.66699 -19.334 -13 -26.001 -13
c-2 0 -4.66699 0.666992 -8 2l-28 17c-9.33301 5.33301 -16.666 8 -21.999 8c-10.667 0 -26.334 -10 -47.001 -30l23 -27c17.333 -12 30 -19.667 38 -23l16 -1l95 4c12 0.666992 19.667 -0.333008 23 -3s5 -9 5 -19z" />
    <glyph glyph-name="uFEF9" unicode="&#xfedf;&#xfe88;" horiz-adv-x="922" arabic-form="isolated" 
d="M892 1149c0 -14 -5.66699 -35.3359 -17 -64.0029c-12 -32 -23.333 -48.667 -34 -50c-18 2.66699 -28.333 -9.33301 -31 -36l-15 -142c-6.66699 -68 -31.667 -156 -75 -264l-2 -11l31 -93c9.33301 -28 14 -58.333 14 -91v-273c0 -23.333 -0.666992 -36.666 -2 -39.999
c0 -28.667 -8 -48.334 -24 -59.001c-10 -6.66699 -32 -12.667 -66 -18c-51.333 -8.66699 -105 -13 -161 -13h-24l-35 1c-13.333 0.666992 -21.333 1.33398 -24 2.00098c-6 2.66699 -10.333 9.33398 -13 20.001s-4 24.667 -4 42l1 196v80
c0.666992 44.667 4.33398 67.334 11.001 68.001c4 0 11 -1.66699 21 -5l23 -5c39.333 0 97 51.667 173 155c1.33301 2 2 4.33301 2 7c0 40 -72 129 -216 267c-66.667 63.333 -121.334 110.333 -164.001 141l-13 -5c-11.333 -4 -22.333 -6 -33 -6
c-50 0 -106.333 27.333 -169 82c-3.33301 2.66699 -5 19 -5 49c0 88 12 127.667 36 119c171.333 -62.667 337 -202.334 497 -419.001l98 -132l38 71c27.333 118.667 41 236.667 41 354c0 -1.33301 -2.66699 13.334 -8 44.001l-6 40l3 18c40.667 93.333 65.667 140 75 140
c8.66699 0.666992 13 -22.333 13 -69c-1.33301 -18.667 8 -38.667 28 -60c23.333 -24 35.333 -37.667 36 -41zM712 420.997c0 50 -13.667 77.333 -41 82c-4.66699 0.666992 -20.667 -17 -48 -53l-25 -50c37.333 4.66699 75.333 11.667 114 21zM496 -261.003
c0 -16 -2.66699 -30.001 -8 -42.001c-4.66699 -9.33301 -12 -14 -22 -14c-58 0 -104.667 -7.33301 -140 -22l-94 -40c-5.33301 5.33301 -8 11 -8 17c0 4 5.5 13 16.5 27s16.5 25 16.5 33c0 10 -6 20 -18 30c-14 12 -21 25.667 -21 41c0 30.667 40.333 72.334 121 125.001
l13 5c16.667 5.33301 31.334 8 44.001 8c10 0 19.167 -1.5 27.5 -4.5s15.5 -9.16699 21.5 -18.5c2 -4 3.66699 -9.66699 5 -17c0 -14 -7.33301 -28.333 -22 -43c-11.333 -8.66699 -20.333 -13 -27 -13c-2 0 -4.66699 0.666992 -8 2l-28 17c-8.66699 5.33301 -16 8 -22 8
c-10 0 -25.667 -10 -47 -30l23 -27c17.333 -12 30 -19.667 38 -23l16 -1l96 4c11.333 0 18.666 -1.16699 21.999 -3.5s5 -8.5 5 -18.5z" />
    <glyph glyph-name="uFEFA" unicode="&#xfee0;&#xfe88;" horiz-adv-x="943" arabic-form="final" 
d="M989 0c-4.66699 -2.66699 -12 -4.00098 -22 -4.00098c-34.667 0 -68.667 6.66699 -102 20c-46 18.667 -76.667 46 -92 82c-19.333 46.667 -32.333 102 -39 166l-17 171c-5.33301 52.667 -10.666 79 -15.999 79c-4.66699 0 -13.334 -25.667 -26.001 -77
c-17.333 -72 -36 -131.667 -56 -179c-34 -78.667 -77 -142.334 -129 -191.001c-44 -40.667 -111 -72 -201 -94c-65.333 -16.667 -128 -25 -188 -25c-21.333 0 -33 1.66699 -35 5c-3.33301 11.333 11.667 23 45 35l127 46c69.333 24.667 133.666 81.334 192.999 170.001
c62 92.667 93 190.667 93 294c0 74.667 -16.333 144.334 -49 209.001c-17.333 34 -61.333 90.333 -132 169c-75.333 82.667 -120.666 119.667 -135.999 111c-28 -16 -50.333 -24 -67 -24c-22.667 0 -66 34.667 -130 104c-2 1.33301 -3 8.66602 -3 21.999c0 80 15 120 45 120
l12 -2c106 -50.667 197 -113 273 -187c63.333 -62 130.666 -148.333 201.999 -259c9.33301 -15.333 15 -30 17 -44l17 -127c2 -6 4.33301 -9 7 -9c10.667 0 27.334 44 50.001 132c10.667 43.333 16 91 16 143v25c-0.666992 10.667 -1 18.667 -1 24l1 161
c0 28 1.66699 51.333 5 70c39.333 101.333 66.666 152 81.999 152c10 0 16 -34.667 18 -104l2 -150c4 -66 10 -135.333 18 -208c14.667 -141.333 31.334 -249.666 50.001 -324.999c16 -66.667 66.667 -100 152 -100h9l7 1v-402zM496 -261.001
c0 -16 -2.66699 -30.001 -8 -42.001c-4.66699 -9.33301 -12 -14 -22 -14c-58 0 -104.667 -7.33301 -140 -22l-94 -40c-5.33301 5.33301 -8 11 -8 17c0 4 5.5 13 16.5 27s16.5 25 16.5 33c0 10 -6 20 -18 30c-14 12 -21 25.667 -21 41c0 30.667 40.333 72.334 121 125.001
l13 5c16.667 5.33301 31.334 8 44.001 8c10 0 19.167 -1.5 27.5 -4.5s15.5 -9.16699 21.5 -18.5c2 -4 3.66699 -9.66699 5 -17c0 -14 -7.33301 -28.333 -22 -43c-11.333 -8.66699 -20.333 -13 -27 -13c-2 0 -4.66699 0.666992 -8 2l-28 17c-8.66699 5.33301 -16 8 -22 8
c-10 0 -25.667 -10 -47 -30l23 -27c17.333 -12 30 -19.667 38 -23l16 -1l96 4c11.333 0 18.666 -1.16699 21.999 -3.5s5 -8.5 5 -18.5z" />
    <glyph glyph-name="uFEFB" unicode="&#xfedf;&#xfe8e;" horiz-adv-x="949" arabic-form="isolated" 
d="M919 1149c0 -14 -5.66797 -35.3359 -17.001 -64.0029c-12 -32 -23.333 -48.667 -34 -50c-18 2.66699 -28.333 -9.33301 -31 -36l-14 -142c-7.33301 -68 -32.666 -156 -75.999 -264l-2 -11l31 -93c9.33301 -28 14 -58.333 14 -91v-273
c0 -23.333 -0.666992 -36.666 -2 -39.999c0 -28.667 -7.66699 -48.334 -23 -59.001c-10.667 -6.66699 -33 -12.667 -67 -18c-50.667 -8.66699 -104.334 -13 -161.001 -13h-24l-34 1c-14 0.666992 -22.333 1.33398 -25 2.00098c-6 2.66699 -10.167 9.33398 -12.5 20.001
s-3.5 24.667 -3.5 42v196v80c0.666992 44.667 4.66699 67.334 12 68.001c3.33301 0 10 -1.66699 20 -5l23 -5c40 0 97.667 51.667 173 155c1.33301 2 2 4.33301 2 7c0 40 -72 129 -216 267c-66.667 63.333 -121.334 110.333 -164.001 141l-12 -5c-12 -4 -23.333 -6 -34 -6
c-50 0 -106 27.333 -168 82c-4 2.66699 -6 19 -6 49c0 88 12.333 127.667 37 119c171.333 -62.667 337 -202.334 497 -419.001l98 -132l37 71c27.333 118.667 41 236.667 41 354c0 -1.33301 -2.33301 13.334 -7 44.001l-7 40l3 18c40.667 93.333 66 140 76 140
c8 0.666992 12 -22.333 12 -69c-1.33301 -18.667 8.33398 -38.667 29.001 -60c22.667 -24 34.334 -37.667 35.001 -41zM738.999 420.997c0 50 -13.667 77.333 -41 82c-4 0.666992 -19.667 -17 -47 -53l-26 -50c37.333 4.66699 75.333 11.667 114 21z" />
    <glyph glyph-name="uFEFC" unicode="&#xfee0;&#xfe8e;" horiz-adv-x="984" arabic-form="final" 
d="M1016 0c-4.66699 -2.66699 -11.668 -4.00098 -21.001 -4.00098c-34.667 0 -68.667 6.66699 -102 20c-46.667 18.667 -77.334 46 -92.001 82c-20 46.667 -33 102 -39 166l-18 171c-5.33301 52.667 -10.666 79 -15.999 79c-4.66699 0 -13 -25.667 -25 -77
c-17.333 -72 -36.333 -131.667 -57 -179c-33.333 -78.667 -76.333 -142.334 -129 -191.001c-44 -40.667 -110.667 -72 -200 -94c-65.333 -16.667 -128.333 -25 -189 -25c-21.333 0 -32.666 1.66699 -33.999 5c-4 11.333 10.667 23 44 35l128 46
c69.333 24.667 133.666 81.334 192.999 170.001c61.333 92.667 92 190.667 92 294c0 74.667 -16.333 144.334 -49 209.001c-16.667 34 -60.667 90.333 -132 169c-75.333 82.667 -120.333 119.667 -135 111c-28 -16 -50.667 -24 -68 -24c-22.667 0 -66 34.667 -130 104
c-1.33301 1.33301 -2 8.66602 -2 21.999c0 80 14.667 120 44 120l12 -2c106.667 -50.667 197.667 -113 273 -187c63.333 -62 130.666 -148.333 201.999 -259c9.33301 -15.333 15 -30 17 -44l18 -127c1.33301 -6 3.33301 -9 6 -9c10.667 0 27.334 44 50.001 132
c10.667 43.333 16 91 16 143v25c-0.666992 10.667 -1 18.667 -1 24l1 161c0.666992 28 2.33398 51.333 5.00098 70c39.333 101.333 66.666 152 81.999 152c10.667 0 17 -34.667 19 -104l2 -150c4 -66 9.66699 -135.333 17 -208c15.333 -141.333 32 -249.666 50 -324.999
c16.667 -66.667 67.334 -100 152.001 -100h9l7 1v-402z" />
    <glyph glyph-name="u0652_u064E.liga" unicode="&#x652;&#x64e;" horiz-adv-x="1" 
d="M94 1060c-10 0 -14.999 4.66797 -14.999 14.001c0 6.66699 -0.833008 16.5 -2.5 29.5s-2.5 22.833 -2.5 29.5c0 28 -2.33301 62 -7 102c-1.33301 19.333 -3.66602 48 -6.99902 86c-1.33301 13.333 -2 22.666 -2 27.999c0 7.33301 5.5 16.5 16.5 27.5
s20.167 16.5 27.5 16.5c10 0 15 -4.83301 15 -14.5s0.5 -23.5 1.5 -41.5s1.5 -31.333 1.5 -40s0.666992 -23 2 -43l4 -61c0 -11.333 0.666992 -25.333 2 -42c3.33301 -37.333 2.66602 -60 -2.00098 -68c-8.66699 -15.333 -19.334 -23 -32.001 -23z" />
    <glyph glyph-name="u0652_u064B.liga" unicode="&#x652;&#x64b;" horiz-adv-x="1" 
d="M389 936l-80 -86l-103 83l85 92zM206 933l-79 -87l-104 81l82 96z" />
    <glyph glyph-name="u0652_u064D.liga" unicode="&#x652;&#x64d;" horiz-adv-x="1" 
d="M1377 -722l-80 -86l-103 83l85 92zM1194 -725l-79 -87l-104 81l82 96z" />
    <glyph glyph-name="u0622" unicode="&#x622;" horiz-adv-x="434" arabic-form="isolated" 
d="M599 1348c3.33301 -3.33301 5.66699 -8.99707 7 -16.9971c0 -18.667 -21.667 -43.667 -65 -75c-38.667 -28.667 -67 -44.667 -85 -48l-46 -3c-18 -1.33301 -52.333 2 -103 10c-95.333 15.333 -153 23 -173 23c-7.33301 0 -29.833 -7.16699 -67.5 -21.5
s-63.834 -21.5 -78.501 -21.5l-14 3c-3.33301 1.33301 -5.66602 4.66602 -6.99902 9.99902c0 16.667 23.333 41 70 73c42.667 29.333 75 46.666 97 51.999l22 2c12 1.33301 54.333 -5 127 -19c64 -12 109.333 -18 136 -18h21c28 9.33301 60.333 21.666 97 36.999
c24.667 10 41.667 15 51 15zM301.001 153.003c2 -39.333 -4.00098 -76.333 -18.001 -111c-12 -30 -23.333 -45 -34 -45c-4.66699 0 -9.66699 44.667 -15 134c-1.33301 56 -4.66602 140 -9.99902 252l-11 182c-3.33301 60.667 -5 105.667 -5 135
c0 34.667 -1.66699 86.5 -5 155.5s-5 120.833 -5 155.5c0 14.667 8.33301 41.334 25 80.001c17.333 41.333 31 62 41 62c4.66699 0 7 -7.33301 7 -22c0 -38.667 1.16699 -96.667 3.5 -174s3.5 -135 3.5 -173c0 -14.667 1.33301 -49.334 4 -104.001l7 -166
c0.666992 -40.667 2 -95.667 4 -165z" />
    <glyph glyph-name="u0623" unicode="&#x623;" horiz-adv-x="328" arabic-form="isolated" 
d="M370 1178c3.33301 -4.66699 4.99902 -11.666 4.99902 -20.999c0 -26.667 -8.66699 -40 -26 -40c-55.333 0 -98.666 -7 -129.999 -21l-77 -37c-6 6 -9 12 -9 18c0 3.33301 5.66699 12.666 17 27.999c4.66699 6 7.66699 12.333 9 19c0 6 -1 10.333 -3 13l-14 17
c-14 12.667 -21 27 -21 43c0 35.333 39.333 78.333 118 129l17 6c4.66699 2 12 3.66699 22 5c33.333 0 50 -15.667 50 -47c0 -28.667 -11.333 -43 -34 -43c-2 0 -4.33301 0.666992 -7 2l-23 12c-10 6 -21 9.33301 -33 10c-14 0 -29 -11.667 -45 -35l-3 -8
c0 -8 6.5 -18.667 19.5 -32s23.5 -21.333 31.5 -24s18.667 -4 32 -4c8 0 26 2 54 6l42 5c4 0 6.66699 -0.333008 8 -1zM316.999 133.001c2 -38 -4 -73.998 -18 -107.998c-11.333 -30 -22.333 -45 -33 -45c-6 0 -9 6.66699 -9 20c0 -12 -3.66699 60.333 -11 217
c-1.33301 49.333 -4.33301 127 -9 233c-6 83.333 -10 131.666 -12 144.999c0 34.667 -2 86.5 -6 155.5s-6 120.5 -6 154.5c0 15.333 8.5 42.833 25.5 82.5s30.833 59.5 41.5 59.5c5.33301 0 8 -7.33301 8 -22c0 -34 1.16699 -85 3.5 -153s3.5 -119 3.5 -153
c0 -56.667 3 -161.334 9 -314.001l4 -109z" />
    <glyph glyph-name="u0624" unicode="&#x624;" horiz-adv-x="572" arabic-form="isolated" 
d="M563 43c-10.667 -80.667 -52.6641 -163.668 -125.997 -249.001c-82.667 -95.333 -166 -145.333 -250 -150c-35.333 -2 -86.333 12 -153 42c-62.667 27.333 -94 47.666 -94 60.999c0 4.66699 5 6.66699 15 6l13 -1l35 -2c61.333 -5.33301 95 -8 101 -8h10
c49.333 0 88.333 6 117 18c24 9.33301 58.667 31 104 65c71.333 54.667 123.666 113 156.999 175l3 8c0 6 -7.33301 8.66699 -22 8l-37 -1l-29 -1c-54.667 -2 -94.334 12.333 -119.001 43c-5.33301 6.66699 -12 31.334 -20 74.001c-10 51.333 -15 98.333 -15 141
c0 66.667 13 130.334 39 191.001c10 23.333 25.667 47 47 71c37.333 41.333 64.666 62 81.999 62c3.33301 0 6.33301 -1 9 -3c90.667 -61.333 135.667 -143 135 -245zM411.003 392.999c39.333 0 59 9 59 27c0.666992 14 -9.5 29.5 -30.5 46.5s-38.167 24.5 -51.5 22.5
c-12.667 -2 -26 -10.5 -40 -25.5s-20 -28.5 -18 -40.5c4 -20 31 -30 81 -30zM467.003 762.999c0 -36.667 -10 -55.002 -30 -55.002c-58.667 0 -105.334 -7.66699 -140.001 -23l-96 -42c-5.33301 6 -8 12 -8 18c0 4.66699 7.66699 17 23 37c6 8.66699 9.66699 17 11 25
c0 9.33301 -5 18.666 -15 27.999c-14.667 12.667 -22 26.334 -22 41.001c0 27.333 24 58.333 72 93c13.333 10 29.666 21.333 48.999 34l28 8l27 4c22.667 0 39.334 -8.33301 50.001 -25l4 -14c0 -11.333 -5.5 -23.5 -16.5 -36.5s-21.833 -19.5 -32.5 -19.5
c-2.66699 0 -5 0.333008 -7 1l-28 17c-9.33301 5.33301 -17 8 -23 8c-10.667 0 -26.667 -9.66699 -48 -29c-4 -4.66699 3.5 -13.667 22.5 -27s32.833 -20.666 41.5 -21.999l6 -2l20 -1l71 1c6 1.33301 10.667 2 14 2c12.667 0 20.334 -1.16699 23.001 -3.5
s4 -8.16602 4 -17.499z" />
    <glyph glyph-name="u0625" unicode="&#x625;" horiz-adv-x="375" arabic-form="isolated" 
d="M331 144c0.666992 -22 -4 -53.332 -14 -93.999c-12 -49.333 -25.667 -74 -41 -74c-5.33301 0 -8 8 -8 24c0 163.333 -4 284.333 -12 363c-2 18 -4.66699 65.333 -8 142l-8 223c-2.66699 63.333 -5.66699 111.666 -9 144.999c-8 77.333 -12 169.333 -12 276
c0 18 10 49.333 30 94c20.667 48 37.667 72 51 72c6.66699 0 10 -9.33301 10 -28c0 -43.333 1 -108 3 -194s3 -150.333 3 -193c0 -34 0.666992 -84.667 2 -152l5 -231c0.666992 -48.667 1.66699 -107.667 3 -177zM421 -281.999
c4.66699 -2.66699 6.99805 -10.332 6.99805 -22.999c0 -24.667 -9.33301 -37 -28 -37c-54.667 0 -97.667 -7.33301 -129 -22l-78 -36l-6 9l-2 9c0 3.33301 4.5 10.666 13.5 21.999s13.5 20 13.5 26c0 9.33301 -6.66699 19.833 -20 31.5s-20 25.167 -20 40.5
c0 33.333 40 77 120 131l13 5c10.667 2.66699 18.667 4.33398 24 5.00098c18.667 0 33.667 -9 45 -27c3.33301 -5.33301 5 -12 5 -20c0 -25.333 -10 -38 -30 -38c-3.33301 0 -5.66602 0.666992 -6.99902 2l-30 16c-5.33301 1.33301 -13.333 2.66602 -24 3.99902
c-19.333 0 -36.333 -13.333 -51 -40l-4 -11c0 -10 7.66699 -22 23 -36c10.667 -10 19.334 -16.333 26.001 -19l16 -2l13 -1c12 -0.666992 36.333 2 73 8c22 4 34.333 5 37 3z" />
    <glyph glyph-name="u0626" unicode="&#x626;" horiz-adv-x="1036" arabic-form="isolated" 
d="M512 835c0 -36 -10.0049 -53.999 -30.0049 -53.999c-58.667 0 -105.334 -7.66699 -140.001 -23l-95 -42c-6 5.33301 -9 11 -9 17c0 4.66699 7.66699 17.334 23 38.001c6.66699 8.66699 10.667 17 12 25c0 9.33301 -5 18.666 -15 27.999c-14.667 12.667 -22 26 -22 40
c0 27.333 23.667 58.666 71 93.999c14 10 30.667 21.333 50 34l27 8l27 4c22.667 0 39.334 -8.33301 50.001 -25l4 -14c0 -11.333 -5.33301 -23.5 -16 -36.5s-21.667 -19.5 -33 -19.5c-2.66699 0 -5 0.333008 -7 1l-28 16c-9.33301 6 -16.666 9 -21.999 9
c-11.333 0 -27.666 -10 -48.999 -30c-3.33301 -4 4.33398 -12.667 23.001 -26s32.334 -21 41.001 -23l6 -2h20h71c6 1.33301 10.667 2 14 2c12.667 0 20.334 -1 23.001 -3s4 -8 4 -18zM1029 803.001l5.99609 -16l1 -16c0 -22 -10.333 -48 -31 -78c-4 -5.33301 -9 -8 -15 -8
c-3.33301 0 -21.666 9.33301 -54.999 28c-19.333 10.667 -33.666 15.667 -42.999 15l-11 -1c-25.333 -5.33301 -71.333 -32 -138 -80c-72.667 -52.667 -109 -92.334 -109 -119.001l2 -9c20 -46 65.333 -74.667 136 -86l171 -27c14 -4.66699 24.667 -18.667 32 -42
c26.667 -88.667 40 -147.667 40 -177c0 -90.667 -37.667 -181 -113 -271c-47.333 -56 -112 -96.333 -194 -121c-53.333 -17.333 -134.333 -39 -243 -65c-40 -6 -75 -9 -105 -9c-102.667 0 -185 27 -247 81c-28.667 24.667 -51 61.667 -67 111
c-8.66699 26.667 -19.667 75.334 -33 146.001c-5.33301 28 -8 57.667 -8 89c0 83.333 23.667 189.333 71 318c24 66.667 47.667 100 71 100c6 0 11 -5 15 -15l-42 -103l-44 -122c-14.667 -62.667 -22 -115.667 -22 -159c0 -81.333 26.667 -151.333 80 -210
c38.667 -42 86.667 -73 144 -93c20 -6.66699 43 -11.667 69 -15c17.333 -2 35.666 -3 54.999 -3c76.667 0 160.334 15.333 251.001 46c76.667 25.333 145.334 55 206.001 89c17.333 11.333 40.333 30.666 69 57.999c33.333 44.667 50 94.334 50 149.001
c0 67.333 -25.333 110 -76 128c-12 4 -19.667 6 -23 6l-55 -4l-51 -2c-26 -1.33301 -53.667 2 -83 10c-31.333 8.66699 -60.666 24 -87.999 46c-19.333 15.333 -29 39 -29 71c0 75.333 38.667 157.333 116 246c74 84.667 148.667 139 224 163l28 3
c40.667 0 70 -17.333 88 -52z" />
    <glyph glyph-name="u0627" unicode="&#x627;" horiz-adv-x="329" arabic-form="isolated" 
d="M326 156c1.33301 -39.333 -4.99902 -76.001 -18.999 -110.001c-12.667 -30 -24 -45 -34 -45c-6 0 -9 6.66699 -9 20c0 27.333 -1.66699 68.833 -5 124.5s-5 97.167 -5 124.5c0 120 -4 266 -12 438c-2 34 -4.33301 80.333 -7 139
c-0.666992 40 -3.33398 116.333 -8.00098 229c-2 54.667 -3 92.667 -3 114c0 14.667 8.33301 41.834 25 81.501s30 59.5 40 59.5c6 0 9 -7.66699 9 -23c0 -38 1 -94.667 3 -170s3 -131.5 3 -168.5s1.33301 -99.167 4 -186.5l7 -261c0.666992 -48 1.66699 -107.333 3 -178z
" />
    <glyph glyph-name="u0628" unicode="&#x628;" horiz-adv-x="1204" arabic-form="isolated" 
d="M1010 71l-59.9971 -23.0029c-57.333 -21.333 -141.333 -44.333 -252 -69l-112 -25c-42 -9.33301 -77.333 -14 -106 -14c-23.333 0 -47 2 -71 6c-112.667 20.667 -204.667 65.334 -276 134.001c-76 72.667 -119.333 164.334 -130 275.001c-1.33301 12 -2 23.333 -2 34
c0 86 15.333 154.333 46 205c27.333 45.333 51 68 71 68l9 -3c2 -2 -7 -30.667 -27 -86c-11.333 -31.333 -17 -56.666 -17 -75.999c0 -20 5.33301 -35.667 16 -47c44.667 -48 126 -78 244 -90c36 -3.33301 75 -5 117 -5c119.333 0 238.666 12.333 357.999 37
c122.667 26 205 53 247 81c5.33301 4 8 9.33301 8 16c0 10.667 -14.833 31.167 -44.5 61.5s-44.5 48.166 -44.5 53.499c0 33.333 8.66699 66.333 26 99c10 18.667 18.333 25.334 25 20.001c47.333 -39.333 78.166 -79.5 92.499 -120.5s28.166 -100.167 41.499 -177.5
c6 -33.333 9 -64.333 9 -93c0 -46 -7 -86 -21 -120c-28 -68 -77 -115 -147 -141zM698.003 -288.003l-82 -86l-102 82l79 95z" />
    <glyph glyph-name="u0629" unicode="&#x629;" horiz-adv-x="463" arabic-form="isolated" 
d="M388 65c-32.667 -56 -89.334 -83.999 -170.001 -83.999c-80 0 -124.667 24.333 -134 73c-0.666992 4 -1 8 -1 12l1 20c0 29.333 -0.666992 58.666 -2 87.999l-8 128c0 68 12.667 130 38 186c16.667 37.333 31 64.333 43 81c-1.33301 4 -3 6.66699 -5 8
c-4 3.33301 -6 6.66602 -6 9.99902c32 78 53.667 113.667 65 107c48.667 -28.667 81.334 -48.667 98.001 -60c38 -28 64 -55.667 78 -83c6 -12.667 17.667 -48.667 35 -108c14 -48 21 -101.333 21 -160c0 -40 -2.66699 -75.333 -8 -106
c-6.66699 -35.333 -21.667 -72.666 -45 -111.999zM356 432.001c0 12 -22 33.668 -66 65.001s-74 47 -90 47c-12 0 -24.333 -14.667 -37 -44c-12.667 -26.667 -19 -51.334 -19 -74.001l3 -15c15.333 -27.333 42.333 -41 81 -41c22 0 47.333 5.33301 76 16
c36.667 12.667 54 28 52 46zM356 897.002c2.66699 -2 3.99902 -8.33203 3.99902 -18.999c0 -37.333 -10.667 -56 -32 -56c-56.667 0 -103.334 -7.66699 -140.001 -23l-94 -39c-5.33301 5.33301 -8 11 -8 17s5.66699 15.667 17 29s17 23.666 17 30.999s-4 16 -12 26
c-12 13.333 -18.667 21 -20 23c-3.33301 6.66699 -5 13.667 -5 21c0 15.333 7 31.333 21 48c16.667 20 50 46 100 78c8 8.66699 26 13 54 13c10.667 0 20 -1.66699 28 -5s15 -9.66602 21 -18.999c2 -4 3.66699 -9.33301 5 -16c0 -11.333 -6.33301 -24.5 -19 -39.5
s-24.667 -20.167 -36 -15.5l-29 19c-5.33301 3.33301 -12.666 5.66602 -21.999 6.99902c-10.667 0 -26.667 -10 -48 -30l26 -27l37 -23l19 -2l56 2l40 3c8.66699 0.666992 15.334 -0.333008 20.001 -3z" />
    <glyph glyph-name="u062A" unicode="&#x62a;" horiz-adv-x="1198" arabic-form="isolated" 
d="M703 850l-80 -87l-102 82l83 92zM521 845l-80 -85l-102 82l79 93zM1010 71l-59.9971 -23.0029c-57.333 -21.333 -141.333 -44.333 -252 -69l-112 -25c-42 -9.33301 -77.333 -14 -106 -14c-23.333 0 -47 2 -71 6c-112.667 20.667 -204.667 65.334 -276 134.001
c-76 72.667 -119.333 164.334 -130 275.001c-1.33301 12 -2 23.333 -2 34c0 86 15.333 154.333 46 205c27.333 45.333 51 68 71 68l9 -3c2 -2 -7 -30.667 -27 -86c-11.333 -31.333 -17 -56.666 -17 -75.999c0 -20 5.33301 -35.667 16 -47c44.667 -48 126 -78 244 -90
c36 -3.33301 75 -5 117 -5c119.333 0 238.666 12.333 357.999 37c122.667 26 205 53 247 81c5.33301 4 8 9.33301 8 16c0 10.667 -14.833 31.167 -44.5 61.5s-44.5 48.166 -44.5 53.499c0 33.333 8.66699 66.333 26 99c10 18.667 18.333 25.334 25 20.001
c47.333 -39.333 78.166 -79.5 92.499 -120.5s28.166 -100.167 41.499 -177.5c6 -33.333 9 -64.333 9 -93c0 -46 -7 -86 -21 -120c-28 -68 -77 -115 -147 -141z" />
    <glyph glyph-name="u062B" unicode="&#x62b;" horiz-adv-x="1210" arabic-form="isolated" 
d="M622 981l-80 -86l-102 80l79 97zM708 814l-79 -87l-103 82l78 87zM526 809l-80 -86l-104 80l79 97zM1010 71l-59.9971 -23.0029c-57.333 -21.333 -141.333 -44.333 -252 -69l-112 -25c-42 -9.33301 -77.333 -14 -106 -14c-23.333 0 -47 2 -71 6
c-112.667 20.667 -204.667 65.334 -276 134.001c-76 72.667 -119.333 164.334 -130 275.001c-1.33301 12 -2 23.333 -2 34c0 86 15.333 154.333 46 205c27.333 45.333 51 68 71 68l9 -3c2 -2 -7 -30.667 -27 -86c-11.333 -31.333 -17 -56.666 -17 -75.999
c0 -20 5.33301 -35.667 16 -47c44.667 -48 126 -78 244 -90c36 -3.33301 75 -5 117 -5c119.333 0 238.666 12.333 357.999 37c122.667 26 205 53 247 81c5.33301 4 8 9.33301 8 16c0 10.667 -14.833 31.167 -44.5 61.5s-44.5 48.166 -44.5 53.499
c0 33.333 8.66699 66.333 26 99c10 18.667 18.333 25.334 25 20.001c47.333 -39.333 78.166 -79.5 92.499 -120.5s28.166 -100.167 41.499 -177.5c6 -33.333 9 -64.333 9 -93c0 -46 -7 -86 -21 -120c-28 -68 -77 -115 -147 -141z" />
    <glyph glyph-name="u062C" unicode="&#x62c;" horiz-adv-x="936" arabic-form="isolated" 
d="M1049 -583c6 0 9.33105 -1.66895 9.99805 -5.00195c0 -9.33301 -29.667 -22.333 -89 -39l-167 -47l-98 -24l-54 -5l-71 -1c-78.667 -2 -156 5.66699 -232 23c-152.667 36 -254.667 111 -306 225c-19.333 42.667 -29 89.334 -29 140.001c0 155.333 10 275.666 30 360.999
c16 68.667 39.667 139 71 211c14.667 34 38.334 72 71.001 114c36 46 67.667 77.333 95 94c34.667 20.667 52 34.334 52 41.001c0 8 -18 11.333 -54 10l-30 -1h-30c-17.333 0 -38 -5 -62 -15c-32.667 -14 -58 -33.333 -76 -58c-5.33301 -10 -10.333 -15 -15 -15
c-4 0 -6 4.33301 -6 13c0 23.333 11 52.333 33 87c27.333 44 64.666 77.333 111.999 100c24.667 12 60 18 106 18c32 -3.33301 95.333 -7.33301 190 -12l138 -6c11.333 -0.666992 26 -0.666992 44 0c22.667 1.33301 37.667 2 45 2l85 11c17.333 2 27.333 -6.33301 30 -25
c0 -17.333 -8 -37.166 -24 -59.499s-32.333 -33.5 -49 -33.5c-4.66699 0 -26 -5.33301 -64 -16c-54 -14.667 -96 -28.334 -126 -41.001c-38 -15.333 -77.333 -36 -118 -62c-248 -156.667 -372 -342.667 -372 -558c0 -22 1 -42.333 3 -61c6 -60.667 10.333 -97.667 13 -111
c16 -75.333 58.333 -133 127 -173c24.667 -14.667 60.667 -29 108 -43c31.333 -9.33301 61 -16.666 89 -21.999c37.333 -7.33301 76.333 -11 117 -11c24.667 0 63.334 -1.33301 116.001 -4c50.667 -2.66699 89.334 -3.66699 116.001 -3l120 1c10 0 27.333 0.333008 52 1
c22 0.666992 39 1 51 1h28zM543.998 -213.002l-83 -86l-101 82l80 97z" />
    <glyph glyph-name="u062D" unicode="&#x62d;" horiz-adv-x="936" arabic-form="isolated" 
d="M1049 -583c6 0 9.33105 -1.66895 9.99805 -5.00195c0 -9.33301 -29.667 -22.333 -89 -39l-167 -47l-98 -24l-54 -5l-71 -1c-78.667 -2 -156 5.66699 -232 23c-152.667 36 -254.667 111 -306 225c-19.333 42.667 -29 89.334 -29 140.001c0 155.333 10 275.666 30 360.999
c16 68.667 39.667 139 71 211c14.667 34 38.334 72 71.001 114c36 46 67.667 77.333 95 94c34.667 20.667 52 34.334 52 41.001c0 8 -18 11.333 -54 10l-30 -1h-30c-17.333 0 -38 -5 -62 -15c-32.667 -14 -58 -33.333 -76 -58c-5.33301 -10 -10.333 -15 -15 -15
c-4 0 -6 4.33301 -6 13c0 23.333 11 52.333 33 87c27.333 44 64.666 77.333 111.999 100c24.667 12 60 18 106 18c32 -3.33301 95.333 -7.33301 190 -12l138 -6c11.333 -0.666992 26 -0.666992 44 0c22.667 1.33301 37.667 2 45 2l85 11c17.333 2 27.333 -6.33301 30 -25
c0 -17.333 -8 -37.166 -24 -59.499s-32.333 -33.5 -49 -33.5c-4.66699 0 -26 -5.33301 -64 -16c-54 -14.667 -96 -28.334 -126 -41.001c-38 -15.333 -77.333 -36 -118 -62c-248 -156.667 -372 -342.667 -372 -558c0 -22 1 -42.333 3 -61c6 -60.667 10.333 -97.667 13 -111
c16 -75.333 58.333 -133 127 -173c24.667 -14.667 60.667 -29 108 -43c31.333 -9.33301 61 -16.666 89 -21.999c37.333 -7.33301 76.333 -11 117 -11c24.667 0 63.334 -1.33301 116.001 -4c50.667 -2.66699 89.334 -3.66699 116.001 -3l120 1c10 0 27.333 0.333008 52 1
c22 0.666992 39 1 51 1h28z" />
    <glyph glyph-name="u062E" unicode="&#x62e;" horiz-adv-x="936" arabic-form="isolated" 
d="M1049 -583c6 0 9.33105 -1.66895 9.99805 -5.00195c0 -9.33301 -29.667 -22.333 -89 -39l-167 -47l-98 -24l-54 -5l-71 -1c-78.667 -2 -156 5.66699 -232 23c-152.667 36 -254.667 111 -306 225c-19.333 42.667 -29 89.334 -29 140.001c0 155.333 10 275.666 30 360.999
c16 68.667 39.667 139 71 211c14.667 34 38.334 72 71.001 114c36 46 67.667 77.333 95 94c34.667 20.667 52 34.334 52 41.001c0 8 -18 11.333 -54 10l-30 -1h-30c-17.333 0 -38 -5 -62 -15c-32.667 -14 -58 -33.333 -76 -58c-5.33301 -10 -10.333 -15 -15 -15
c-4 0 -6 4.33301 -6 13c0 23.333 11 52.333 33 87c27.333 44 64.666 77.333 111.999 100c24.667 12 60 18 106 18c32 -3.33301 95.333 -7.33301 190 -12l138 -6c11.333 -0.666992 26 -0.666992 44 0c22.667 1.33301 37.667 2 45 2l85 11c17.333 2 27.333 -6.33301 30 -25
c0 -17.333 -8 -37.166 -24 -59.499s-32.333 -33.5 -49 -33.5c-4.66699 0 -26 -5.33301 -64 -16c-54 -14.667 -96 -28.334 -126 -41.001c-38 -15.333 -77.333 -36 -118 -62c-248 -156.667 -372 -342.667 -372 -558c0 -22 1 -42.333 3 -61c6 -60.667 10.333 -97.667 13 -111
c16 -75.333 58.333 -133 127 -173c24.667 -14.667 60.667 -29 108 -43c31.333 -9.33301 61 -16.666 89 -21.999c37.333 -7.33301 76.333 -11 117 -11c24.667 0 63.334 -1.33301 116.001 -4c50.667 -2.66699 89.334 -3.66699 116.001 -3l120 1c10 0 27.333 0.333008 52 1
c22 0.666992 39 1 51 1h28zM543.998 917.998l-83 -86l-101 82l80 97z" />
    <glyph glyph-name="u062F" unicode="&#x62f;" horiz-adv-x="669" arabic-form="isolated" 
d="M600 96c-15.333 -29.333 -59.666 -53.332 -132.999 -71.999c-64 -16.667 -128.667 -25 -194 -25h-10c-49.333 0 -77.333 6.83301 -84 20.5s-10 29.5 -10 47.5c0 208.667 3.5 323.667 10.5 345s12.833 31.666 17.5 30.999c20 -27.333 47.333 -41 82 -41
c74.667 0 143.667 8 207 24l77 33c3.33301 0 5.66602 3.66699 6.99902 11c0 39.333 -29.667 87.666 -89 144.999c-20 19.333 -43 37.333 -69 54l-65 41l-2 21c-0.666992 8 0.666016 19.667 3.99902 35l16 65l72 -26c51.333 -30.667 94.333 -68 129 -112
c46.667 -59.333 70 -120.666 70 -183.999c0 -48.667 -2.66699 -116.667 -8 -204c-7.33301 -117.333 -16.666 -187 -27.999 -209z" />
    <glyph glyph-name="u0630" unicode="&#x630;" horiz-adv-x="669" arabic-form="isolated" 
d="M440 1218l-105 -101l-105 99l109 99zM600 96c-15.333 -29.333 -59.666 -53.332 -132.999 -71.999c-64 -16.667 -128.667 -25 -194 -25h-10c-49.333 0 -77.333 6.83301 -84 20.5s-10 29.5 -10 47.5c0 208.667 3.5 323.667 10.5 345s12.833 31.666 17.5 30.999
c20 -27.333 47.333 -41 82 -41c74.667 0 143.667 8 207 24l77 33c3.33301 0 5.66602 3.66699 6.99902 11c0 39.333 -29.667 87.666 -89 144.999c-20 19.333 -43 37.333 -69 54l-65 41l-2 21c-0.666992 8 0.666016 19.667 3.99902 35l16 65l72 -26
c51.333 -30.667 94.333 -68 129 -112c46.667 -59.333 70 -120.666 70 -183.999c0 -48.667 -2.66699 -116.667 -8 -204c-7.33301 -117.333 -16.666 -187 -27.999 -209z" />
    <glyph glyph-name="u0631" unicode="&#x631;" horiz-adv-x="578" arabic-form="isolated" 
d="M530 103c-8.66699 -49.333 -30.998 -103.999 -66.998 -163.999c-38.667 -64.667 -82.667 -117 -132 -157c-56.667 -46.667 -114 -70 -172 -70c-32.667 0 -74.334 5 -125.001 15c-66.667 14 -100 31 -100 51c0 6.66699 9.66699 12.667 29 18l11 1l66 -6l37 2
c19.333 1.33301 35.666 3.66602 48.999 6.99902c63.333 13.333 130.333 51 201 113c68 60 116 121 144 183c4.66699 9.33301 7.66699 19.333 9 30c6 33.333 9 66 9 98c0 126.667 -42 231 -126 313l-2 12c0 32 4.66699 62.667 14 92l18 21
c50.667 -42.667 90 -90.667 118 -144s42 -112 42 -176c0 -18 -6 -83.667 -18 -197l-3 -26z" />
    <glyph glyph-name="u0632" unicode="&#x632;" horiz-adv-x="578" arabic-form="isolated" 
d="M397 949l-105 -90l-101 90l108 95zM530 103c-8.66699 -49.333 -30.998 -103.999 -66.998 -163.999c-38.667 -64.667 -82.667 -117 -132 -157c-56.667 -46.667 -114 -70 -172 -70c-32.667 0 -74.334 5 -125.001 15c-66.667 14 -100 31 -100 51
c0 6.66699 9.66699 12.667 29 18l11 1l66 -6l37 2c19.333 1.33301 35.666 3.66602 48.999 6.99902c63.333 13.333 130.333 51 201 113c68 60 116 121 144 183c4.66699 9.33301 7.66699 19.333 9 30c6 33.333 9 66 9 98c0 126.667 -42 231 -126 313l-2 12
c0 32 4.66699 62.667 14 92l18 21c50.667 -42.667 90 -90.667 118 -144s42 -112 42 -176c0 -18 -6 -83.667 -18 -197l-3 -26z" />
    <glyph glyph-name="u0633" unicode="&#x633;" horiz-adv-x="1461" arabic-form="isolated" 
d="M1416 593c4.66699 0.666992 9.00098 -3.32812 13.001 -11.9951c2.66699 -10.667 4 -24.334 4 -41.001c0 -114 -14.333 -238 -43 -372c-16.667 -74.667 -34.334 -120.667 -53.001 -138c-8.66699 -8 -22.667 -12 -42 -12c-26 0 -61 7.33301 -105 22
c-46 15.333 -78 30.666 -96 45.999c-25.333 -22.667 -53.833 -43.334 -85.5 -62.001s-64.167 -28 -97.5 -28c-12 0 -22.333 1 -31 3l-16 2c-12.667 0 -21.667 -23 -27 -69c-15.333 -131.333 -91 -223.333 -227 -276c-78 -30 -157 -45 -237 -45
c-66.667 0 -125 9.66699 -175 29c-58.667 22.667 -103 56 -133 100c-8 11.333 -15.333 27 -22 47c-20.667 93.333 -31 171.333 -31 234c0 106 24.333 201.667 73 287l35 62c14 22 24.333 33 31 33c4 0 6 -3.33301 6 -10c-2.66699 -6.66699 -7.33398 -19.334 -14.001 -38.001
c-12 -33.333 -19.667 -57 -23 -71c-31.333 -124 -47 -212.667 -47 -266c0 -74 20 -137.667 60 -191c22.667 -30.667 61 -55.667 115 -75c28 -10 65 -17 111 -21c12.667 -1.33301 26 -2 40 -2c70 0 141 11.333 213 34c68.667 22 120.667 47.333 156 76
c12 7.33301 18 34.333 18 81c0 32 -4.66699 64.333 -14 97l-30 261c-8 70 -16.667 110.667 -26 122c-3.33301 6.66699 3.66699 30 21 70l33 55l48 -58c36.667 -44.667 73.667 -67 111 -67c58 0 104.667 18.333 140 55l74 120c4.66699 -3.33301 9 -8 13 -14l2 -11l-3 -27
l-2 -22c-1.33301 -13.333 2.66699 -23.333 12 -30c26 -18 53.5 -32.333 82.5 -43s55.833 -16 80.5 -16c16.667 0 27.334 5.66699 32.001 17l4 29v12c0 5.33301 -0.666992 10.333 -2 15c0 7.33301 -1.33301 16.333 -4 27c-0.666992 1.33301 -1 2.66602 -1 3.99902
c0 7.33301 6 20 18 38c16 22.667 29.667 35.667 41 39z" />
    <glyph glyph-name="u0634" unicode="&#x634;" horiz-adv-x="1461" arabic-form="isolated" 
d="M1416 593c4.66699 0.666992 9.00098 -3.32812 13.001 -11.9951c2.66699 -10.667 4 -24.334 4 -41.001c0 -114 -14.333 -238 -43 -372c-16.667 -74.667 -34.334 -120.667 -53.001 -138c-8.66699 -8 -22.667 -12 -42 -12c-26 0 -61 7.33301 -105 22
c-46 15.333 -78 30.666 -96 45.999c-25.333 -22.667 -53.833 -43.334 -85.5 -62.001s-64.167 -28 -97.5 -28c-12 0 -22.333 1 -31 3l-16 2c-12.667 0 -21.667 -23 -27 -69c-15.333 -131.333 -91 -223.333 -227 -276c-78 -30 -157 -45 -237 -45
c-66.667 0 -125 9.66699 -175 29c-58.667 22.667 -103 56 -133 100c-8 11.333 -15.333 27 -22 47c-20.667 93.333 -31 171.333 -31 234c0 106 24.333 201.667 73 287l35 62c14 22 24.333 33 31 33c4 0 6 -3.33301 6 -10c-2.66699 -6.66699 -7.33398 -19.334 -14.001 -38.001
c-12 -33.333 -19.667 -57 -23 -71c-31.333 -124 -47 -212.667 -47 -266c0 -74 20 -137.667 60 -191c22.667 -30.667 61 -55.667 115 -75c28 -10 65 -17 111 -21c12.667 -1.33301 26 -2 40 -2c70 0 141 11.333 213 34c68.667 22 120.667 47.333 156 76
c12 7.33301 18 34.333 18 81c0 32 -4.66699 64.333 -14 97l-30 261c-8 70 -16.667 110.667 -26 122c-3.33301 6.66699 3.66699 30 21 70l33 55l48 -58c36.667 -44.667 73.667 -67 111 -67c58 0 104.667 18.333 140 55l74 120c4.66699 -3.33301 9 -8 13 -14l2 -11l-3 -27
l-2 -22c-1.33301 -13.333 2.66699 -23.333 12 -30c26 -18 53.5 -32.333 82.5 -43s55.833 -16 80.5 -16c16.667 0 27.334 5.66699 32.001 17l4 29v12c0 5.33301 -0.666992 10.333 -2 15c0 7.33301 -1.33301 16.333 -4 27c-0.666992 1.33301 -1 2.66602 -1 3.99902
c0 7.33301 6 20 18 38c16 22.667 29.667 35.667 41 39zM1192 994.005l-80 -87l-103 83l79 97zM1279 826.005l-81 -85l-102 81l78 88zM1096 822.005l-80 -87l-104 82l80 96z" />
    <glyph glyph-name="u0635" unicode="&#x635;" horiz-adv-x="1682" arabic-form="isolated" 
d="M1602 303c-18.667 -39.333 -35.002 -67.999 -49.002 -85.999c-16.667 -21.333 -44 -46.333 -82 -75c-69.333 -51.333 -153.666 -90.333 -252.999 -117c-88 -24.667 -172.333 -37 -253 -37c-52 0 -93 5.33301 -123 16l-9 1c-11.333 0 -19 -17.667 -23 -53
c-11.333 -97.333 -38 -168.666 -80 -213.999c-39.333 -42.667 -99.333 -77 -180 -103c-72 -23.333 -141 -35 -207 -35c-139.333 0 -240 43 -302 129c-20 28 -36 83.333 -48 166c-5.33301 38 -8 75.667 -8 113c0 108.667 25 207 75 295l26 45c20 30.667 33.333 46 40 46l1 -2
v-5c-7.33301 -25.333 -17.666 -63 -30.999 -113c-29.333 -130 -44 -216.333 -44 -259c0 -72.667 20.333 -139.334 61 -200.001c14 -20.667 29.667 -36 47 -46c26 -15.333 59 -26.333 99 -33c17.333 -2.66699 42.333 -5.66699 75 -9c8.66699 -0.666992 17.667 -1 27 -1
c118 0 229.667 31.667 335 95c36.667 21.333 54.334 35.666 53.001 42.999l4 15l1 27c2 23.333 -2 50 -12 80l-23 201c-14 110.667 -26.333 173 -37 187c-1.33301 3.33301 -2 7.66602 -2 12.999c0 18 5.66699 43 17 75l26 45c42 -68.667 101.667 -103 179 -103
c6 0 37 25.333 93 76c75.333 68.667 136 121.334 182 158.001c79.333 62.667 147 105 203 127c8.66699 4 23.667 6 45 6c47.333 0 90.333 -8.33301 129 -25c21.333 -8.66699 37.333 -21 48 -37l26 -52c22 -40.667 33 -83 33 -127c0 -36 -11 -90 -33 -162
c-6.66699 -22 -15.334 -43.667 -26.001 -65zM1518 561.001c9.33301 8.66699 13.998 17.001 13.998 25.001c0 18.667 -22 34 -66 46c-32 8.66699 -61 13 -87 13c-26.667 0 -48 -3 -64 -9c-43.333 -16.667 -90.666 -43.334 -141.999 -80.001
c-39.333 -28.667 -78.666 -61 -117.999 -97c-32 -30 -49.333 -48.333 -52 -55c-2 -6.66699 7.66699 -10 29 -10c58.667 0 136.667 14.667 234 44c112.667 33.333 196.667 74.333 252 123z" />
    <glyph glyph-name="u0636" unicode="&#x636;" horiz-adv-x="1682" arabic-form="isolated" 
d="M1181 994l-81 -87l-101 83l79 97zM1602 303c-18.667 -39.333 -35.002 -67.999 -49.002 -85.999c-16.667 -21.333 -44 -46.333 -82 -75c-69.333 -51.333 -153.666 -90.333 -252.999 -117c-88 -24.667 -172.333 -37 -253 -37c-52 0 -93 5.33301 -123 16l-9 1
c-11.333 0 -19 -17.667 -23 -53c-11.333 -97.333 -38 -168.666 -80 -213.999c-39.333 -42.667 -99.333 -77 -180 -103c-72 -23.333 -141 -35 -207 -35c-139.333 0 -240 43 -302 129c-20 28 -36 83.333 -48 166c-5.33301 38 -8 75.667 -8 113c0 108.667 25 207 75 295l26 45
c20 30.667 33.333 46 40 46l1 -2v-5c-7.33301 -25.333 -17.666 -63 -30.999 -113c-29.333 -130 -44 -216.333 -44 -259c0 -72.667 20.333 -139.334 61 -200.001c14 -20.667 29.667 -36 47 -46c26 -15.333 59 -26.333 99 -33c17.333 -2.66699 42.333 -5.66699 75 -9
c8.66699 -0.666992 17.667 -1 27 -1c118 0 229.667 31.667 335 95c36.667 21.333 54.334 35.666 53.001 42.999l4 15l1 27c2 23.333 -2 50 -12 80l-23 201c-14 110.667 -26.333 173 -37 187c-1.33301 3.33301 -2 7.66602 -2 12.999c0 18 5.66699 43 17 75l26 45
c42 -68.667 101.667 -103 179 -103c6 0 37 25.333 93 76c75.333 68.667 136 121.334 182 158.001c79.333 62.667 147 105 203 127c8.66699 4 23.667 6 45 6c47.333 0 90.333 -8.33301 129 -25c21.333 -8.66699 37.333 -21 48 -37l26 -52c22 -40.667 33 -83 33 -127
c0 -36 -11 -90 -33 -162c-6.66699 -22 -15.334 -43.667 -26.001 -65zM1518 561.001c9.33301 8.66699 13.998 17.001 13.998 25.001c0 18.667 -22 34 -66 46c-32 8.66699 -61 13 -87 13c-26.667 0 -48 -3 -64 -9c-43.333 -16.667 -90.666 -43.334 -141.999 -80.001
c-39.333 -28.667 -78.666 -61 -117.999 -97c-32 -30 -49.333 -48.333 -52 -55c-2 -6.66699 7.66699 -10 29 -10c58.667 0 136.667 14.667 234 44c112.667 33.333 196.667 74.333 252 123z" />
    <glyph glyph-name="u0637" unicode="&#x637;" horiz-adv-x="1101" arabic-form="isolated" 
d="M1020 675l1 -12c9.33301 -22.667 21.666 -57.667 36.999 -105c3.33301 -14.667 5 -33.334 5 -56.001c0 -62.667 -17 -126.334 -51 -191.001c-67.333 -127.333 -172 -213 -314 -257c-31.333 -10 -81 -20.667 -149 -32c-82.667 -14 -155.667 -21 -219 -21
c-40.667 0 -76 2.66699 -106 8c-35.333 6.66699 -80.333 25.334 -135 56.001c-22 12 -41.667 70 -59 174c-13.333 80 -20 135.333 -20 166c0 8 9 12 27 12c144 0 205.333 -1 184 -3c73.333 6 126 30 158 72c10.667 12 16.334 37 17.001 75c0.666992 14.667 1 23 1 25
c-2 20 -4.33301 50.333 -7 91c0 20 -0.666992 47.667 -2 83l-5 104c-4 94 -15.333 165 -34 213l-39 101c0 6.66699 5.83301 25.334 17.5 56.001s23.334 55.5 35.001 74.5s21.5 28.5 29.5 28.5c12.667 0 19 -24 19 -72c0 -22 16 -42.667 48 -62c19.333 -12 29.333 -20 30 -24
c0 -75.333 -13 -115.333 -39 -120c-8 -2 -11.333 -13 -10 -33l12 -156l7 -137l-3 -101c-0.666992 -27.333 -5 -60.333 -13 -99l68 52l152 121c65.333 45.333 115.333 68 150 68l24 -2c10 0 40.667 -11 92 -33c57.333 -24 87.666 -45.333 90.999 -64zM928 565
c6 9.33301 -7 21.667 -39 37c-57.333 26.667 -107.666 40 -150.999 40c-19.333 0 -58.666 -18.333 -117.999 -55c-140.667 -86 -211 -140.667 -211 -164c3.33301 -2 9.66602 -3 18.999 -3c33.333 0 85.666 6.66699 156.999 20c200 37.333 314.333 79 343 125z" />
    <glyph glyph-name="u0638" unicode="&#x638;" horiz-adv-x="1031" arabic-form="isolated" 
d="M796 1039l-90 -107l-118 85l94 108zM1021 518l-0.00292969 -11.0029c0 -77.333 -5.66699 -137 -17 -179c-15.333 -58 -45.666 -108 -90.999 -150c-64 -58 -135.667 -99.333 -215 -124c-31.333 -10 -81 -20.667 -149 -32c-82.667 -14 -155.667 -21 -219 -21
c-40.667 0 -76 2.66699 -106 8c-35.333 6.66699 -80.333 25.334 -135 56.001c-22 12 -41.667 70 -59 174c-13.333 80 -20 135.333 -20 166c0 8 9 12 27 12c144 0 205.333 -1 184 -3c73.333 6 126 30 158 72c10.667 12 16.334 37 17.001 75c0.666992 14.667 1 23 1 25
c-2 20 -4.33301 50.333 -7 91c0 20 -0.666992 47.667 -2 83l-5 104c-4 94 -15.333 165 -34 213l-39 101c0 6.66699 5.83301 25.334 17.5 56.001s23.334 55.5 35.001 74.5s21.5 28.5 29.5 28.5c12.667 0 19 -24 19 -72c0 -22 16 -42.667 48 -62c19.333 -12 29.333 -20 30 -24
c0 -75.333 -13 -115.333 -39 -120c-8 -2 -11.333 -13 -10 -33l12 -156l7 -137l-3 -101c-0.666992 -27.333 -5 -60.333 -13 -99l68 52l152 121c65.333 45.333 115.333 68 150 68l24 -2c10 0 40.667 -11 92 -33c43.333 -18 71.333 -54.333 84 -109
c5.33301 -23.333 8 -60.666 8 -111.999zM927.997 564.997c6 9.33301 -7 21.667 -39 37c-57.333 26.667 -107.666 40 -150.999 40c-19.333 0 -58.666 -18.333 -117.999 -55c-140.667 -86 -211 -140.667 -211 -164c3.33301 -2 9.66602 -3 18.999 -3
c33.333 0 85.666 6.66699 156.999 20c200 37.333 314.333 79 343 125z" />
    <glyph glyph-name="u0639" unicode="&#x639;" horiz-adv-x="846" arabic-form="isolated" 
d="M1016 -579c14 0.666992 21.665 -1 22.998 -5c0 -7.33301 -28.667 -21 -86 -41c-137.333 -47.333 -229.666 -73 -276.999 -77c-67.333 -4.66699 -116 -7 -146 -7c-311.333 0 -483 117 -515 351c-3.33301 26.667 -5 54.667 -5 84c0 86 2.33301 156.333 7 211
c19.333 218.667 77 386.667 173 504c-62.667 36.667 -103.167 68.5 -121.5 95.5s-27.5 56.167 -27.5 87.5c0 26.667 4.33301 52.334 13 77.001l30 87c26 76.667 82.333 115 169 115c28.667 0 67.334 -8 116.001 -24c58 -19.333 87 -40 87 -62c0 -3.33301 -2 -6 -6 -8l-20 3
c-46.667 6.66699 -72.667 10 -78 10c-70 0 -140.667 -24.333 -212 -73c-14 -10 -24.5 -20.333 -31.5 -31s-10.5 -21.334 -10.5 -32.001c0 -34.667 31 -68.167 93 -100.5s113.667 -47.166 155 -44.499l13 1c18 1.33301 50.333 16.333 97 45l135 83c48 29.333 77.333 44 88 44
c3.33301 0 5 -1.33301 5 -4c-2 -22.667 -5.66699 -41.334 -11 -56.001l-19 -53c-2.66699 -8.66699 -28.667 -25.667 -78 -51l-167 -87c-136 -70.667 -234.667 -227 -296 -469c-22 -86 -33 -160.333 -33 -223c0 -98.667 42.333 -181 127 -247
c71.333 -55.333 160 -92 266 -110c21.333 -3.33301 64 -5 128 -5h77c34.667 0.666992 60.667 1 78 1c11.333 0 37.666 1.33301 78.999 4c26.667 0.666992 63.334 2 110.001 4z" />
    <glyph glyph-name="u063A" unicode="&#x63a;" horiz-adv-x="846" arabic-form="isolated" 
d="M356 1228l-79 -85l-103 82l79 95zM1016 -579c14 0.666992 21.665 -1 22.998 -5c0 -7.33301 -28.667 -21 -86 -41c-137.333 -47.333 -229.666 -73 -276.999 -77c-67.333 -4.66699 -116 -7 -146 -7c-311.333 0 -483 117 -515 351c-3.33301 26.667 -5 54.667 -5 84
c0 86 2.33301 156.333 7 211c19.333 218.667 77 386.667 173 504c-62.667 36.667 -103.167 68.5 -121.5 95.5s-27.5 56.167 -27.5 87.5c0 26.667 4.33301 52.334 13 77.001l30 87c26 76.667 82.333 115 169 115c28.667 0 67.334 -8 116.001 -24c58 -19.333 87 -40 87 -62
c0 -3.33301 -2 -6 -6 -8l-20 3c-46.667 6.66699 -72.667 10 -78 10c-70 0 -140.667 -24.333 -212 -73c-14 -10 -24.5 -20.333 -31.5 -31s-10.5 -21.334 -10.5 -32.001c0 -34.667 31 -68.167 93 -100.5s113.667 -47.166 155 -44.499l13 1c18 1.33301 50.333 16.333 97 45
l135 83c48 29.333 77.333 44 88 44c3.33301 0 5 -1.33301 5 -4c-2 -22.667 -5.66699 -41.334 -11 -56.001l-19 -53c-2.66699 -8.66699 -28.667 -25.667 -78 -51l-167 -87c-136 -70.667 -234.667 -227 -296 -469c-22 -86 -33 -160.333 -33 -223
c0 -98.667 42.333 -181 127 -247c71.333 -55.333 160 -92 266 -110c21.333 -3.33301 64 -5 128 -5h77c34.667 0.666992 60.667 1 78 1c11.333 0 37.666 1.33301 78.999 4c26.667 0.666992 63.334 2 110.001 4z" />
    <glyph glyph-name="u0641" unicode="&#x641;" horiz-adv-x="1147" arabic-form="isolated" 
d="M986 1115l-80 -86l-103 81l79 95zM1004 68c-39.333 -19.333 -91.999 -36.667 -157.999 -52c-59.333 -13.333 -113.666 -23 -162.999 -29l-148 -17c-36.667 -4 -79.334 -6 -128.001 -6c-85.333 0 -156 8.66699 -212 26c-63.333 20 -114 52.667 -152 98
c-6 7.33301 -10.667 56.666 -14 147.999c-3.33301 98.667 -7.33301 156.167 -12 172.5s-7 33.5 -7 51.5c0 48.667 16.667 98 50 148c30 45.333 54 68 72 68c3.33301 0 5.66602 -3.66699 6.99902 -11c0 -8 -4 -21.333 -12 -40c-10.667 -26 -16.334 -40 -17.001 -42
c-7.33301 -22.667 -11 -43 -11 -61c0 -110 104.667 -165 314 -165c224.667 0 412.334 26 563.001 78c52 18 78.667 30.333 80 37l6 20l1 19c1.33301 22.667 -4.33398 40.667 -17.001 54c-2 2.66699 -4.33301 4 -7 4c-2.66699 -0.666992 -4.66699 -2 -6 -4
c-29.333 -44 -67.666 -66 -114.999 -66c-66.667 0 -100 36.667 -100 110c0 48.667 21.667 99.334 65 152.001c40 48.667 75 73 105 73c28 0 55.667 -27 83 -81c30 -58 45 -122 45 -192c0 -37.333 -6.66699 -122.333 -20 -255c-6.66699 -63.333 -16 -113 -28 -149
c-14.667 -45.333 -36 -75 -64 -89zM1003 644.999c4.66699 8 -1 21.168 -17 39.501s-32.667 27.5 -50 27.5c-10 0 -20 -3 -30 -9c-22 -12.667 -33 -26.334 -33 -41.001c0 -19.333 11.667 -34 35 -44c12 -4.66699 24.667 -7 38 -7c24 0 43 11.333 57 34z" />
    <glyph glyph-name="u0642" unicode="&#x642;" horiz-adv-x="2225" arabic-form="isolated" 
d="M2083 870l-80 -86l-103 80l84 93zM1900 864l-79 -85l-103 82l79 94zM1999 380c0 12 -10.998 29.333 -32.998 52s-38.333 32.667 -49 30c-8.66699 -2 -17.334 -9.5 -26.001 -22.5s-13 -24.5 -13 -34.5c0 -12.667 7.66699 -22.667 23 -30c11.333 -4 26 -6 44 -6h21
c11.333 1.33301 19.666 2.5 24.999 3.5s8 3.5 8 7.5zM1961 -34c-44 0 -80.001 8 -108.001 24c-15.333 8.66699 -28.333 66.334 -39 173.001c-8.66699 82 -13 145 -13 189l-1 10c0 42.667 16.333 87 49 133c30 42 61.333 67.667 94 77l13 2
c20.667 0 45.334 -15.667 74.001 -47l51 -52c48.667 -51.333 84.667 -114.333 108 -189c12.667 -39.333 19 -78.333 19 -117c0 -66 -20.333 -139.333 -61 -220c-2 -4 -5.66699 -10.333 -11 -19c-40 -62 -115.667 -119.667 -227 -173
c-85.333 -41.333 -176 -73.666 -272 -96.999c-159.333 -39.333 -338.333 -59 -537 -59c-174 0 -340 35 -498 105c-180 80.667 -336 206 -468 376c-54.667 70 -97 137.667 -127 203c-5.33301 12.667 -6 21 -2 25c10 11.333 34.667 0.666016 74 -32.001
c26.667 -22.667 101.334 -64.667 224.001 -126c127.333 -64.667 252.666 -117.334 375.999 -158.001c227.333 -76 426 -128 596 -156c92.667 -15.333 181.667 -23 267 -23c134.667 0 256.334 21.333 365.001 64c81.333 32 132.666 62.333 153.999 91
c-1.33301 1.33301 -4.33301 2 -9 2c-6 0 -14.333 -0.666992 -25 -2c-22 -2.66699 -44 -4 -66 -4z" />
    <glyph glyph-name="u0643" unicode="&#x643;" horiz-adv-x="2118" arabic-form="isolated" 
d="M672 379c-81.333 0.666992 -203.001 4.00488 -365.001 10.0049c-130 9.33301 -220 31.666 -270 66.999c-1.33301 1.33301 -4 2.66602 -8 3.99902c-11.333 -2.66699 -17 -20.667 -17 -54c0 -215.333 3.66699 -333 11 -353c5.33301 -14.667 39 -30.667 101 -48
c77.333 -20.667 164.666 -30.667 261.999 -30l519 1c80.667 0 151.5 2.16699 212.5 6.5s123.5 9.83301 187.5 16.5l160 16c97.333 10.667 243 30.667 437 60c133.333 26 205 52.667 215 80c3.33301 8 5 18.667 5 32c0 51.333 -2.66699 119.666 -8 204.999
c-6 116 -13 183 -21 201c-24 54 -59.667 84 -107 90c-63.333 8.66699 -121.666 13 -174.999 13c-19.333 0 -52 0.666992 -98 2c-56.667 2 -87.334 3 -92.001 3l-42 -4c-39.333 0 -103.666 -1.33301 -192.999 -4c-147.333 -4.66699 -256.333 -7 -327 -7
c-40.667 0 -80.667 0.666992 -120 2l-159 5c-63.333 0 -107 7.66699 -131 23c-5.33301 4 -8 9 -8 15c0 20.667 44 52.667 132 96c30.667 15.333 114.667 54 252 116c94 42 145.333 68.667 154 80c26 32.667 38.333 64.334 37 95.001c0 8.66699 -2.33301 13 -7 13l-8 -3
c-46.667 -26.667 -119.667 -61.834 -219 -105.501s-172.666 -79.167 -219.999 -106.5c-63.333 -36.667 -103.666 -65.667 -120.999 -87c-23.333 -30 -35 -75.333 -35 -136c0 -54 7.33301 -84.667 22 -92c32 -20 82.333 -30 151 -30c12.667 0 53.667 -1.66699 123 -5
c66.667 -2 126.667 -3.33301 180 -4c6.66699 0 59.334 1 158.001 3c42 -1.33301 111 -0.333008 207 3l141 12c17.333 1.33301 42.666 2.66602 75.999 3.99902c1.33301 0 16.333 0.333008 45 1c75.333 1.33301 139.666 -1.33398 192.999 -8.00098c64 -7.33301 96 -38 96 -92
c0 -15.333 -80.333 -33.333 -241 -54c-38 -4.66699 -94.667 -12 -170 -22c-150 -20 -281 -30 -393 -30c-60 0 -126.333 -1.66699 -199 -5z" />
    <glyph glyph-name="u0644" unicode="&#x644;" horiz-adv-x="2216" arabic-form="isolated" 
d="M2075 511l-46.998 668.001l31 74l41 51c0.666992 -2 7 -61.667 19 -179l36 -347c3.33301 -34 9.33301 -74.667 18 -122c5.33301 -30 8.66602 -96.667 9.99902 -200c0 -25.333 0.333008 -65.333 1 -120c0.666992 -114.667 -13.333 -268.667 -42 -462
c-2.66699 -17.333 -7.66699 -33 -15 -47c-64 -114 -225 -201.667 -483 -263c-155.333 -36.667 -333 -55 -533 -55c-343.333 0 -634 67.667 -872 203c-29.333 17.333 -55 50.666 -77 99.999c-15.333 33.333 -35 88.333 -59 165c-22.667 73.333 -42.667 128.333 -60 165
l-25 51c-6 12.667 -7 21 -3 25c10.667 11.333 35.667 0.666016 75 -32.001c50 -42 146 -85 288 -129c106.667 -33.333 210.667 -59.666 312 -78.999c151.333 -28.667 298.333 -43 441 -43c298 0 562 42 792 126c81.333 29.333 136.333 56.333 164.999 81
c0 19.333 -2.33301 71.333 -7 156c-0.666992 51.333 -2.66699 122.333 -6 213z" />
    <glyph glyph-name="u0645" unicode="&#x645;" horiz-adv-x="539" arabic-form="isolated" 
d="M499 522c2 -2.66699 -6.83301 -34.502 -26.5 -95.502s-31.5 -124.5 -35.5 -190.5c-4.66699 -72.667 -9 -109 -13 -109c-210 0 -319.333 -20 -328 -60l-3 -32c0 -12.667 4.33301 -58.334 13 -137.001l20 -186c9.33301 -86.667 13 -153.667 11 -201l-2 -84
c-0.666992 -22 -3.66699 -46 -9 -72c-6 -29.333 -13.667 -44 -23 -44c-3.33301 0 -6.66602 4.66699 -9.99902 14l-4 43c-1.33301 34.667 -6.66602 98.667 -15.999 192l-23 182c-9.33301 65.333 -14 123.333 -14 174c0 32 -2.33301 70.667 -7 116
c-10.667 101.333 -16 161.333 -16 180c0 96 32 169.333 96 220c50 39.333 99.667 63.333 149 72c27.333 4.66699 41 12.334 41 23.001c0 8.66699 -8 18.334 -24 29.001c-18 10 -34.667 15 -50 15c-8.66699 0 -16.667 -2 -24 -6c-25.333 -12 -42.333 -18 -51 -18
c-9.33301 0 -14 4.66699 -14 14c0 21.333 15.167 48.833 45.5 82.5s56.166 50.5 77.499 50.5c35.333 0 75 -16 119 -48c51.333 -37.333 91.666 -78.666 120.999 -123.999z" />
    <glyph glyph-name="u0646" unicode="&#x646;" horiz-adv-x="2198" arabic-form="isolated" 
d="M1364 620l-80 -86l-104 82l85 92zM2106 293c8.66699 7.33301 13.001 19.334 13.001 36.001c0 42 -35.333 118 -106 228c-2 2.66699 -3 7 -3 13c0 18 9.33301 44 28 78l32 38c68 -120 102 -223.667 102 -311c0 -56 -2 -123.667 -6 -203c-6 -112 -13.667 -176.667 -23 -194
c-32.667 -61.333 -104.667 -118.333 -216 -171c-82 -38.667 -170.667 -69.334 -266 -92.001c-158 -36.667 -336 -55 -534 -55c-343.333 0 -633.666 68 -870.999 204c-29.333 16.667 -59 59 -89 127c-16.667 37.333 -39.334 100 -68.001 188
c-23.333 73.333 -39 116.333 -47 129l-17 36c-6 12.667 -7 21 -3 25c10 11.333 34.667 0.666016 74 -32.001c50 -42 146 -85 288 -129c106.667 -33.333 210.667 -59.666 312 -78.999c151.333 -28.667 298.333 -43 441 -43c299.333 0 564 42 794 126
c79.333 28.667 134.333 55.667 164.999 81z" />
    <glyph glyph-name="u0647" unicode="&#x647;" horiz-adv-x="463" arabic-form="isolated" 
d="M388 65c-32.667 -56 -89.334 -83.999 -170.001 -83.999c-80 0 -124.667 24.333 -134 73c-0.666992 4 -1 8 -1 12l1 20c0 29.333 -0.666992 58.666 -2 87.999l-8 128c0 68 12.667 130 38 186c16.667 37.333 31 64.333 43 81c-1.33301 4 -3 6.66699 -5 8
c-4 3.33301 -6 6.66602 -6 9.99902c32 78 53.667 113.667 65 107c48.667 -28.667 81.334 -48.667 98.001 -60c38 -28 64 -55.667 78 -83c6 -12.667 17.667 -48.667 35 -108c14 -48 21 -101.333 21 -160c0 -40 -2.66699 -75.333 -8 -106
c-6.66699 -35.333 -21.667 -72.666 -45 -111.999zM356 432.001c0 12 -22 33.668 -66 65.001s-74 47 -90 47c-12 0 -24.333 -14.667 -37 -44c-12.667 -26.667 -19 -51.334 -19 -74.001l3 -15c15.333 -27.333 42.333 -41 81 -41c22 0 47.333 5.33301 76 16
c36.667 12.667 54 28 52 46z" />
    <glyph glyph-name="u0648" unicode="&#x648;" horiz-adv-x="572" arabic-form="isolated" 
d="M563 43c-10.667 -80.667 -52.6641 -163.668 -125.997 -249.001c-82.667 -95.333 -166 -145.333 -250 -150c-35.333 -2 -86.333 12 -153 42c-62.667 27.333 -94 47.666 -94 60.999c0 4.66699 5 6.66699 15 6l13 -1l35 -2c61.333 -5.33301 95 -8 101 -8h10
c49.333 0 88.333 6 117 18c24 9.33301 58.667 31 104 65c71.333 54.667 123.666 113 156.999 175l3 8c0 6 -7.33301 8.66699 -22 8l-37 -1l-29 -1c-54.667 -2 -94.334 12.333 -119.001 43c-5.33301 6.66699 -12 31.334 -20 74.001c-10 51.333 -15 98.333 -15 141
c0 66.667 13 130.334 39 191.001c10 23.333 25.667 47 47 71c37.333 41.333 64.666 62 81.999 62c3.33301 0 6.33301 -1 9 -3c90.667 -61.333 135.667 -143 135 -245zM411.003 392.999c39.333 0 59 9 59 27c0.666992 14 -9.5 29.5 -30.5 46.5s-38.167 24.5 -51.5 22.5
c-12.667 -2 -26 -10.5 -40 -25.5s-20 -28.5 -18 -40.5c4 -20 31 -30 81 -30z" />
    <glyph glyph-name="u0649" unicode="&#x649;" horiz-adv-x="2255" arabic-form="isolated" 
d="M1812 116c-4.66699 94.667 -11.999 195.334 -21.999 302.001c-4 12.667 -6 26.334 -6 41.001c0 74.667 38.667 156.667 116 246c73.333 84.667 147.666 139 222.999 163l28 4c40.667 0 70 -17.667 88 -53l6 -15l2 -17c0 -22 -10.667 -48 -32 -78
c-3.33301 -4.66699 -8.33301 -7 -15 -7c-3.33301 0 -21.666 9.33301 -55 28c-18.667 10.667 -33 15.334 -43 14.001l-11 -1c-25.333 -5.33301 -71 -32 -137 -80c-72.667 -52.667 -109 -92.334 -109 -119.001l1 -9c22.667 -49.333 83 -79 181 -89
c43.333 -4.66699 72.333 -8.66699 87 -12c37.333 -8 62 -21.333 74 -40c7.33301 -11.333 11 -116 11 -314c0 -28.667 -9.66699 -57.334 -29 -86.001c-39.333 -62 -114.666 -119.667 -226 -173c-85.333 -41.333 -176 -74 -272 -98c-159.333 -39.333 -338.333 -59 -537 -59
c-174.667 0 -340.667 35.333 -498 106c-180 80 -336.333 205.333 -469 376c-54 69.333 -96 137 -126 203c-6 12.667 -7 21 -3 25c10.667 11.333 35.667 0.333008 75 -33c26 -22 100.667 -64 224 -126c126.667 -64 251.667 -116.667 375 -158c228 -75.333 427 -127 597 -155
c92.667 -15.333 181.334 -23 266.001 -23c135.333 0 257.333 21.333 366 64c81.333 31.333 132.666 61.666 153.999 90.999c-1.33301 2 -41 10.333 -119 25c-83.333 16 -138.333 35 -165 57z" />
    <glyph glyph-name="u064A" unicode="&#x64a;" horiz-adv-x="2255" arabic-form="isolated" 
d="M1812 116c-4.66699 94.667 -11.999 195.334 -21.999 302.001c-4 12.667 -6 26.334 -6 41.001c0 74.667 38.667 156.667 116 246c73.333 84.667 147.666 139 222.999 163l28 4c40.667 0 70 -17.667 88 -53l6 -15l2 -17c0 -22 -10.667 -48 -32 -78
c-3.33301 -4.66699 -8.33301 -7 -15 -7c-3.33301 0 -21.666 9.33301 -55 28c-18.667 10.667 -33 15.334 -43 14.001l-11 -1c-25.333 -5.33301 -71 -32 -137 -80c-72.667 -52.667 -109 -92.334 -109 -119.001l1 -9c22.667 -49.333 83 -79 181 -89
c43.333 -4.66699 72.333 -8.66699 87 -12c37.333 -8 62 -21.333 74 -40c7.33301 -11.333 11 -116 11 -314c0 -28.667 -9.66699 -57.334 -29 -86.001c-39.333 -62 -114.666 -119.667 -225.999 -173c-85.333 -41.333 -176 -74 -272 -98
c-159.333 -39.333 -338.333 -59 -537 -59c-174.667 0 -340.667 35.333 -498 106c-180 80 -336.333 205.333 -469 376c-54 69.333 -96 137 -126 203c-6 12.667 -7 21 -3 25c10.667 11.333 35.667 0.5 75 -32.5s114 -69.167 224 -108.5c5.33301 -2 84 -35.333 236 -100
c46.667 -20 93 -37.667 139 -53c120.667 -40 225 -72.333 313 -97c232.667 -66 427 -99 583 -99c122 0 233 19.667 333 59c81.333 31.333 132.666 61.666 153.999 90.999c-1.33301 2 -41 10.333 -119 25c-83.333 16 -138.333 35 -165 57z" />
    <glyph glyph-name="u067E" unicode="&#x67e;" horiz-adv-x="1210" arabic-form="isolated" 
d="M578 -416l79 87l103 -80l-79 -98zM491 -248l80 86l102 -82l-78 -87zM673 -244l80 87l104 -81l-79 -97zM1010 71l-59.9971 -23.0029c-57.333 -21.333 -141.333 -44.333 -252 -69l-112 -25c-42 -9.33301 -77.333 -14 -106 -14c-23.333 0 -47 2 -71 6
c-112.667 20.667 -204.667 65.334 -276 134.001c-76 72.667 -119.333 164.334 -130 275.001c-1.33301 12 -2 23.333 -2 34c0 86 15.333 154.333 46 205c27.333 45.333 51 68 71 68l9 -3c2 -2 -7 -30.667 -27 -86c-11.333 -31.333 -17 -56.666 -17 -75.999
c0 -20 5.33301 -35.667 16 -47c44.667 -48 126 -78 244 -90c36 -3.33301 75 -5 117 -5c119.333 0 238.666 12.333 357.999 37c122.667 26 205 53 247 81c5.33301 4 8 9.33301 8 16c0 10.667 -14.833 31.167 -44.5 61.5s-44.5 48.166 -44.5 53.499
c0 33.333 8.66699 66.333 26 99c10 18.667 18.333 25.334 25 20.001c47.333 -39.333 78.166 -79.5 92.499 -120.5s28.166 -100.167 41.499 -177.5c6 -33.333 9 -64.333 9 -93c0 -46 -7 -86 -21 -120c-28 -68 -77 -115 -147 -141z" />
    <glyph glyph-name="u0686" unicode="&#x686;" horiz-adv-x="936" arabic-form="isolated" 
d="M1049 -583c6 0 9.33105 -1.66895 9.99805 -5.00195c0 -9.33301 -29.667 -22.333 -89 -39l-167 -47l-98 -24l-54 -5l-71 -1c-78.667 -2 -156 5.66699 -232 23c-152.667 36 -254.667 111 -306 225c-19.333 42.667 -29 89.334 -29 140.001c0 155.333 10 275.666 30 360.999
c16 68.667 39.667 139 71 211c14.667 34 38.334 72 71.001 114c36 46 67.667 77.333 95 94c34.667 20.667 52 34.334 52 41.001c0 8 -18 11.333 -54 10l-30 -1h-30c-17.333 0 -38 -5 -62 -15c-32.667 -14 -58 -33.333 -76 -58c-5.33301 -10 -10.333 -15 -15 -15
c-4 0 -6 4.33301 -6 13c0 23.333 11 52.333 33 87c27.333 44 64.666 77.333 111.999 100c24.667 12 60 18 106 18c32 -3.33301 95.333 -7.33301 190 -12l138 -6c11.333 -0.666992 26 -0.666992 44 0c22.667 1.33301 37.667 2 45 2l85 11c17.333 2 27.333 -6.33301 30 -25
c0 -17.333 -8 -37.166 -24 -59.499s-32.333 -33.5 -49 -33.5c-4.66699 0 -26 -5.33301 -64 -16c-54 -14.667 -96 -28.334 -126 -41.001c-38 -15.333 -77.333 -36 -118 -62c-248 -156.667 -372 -342.667 -372 -558c0 -22 1 -42.333 3 -61c6 -60.667 10.333 -97.667 13 -111
c16 -75.333 58.333 -133 127 -173c24.667 -14.667 60.667 -29 108 -43c31.333 -9.33301 61 -16.666 89 -21.999c37.333 -7.33301 76.333 -11 117 -11c24.667 0 63.334 -1.33301 116.001 -4c50.667 -2.66699 89.334 -3.66699 116.001 -3l120 1c10 0 27.333 0.333008 52 1
c22 0.666992 39 1 51 1h28zM404.998 -243.002l79 86l103 -80l-79 -97zM317.998 -76.002l80 87l102 -82l-78 -87zM499.998 -71.002l81 86l103 -80l-79 -97z" />
    <glyph glyph-name="u0698" unicode="&#x698;" horiz-adv-x="578" arabic-form="isolated" 
d="M530 103c-8.66699 -49.333 -30.998 -103.999 -66.998 -163.999c-38.667 -64.667 -82.667 -117 -132 -157c-56.667 -46.667 -114 -70 -172 -70c-32.667 0 -74.334 5 -125.001 15c-66.667 14 -100 31 -100 51c0 6.66699 9.66699 12.667 29 18l11 1l66 -6l37 2
c19.333 1.33301 35.666 3.66602 48.999 6.99902c63.333 13.333 130.333 51 201 113c68 60 116 121 144 183c4.66699 9.33301 7.66699 19.333 9 30c6 33.333 9 66 9 98c0 126.667 -42 231 -126 313l-2 12c0 32 4.66699 62.667 14 92l18 21
c50.667 -42.667 90 -90.667 118 -144s42 -112 42 -176c0 -18 -6 -83.667 -18 -197l-3 -26zM449.002 1036l-80 -87l-102 80l79 98zM535.002 868.001l-79 -86l-103 82l78 87zM353.002 864.001l-80 -87l-104 80l79 98z" />
    <glyph glyph-name="u06AF" unicode="&#x6af;" horiz-adv-x="2118" arabic-form="isolated" 
d="M672 379c-81.333 0.666992 -203.001 4.00488 -365.001 10.0049c-130 9.33301 -220 31.666 -270 66.999c-1.33301 1.33301 -4 2.66602 -8 3.99902c-11.333 -2.66699 -17 -20.667 -17 -54c0 -215.333 3.66699 -333 11 -353c5.33301 -14.667 39 -30.667 101 -48
c77.333 -20.667 164.666 -30.667 261.999 -30l519 1c80.667 0 151.5 2.16699 212.5 6.5s123.5 9.83301 187.5 16.5l160 16c97.333 10.667 243 30.667 437 60c133.333 26 205 52.667 215 80c3.33301 8 5 18.667 5 32c0 51.333 -2.66699 119.666 -8 204.999
c-6 116 -13 183 -21 201c-24 54 -59.667 84 -107 90c-63.333 8.66699 -121.666 13 -174.999 13c-19.333 0 -52 0.666992 -98 2c-56.667 2 -87.334 3 -92.001 3l-42 -4c-39.333 0 -103.666 -1.33301 -192.999 -4c-147.333 -4.66699 -256.333 -7 -327 -7
c-40.667 0 -80.667 0.666992 -120 2l-159 5c-63.333 0 -107 7.66699 -131 23c-5.33301 4 -8 9 -8 15c0 20.667 44 52.667 132 96c30.667 15.333 114.667 54 252 116c94 42 145.333 68.667 154 80c26 32.667 38.333 64.334 37 95.001c0 8.66699 -2.33301 13 -7 13l-8 -3
c-46.667 -26.667 -119.667 -61.834 -219 -105.501s-172.666 -79.167 -219.999 -106.5c-63.333 -36.667 -103.666 -65.667 -120.999 -87c-23.333 -30 -35 -75.333 -35 -136c0 -54 7.33301 -84.667 22 -92c32 -20 82.333 -30 151 -30c12.667 0 53.667 -1.66699 123 -5
c66.667 -2 126.667 -3.33301 180 -4c6.66699 0 59.334 1 158.001 3c42 -1.33301 111 -0.333008 207 3l141 12c17.333 1.33301 42.666 2.66602 75.999 3.99902c1.33301 0 16.333 0.333008 45 1c75.333 1.33301 139.666 -1.33398 192.999 -8.00098c64 -7.33301 96 -38 96 -92
c0 -15.333 -80.333 -33.333 -241 -54c-38 -4.66699 -94.667 -12 -170 -22c-150 -20 -281 -30 -393 -30c-60 0 -126.333 -1.66699 -199 -5zM655.999 971.005c7.33301 25.333 46 58.334 116 99.001c38 22 97.333 50.5 178 85.5s139.667 63.5 177 85.5l7 3
c3.33301 0 5.33301 -3.66699 6 -11c0.666992 -24.667 -9.33301 -50.334 -30 -77.001c-7.33301 -9.33301 -49 -31 -125 -65c-111.333 -50 -179.333 -81.333 -204 -94c-31.333 -15.333 -67 -41.333 -107 -78c0 -6 -3 1.16699 -9 21.5z" />
    <glyph glyph-name="uFB57" unicode="&#x67e;" horiz-adv-x="1227" arabic-form="final" 
d="M1261 0l-10.002 -0.000976562l-13 -1c-21.333 -1.33301 -46.666 0.666992 -75.999 6c-40.667 8 -73.334 34.333 -98.001 79l-17 29l-55 -35c-24 -14.667 -59.667 -32 -107 -52c-134 -54.667 -276.667 -82 -428 -82c-59.333 0 -118.666 5.33301 -177.999 16
c-45.333 8.66699 -90.333 45.667 -135 111c-35.333 51.333 -67 114 -95 188c-30 80.667 -45 148.334 -45 203.001c0 35.333 10 76.666 30 123.999c24 57.333 51 86 81 86l7 -3c3.33301 -1.33301 5 -3.66602 5 -6.99902l-31 -74c-8.66699 -22 -13 -42.333 -13 -61
c0 -77.333 78 -131.333 234 -162c48.667 -10 103.334 -15 164.001 -15c88.667 0 180.667 10 276 30c107.333 22.667 194.333 53 261 91l71 50c15.333 11.333 26.666 17 33.999 17c4.66699 0 6.33398 -2.66699 5.00098 -8l-1 -22c-4 -42.667 18.333 -73.667 67 -93
c12 -4.66699 34.333 -9 67 -13v-402zM522.998 -398.001l79 87l103 -80l-79 -98zM436.998 -230.001l79 86l103 -82l-78 -87zM618.998 -226.001l80 87l104 -80l-80 -98z" />
    <glyph glyph-name="uFB58" unicode="&#x67e;" horiz-adv-x="328" arabic-form="initial" 
d="M142 41c-24 -14 -57 -24.333 -99 -31l-67 -10v402l65 5c42 2.66699 74.333 10.334 97 23.001c8 4.66699 12 12.667 12 24c0 23.333 -13.667 58 -41 104l-50 84c-0.666992 2 -1 4.33301 -1 7c0 11.333 5.66699 29.666 17 54.999c14 32.667 23.667 48.667 29 48
c63.333 -54.667 95 -143 95 -265c0 -222 -5 -349.167 -15 -381.5s-24 -53.833 -42 -64.5zM41 -379l79 86l103 -80l-79 -97zM-45 -212l79 86l102 -81l-78 -88zM136 -207l81 86l103 -80l-79 -97z" />
    <glyph glyph-name="uFB59" unicode="&#x67e;" horiz-adv-x="464" arabic-form="medial" 
d="M487 0l-18.998 -2.99805l-26 -1c-28.667 -0.666992 -58.334 2.33301 -89.001 9c-40 9.33301 -69.667 22.666 -89 39.999l-37 34l-17 19l-39 -36c-23.333 -22 -56.333 -38.667 -99 -50c-33.333 -9.33301 -62.333 -14 -87 -14l-9 1v404h41c4.66699 1.33301 8 2 10 2
c76 7.33301 121 25.666 135 54.999c-9.33301 23.333 -20 69.333 -32 138c-3.33301 20.667 -6 38 -8 52c25.333 59.333 45.666 83 60.999 71c0 -9.33301 17 -58.333 51 -147c8 -22 21.333 -52 40 -90c36.667 -54.667 99.667 -82 189 -82h24v-402zM77.002 -378.998l80 86
l102 -80l-79 -97zM-8.99805 -211.998l79 86l103 -81l-78 -88zM173.002 -206.998l80 86l104 -80l-79 -97z" />
    <glyph glyph-name="uFB7B" unicode="&#x686;" horiz-adv-x="936" arabic-form="final" 
d="M1049 -583c6 0 9.33203 -1.66895 9.99902 -5.00195c0 -9.33301 -29.667 -22.333 -89 -39l-167 -47l-98 -24l-54 -5l-71 -1c-78.667 -2 -156 5.66699 -232 23c-217.333 50.667 -326 172.334 -326 365.001c0 155.333 10 275.666 30 360.999c16 68.667 39.667 139 71 211
c45.333 103.333 97.666 172.666 156.999 207.999c34.667 20.667 52 34.334 52 41.001c0 8 -18 11.333 -54 10l-30 -1h-30c-17.333 0 -38 -5 -62 -15c-32.667 -14 -58 -33.333 -76 -58c-5.33301 -10 -10.333 -15 -15 -15c-4 0 -6 4.33301 -6 13c0 23.333 11 52.333 33 87
c27.333 44 64.666 77.333 111.999 100c24.667 12 60 18 106 18c32 -3.33301 95.333 -7.33301 190 -12l138 -6c11.333 -0.666992 26 -0.666992 44 0c22.667 1.33301 37.667 2 45 2l85 11c17.333 2 27.333 -6.33301 30 -25c0 -17.333 -8 -37.166 -24 -59.499
s-32.333 -33.5 -49 -33.5c-56.667 0 -85 -20.333 -85 -61c0 -19.333 7.5 -36 22.5 -50s32.5 -21 52.5 -21c76 7.33301 130.667 11 164 11h33c6.66699 1.33301 11.667 2 15 2v-402l-17 -1l-100 -4c-22 0 -45.167 1 -69.5 3s-48.166 6.33301 -71.499 13
c-27.333 7.33301 -48 52 -62 134c-10 55.333 -15 108.333 -15 159c0 -2.66699 2 28 6 92l1 32c1.33301 17.333 -3 26.666 -13 27.999c-64.667 0 -121 -18 -169 -54c-177.333 -132.667 -289 -281.667 -335 -447c-18 -66 -27 -138 -27 -216
c0 -141.333 80.333 -235.666 241 -282.999c31.333 -9.33301 61 -16.666 89 -21.999c37.333 -7.33301 76.333 -11 117 -11c24.667 0 63.334 -1.33301 116.001 -4c50.667 -2.66699 89.334 -3.66699 116.001 -3l120 1c10 0 27.333 0.333008 52 1c22 0.666992 39 1 51 1h28z
M368.999 -261.002l79 86l103 -80l-80 -97zM281.999 -94.002l79 87l103 -82l-78 -88zM463.999 -89.002l80 86l104 -80l-79 -97z" />
    <glyph glyph-name="uFB7C" unicode="&#x686;" horiz-adv-x="964" arabic-form="initial" 
d="M684 464l-11.001 1.99902c-3.33301 0.666992 -9 1 -17 1c-36.667 0 -78.334 -19 -125.001 -57l-76 -62c-32.667 -26.667 -75 -99 -127 -217c-32 -56.667 -85 -92 -159 -106c-11.333 -2.66699 -29.666 -6.66699 -54.999 -12c-50 -10.667 -90.667 -16 -122 -16
c-8.66699 0 -14 1 -16 3v402c38.667 0 95.667 5.66699 171 17c66.667 9.33301 127.334 24.333 182.001 45c84 31.333 126 52.666 126 63.999c0 6 -15.667 14.333 -47 25l-61 21c-13.333 4.66699 -33.333 10.334 -60 17.001l-49 6c-21.333 0 -41 -3.66699 -59 -11l-59 -31
c-8 -2 -12 4 -12 18c0 30.667 13.667 61 41 91c36 39.333 84 59 144 59c28 0 57.333 -4 88 -12c34.667 -9.33301 70 -23 106 -41c62 -31.333 122.333 -48.666 181 -51.999l202 -12c4 0 6 -5 6 -15c0 -20 -6.66699 -43.333 -20 -70c-15.333 -30.667 -31.666 -46 -48.999 -46
c-6.66699 0 -16.834 -1.33301 -30.501 -4s-23.5 -4 -29.5 -4s-14 -0.666992 -24 -2s-17.667 -2 -23 -2c-6.66699 0 -12 0.333008 -16 1zM422.999 -298.001l79 87l103 -80l-79 -98zM336.999 -130.001l79 86l103 -82l-79 -87zM518.999 -126.001l80 87l104 -80l-80 -98z" />
    <glyph glyph-name="uFB7D" unicode="&#x686;" horiz-adv-x="964" arabic-form="medial" 
d="M981 0l-40.001 -5.00098c-16 -1.33301 -34.667 -2 -56 -2c-63.333 0 -109.666 9 -138.999 27c-19.333 11.333 -34.666 68 -45.999 170c-8 74 -12 138 -12 192c0 28.667 1.33301 48 4 58c0 11.333 -2.66699 19.333 -8 24l-11 2c-20.667 0 -51.334 -6 -92.001 -18
c-66 -20 -113.667 -45 -143 -75c-25.333 -26.667 -52 -74.667 -80 -144c-18 -43.333 -39.667 -77 -65 -101c-71.333 -66.667 -131.333 -105.167 -180 -115.5s-89 -15.5 -121 -15.5c-8.66699 0 -14 1 -16 3v402c38.667 0 95.667 5.66699 171 17
c66.667 9.33301 127.334 24.333 182.001 45c84 31.333 126 52.666 126 63.999c0 6 -15.667 14.333 -47 25l-61 21c-13.333 4.66699 -33.333 10.334 -60 17.001l-49 6c-21.333 0 -41 -3.66699 -59 -11l-59 -31c-8 -2 -12 4 -12 18c0 30.667 13.667 61 41 91
c36 39.333 84 59 144 59c28 0 57.333 -4 88 -12c34.667 -9.33301 70 -23 106 -41c62 -31.333 122.333 -48.666 181 -51.999l202 -12c4 0 6 -5 6 -15c0 -20 -6.66699 -43.333 -20 -70c-15.333 -30.667 -31.666 -46 -48.999 -46c-51.333 0 -77.333 -9.66699 -78 -29
c-0.666992 -16 12.666 -33.667 39.999 -53c3.33301 -2.66699 12.666 -4 27.999 -4c16 0 43 1.66699 81 5l103 8v-402zM377.999 -270.001l79 86l103 -80l-80 -97zM290.999 -103.001l79 87l103 -82l-78 -88zM472.999 -98.001l80 86l104 -80l-79 -97z" />
    <glyph glyph-name="uFB8B" unicode="&#x698;" horiz-adv-x="751" arabic-form="final" 
d="M777 0l-22.999 0.000976562l-102 3l-75 -3c-18.667 -0.666992 -28.667 -2.66699 -30 -6c-23.333 -64 -49.333 -121.333 -78 -172c-88 -155.333 -190.667 -233 -308 -233c-50.667 0 -104.667 14 -162 42c-52 25.333 -77 43.666 -75 54.999c2 9.33301 7.33301 14 16 14
l56 -9c19.333 -3.33301 39.333 -5 60 -5h39c12 2 20.333 3.33301 25 4c57.333 6 124.666 38.667 201.999 98c82 62.667 137.667 129 167 199l4 18c0 24.667 -7.66699 80 -23 166c-18 103.333 -34.333 159.666 -49 168.999c-7.33301 6.66699 -11 20 -11 40c0 58 10 88 30 90
c4 -1.33301 6.66699 -2.66602 8 -3.99902c24 -26 64.667 -44.333 122 -55c43.333 -8 91 -12 143 -12h40l24 3v-402zM503.001 881.001l-79 -87l-103 80l79 98zM590.001 713.001l-79 -86l-103 82l78 87zM408.001 709.001l-80 -87l-104 81l79 97z" />
    <glyph glyph-name="uFEDA" unicode="&#x6a9;" horiz-adv-x="1814" arabic-form="final" 
d="M332 380c-136 0 -223.335 30.001 -262.002 90.001c-13.333 20 -20 45 -20 75c0 33.333 12.667 81 38 143c2 7.33301 4.66699 18.333 8 33c-26 0 -48.333 -30 -67 -90c-14.667 -47.333 -22 -88 -22 -122c0 -56 5.33301 -133.667 16 -233
c12.667 -122.667 27.334 -192.667 44.001 -210c53.333 -56 115 -84 185 -84c15.333 0 30.666 1.66699 45.999 5l183 18c32 1.33301 83.667 4.33301 155 9c13.333 0.666992 34.666 2 63.999 4c48.667 4 128 11.667 238 23c95.333 12 178.333 24.667 249 38l89 17
c33.333 6 87.666 16.667 162.999 32c30 6.66699 71.333 16.667 124 30l-2 -29c0 -59.333 41.667 -99.333 125 -120c22 -5.33301 39.333 -8.33301 52 -9l55 -3l25 1c3.33301 0.666992 7 1 11 1s8.66699 -0.333008 14 -1v404h-24c-85.333 0 -137.333 8 -156 24l-14 15l-6 14
l64 24c22.667 10.667 34 30.334 34 59.001c0 43.333 -9.66699 86.333 -29 129c-24.667 53.333 -58 84.666 -100 93.999c-27.333 6 -84 9 -170 9c-24 0 -67.333 -1.66699 -130 -5c-36 -1.33301 -94.333 -5 -175 -11l-123 -13c-22.667 -2.66699 -57 -5.33398 -103 -8.00098
c-26 -1.33301 -71.667 -1.66602 -137 -0.999023c-40.667 0 -75 0.333008 -103 1s-73 2.33398 -135 5.00098l-114 24c-3.33301 4.66699 -6.16602 9.66699 -8.49902 15s-3.5 10.666 -3.5 15.999c0 17.333 16.667 32.333 50 45c52.667 20 81.334 31.667 86.001 35
c34.667 21.333 76 41.666 124 60.999c62 24.667 104.667 42.667 128 54l85 31c30 11.333 53 27.666 69 48.999c10.667 15.333 19.334 31.333 26.001 48c10 26.667 13.667 42.667 11 48c-1.33301 2.66699 -3.66602 7 -6.99902 13l-8 -3l-196 -92c-52 -20 -133 -60 -243 -120
l-83 -51c-28 -19.333 -48 -43 -60 -71c-8.66699 -21.333 -13 -55.333 -13 -102c0 -40 7 -70.667 21 -92c32.667 -16.667 79 -26.334 139 -29.001c-12 0.666992 34 2.33398 138 5.00098h150c36.667 1.33301 77.334 4 122.001 8c26 3.33301 69 7.33301 129 12l109 3
c31.333 0.666992 85.333 2.33398 162 5.00098l163 7c68 0 102 -30.667 102 -92c0 -16 -79 -37.333 -237 -64c-148 -24.667 -328 -46.667 -540 -66c-42.667 -6.66699 -143.334 -18.667 -302.001 -36c-65.333 -12.667 -133 -19 -203 -19z" />
    <glyph glyph-name="uFEDB" unicode="&#x6a9;" horiz-adv-x="2146" arabic-form="initial" 
d="M682 1174l8.99609 3.00488c4.66699 0 7 -4.33301 7 -13c0.666992 -30.667 -11.666 -62.667 -36.999 -96c-9.33301 -11.333 -60.666 -38 -153.999 -80c-138 -62 -222 -100.333 -252 -115c-88 -44 -132 -76.333 -132 -97c0 -12.667 19 -23 57 -31
c23.333 -4.66699 50.666 -7 81.999 -7c7.33301 0 60 -1.66699 158 -5c39.333 -0.666992 79.666 -1 120.999 -1c28 0 81.667 0.333008 161 1l152 2c46 0 108.333 1 187 3c91.333 2.66699 154 4.33398 188 5.00098l329 3c30 0.666992 82 0 156 -2l98 -2
c53.333 0 111.666 -4.33301 174.999 -13c46.667 -6.66699 82 -36.667 106 -90c8 -18 15.333 -85 22 -201c4.66699 -86 7 -154.333 7 -205c0 -14 -1.33301 -25 -4 -33c-10.667 -26.667 -82.667 -53.334 -216 -80.001c-95.333 -18.667 -241 -38.334 -437 -59.001
c-22 -2 -75.333 -7.33301 -160 -16c-146.667 -15.333 -268.334 -23 -365.001 -23c-52 0 -104.667 -1.66699 -158 -5l-166 -10c-57.333 -3.33301 -104.666 -5 -141.999 -5c-41.333 0 -103.666 -1 -186.999 -3s-145.666 -3 -186.999 -3h-81c-28 0 -42.333 1.33301 -43 4v402
l629 2c51.333 0 109.666 1.66699 174.999 5l215 11c86.667 0 216.334 4 389.001 12c55.333 4.66699 123 12 203 22l170 23c160.667 20.667 241 38.667 241 54c0 53.333 -31.667 84 -95 92c-42 5.33301 -106.667 8 -194 8c-45.333 0 -81.333 -0.333008 -108 -1l-231 -5
l-441 -12c-42 0 -111 -0.666992 -207 -2l-159 -3c-33.333 0 -83.666 1.33301 -150.999 4s-117.666 4 -150.999 4c-69.333 0 -120 10 -152 30c-14.667 7.33301 -22 38 -22 92c0 61.333 12 106.666 36 135.999c16.667 21.333 57 50.666 121 87.999
c46.667 27.333 119.834 62.666 219.501 105.999s172.5 78.666 218.5 105.999z" />
    <glyph glyph-name="uFEDC" unicode="&#x6a9;" horiz-adv-x="2201" arabic-form="medial" 
d="M1927 158c-70 -20 -165.671 -40.6631 -287.004 -61.9961c-94 -16 -203.333 -30.333 -328 -43l-227 -23c-79.333 -8 -150 -12 -212 -12c-41.333 0 -87 -1.33301 -137 -4l-155 -9c-44.667 -2.66699 -83.667 -4.33398 -117 -5.00098l-445 -5c-28 0 -42.333 1.66699 -43 5
v402l629 2c182.667 0.666992 381.334 11 596.001 31c212 19.333 392 41.333 540 66c158 26.667 237 48 237 64c0 61.333 -34 92 -102 92c-14.667 -0.666992 -69 -3 -163 -7c-40.667 -1.33301 -94.667 -3 -162 -5l-503 -23c-48 -0.666992 -122 -2 -222 -4l-293 -9
c-48.667 0 -106.334 1.33301 -173.001 4l-112 4c-62 0 -108.333 9.66699 -139 29c-14.667 7.33301 -22 38 -22 92c0 61.333 12 106.666 36 135.999c16.667 21.333 57 50.666 121 87.999c46.667 27.333 119.834 62.666 219.501 105.999s172.5 78.666 218.5 105.999l9 3
c4.66699 0 7 -4.33301 7 -13c0.666992 -30.667 -11.666 -62.667 -36.999 -96c-9.33301 -11.333 -60.666 -38 -153.999 -80c-138 -62 -222 -100.333 -252 -115c-88 -44 -132 -76.333 -132 -97c0 -18 40.667 -30.667 122 -38c4.66699 0 49.334 -1.66699 134.001 -5
c33.333 -0.666992 68 -1 104 -1c45.333 0 91 0.333008 137 1l159 5c36 0.666992 84 1.66699 144 3l517 19c50.667 0.666992 129.334 2.33398 236.001 5.00098l130 5c86 0 142.667 -3 170 -9c42 -9.33301 75.333 -40.666 100 -93.999c19.333 -42.667 29 -85.667 29 -129
c0 -28.667 -11.333 -48.334 -34 -59.001l-64 -24l6 -14l14 -15c18.667 -16 70.667 -24 156 -24h24v-404c-5.33301 0.666992 -10 1 -14 1s-7.66699 -0.333008 -11 -1l-25 -1l-55 3c-42.667 2 -82.334 13.333 -119.001 34c-38.667 21.333 -58 53 -58 95z" />
    <glyph glyph-name="uFB93" unicode="&#x6af;" horiz-adv-x="1814" arabic-form="final" 
d="M332 380c-136 0 -223.337 30 -262.004 90c-13.333 20 -20 45 -20 75c0 33.333 12.667 81 38 143c2 7.33301 4.66699 18.333 8 33c-26 0 -48.333 -30 -67 -90c-14.667 -47.333 -22 -88 -22 -122c0 -56 5.33301 -133.667 16 -233
c12.667 -122.667 27.334 -192.667 44.001 -210c53.333 -56 115 -84 185 -84c15.333 0 30.666 1.66699 45.999 5l183 18c32 1.33301 83.667 4.33301 155 9l64 4c36 0.666992 95.333 3 178 7c78 6 164.333 19 259 39c10.667 4.66699 57 15.334 139 32.001
c121.333 21.333 217 42 287 62l-2 -29c0 -59.333 41.667 -99.333 125 -120c22 -5.33301 39.333 -8.33301 52 -9l55 -3l25 1c3.33301 0.666992 7 1 11 1s8.66699 -0.333008 14 -1v404h-24c-85.333 0 -137.333 8 -156 24l-14 15l-6 14l64 24
c22.667 10.667 34 30.334 34 59.001c0 43.333 -9.66699 86.333 -29 129c-24.667 53.333 -58 84.666 -100 93.999c-27.333 6 -84 9 -170 9c-24 0 -67.333 -1.66699 -130 -5c-36 -1.33301 -94.333 -5 -175 -11l-123 -13c-22.667 -2.66699 -57 -5.33398 -103 -8.00098
c-26 -1.33301 -71.667 -1.66602 -137 -0.999023c-40.667 0 -75 0.333008 -103 1s-73 2.33398 -135 5.00098l-114 24c-3.33301 4.66699 -6.16602 9.66699 -8.49902 15s-3.5 10.666 -3.5 15.999c0 17.333 16.667 32.333 50 45c52.667 20 81.334 31.667 86.001 35
c34.667 21.333 76 41.666 124 60.999c62 24.667 104.667 42.667 128 54l85 31c30 11.333 53 27.666 69 48.999c10.667 15.333 19.334 31.333 26.001 48c10 26.667 13.667 42.667 11 48c-1.33301 2.66699 -3.66602 7 -6.99902 13l-8 -3l-196 -92c-52 -20 -133 -60 -243 -120
l-83 -51c-28 -19.333 -48 -43 -60 -71c-8.66699 -21.333 -13 -55.333 -13 -102c0 -40 7 -70.667 21 -92c32.667 -16.667 79 -26.334 139 -29.001c-12 0.666992 34 2.33398 138 5.00098h150c36.667 1.33301 77.334 4 122.001 8c26 3.33301 69 7.33301 129 12l109 3
c31.333 0.666992 85.333 2.33398 162 5.00098l163 7c68 0 102 -30.667 102 -92c0 -16 -79 -37.333 -237 -64c-148 -24.667 -328 -46.667 -540 -66c-42.667 -6.66699 -143.334 -18.667 -302.001 -36c-65.333 -12.667 -133 -19 -203 -19zM410.996 1007
c6.66699 25.333 45 58.335 115 99.002c38 22 97.333 50.667 178 86s140 64 178 86l6 2c4 0 6 -3.33301 6 -10c0.666992 -25.333 -9.33301 -51.333 -30 -78c-7.33301 -8.66699 -49 -30.334 -125 -65.001c-111.333 -50 -179.333 -81 -204 -93c-31.333 -16 -67 -42 -107 -78
c0 -6 -2.83301 1.16699 -8.5 21.5s-8.5 30.166 -8.5 29.499z" />
    <glyph glyph-name="uFB94" unicode="&#x6af;" horiz-adv-x="2146" arabic-form="initial" 
d="M682 1174l8.99609 3.00488c4.66699 0 7 -4.33301 7 -13c0.666992 -30.667 -11.666 -62.667 -36.999 -96c-9.33301 -11.333 -60.666 -38 -153.999 -80c-138 -62 -222 -100.333 -252 -115c-88 -44 -132 -76.333 -132 -97c0 -12.667 19 -23 57 -31
c23.333 -4.66699 50.666 -7 81.999 -7c7.33301 0 60 -1.66699 158 -5c39.333 -0.666992 79.666 -1 120.999 -1c28 0 81.667 0.333008 161 1l152 2c46 0 108.333 1 187 3c91.333 2.66699 154 4.33398 188 5.00098l329 3c30 0.666992 82 0 156 -2l98 -2
c53.333 0 111.666 -4.33301 174.999 -13c46.667 -6.66699 82 -36.667 106 -90c8 -18 15.333 -85 22 -201c4.66699 -86 7 -154.333 7 -205c0 -14 -1.33301 -25 -4 -33c-10.667 -26.667 -82.667 -53.334 -216 -80.001c-95.333 -18.667 -241 -38.334 -437 -59.001
c-22 -2 -75.333 -7.33301 -160 -16c-146.667 -15.333 -268.334 -23 -365.001 -23c-52 0 -104.667 -1.66699 -158 -5l-166 -10c-57.333 -3.33301 -104.666 -5 -141.999 -5c-41.333 0 -103.666 -1 -186.999 -3s-145.666 -3 -186.999 -3h-81c-28 0 -42.333 1.33301 -43 4v402
l629 2c51.333 0 109.666 1.66699 174.999 5l215 11c86.667 0 216.334 4 389.001 12c55.333 4.66699 123 12 203 22l170 23c160.667 20.667 241 38.667 241 54c0 53.333 -31.667 84 -95 92c-42 5.33301 -106.667 8 -194 8c-45.333 0 -81.333 -0.333008 -108 -1l-231 -5
l-441 -12c-42 0 -111 -0.666992 -207 -2l-159 -3c-33.333 0 -83.666 1.33301 -150.999 4s-117.666 4 -150.999 4c-69.333 0 -120 10 -152 30c-14.667 7.33301 -22 38 -22 92c0 61.333 12 106.666 36 135.999c16.667 21.333 57 50.666 121 87.999
c46.667 27.333 119.834 62.666 219.501 105.999s172.5 78.666 218.5 105.999zM109.996 1007c7.33301 25.333 46 58.335 116 99.002c38 22 97.333 50.667 178 86s139.667 64 177 86l7 2c3.33301 0 5.33301 -3.33301 6 -10c0.666992 -25.333 -9.33301 -51.333 -30 -78
c-7.33301 -8.66699 -49 -30.334 -125 -65.001c-111.333 -50 -179.333 -81 -204 -93c-31.333 -16 -67 -42 -107 -78c0 -6 -3 1.16699 -9 21.5s-9 30.166 -9 29.499z" />
    <glyph glyph-name="uFB95" unicode="&#x6af;" horiz-adv-x="2201" arabic-form="medial" 
d="M1927 158c-70 -20 -165.671 -40.6631 -287.004 -61.9961c-94 -16 -203.333 -30.333 -328 -43l-227 -23c-79.333 -8 -150 -12 -212 -12c-41.333 0 -87 -1.33301 -137 -4l-155 -9c-44.667 -2.66699 -83.667 -4.33398 -117 -5.00098l-445 -5c-28 0 -42.333 1.66699 -43 5
v402l629 2c182.667 0.666992 381.334 11 596.001 31c212 19.333 392 41.333 540 66c158 26.667 237 48 237 64c0 61.333 -34 92 -102 92c-14.667 -0.666992 -69 -3 -163 -7c-40.667 -1.33301 -94.667 -3 -162 -5l-503 -23c-48 -0.666992 -122 -2 -222 -4l-293 -9
c-48.667 0 -106.334 1.33301 -173.001 4l-112 4c-62 0 -108.333 9.66699 -139 29c-14.667 7.33301 -22 38 -22 92c0 61.333 12 106.666 36 135.999c16.667 21.333 57 50.666 121 87.999c46.667 27.333 119.834 62.666 219.501 105.999s172.5 78.666 218.5 105.999l9 3
c4.66699 0 7 -4.33301 7 -13c0.666992 -30.667 -11.666 -62.667 -36.999 -96c-9.33301 -11.333 -60.666 -38 -153.999 -80c-138 -62 -222 -100.333 -252 -115c-88 -44 -132 -76.333 -132 -97c0 -18 40.667 -30.667 122 -38c4.66699 0 49.334 -1.66699 134.001 -5
c33.333 -0.666992 68 -1 104 -1c45.333 0 91 0.333008 137 1l159 5c36 0.666992 84 1.66699 144 3l517 19c50.667 0.666992 129.334 2.33398 236.001 5.00098l130 5c86 0 142.667 -3 170 -9c42 -9.33301 75.333 -40.666 100 -93.999c19.333 -42.667 29 -85.667 29 -129
c0 -28.667 -11.333 -48.334 -34 -59.001l-64 -24l6 -14l14 -15c18.667 -16 70.667 -24 156 -24h24v-404c-5.33301 0.666992 -10 1 -14 1s-7.66699 -0.333008 -11 -1l-25 -1l-55 3c-42.667 2 -82.334 13.333 -119.001 34c-38.667 21.333 -58 53 -58 95zM109.996 1007
c7.33301 25.333 46 58.335 116 99.002c38 22 97.333 50.667 178 86s139.667 64 177 86l7 2c3.33301 0 5.33301 -3.33301 6 -10c0.666992 -25.333 -9.33301 -51.333 -30 -78c-7.33301 -8.66699 -49 -30.334 -125 -65.001c-111.333 -50 -179.333 -81 -204 -93
c-31.333 -16 -67 -42 -107 -78c0 -6 -3 1.16699 -9 21.5s-9 30.166 -9 29.499z" />
    <glyph glyph-name="uFE94" unicode="&#x6c0;" horiz-adv-x="650" arabic-form="final" 
d="M682 0l-16.998 -1.00195l-25 -1c-70.667 -2.66699 -118 9 -142 35c-13.333 14.667 -37 73.334 -71 176.001c-6 18 -10.667 27.333 -14 28c1.33301 -10 2 -22 2 -36c0 -7.33301 -0.666992 -12 -2 -14c-34 -29.333 -58.667 -48.666 -74 -57.999
c-31.333 -18.667 -84 -28 -158 -28c-72.667 0 -109 13.333 -109 40c-11.333 53.333 -17 107 -17 161c0 53.333 7 96 21 128c25.333 58.667 61.666 107 108.999 145c30.667 24.667 74.334 51 131.001 79c41.333 20.667 63 33.667 65 39l2 15l-1 62
c0 24.667 2.66699 46.667 8 66c5.33301 16.667 15.666 33 30.999 49l20 -51l27 -164c11.333 -72 30.666 -145 57.999 -219c12.667 -33.333 56 -50 130 -50h16l10 1v-402zM411.002 511.998c2.66699 2.66699 4 9.33301 4 20c0 42 -6 65 -18 69c-8 1.33301 -44 -13 -108 -43
s-96 -49 -96 -57c2.66699 -0.666992 5 -1 7 -1c18 -5.33301 46 -8 84 -8h11c55.333 0 94 6.66699 116 20zM317.002 869.997c2 -2.66699 3.00098 -8.99707 3.00098 -18.9971c0 -38 -10.667 -57 -32 -57c-56.667 0 -103.334 -7.33301 -140.001 -22l-93 -39
c-6 5.33301 -9 11 -9 17c0 5.33301 5.66699 14.666 17 27.999s17 24 17 32c0 7.33301 -4 15.666 -12 24.999c-12 13.333 -18.667 21.333 -20 24c-3.33301 6.66699 -5 13.667 -5 21c0 14.667 7.66699 31.167 23 49.5s48 43.833 98 76.5c8.66699 8 26.667 12 54 12
c10.667 0 20 -1.5 28 -4.5s15.333 -9.16699 22 -18.5c1.33301 -4 2.66602 -9.33301 3.99902 -16c0 -12 -6.33301 -25.333 -19 -40s-24.667 -19.667 -36 -15l-29 19c-4.66699 3.33301 -11.667 5.66602 -21 6.99902c-11.333 0 -27.666 -10 -48.999 -30l26 -27l37 -23l19 -2
l56 2l40 3c8.66699 0.666992 15.667 -0.333008 21 -3z" />
    <glyph glyph-name="uFEF2" unicode="&#x6cc;" horiz-adv-x="2255" arabic-form="final" 
d="M2266 0c-58.667 0 -112.998 -2 -162.998 -6c-108.667 -9.33301 -163 -28.333 -163 -57c0 -6 33 -15 99 -27c45.333 -8 82 -17.333 110 -28c32 -12 48 -34 48 -66c0 -24.667 -9 -51 -27 -79c-28.667 -45.333 -82 -91 -160 -137c-38 -22.667 -88.667 -40 -152 -52
c-42 -7.33301 -104 -19.333 -186 -36c-172 -39.333 -351 -59 -537 -59c-170 0 -338.667 35 -506 105c-93.333 38.667 -194.333 102.334 -303 191.001c-90.667 73.333 -172 150 -244 230c-60 66.667 -90 108.667 -90 126c0 1.33301 0.333008 2.66602 1 3.99902s2 2 4 2
c13.333 0 52.666 -27.333 117.999 -82c49.333 -41.333 145 -84 287 -128c107.333 -33.333 211 -59.333 311 -78c68.667 -13.333 140 -25.666 214 -36.999l228 -34c1.33301 0 48 -7.66699 140 -23c50.667 -8.66699 97.667 -13 141 -13c136 0 258.333 5.33301 367 16
c128 12 206.667 29 236 51c-10.667 34.667 -50.667 56 -120 64l-107 12c-4.66699 8 -7 18 -7 30c0 48 3.33301 112.333 10 193c8 102.667 17.333 161 28 175c33.333 42 84.666 76.667 153.999 104c53.333 21.333 111.666 33.666 175 36.999l94 4v-402z" />
    <glyph glyph-name="uFEF3" unicode="&#x6cc;" horiz-adv-x="322" arabic-form="initial" 
d="M377 -222l-80 -86l-103 82l84 92zM194 -226l-79 -86l-104 81l82 95zM142 41c-24 -14 -57 -24.334 -99 -31.001l-67 -10v402l65 5c44 2.66699 76.667 10.334 98 23.001c7.33301 4 11 21 11 51c0 24 -13.667 58.667 -41 104l-50 84c-0.666992 2 -1 4.33301 -1 7
c0 11.333 5.66699 30 17 56c14 32 23.667 47.667 29 47c63.333 -54.667 95 -143 95 -265c0 -240 -5 -376.167 -15 -408.5s-24 -53.833 -42 -64.5z" />
    <glyph glyph-name="uFEF4" unicode="&#x6cc;" horiz-adv-x="464" arabic-form="medial" 
d="M487 0l-18.998 -2.99805l-26 -1c-28.667 -0.666992 -58.334 2.33301 -89.001 9c-40 9.33301 -69.667 22.666 -89 39.999l-37 34l-17 19l-39 -36c-23.333 -22 -56.333 -38.667 -99 -50c-33.333 -9.33301 -62.333 -14 -87 -14l-9 1v404h41c4.66699 1.33301 8 2 10 2
c76 7.33301 121 25.666 135 54.999c-9.33301 23.333 -20 69.333 -32 138c-3.33301 20.667 -6 38 -8 52c25.333 59.333 45.666 83 60.999 71c0 -9.33301 17 -58.333 51 -147c8 -22 21.333 -52 40 -90c36.667 -54.667 99.667 -82 189 -82h24v-402zM377.002 -221.998l-80 -86
l-103 82l84 92zM194.002 -225.998l-79 -86l-104 81l82 95z" />
    <glyph glyph-name="Hcircumflex" unicode="&#x622;" horiz-adv-x="571" arabic-form="final" 
d="M672 1426c4 -3.33301 6.66797 -8.66504 8.00098 -15.998c0 -19.333 -21.667 -44.666 -65 -75.999c-38.667 -28.667 -67 -44.334 -85 -47.001l-46 -4c-18 -1.33301 -52.667 2 -104 10c-94.667 15.333 -152.334 23 -173.001 23c-6.66699 0 -28.834 -7.16699 -66.501 -21.5
s-63.834 -21.5 -78.501 -21.5l-16 3c-3.33301 2 -5 5.66699 -5 11c0 16.667 23.333 40.667 70 72c42.667 29.333 74.667 46.666 96 51.999l22 2c12.667 1.33301 55.334 -5 128.001 -19c63.333 -12 108.333 -18 135 -18h21c28.667 9.33301 61.334 21.666 98.001 36.999
c24 10.667 41 16 51 16zM601.001 0.000976562l-16 -1.00098l-24 -1c-50.667 -2 -97.667 7.33301 -141 28c-59.333 28.667 -94.333 74 -105 136c-5.33301 32.667 -10.666 67.334 -15.999 104.001c-1.33301 10 -5 84.667 -11 224l-6 150c0 132 -3.33301 220.667 -10 266
l-21 143l3 16c34 80 54.333 120 61 120s12.5 -15.5 17.5 -46.5s11.167 -89.5 18.5 -175.5c0.666992 -54.667 2.66699 -125 6 -211c5.33301 -70 11.666 -126.667 18.999 -170c13.333 -84 30.333 -132.667 51 -146c36 -24 80 -36 132 -36h31c5.33301 0 9 0.666992 11 2v-402z
" />
    <glyph glyph-name="uFE84" unicode="&#x623;" horiz-adv-x="579" arabic-form="final" 
d="M438 1223c2 -2.66699 3.00195 -9 3.00195 -19c0 -16 -2.66699 -30 -8 -42c-4 -9.33301 -11.333 -14 -22 -14c-58 0 -104.667 -7.33301 -140 -22l-94 -40c-5.33301 5.33301 -8 11 -8 17c0 4 5.5 13 16.5 27s16.5 25 16.5 33c0 10 -5.66699 20 -17 30
c-14 12 -21 25.667 -21 41c0 30.667 40 72.667 120 126l14 4c16 5.33301 30.333 8 43 8c10.667 0 20 -1.5 28 -4.5s15 -9.16699 21 -18.5c2 -4 3.66699 -9.66699 5 -17c0 -14 -7.33301 -28.333 -22 -43c-10.667 -8.66699 -19.334 -13 -26.001 -13
c-2.66699 0 -5.33398 0.666992 -8.00098 2l-29 17c-8.66699 5.33301 -16 8 -22 8c-10 0 -25.667 -10 -47 -30l24 -27c16.667 -12 29 -19.667 37 -23l16 -1l96 4c12 0.666992 20 -0.333008 24 -3zM601.002 0l-16.001 -1l-24 -1c-50.667 -2 -97.667 7.33301 -141 28
c-59.333 28.667 -94.333 74 -105 136c-5.33301 32.667 -10.666 67.334 -15.999 104.001c-1.33301 10 -5 84.667 -11 224l-6 150c0 41.333 -3.33301 84.666 -10 129.999l-21 143l3 15c34 80 54.333 120 61 120s12.5 -15.333 17.5 -46s11.167 -89.334 18.5 -176.001
c0.666992 -38 1.66699 -81 3 -129c7.33301 -11.333 14 -42 20 -92c11.333 -97.333 29 -153.666 53 -168.999c36 -24 80 -36 132 -36h31c5.33301 0 9 0.666992 11 2v-402z" />
    </font>
</defs>
</svg>
