<?xml version="1.0" standalone="no"?>
<!DOCTYPE svg PUBLIC "-//W3C//DTD SVG 1.1//EN" "http://www.w3.org/Graphics/SVG/1.1/DTD/svg11.dtd" >
<svg>
<metadata>
Created by FontForge 20090914 at Wed Oct 19 01:35:18 2011
 By www-data
(c) by Abolfazl Seilsepour - +98 912 591 3420  -  seilsepor@yahoo.com
</metadata>
<defs>
<font id="FarMasjed" horiz-adv-x="0" >
  <font-face 
    font-family="Far.Masjed"
    font-weight="400"
    font-stretch="normal"
    units-per-em="2048"
    panose-1="0 0 4 0 0 0 0 0 0 0"
    ascent="1638"
    descent="-410"
    bbox="-152 -1146 2408 2103"
    underline-thickness="80"
    underline-position="-946"
    unicode-range="U+0020-U+FEFC"
  />
<missing-glyph horiz-adv-x="1024" 
d="M128 0v1318h768v-1318h-768zM256 128h512v1062h-512v-1062z" />
    <glyph glyph-name="uE818" unicode="&#x651;&#x64b;" 
d="M312 1691c2.66699 -34 -3.66797 -63.668 -19.001 -89.001c-13.333 -21.333 -31.666 -32 -54.999 -32c-18 0 -33.667 5 -47 15c-2.66699 -16.667 -11.5 -31.167 -26.5 -43.5s-30.833 -18.5 -47.5 -18.5c-39.333 0 -59 26 -59 78c0 14.667 2.33301 30.334 7 47.001l8 25
l17 3c0 -53.333 9.33301 -80 28 -80c29.333 0 51 39 65 117l13 4c10 -46.667 24 -70 42 -70c32 0 48 35.333 48 106l16 7l8 -38zM296.998 2029c0 -32 -8.33301 -52.667 -25 -62l-219 -124c0 30 16 54.333 48 73zM296.998 1924c0 -32 -8.33301 -52.667 -25 -62l-219 -124
c0 30 16 54.333 48 73z" />
    <glyph glyph-name="uFC5E" unicode="&#x651;&#x64c;" arabic-form="isolated" 
d="M309 1742c2.66699 -34 -3.66797 -63.668 -19.001 -89.001c-13.333 -21.333 -31.666 -32 -54.999 -32c-18 0 -33.667 5 -47 15c-2.66699 -16.667 -11.5 -31.167 -26.5 -43.5s-30.833 -18.5 -47.5 -18.5c-39.333 0 -59 26 -59 78c0 14.667 2.33301 30.334 7 47.001l8 25
l17 3c0 -53.333 9.33301 -80 28 -80c29.333 0 51 39 65 117l13 4c10 -46.667 24 -70 42 -70c32 0 48 35.333 48 106l16 7l8 -38zM327.998 1913l-1 -42l-32 18l-34 24c-57.333 -59.333 -115 -94 -173 -104l15 33l11 27c3.33301 13.333 5 24 5 32c0 26.667 -11.667 40 -35 40
c-20.667 0 -32.667 -18.333 -36 -55l-5 22l-2 16c0 52.667 20.333 79 61 79c33.333 0 49.333 -24 48 -72l-1 -20l-4 -46c28.667 10.667 58.667 32.334 90 65.001c-17.333 10.667 -29.666 21.667 -36.999 33s-11 22.666 -11 33.999c0 24 9 47.667 27 71s38.333 35 61 35
c12 0 23.167 -6.5 33.5 -19.5s15.5 -25.833 15.5 -38.5c0 -14.667 -2.66699 -28.667 -8 -42l-16 -40c19.333 -14 28.666 -30.667 27.999 -50zM273.998 2017c1.33301 25.333 -8.66797 38 -30.001 38c-9.33301 0 -15.666 -5.66699 -18.999 -17c0 -10 6.33301 -20.333 19 -31
l27 -18l2 13z" />
    <glyph glyph-name="uFC5F" unicode="&#x651;&#x64d;" arabic-form="isolated" 
d="M312 1891c2.66699 -34 -3.66797 -63.668 -19.001 -89.001c-13.333 -21.333 -31.666 -32 -54.999 -32c-18 0 -33.667 5 -47 15c-2.66699 -16.667 -11.5 -31.167 -26.5 -43.5s-30.833 -18.5 -47.5 -18.5c-39.333 0 -59 26 -59 78c0 14.667 2.33301 30.334 7 47.001l8 25
l17 3c0 -53.333 9.33301 -80 28 -80c29.333 0 51 39 65 117l13 4c10 -46.667 24 -70 42 -70c32 0 48 35.333 48 106l16 7l8 -38zM323.998 1734c0 -32 -8.33301 -52.667 -25 -62l-219 -124c0 30 16 54.333 48 73zM323.998 1628c0 -32 -8.33301 -52.667 -25 -62l-219 -124
c0 30 16 54.333 48 73z" />
    <glyph glyph-name="uFC60" unicode="&#x651;&#x64e;" arabic-form="isolated" 
d="M312 1711c2.66699 -34 -3.66797 -63.668 -19.001 -89.001c-13.333 -21.333 -31.666 -32 -54.999 -32c-18 0 -33.667 5 -47 15c-2.66699 -16.667 -11.5 -31.167 -26.5 -43.5s-30.833 -18.5 -47.5 -18.5c-39.333 0 -59 26 -59 78c0 14.667 2.33301 30.334 7 47.001l8 25
l17 3c0 -53.333 9.33301 -80 28 -80c29.333 0 51 39 65 117l13 4c10 -46.667 24 -70 42 -70c32 0 48 35.333 48 106l16 7l8 -38zM306.998 1923c0 -31.333 -8.33301 -52 -25 -62l-219 -123c0 30 16 54 48 72z" />
    <glyph glyph-name="uFC61" unicode="&#x651;&#x64f;" arabic-form="isolated" 
d="M312 1701c2.66699 -34 -3.66797 -63.668 -19.001 -89.001c-13.333 -21.333 -31.666 -32 -54.999 -32c-18 0 -33.667 5 -47 15c-2.66699 -16.667 -11.5 -31.167 -26.5 -43.5s-30.833 -18.5 -47.5 -18.5c-39.333 0 -59 26 -59 78c0 14.667 2.33301 30.334 7 47.001l8 25
l17 3c0 -53.333 9.33301 -80 28 -80c29.333 0 51 39 65 117l13 4c10 -46.667 24 -70 42 -70c32 0 48 35.333 48 106l16 7l8 -38zM310.998 1891l-5.99902 -71.001l-26 17l-31 21c-28.667 -34 -52 -58.333 -70 -73c-25.333 -20.667 -49.333 -31 -72 -31
c-8.66699 0 -17 1.33301 -25 4l-18 5c29.333 15.333 54.333 30.333 75 45c12.667 8.66699 39 31 79 67c-16 12.667 -27.333 23.667 -34 33s-10 20 -10 32c0 22.667 8.66699 49.334 26 80.001c15.333 27.333 34.333 41 57 41c32.667 0 49 -21.333 49 -64
c0 -12 -1.66699 -25 -5 -39c-2.66699 -10 -8.33398 -25 -17.001 -45zM260.999 1955c0 29.333 -12.667 44.001 -38 44.001c-2 -0.666992 -5.33301 -2.33398 -10 -5.00098l-3 -10c0 -8.66699 2.66699 -16.167 8 -22.5s18 -16.833 38 -31.5c3.33301 10 5 18.333 5 25z" />
    <glyph glyph-name="uFC62" unicode="&#x651;&#x650;" arabic-form="isolated" 
d="M312 1801c2.66699 -34 -3.66797 -63.668 -19.001 -89.001c-13.333 -21.333 -31.666 -32 -54.999 -32c-18 0 -33.667 5 -47 15c-2.66699 -16.667 -11.5 -31.167 -26.5 -43.5s-30.833 -18.5 -47.5 -18.5c-39.333 0 -59 26 -59 78c0 14.667 2.33301 30.334 7 47.001l8 25
l17 3c0 -53.333 9.33301 -80 28 -80c29.333 0 51 39 65 117l13 4c10 -46.667 24 -70 42 -70c32 0 48 35.333 48 106l16 7l8 -38zM319.998 1654c0 -32 -8.33301 -52.667 -25 -62l-219 -124c0 30 16 54.333 48 73z" />
    <glyph glyph-name="uFDF2" unicode="&#xfedf;&#xfee0;&#xfeea;" horiz-adv-x="1374" arabic-form="isolated" 
d="M1264 1139c-3.33301 -12.667 -14.001 -25.001 -32.001 -37.001l-12 -8c13.333 0 20 -7 20 -21v-631h-163v631c1.33301 7.33301 5.16602 12.333 11.499 15s9.83301 4.66699 10.5 6l-20 13c-12 8.66699 -20.333 17.334 -25 26.001
c-1.33301 5.33301 -2.66602 12.333 -3.99902 21c0 21.333 10.333 42.333 31 63l51 52c3.33301 4 7 9.66699 11 17l14 29l13 -22c6.66699 -10.667 12.334 -18.667 17.001 -24l50 -52c19.333 -20.667 29 -42 29 -64zM1187 1014h-55v-487h55v487zM44.999 -0.000976562v441h1198
v-441h-1198zM413.999 21.999l0.000976562 172c0 8 -4 13.667 -12 17l-13 5l-15 2l-5 2c3.33301 4 7 6.66699 11 8c22.667 18.667 34 38.334 34 59.001c0 26 -13 46.333 -39 61c-13.333 6.66699 -25 13 -35 19c-22.667 8 -49 19.333 -79 34l-22 -9l-59 -24l-35 -19
c-25.333 -13.333 -38 -34 -38 -62c0 -19.333 11.333 -39 34 -59l12 -7l-6 -3c-6.66699 0 -11.334 -0.333008 -14.001 -1l-14 -6c-6 -2.66699 -10 -8.33398 -12 -17.001v-172h307zM812 21.999l0.000976562 172c0 8 -4 13.667 -12 17l-13 5l-15 2l-4 2
c2.66699 4 6 6.66699 10 8c22.667 18.667 34 38.334 34 59.001c0 26 -13 46.333 -39 61c-13.333 6.66699 -25 13 -35 19c-22.667 8 -49 19.333 -79 34l-22 -9l-59 -24l-35 -19c-25.333 -13.333 -38 -34 -38 -62c0 -19.333 11.333 -39 34 -59l12 -7l-6 -3
c-6.66699 0 -11.334 -0.333008 -14.001 -1l-14 -6c-6 -2.66699 -10 -8.33398 -12 -17.001v-172h307zM1195 21.999l0.000976562 172.001c0 8 -3.66699 13.667 -11 17c-11.333 4.66699 -20.666 7 -27.999 7l-5 2c3.33301 4 6.66602 6.66699 9.99902 8
c22.667 18.667 34 38.667 34 60c0 11.333 -4.33301 24 -13 38c-6 10 -17 19 -33 27l-29 14l-44 18c-10 4 -21.333 9.33301 -34 16l-22 -9l-57 -23l-37 -20c-24.667 -12.667 -37 -33.334 -37 -62.001c0 -20 11 -39.667 33 -59l13 -7l-6 -3
c-6.66699 0 -11.334 -0.333008 -14.001 -1l-15 -6c-6 -2 -10 -7.66699 -12 -17v-172h307zM840.002 1139c-4 -12.667 -15 -25.001 -33 -37.001l-12 -8c13.333 0 20 -7 20 -21v-631h-163v631c1.33301 7.33301 5.16602 12.333 11.499 15s9.83301 4.66699 10.5 6l-20 13
c-12 8.66699 -20.333 17.334 -25 26.001c-1.33301 5.33301 -2.33301 12.333 -3 21c0 21.333 10 42.333 30 63l51 52c3.33301 4 7 9.66699 11 17l14 29l13 -22c6.66699 -10.667 12.334 -18.667 17.001 -24l50 -52c20 -20.667 30 -42 30 -64zM762.002 1014h-55v-487h55v487z
M-0.998047 626.999c0 27.333 18 54.333 54 81l96 69l25 19l20 20c2.66699 -4 13 -11.667 31 -23l26 -16c52 -33.333 91 -62.333 117 -87c24 -23.333 36 -44.333 36 -63c0 -23.333 -18.333 -43.333 -55 -60l-37 -18c11.333 -4 25 -13.333 41 -28v-81h-305v81
c0 18.667 12.333 28 37 28l-36 18c-33.333 16 -50 36 -50 60zM125.002 606.999c0 -28 12.668 -50 38.001 -66c12 -6 24 -9 36 -9c31.333 0 53.333 13 66 39c6 12.667 9 24.667 9 36c0 20.667 -7.33301 38.334 -22 53.001s-32.334 22 -53.001 22s-38.167 -7.33301 -52.5 -22
s-21.5 -32.334 -21.5 -53.001z" />
    <glyph glyph-name="uFEF5" unicode="&#xfedf;&#xfe82;" horiz-adv-x="924" arabic-form="isolated" 
d="M852 0h-759v441h759v-441zM796 20l-0.000976562 199c0 6.66699 -2.66699 11.334 -8 14.001l-14 5c-4 1.33301 -8.66699 2 -14 2l-5 1c2.66699 3.33301 6 6 10 8c20.667 17.333 31 35 31 53c0 25.333 -14 45 -42 59l-25 13l-50 21c-12 4.66699 -19.333 8 -22 10l-19 -9
c-12.667 -4 -30 -10.667 -52 -20l-33 -18c-11.333 -6 -18.666 -12.667 -21.999 -20l-9 -18l-2 -18c0 -16.667 10 -34.334 30 -53.001l10 -6l-5 -3h-11c-14 -1.33301 -22 -8.33301 -24 -21v-199h276zM436.999 20v199c0 6.66699 -2.66699 11.334 -8 14.001l-14 5
c-3.33301 1.33301 -8 2 -14 2l-4 1c2 3.33301 5.33301 6 10 8c20 17.333 30 35 30 53c0 10.667 -4 22.667 -12 36c-5.33301 8 -13 14.667 -23 20l-31 16l-38 16l-33 15l-40 -15l-32 -14l-33 -18c-10 -6 -17.667 -12.667 -23 -20l-9 -18l-2 -18
c0 -16.667 10.333 -34.334 31 -53.001l10 -6l-5 -3c-6 0 -10.333 -0.333008 -13 -1l-12 -5c-6 -2.66699 -9.66699 -7.66699 -11 -15v-199h276zM876.999 1139c-3.33301 -12.667 -14.001 -25.001 -32.001 -37.001l-13 -8c13.333 0 20 -7 20 -21v-631h-162v631
c1.33301 7.33301 5 12.333 11 15s9.33301 4.66699 10 6l-19 13c-12 8.66699 -20.333 17.334 -25 26.001c-1.33301 5.33301 -2.66602 12.333 -3.99902 21c0 21.333 10 42.333 30 63l51 52c4 4 7.66699 9.66699 11 17l15 29l13 -22c6 -10.667 11.333 -18.667 16 -24l51 -52
c19.333 -20.667 29 -42 29 -64zM798.998 1014h-55v-487h55v487zM490.998 879.999c-15.333 0 -42 -4.66699 -80 -14c-18.667 0 -31.667 -7 -39 -21v-389h-200v389c0 4 -4.33301 8 -13 12l-19 9l-38 9l-29 5h99v57c0 14.667 -10.667 22 -32 22l131 356l140 -360l-16 -9l-23 -9
v-57h119zM298.998 699.999v96h-47v-96h47zM436.998 1378c-48 -28 -103.667 -42 -167 -42c-26 0 -50.667 2.33301 -74 7c-11.333 2.66699 -22 6.33398 -32 11.001l-21 11l16 -40c3.33301 -8 5 -16 5 -24v-4l-1 -3l-5 -17c-7.33301 -29.333 -13.666 -44 -18.999 -44l-3 5
c0 33.333 -6.33301 61.666 -19 84.999c-6 10.667 -21.333 29 -46 55l34 72c60 -37.333 122.333 -56 187 -56c53.333 0 107.666 14.667 162.999 44z" />
    <glyph glyph-name="uFEF6" unicode="&#xfee0;&#xfe82;" horiz-adv-x="858" arabic-form="final" 
d="M888 0h-795v441h795v-441zM796 20l-0.000976562 199c0 6.66699 -2.66699 11.334 -8 14.001l-14 5c-4 1.33301 -8.66699 2 -14 2l-5 1c2.66699 3.33301 6 6 10 8c20.667 17.333 31 35 31 53c0 25.333 -14 45 -42 59l-25 13l-50 21c-12 4.66699 -19.333 8 -22 10l-19 -9
c-12.667 -4 -30 -10.667 -52 -20l-33 -18c-11.333 -6 -18.666 -12.667 -21.999 -20l-9 -18l-2 -18c0 -16.667 10 -34.334 30 -53.001l10 -6l-5 -3h-11c-14 -1.33301 -22 -8.33301 -24 -21v-199h276zM436.999 20v199c0 6.66699 -2.66699 11.334 -8 14.001l-14 5
c-3.33301 1.33301 -8 2 -14 2l-4 1c2 3.33301 5.33301 6 10 8c20 17.333 30 35 30 53c0 10.667 -4 22.667 -12 36c-5.33301 8 -13 14.667 -23 20l-31 16l-38 16l-33 15l-40 -15l-32 -14l-33 -18c-10 -6 -17.667 -12.667 -23 -20l-9 -18l-2 -18
c0 -16.667 10.333 -34.334 31 -53.001l10 -6l-5 -3c-6 0 -10.333 -0.333008 -13 -1l-12 -5c-6 -2.66699 -9.66699 -7.66699 -11 -15v-199h276zM876.999 1139c-4 -12 -20.666 -22.334 -49.999 -31.001l-45 -14c13.333 0 20 -7 20 -21v-631h-163v631
c1.33301 7.33301 5.16602 12.333 11.499 15s9.83301 4.66699 10.5 6l-19 13c-12.667 8.66699 -21.334 17.334 -26.001 26.001c-1.33301 5.33301 -2.33301 12.333 -3 21c0 21.333 10 42.333 30 63l51 52c4 4 7.66699 9.66699 11 17l14 29l13 -22
c6.66699 -11.333 12.334 -19.333 17.001 -24l75 -55c36 -26.667 54 -48.667 54 -66zM749 1014h-55v-487h55v487zM491 879.999c-15.333 0 -42 -4.66699 -80 -14c-18.667 0 -31.667 -7 -39 -21v-389h-200v389c0 4 -4.33301 8 -13 12l-19 9l-38 9l-29 5h99v57
c0 14.667 -10.667 22 -32 22l131 356l140 -360l-16 -9l-23 -9v-57h119zM299 699.999v96h-47v-96h47zM437 1378c-48 -28 -103.667 -42 -167 -42c-26 0 -50.667 2.33301 -74 7c-11.333 2.66699 -22 6.33398 -32 11.001l-21 11l16 -40c3.33301 -8 5 -16 5 -24v-4l-1 -3l-5 -17
c-7.33301 -29.333 -13.666 -44 -18.999 -44l-3 5c0 33.333 -6.33301 61.666 -19 84.999c-6 10.667 -21.333 29 -46 55l34 72c60 -37.333 122.333 -56 187 -56c53.333 0 107.666 14.667 162.999 44z" />
    <glyph glyph-name="uFEF7" unicode="&#xfedf;&#xfe84;" horiz-adv-x="924" arabic-form="isolated" 
d="M852 0h-759v441h759v-441zM796 20l-0.000976562 199c0 6.66699 -2.66699 11.334 -8 14.001l-14 5c-4 1.33301 -8.66699 2 -14 2l-5 1c2.66699 3.33301 6 6 10 8c20.667 17.333 31 35 31 53c0 25.333 -14 45 -42 59l-25 13l-50 21c-12 4.66699 -19.333 8 -22 10l-19 -9
c-12.667 -4 -30 -10.667 -52 -20l-33 -18c-11.333 -6 -18.666 -12.667 -21.999 -20l-9 -18l-2 -18c0 -16.667 10 -34.334 30 -53.001l10 -6l-5 -3h-11c-14 -1.33301 -22 -8.33301 -24 -21v-199h276zM436.999 20v199c0 6.66699 -2.66699 11.334 -8 14.001l-14 5
c-3.33301 1.33301 -8 2 -14 2l-4 1c2 3.33301 5.33301 6 10 8c20 17.333 30 35 30 53c0 10.667 -4 22.667 -12 36c-5.33301 8 -13 14.667 -23 20l-31 16l-38 16l-33 15l-40 -15l-32 -14l-33 -18c-10 -6 -17.667 -12.667 -23 -20l-9 -18l-2 -18
c0 -16.667 10.333 -34.334 31 -53.001l10 -6l-5 -3c-6 0 -10.333 -0.333008 -13 -1l-12 -5c-6 -2.66699 -9.66699 -7.66699 -11 -15v-199h276zM876.999 1139c-3.33301 -12.667 -14.001 -25.001 -32.001 -37.001l-13 -8c13.333 0 20 -7 20 -21v-631h-162v631
c1.33301 7.33301 5 12.333 11 15s9.33301 4.66699 10 6l-19 13c-12 8.66699 -20.333 17.334 -25 26.001c-1.33301 5.33301 -2.66602 12.333 -3.99902 21c0 21.333 10 42.333 30 63l51 52c4 4 7.66699 9.66699 11 17l15 29l13 -22c6 -10.667 11.333 -18.667 16 -24l51 -52
c19.333 -20.667 29 -42 29 -64zM798.998 1014h-55v-487h55v487zM490.998 828.999c-15.333 0 -42 -4.33301 -80 -13c-18.667 0 -31.667 -7.33301 -39 -22v-338h-200v338c0 4 -4.33301 8 -13 12l-19 10l-38 8l-29 5h99v58c0 14.667 -10.667 22 -32 22l131 269l140 -274l-16 -8
l-23 -9v-58h119zM298.998 648.999v96h-47v-96h47zM353.998 1328l-24 -75.999l-39 -19l-27 -15c-12 -6.66699 -33.667 -19.667 -65 -39l-67 -42l6 25l6 25l19 18l25 18l-32 13c-26 7.33301 -40 14.666 -42 21.999v4c0 19.333 12.333 48 37 86
c20.667 32.667 40.334 57.667 59.001 75c8 8 15.667 13.333 23 16l13 4l14 1c28 0 42 -12 42 -36c0 -14.667 -10 -34.667 -30 -60l-5 3l-15 10c-5.33301 4 -11 6.66699 -17 8c-6.66699 0 -13.834 -3.33301 -21.501 -10s-16.834 -18.667 -27.501 -36
c6.66699 -6 16.334 -11.333 29.001 -16l16 -3l19 -2h13c4.66699 0 10 0.666992 16 2l24 6c16 4.66699 31 12 45 22h5z" />
    <glyph glyph-name="uFEF8" unicode="&#xfee0;&#xfe84;" horiz-adv-x="858" arabic-form="final" 
d="M888 0h-795v441h795v-441zM796 20l-0.000976562 199c0 6.66699 -2.66699 11.334 -8 14.001l-14 5c-4 1.33301 -8.66699 2 -14 2l-5 1c2.66699 3.33301 6 6 10 8c20.667 17.333 31 35 31 53c0 25.333 -14 45 -42 59l-25 13l-50 21c-12 4.66699 -19.333 8 -22 10l-19 -9
c-12.667 -4 -30 -10.667 -52 -20l-33 -18c-11.333 -6 -18.666 -12.667 -21.999 -20l-9 -18l-2 -18c0 -16.667 10 -34.334 30 -53.001l10 -6l-5 -3h-11c-14 -1.33301 -22 -8.33301 -24 -21v-199h276zM436.999 20v199c0 6.66699 -2.66699 11.334 -8 14.001l-14 5
c-3.33301 1.33301 -8 2 -14 2l-4 1c2 3.33301 5.33301 6 10 8c20 17.333 30 35 30 53c0 10.667 -4 22.667 -12 36c-5.33301 8 -13 14.667 -23 20l-31 16l-38 16l-33 15l-40 -15l-32 -14l-33 -18c-10 -6 -17.667 -12.667 -23 -20l-9 -18l-2 -18
c0 -16.667 10.333 -34.334 31 -53.001l10 -6l-5 -3c-6 0 -10.333 -0.333008 -13 -1l-12 -5c-6 -2.66699 -9.66699 -7.66699 -11 -15v-199h276zM876.999 1139c-4 -12 -20.666 -22.334 -49.999 -31.001l-45 -14c13.333 0 20 -7 20 -21v-631h-163v631
c1.33301 7.33301 5.16602 12.333 11.499 15s9.83301 4.66699 10.5 6l-19 13c-12.667 8.66699 -21.334 17.334 -26.001 26.001c-1.33301 5.33301 -2.33301 12.333 -3 21c0 21.333 10 42.333 30 63l51 52c4 4 7.66699 9.66699 11 17l14 29l13 -22
c6.66699 -11.333 12.334 -19.333 17.001 -24l75 -55c36 -26.667 54 -48.667 54 -66zM749 1014h-55v-487h55v487zM491 814.999c-15.333 0 -42 -4.66699 -80 -14c-18.667 0 -31.667 -7 -39 -21v-324h-200v324c0 4 -4.33301 8 -13 12l-19 9l-38 9l-29 5h99v58
c0 14 -10.667 21 -32 21l131 327l140 -331l-16 -9l-23 -8v-58h119zM299 634.999v96h-47v-96h47zM354 1328l-24 -75.999l-39 -19l-27 -15c-12 -6.66699 -33.667 -19.667 -65 -39l-67 -42l6 25l6 25l19 18l25 18l-32 13c-26 7.33301 -40 14.666 -42 21.999v4
c0 19.333 12.333 48 37 86c20.667 32.667 40.334 57.667 59.001 75c8 8 15.667 13.333 23 16l13 4l14 1c28 0 42 -12 42 -36c0 -14.667 -10 -34.667 -30 -60l-5 3l-15 10c-5.33301 4 -11 6.66699 -17 8c-6.66699 0 -13.834 -3.33301 -21.501 -10
s-16.834 -18.667 -27.501 -36c6.66699 -6 16.334 -11.333 29.001 -16l16 -3l19 -2h13c4.66699 0 10 0.666992 16 2l24 6c16 4.66699 31 12 45 22h5z" />
    <glyph glyph-name="uFEF9" unicode="&#xfedf;&#xfe88;" horiz-adv-x="924" arabic-form="isolated" 
d="M852 0h-759v441h759v-441zM796 20l-0.000976562 199c0 6.66699 -2.66699 11.334 -8 14.001l-14 5c-4 1.33301 -8.66699 2 -14 2l-5 1c2.66699 3.33301 6 6 10 8c20.667 17.333 31 35 31 53c0 25.333 -14 45 -42 59l-25 13l-50 21c-12 4.66699 -19.333 8 -22 10l-19 -9
c-12.667 -4 -30 -10.667 -52 -20l-33 -18c-11.333 -6 -18.666 -12.667 -21.999 -20l-9 -18l-2 -18c0 -16.667 10 -34.334 30 -53.001l10 -6l-5 -3h-11c-14 -1.33301 -22 -8.33301 -24 -21v-199h276zM436.999 20v199c0 6.66699 -2.66699 11.334 -8 14.001l-14 5
c-3.33301 1.33301 -8 2 -14 2l-4 1c2 3.33301 5.33301 6 10 8c20 17.333 30 35 30 53c0 10.667 -4 22.667 -12 36c-5.33301 8 -13 14.667 -23 20l-31 16l-38 16l-33 15l-40 -15l-32 -14l-33 -18c-10 -6 -17.667 -12.667 -23 -20l-9 -18l-2 -18
c0 -16.667 10.333 -34.334 31 -53.001l10 -6l-5 -3c-6 0 -10.333 -0.333008 -13 -1l-12 -5c-6 -2.66699 -9.66699 -7.66699 -11 -15v-199h276zM876.999 1139c-3.33301 -12.667 -14.001 -25.001 -32.001 -37.001l-13 -8c13.333 0 20 -7 20 -21v-631h-162v631
c1.33301 7.33301 5 12.333 11 15s9.33301 4.66699 10 6l-19 13c-12 8.66699 -20.333 17.334 -25 26.001c-1.33301 5.33301 -2.66602 12.333 -3.99902 21c0 21.333 10 42.333 30 63l51 52c4 4 7.66699 9.66699 11 17l15 29l13 -22c6 -10.667 11.333 -18.667 16 -24l51 -52
c19.333 -20.667 29 -42 29 -64zM798.998 1014h-55v-487h55v487zM490.998 879.999c-15.333 0 -42 -4.66699 -80 -14c-18.667 0 -31.667 -7 -39 -21v-389h-200v389c0 4 -4.33301 8 -13 12l-19 9l-38 9l-29 5h99v57c0 14.667 -10.667 22 -32 22l131 356l140 -360l-16 -9l-23 -9
v-57h119zM298.998 699.999v96h-47v-96h47zM373.998 -176.001l-24 -74.999l-40 -19l-26 -15c-27.333 -15.333 -49.333 -28.333 -66 -39l-67 -42l6 25l6 25l20 18l24 17l-31 14c-26 7.33301 -40.333 14.333 -43 21v5c0 19.333 12.333 48 37 86c21.333 32 41.333 57 60 75
c7.33301 7.33301 15 12.333 23 15l12 5l14 1c28 0 42 -12 42 -36c0 -16 -9.66699 -36.333 -29 -61l-5 3l-16 11c-5.33301 4 -11 6.33301 -17 7c-6.66699 0 -13.667 -3.33301 -21 -10s-16.333 -18.334 -27 -35.001c6 -6 15.333 -11.333 28 -16l17 -3l18 -2h13
c4.66699 0 10 0.666992 16 2l25 6c16 4 31 11.333 45 22h4z" />
    <glyph glyph-name="uFEFA" unicode="&#xfee0;&#xfe88;" horiz-adv-x="858" arabic-form="final" 
d="M888 0h-795v441h795v-441zM796 20l-0.000976562 199c0 6.66699 -2.66699 11.334 -8 14.001l-14 5c-4 1.33301 -8.66699 2 -14 2l-5 1c2.66699 3.33301 6 6 10 8c20.667 17.333 31 35 31 53c0 25.333 -14 45 -42 59l-25 13l-50 21c-12 4.66699 -19.333 8 -22 10l-19 -9
c-12.667 -4 -30 -10.667 -52 -20l-33 -18c-11.333 -6 -18.666 -12.667 -21.999 -20l-9 -18l-2 -18c0 -16.667 10 -34.334 30 -53.001l10 -6l-5 -3h-11c-14 -1.33301 -22 -8.33301 -24 -21v-199h276zM436.999 20v199c0 6.66699 -2.66699 11.334 -8 14.001l-14 5
c-3.33301 1.33301 -8 2 -14 2l-4 1c2 3.33301 5.33301 6 10 8c20 17.333 30 35 30 53c0 10.667 -4 22.667 -12 36c-5.33301 8 -13 14.667 -23 20l-31 16l-38 16l-33 15l-40 -15l-32 -14l-33 -18c-10 -6 -17.667 -12.667 -23 -20l-9 -18l-2 -18
c0 -16.667 10.333 -34.334 31 -53.001l10 -6l-5 -3c-6 0 -10.333 -0.333008 -13 -1l-12 -5c-6 -2.66699 -9.66699 -7.66699 -11 -15v-199h276zM876.999 1139c-4 -12 -20.666 -22.334 -49.999 -31.001l-45 -14c13.333 0 20 -7 20 -21v-631h-163v631
c1.33301 7.33301 5.16602 12.333 11.499 15s9.83301 4.66699 10.5 6l-19 13c-12.667 8.66699 -21.334 17.334 -26.001 26.001c-1.33301 5.33301 -2.33301 12.333 -3 21c0 21.333 10 42.333 30 63l51 52c4 4 7.66699 9.66699 11 17l14 29l13 -22
c6.66699 -11.333 12.334 -19.333 17.001 -24l75 -55c36 -26.667 54 -48.667 54 -66zM749 1014h-55v-487h55v487zM491 879.999c-15.333 0 -42 -4.66699 -80 -14c-18.667 0 -31.667 -7 -39 -21v-389h-200v389c0 4 -4.33301 8 -13 12l-19 9l-38 9l-29 5h99v57
c0 14.667 -10.667 22 -32 22l131 356l140 -360l-16 -9l-23 -9v-57h119zM299 699.999v96h-47v-96h47zM374 -176.001l-24 -74.999l-40 -19l-26 -15c-27.333 -15.333 -49.333 -28.333 -66 -39l-67 -42l6 25l6 25l20 18l24 17l-31 14c-26 7.33301 -40.333 14.333 -43 21v5
c0 19.333 12.333 48 37 86c21.333 32 41.333 57 60 75c7.33301 7.33301 15 12.333 23 15l12 5l14 1c28 0 42 -12 42 -36c0 -16 -9.66699 -36.333 -29 -61l-5 3l-16 11c-5.33301 4 -11 6.33301 -17 7c-6.66699 0 -13.667 -3.33301 -21 -10s-16.333 -18.334 -27 -35.001
c6 -6 15.333 -11.333 28 -16l17 -3l18 -2h13c4.66699 0 10 0.666992 16 2l25 6c16 4 31 11.333 45 22h4z" />
    <glyph glyph-name="uFEFB" unicode="&#xfedf;&#xfe8e;" horiz-adv-x="924" arabic-form="isolated" 
d="M852 0h-759v441h759v-441zM796 20l-0.000976562 199c0 6.66699 -2.66699 11.334 -8 14.001l-14 5c-4 1.33301 -8.66699 2 -14 2l-5 1c2.66699 3.33301 6 6 10 8c20.667 17.333 31 35 31 53c0 25.333 -14 45 -42 59l-25 13l-50 21c-12 4.66699 -19.333 8 -22 10l-19 -9
c-12.667 -4 -30 -10.667 -52 -20l-33 -18c-11.333 -6 -18.666 -12.667 -21.999 -20l-9 -18l-2 -18c0 -16.667 10 -34.334 30 -53.001l10 -6l-5 -3h-11c-14 -1.33301 -22 -8.33301 -24 -21v-199h276zM436.999 20v199c0 6.66699 -2.66699 11.334 -8 14.001l-14 5
c-3.33301 1.33301 -8 2 -14 2l-4 1c2 3.33301 5.33301 6 10 8c20 17.333 30 35 30 53c0 10.667 -4 22.667 -12 36c-5.33301 8 -13 14.667 -23 20l-31 16l-44 20c-18.667 8 -29.667 13.333 -33 16c-4.66699 -3.33301 -13.667 -8.33301 -27 -15l-39 -19l-33 -18
c-10 -6 -17.667 -12.667 -23 -20l-9 -18l-2 -18c0 -16.667 10.333 -34.334 31 -53.001l10 -6l-5 -3c-6 0 -10.333 -0.333008 -13 -1l-12 -5c-6 -2.66699 -9.66699 -7.66699 -11 -15v-199h276zM876.999 1139c-3.33301 -12.667 -14.001 -25.001 -32.001 -37.001l-13 -8
c13.333 0 20 -7 20 -21v-631h-162v631c1.33301 7.33301 5 12.333 11 15s9.33301 4.66699 10 6l-19 13c-12 8.66699 -20.333 17.334 -25 26.001c-1.33301 5.33301 -2.66602 12.333 -3.99902 21c0 21.333 10 42.333 30 63l51 52c4 4 7.66699 9.66699 11 17l15 29l13 -22
c6 -10.667 11.333 -18.667 16 -24l51 -52c19.333 -20.667 29 -42 29 -64zM798.998 1014h-55v-487h55v487zM490.998 879.999c-15.333 0 -42 -4.66699 -80 -14c-18.667 0 -31.667 -7 -39 -21v-389h-200v389c0 4 -4.33301 8 -13 12l-19 9l-38 9l-29 5h99v57
c0 14.667 -10.667 22 -32 22l131 356l140 -360l-16 -9l-23 -9v-57h119zM298.998 699.999v96h-47v-96h47z" />
    <glyph glyph-name="uFEFC" unicode="&#xfee0;&#xfe8e;" horiz-adv-x="858" arabic-form="final" 
d="M888 0h-795v441h795v-441zM796 20l-0.000976562 199c0 6.66699 -2.66699 11.334 -8 14.001l-14 5c-4 1.33301 -8.66699 2 -14 2l-5 1c2.66699 3.33301 6 6 10 8c20.667 17.333 31 35 31 53c0 25.333 -14 45 -42 59l-25 13l-50 21c-12 4.66699 -19.333 8 -22 10l-19 -9
c-12.667 -4 -30 -10.667 -52 -20l-33 -18c-11.333 -6 -18.666 -12.667 -21.999 -20l-9 -18l-2 -18c0 -16.667 10 -34.334 30 -53.001l10 -6l-5 -3h-11c-14 -1.33301 -22 -8.33301 -24 -21v-199h276zM436.999 20v199c0 6.66699 -2.66699 11.334 -8 14.001l-14 5
c-3.33301 1.33301 -8 2 -14 2l-4 1c2 3.33301 5.33301 6 10 8c20 17.333 30 35 30 53c0 10.667 -4 22.667 -12 36c-5.33301 8 -13 14.667 -23 20l-31 16l-38 16l-33 15l-40 -15l-32 -14l-33 -18c-10 -6 -17.667 -12.667 -23 -20l-9 -18l-2 -18
c0 -16.667 10.333 -34.334 31 -53.001l10 -6l-5 -3c-6 0 -10.333 -0.333008 -13 -1l-12 -5c-6 -2.66699 -9.66699 -7.66699 -11 -15v-199h276zM876.999 1139c-4 -12 -20.666 -22.334 -49.999 -31.001l-45 -14c13.333 0 20 -7 20 -21v-631h-163v631
c1.33301 7.33301 5.16602 12.333 11.499 15s9.83301 4.66699 10.5 6l-19 13c-12.667 8.66699 -21.334 17.334 -26.001 26.001c-1.33301 5.33301 -2.33301 12.333 -3 21c0 21.333 10 42.333 30 63l51 52c4 4 7.66699 9.66699 11 17l14 29l13 -22
c6.66699 -11.333 12.334 -19.333 17.001 -24l75 -55c36 -26.667 54 -48.667 54 -66zM749 1014h-55v-487h55v487zM491 879.999c-15.333 0 -42 -4.66699 -80 -14c-18.667 0 -31.667 -7 -39 -21v-389h-200v389c0 4 -4.33301 8 -13 12l-19 9l-38 9l-29 5h99v57
c0 14.667 -10.667 22 -32 22l131 356l140 -360l-16 -9l-23 -9v-57h119zM299 699.999v96h-47v-96h47z" />
    <glyph glyph-name="u0652_u064E.liga" unicode="&#x652;&#x64e;" horiz-adv-x="1" 
d="M218 1160c-6 0 -15.665 -1.66699 -28.998 -5c-6.66699 0 -11.334 -2.66699 -14.001 -8v-300h-72v300c-0.666992 2 -2.33398 3.66699 -5.00098 5l-7 3l-14 3l-10 2h36v21c0 4.66699 -4 7 -12 7l48 128l50 -129l-6 -3l-8 -3v-21h43zM154.002 880v252h-30v-252h30z" />
    <glyph glyph-name="u0652_u064B.liga" unicode="&#x652;&#x64b;" horiz-adv-x="1" 
d="M-81 1109h140l45 131l41 -131h139l-113 -82l46 -132l-113 82l-113 -82l41 132zM236 1109h140l45 131l40 -131h140l-113 -82l45 -132l-112 82l-113 -82l41 132z" />
    <glyph glyph-name="u0652_u064D.liga" unicode="&#x652;&#x64d;" horiz-adv-x="1" 
d="M263 -799v86h49v84h280v-84h-50v-86h-52v-85h-279v85h52zM578 -715v-154h-86v-15h100v169h-14zM666 -799v86h50v84h280v-84h-51v-86h-52v-85h-279v85h52zM981 -715v-154h-86v-15h101v169h-15z" />
    <glyph glyph-name="u0622" unicode="&#x622;" horiz-adv-x="387" arabic-form="isolated" 
d="M415 870c-15.333 0 -42 -4.66699 -80 -14c-18.667 0 -31.667 -7.33301 -39 -22v-834h-200v834c0 4 -4.33301 8.33301 -13 13l-20 9l-38 9l-29 5h100v57c0 14.667 -11 22 -33 22l132 356l140 -360l-17 -9l-22 -9v-57h119zM222 243v543h-46v-543h46zM354 1382
c-52 -28.667 -107.999 -43 -167.999 -43c-22.667 0 -47.334 2.33301 -74.001 7l-31 6c-8 1.33301 -15.667 3.66602 -23 6.99902l6 -11l12 -20c2 -4.66699 3.66699 -12.667 5 -24l-1 -7c-8 -40 -16 -60.667 -24 -62l-3 7c0 24 -2.66699 43.667 -8 59
c-6 18.667 -13.667 33.334 -23 44.001l-34 37l21 43l15 28c58.667 -37.333 119.667 -56 183 -56c55.333 0 110.333 14.667 165 44z" />
    <glyph glyph-name="u0623" unicode="&#x623;" horiz-adv-x="387" arabic-form="isolated" 
d="M415 870c-15.333 0 -42 -4.66699 -80 -14c-18.667 0 -31.667 -7.33301 -39 -22v-834h-200v834c0 4 -4.33301 8.33301 -13 13l-20 9l-38 9l-29 5h100v57c0 14.667 -11 22 -33 22l132 284l140 -288l-17 -9l-22 -9v-57h119zM222 243v543h-46v-543h46zM285 1347l-23.002 -76
l-27 -12l-48 -26c-2 -0.666992 -13.667 -6.66699 -35 -18c-27.333 -15.333 -58 -34 -92 -56l15 48c5.33301 6.66699 12 12.667 20 18c6 6 14.667 12 26 18l-33 13c-26.667 6 -41 13.333 -43 22v4c0 15.333 9.83301 40.333 29.5 75s41.834 63.667 66.501 87
c6 5.33301 14.333 10.333 25 15l25 5c28.667 0 43 -12.333 43 -37c0 -10.667 -7 -26.334 -21 -47.001c-3.33301 -5.33301 -6.66602 -9.66602 -9.99902 -12.999l-18 12c-5.33301 4 -11.666 6.66699 -18.999 8c-14.667 0 -31.334 -14.667 -50.001 -44
c7.33301 -6.66699 17 -12 29 -16l16 -4l18 -1c34 -2.66699 67.333 7 100 29c2.66699 0 4.66699 -1.33301 6 -4z" />
    <glyph glyph-name="u0624" unicode="&#x624;" horiz-adv-x="821" arabic-form="isolated" 
d="M773 -491v206c0 6.66699 -2.66699 11.334 -8 14.001l-14 5c-4 1.33301 -8.66699 2 -14 2l-5 1c2.66699 3.33301 6 6 10 8c20.667 17.333 31 35 31 53c0 25.333 -14 45 -42 59l-25 13l-50 21c-12 4.66699 -19.333 8 -22 10l-19 -9c-12.667 -4 -30 -10.667 -52 -20l-33 -18
c-10.667 -6 -18 -12.667 -22 -20l-9 -18l-2 -18c0 -16.667 10 -34.334 30 -53.001l10 -6l-5 -3h-11c-14 -1.33301 -22 -8.33301 -24 -21v-206h276zM430 -46l2 50c-64.667 59.333 -97 135 -97 227c0 88 31.667 158 95 210c72 58.667 144.333 88 217 88
c48.667 0 95 -14.667 139 -44c16 -10 33 -24.667 51 -44v-959h-733v472h326zM433 -494l0.000976562 198.999c0 6.66699 -2.66699 11.334 -8 14.001l-14 5c-4 1.33301 -8.66699 2 -14 2l-4 1c2 2.66699 5 5.33398 9 8.00098c20.667 17.333 31 35 31 53
c0 25.333 -13.667 45 -41 59l-26 13l-43 20c-18.667 8 -30 13.333 -34 16c-4 -3.33301 -12.667 -8.33301 -26 -15l-40 -19l-32 -18c-10.667 -6 -18.334 -12.667 -23.001 -20l-9 -18l-2 -18c0 -16.667 10 -34.334 30 -53.001l11 -6l-5 -3h-13l-12 -5
c-6 -2.66699 -9.66699 -8 -11 -16v-199h276zM451.001 226.999c0 -31.333 7.66699 -58.999 23 -82.999c30.667 -48.667 75 -73 133 -73c65.333 0 112 29.667 140 89c10 21.333 15 43.666 15 66.999c0 65.333 -29.333 112 -88 140c-21.333 10 -43.666 15 -66.999 15
c-42.667 0 -79.334 -15.167 -110.001 -45.5s-46 -66.833 -46 -109.5zM583.001 819l-24 -74.998l-39 -19l-27 -15c-12 -6.66699 -33.667 -19.667 -65 -39l-67 -42l5 25l7 25l19 18l25 17l-32 14c-26 7.33301 -40 14.666 -42 21.999v4c0 19.333 12.333 48 37 86
c20.667 32 40.334 57 59.001 75c8 7.33301 15.667 12.333 23 15l12 5l15 1c28 0 42 -12 42 -36c0 -15.333 -10 -35.333 -30 -60l-5 2l-15 11c-5.33301 4 -11 6.33301 -17 7c-6.66699 0 -13.834 -3.33301 -21.501 -10s-16.834 -18.334 -27.501 -35.001
c6.66699 -6 16.334 -11.333 29.001 -16l16 -3l19 -2h13c4.66699 0 10 0.666992 16 2l24 6c16 4 31 11.333 45 22h5z" />
    <glyph glyph-name="u0625" unicode="&#x625;" horiz-adv-x="387" arabic-form="isolated" 
d="M415 870c-15.333 0 -42 -4.66699 -80 -14c-18.667 0 -31.667 -7.33301 -39 -22v-834h-200v834c0 4 -4.33301 8.33301 -13 13l-20 9l-38 9l-29 5h100v57c0 14.667 -11 22 -33 22l132 356l140 -360l-17 -9l-22 -9v-57h119zM222 243v543h-46v-543h46zM305 -215
l-23.001 -77.002l-27 -11l-48 -26c-2 -0.666992 -13.667 -7 -35 -19c-26.667 -14.667 -57 -33 -91 -55l14 48c5.33301 6.66699 12 12.667 20 18l26 17l-33 13c-26.667 6.66699 -40.667 14.334 -42 23.001v3c0 15.333 9.83301 40.5 29.5 75.5s41.5 64.167 65.5 87.5
c6 5.33301 13.667 10 23 14l27 5c28.667 0 43 -12 43 -36c0 -10.667 -7 -26.667 -21 -48c-3.33301 -4.66699 -6.66602 -9 -9.99902 -13l-18 13c-5.33301 4 -11.666 6.66699 -18.999 8c-14.667 0 -31.334 -15 -50.001 -45c8 -6 17.667 -11 29 -15l16 -4l18 -1
c34 -3.33301 67.667 6.33398 101 29.001c2 0 3.66699 -1.33301 5 -4z" />
    <glyph glyph-name="u0626" unicode="&#x626;" horiz-adv-x="1944" arabic-form="isolated" 
d="M1045 0v441h844v-441h-844zM1826 22l0.000976562 172c0 8 -4 13.667 -12 17l-13 5l-15 2l-5 2c3.33301 4 7 6.66699 11 8c22.667 18.667 34 38.334 34 59.001c0 26 -13 46.333 -39 61c-14 6.66699 -25.667 13 -35 19l-49 19c-10 4 -22 9.33301 -36 16
c0 -0.666992 -13.333 -6.66699 -40 -18l-34 -15l-36 -20c-25.333 -13.333 -38 -34 -38 -62c0 -19.333 11.333 -39 34 -59l12 -7l-6 -3c-6.66699 0 -11.334 -0.333008 -14.001 -1l-14 -6c-6 -2.66699 -10 -8.33398 -12 -17.001v-172h307zM77.001 -441v440.999h1241v-441
l-52 -12c-11.333 -3.33301 -30 -8.33301 -56 -15c-134 -33.333 -267 -57.666 -399 -72.999c-43.333 -5.33301 -83.333 -8 -120 -8c-72 0 -160.333 9.33301 -265 28c-96 16.667 -177 34 -243 52zM453.001 -418.001l0.00195312 172.002c0 8 -4 13.333 -12 16l-13 5l-15 3l-5 1
c3.33301 4 7 7 11 9c22.667 18.667 34 38.334 34 59.001c0 25.333 -13 45.666 -39 60.999c-14 6 -25.667 12.333 -35 19l-45 18c-10 4 -21.333 9 -34 15l-22 -9c-26.667 -8.66699 -46.334 -16.334 -59.001 -23.001l-35 -19c-25.333 -14 -38 -34.667 -38 -62
c0 -20 11.333 -39.667 34 -59l12 -8l-6 -2c-6.66699 0 -11.334 -0.666992 -14.001 -2l-14 -5c-5.33301 -2.66699 -9.33301 -8.33398 -12 -17.001v-172h307zM851.003 -417.999l0.00195312 172.002c0 8 -4 13.333 -12 16l-13 5l-15 3l-5 1c3.33301 4 7 7 11 9
c22.667 18.667 34 38.334 34 59.001c0 25.333 -13 45.666 -39 60.999c-13.333 6 -25 12.333 -35 19l-45 18c-10 4 -21.333 9 -34 15l-22 -9c-26.667 -8.66699 -46.334 -16.334 -59.001 -23.001l-35 -19c-25.333 -14 -38 -34.667 -38 -62c0 -20 11.333 -39.667 34 -59l12 -8
l-6 -2c-6.66699 0 -11.334 -0.666992 -14.001 -2l-14 -5c-5.33301 -2.66699 -9.33301 -8.33398 -12 -17.001v-172h307zM1234 -417.997l0.000976562 172.001c0 7.33301 -3.66699 12.666 -11 15.999c-12 5.33301 -21.667 8 -29 8l-4 1c2.66699 4 6 7 10 9
c22.667 18.667 34 38.334 34 59.001c0 27.333 -15.333 49 -46 65l-29 15l-44 18c-10 4 -21.333 9 -34 15l-22 -9l-57 -23l-37 -19c-24.667 -13.333 -37 -34.333 -37 -63c0 -20 11 -39.333 33 -58l12 -8l-5 -2c-6.66699 0 -11.334 -0.666992 -14.001 -2l-15 -5
c-5.33301 -2.66699 -9.33301 -8.33398 -12 -17.001v-172h307zM274.006 317.004c-4 -12.667 -14.998 -25 -32.998 -37l-12 -8c13.333 0 20 -7 20 -21v-250h-163v250c1.33301 7.33301 5.16602 12.333 11.499 15s9.83301 4.66699 10.5 6l-19 13
c-12.667 8 -21.334 16.667 -26.001 26c-1.33301 5.33301 -2.33301 12.333 -3 21c0 20.667 10 41.667 30 63l51 52c5.33301 5.33301 10.333 16 15 32l8 31l19 -42c4 -9.33301 8.33301 -16.333 13 -21l50 -52c20 -20.667 30 -42 30 -64zM1423.01 22.0039l-0.000976562 172
c0 8 -4.33301 13.667 -13 17l-13 5l-15 2l-4 2c2.66699 4 6.33398 6.66699 11.001 8c22.667 18.667 34 38.334 34 59.001c0 12.667 -4.66699 25.667 -14 39c-6.66699 10 -15 17.333 -25 22l-35 18c-12 6 -27 12.5 -45 19.5s-29.333 12.5 -34 16.5
c-4.66699 -3.33301 -16.667 -8.33301 -36 -15s-34.333 -13 -45 -19l-36 -19c-24.667 -13.333 -37 -34 -37 -62c0 -19.333 11.333 -39 34 -59l11 -7l-5 -3c-7.33301 0 -12 -0.333008 -14 -1l-15 -6c-5.33301 -2.66699 -9 -8.33398 -11 -17.001v-172h307zM282.007 759.004
l-24 -75.998l-39 -18l-27 -16l-65 -38l-67 -43l6 25l6 25l19 18l25 18l-32 13c-26 7.33301 -40 14.666 -42 21.999v4c0 19.333 12.333 48 37 86c20.667 32.667 40.334 58 59.001 76c8 7.33301 15.667 12.333 23 15l13 4l14 2c28 0 42 -12 42 -36
c0 -15.333 -10 -35.666 -30 -60.999l-5 3l-15 11c-5.33301 3.33301 -11 5.66602 -17 6.99902c-6.66699 0 -13.834 -3.33301 -21.501 -10s-16.834 -18.334 -27.501 -35.001c6.66699 -6.66699 16.334 -12 29.001 -16l16 -4l19 -1h13c4.66699 0 10 0.333008 16 1l24 7
c16 4 31 11 45 21h5z" />
    <glyph glyph-name="u0627" unicode="&#x627;" horiz-adv-x="387" arabic-form="isolated" 
d="M415 870c-15.333 0 -42 -4.66699 -80 -14c-18.667 0 -31.667 -7.33301 -39 -22v-834h-200v834c0 4 -4.33301 8.33301 -13 13l-20 9l-38 9l-29 5h100v57c0 14.667 -11 22 -33 22l132 356l140 -360l-17 -9l-22 -9v-57h119zM237 92v701h-83v-701h83z" />
    <glyph glyph-name="u0628" unicode="&#x628;" horiz-adv-x="1194" arabic-form="isolated" 
d="M1125 0h-1084v441h1084v-441zM1068 20l-0.000976562 199c0 6.66699 -2.66699 11.334 -8 14.001l-14 5c-4 1.33301 -8.66699 2 -14 2l-5 1c2.66699 3.33301 6 6 10 8c20.667 17.333 31 35 31 53c0 25.333 -14 45 -42 59l-25 13l-50 21c-12 4.66699 -19 8 -21 10l-20 -9
c-12.667 -4 -30 -10.667 -52 -20l-33 -18c-11.333 -6 -18.666 -12.667 -21.999 -20l-9 -18l-2 -18c0 -16.667 10 -34.334 30 -53.001l10 -6l-5 -3h-11c-13.333 -1.33301 -21.333 -8.33301 -24 -21v-199h276zM708.999 20v199c0 6.66699 -2.66699 11.334 -8 14.001l-13 5
c-4 1.33301 -9 2 -15 2l-3 1c1.33301 3.33301 4.33301 6 9 8c20 17.333 30 35 30 53c0 10.667 -4 22.667 -12 36c-5.33301 8 -13 14.667 -23 20l-31 16l-37 16l-34 15l-40 -15l-32 -14l-33 -18c-10 -6 -17.667 -12.667 -23 -20l-8 -18l-3 -18
c0 -16.667 10.333 -34.334 31 -53.001l10 -6l-5 -3c-6 0 -10.333 -0.333008 -13 -1l-12 -5c-6 -2.66699 -9.66699 -7.66699 -11 -15v-199h276zM363.999 20l-0.00195312 199c0 6.66699 -3.33301 11.667 -10 15l-11 4l-15 2l-3 1c2 3.33301 4.66699 6 8 8
c20.667 16.667 31 34.667 31 54c0 22.667 -11.667 40.667 -35 54l-31 17l-38 16c-10 4 -21.333 9 -34 15l-51 -21c-9.33301 -3.33301 -16 -6 -20 -8l-33 -18c-22 -12 -33 -30.667 -33 -56c0 -17.333 10 -35 30 -53l11 -6l-5 -3c-7.33301 0 -11.666 -0.333008 -12.999 -1
c-3.33301 0 -7.66602 -1.33301 -12.999 -4s-9 -8 -11 -16v-199h276zM439.997 -289v86h50v84h316v-84h-51v-86h-52v-85h-315v85h52zM790.997 -205v-154h-86v-15h101v169h-15zM1142 642c-3.33301 -12.667 -14.334 -24.666 -33.001 -35.999l-12 -8c13.333 0 20 -7.33301 20 -22
v-134h-162v134c1.33301 7.33301 5 12.333 11 15s9.33301 5 10 7l-19 13c-12 8 -20.333 16.333 -25 25c-1.33301 5.33301 -2.66602 12.333 -3.99902 21c0 21.333 10 42.333 30 63l51 53c6.66699 6 12 13.667 16 23l9 22l14 -22c6 -10.667 11.333 -18.334 16 -23.001l51 -53
c19.333 -20.667 29 -41.667 29 -63zM234.996 642.001c-4 -12.667 -14.999 -24.667 -32.999 -36l-12 -8c13.333 0 20 -7.33301 20 -22v-134h-162v134c1.33301 7.33301 5 12.333 11 15s9.33301 5 10 7l-19 13c-12.667 8 -21.334 16.333 -26.001 25
c-1.33301 5.33301 -2.33301 12.333 -3 21c0 21.333 10 42.333 30 63l51 53c5.33301 4.66699 9.33301 12.667 12 24l7 24l17 -25l19 -23l50 -53c20 -20.667 30 -41.667 30 -63z" />
    <glyph glyph-name="u0629" unicode="&#x629;" horiz-adv-x="664" arabic-form="isolated" 
d="M41 422c0 26 15.999 55.3311 47.999 87.998c23.333 16.667 79.666 59.334 168.999 128.001l35 27l31 28c4.66699 -7.33301 19.334 -18.333 44.001 -33l37 -22l88 -61c88 -60.667 132 -112.667 132 -156c0 -9.33301 -3 -19.666 -9 -30.999
c-10.667 -20 -34 -38.333 -70 -55l-54 -25c2.66699 -4 11.834 -8.33301 27.501 -13s26.5 -14 32.5 -28v-183h-439v183c0 27.333 17.667 41 53 41c-22.667 9.33301 -40 17.333 -52 24c-48.667 26.667 -73 56 -73 88zM204.999 368.998c0 -34.667 12.167 -64 36.5 -88
s53.833 -36 88.5 -36s64 12 88 36s36 53.333 36 88c0 34 -12.167 63.167 -36.5 87.5s-53.5 36.5 -87.5 36.5c-35.333 0 -65 -12 -89 -36s-36 -53.333 -36 -88zM418.999 909.998l-24.001 -76l-39 -18l-27 -15c-12 -6.66699 -33.667 -19.667 -65 -39l-67 -43l5 25l7 26l19 18
l25 17l-32 14c-26 6.66699 -40 13.667 -42 21v5c0 18.667 12 47 36 85c21.333 32.667 41.333 58 60 76c8 7.33301 15.667 12.333 23 15l12 4l15 2c27.333 0 41 -12 41 -36c0 -15.333 -9.66699 -35.666 -29 -60.999l-5 3l-15 11c-5.33301 4 -11 6.33301 -17 7
c-7.33301 0 -14.666 -3.33301 -21.999 -10s-16.333 -18.334 -27 -35.001c6.66699 -6.66699 16 -12 28 -16l17 -4l19 -1h13c4.66699 0 9.66699 0.333008 15 1l25 7c16 4 31 11 45 21h5z" />
    <glyph glyph-name="u062A" unicode="&#x62a;" horiz-adv-x="1194" arabic-form="isolated" 
d="M235 1079h139l46 131l40 -131h140l-113 -82l45 -132l-112 83l-113 -83l41 132zM552 1079h139l46 131l40 -131h140l-113 -82l45 -132l-112 83l-113 -83l41 132zM1125 0h-1084v441h1084v-441zM1068 20l-0.000976562 199c0 6.66699 -2.66699 11.334 -8 14.001l-14 5
c-4 1.33301 -8.66699 2 -14 2l-5 1c2.66699 3.33301 6 6 10 8c20.667 17.333 31 35 31 53c0 25.333 -14 45 -42 59l-25 13l-50 21c-12 4.66699 -19 8 -21 10l-20 -9c-12.667 -4 -30 -10.667 -52 -20l-33 -18c-11.333 -6 -18.666 -12.667 -21.999 -20l-9 -18l-2 -18
c0 -16.667 10 -34.334 30 -53.001l10 -6l-5 -3h-11c-13.333 -1.33301 -21.333 -8.33301 -24 -21v-199h276zM708.999 20v199c0 6.66699 -2.66699 11.334 -8 14.001l-13 5c-4 1.33301 -9 2 -15 2l-3 1c1.33301 3.33301 4.33301 6 9 8c20 17.333 30 35 30 53
c0 10.667 -4 22.667 -12 36c-5.33301 8 -13 14.667 -23 20l-31 16l-37 16l-34 15l-40 -15l-32 -14l-33 -18c-10 -6 -17.667 -12.667 -23 -20l-8 -18l-3 -18c0 -16.667 10.333 -34.334 31 -53.001l10 -6l-5 -3c-6 0 -10.333 -0.333008 -13 -1l-12 -5
c-6 -2.66699 -9.66699 -7.66699 -11 -15v-199h276zM363.999 20l-0.00195312 199c0 6.66699 -3.33301 11.667 -10 15l-11 4l-15 2l-3 1c2 3.33301 4.66699 6 8 8c20.667 16.667 31 34.667 31 54c0 22.667 -11.667 40.667 -35 54l-31 17l-38 16c-10 4 -21.333 9 -34 15
l-51 -21c-9.33301 -3.33301 -16 -6 -20 -8l-33 -18c-22 -12 -33 -30.667 -33 -56c0 -17.333 10 -35 30 -53l11 -6l-5 -3c-7.33301 0 -11.666 -0.333008 -12.999 -1c-3.33301 0 -7.66602 -1.33301 -12.999 -4s-9 -8 -11 -16v-199h276zM1142 642
c-3.33301 -12.667 -14.334 -24.666 -33.001 -35.999l-12 -8c13.333 0 20 -7.33301 20 -22v-134h-162v134c1.33301 7.33301 5 12.333 11 15s9.33301 5 10 7l-19 13c-12 8 -20.333 16.333 -25 25c-1.33301 5.33301 -2.66602 12.333 -3.99902 21c0 21.333 10 42.333 30 63
l51 53c6.66699 6 12 13.667 16 23l9 22l14 -22c6 -10.667 11.333 -18.334 16 -23.001l51 -53c19.333 -20.667 29 -41.667 29 -63zM234.996 642.001c-4 -12.667 -15 -24.666 -33 -35.999l-12 -8c13.333 0 20 -7.33301 20 -22v-134h-162v134c1.33301 7.33301 5 12.333 11 15
s9.33301 5 10 7l-19 13c-12.667 8 -21.334 16.333 -26.001 25c-1.33301 5.33301 -2.33301 12.333 -3 21c0 21.333 10 42.333 30 63l51 53c6.66699 6 11.667 13.667 15 23l10 22l13 -22c6.66699 -10.667 12.334 -18.334 17.001 -23.001l50 -53c20 -20.667 30 -41.667 30 -63z
" />
    <glyph glyph-name="u062B" unicode="&#x62b;" horiz-adv-x="1194" arabic-form="isolated" 
d="M276 1004h126l41 118l36 -118h126l-102 -73l41 -119l-101 74l-102 -74l37 119zM562 1004h125l41 118l36 -118h126l-102 -73l41 -119l-101 74l-102 -74l37 119zM421 1302h126l41 119l36 -119h126l-102 -74l41 -118l-101 74l-102 -74l37 118zM1125 0h-1084v441h1084v-441z
M1068 20l-0.000976562 199c0 6.66699 -2.66699 11.334 -8 14.001l-14 5c-4 1.33301 -8.66699 2 -14 2l-5 1c2.66699 3.33301 6 6 10 8c20.667 17.333 31 35 31 53c0 25.333 -14 45 -42 59l-25 13l-50 21c-12 4.66699 -19 8 -21 10l-20 -9c-12.667 -4 -30 -10.667 -52 -20
l-33 -18c-11.333 -6 -18.666 -12.667 -21.999 -20l-9 -18l-2 -18c0 -16.667 10 -34.334 30 -53.001l10 -6l-5 -3h-11c-13.333 -1.33301 -21.333 -8.33301 -24 -21v-199h276zM708.999 20v199c0 6.66699 -2.66699 11.334 -8 14.001l-13 5c-4 1.33301 -9 2 -15 2l-3 1
c1.33301 3.33301 4.33301 6 9 8c20 17.333 30 35 30 53c0 10.667 -4 22.667 -12 36c-5.33301 8 -13 14.667 -23 20l-31 16l-37 16l-34 15l-40 -15l-32 -14l-33 -18c-10 -6 -17.667 -12.667 -23 -20l-8 -18l-3 -18c0 -16.667 10.333 -34.334 31 -53.001l10 -6l-5 -3
c-6 0 -10.333 -0.333008 -13 -1l-12 -5c-6 -2.66699 -9.66699 -7.66699 -11 -15v-199h276zM363.999 20l-0.00195312 199c0 6.66699 -3.33301 11.667 -10 15l-11 4l-15 2l-3 1c2 3.33301 4.66699 6 8 8c20.667 16.667 31 34.667 31 54c0 22.667 -11.667 40.667 -35 54l-31 17
l-38 16c-10 4 -21.333 9 -34 15l-51 -21c-9.33301 -3.33301 -16 -6 -20 -8l-33 -18c-22 -12 -33 -30.667 -33 -56c0 -17.333 10 -35 30 -53l11 -6l-5 -3c-7.33301 0 -11.666 -0.333008 -12.999 -1c-3.33301 0 -7.66602 -1.33301 -12.999 -4s-9 -8 -11 -16v-199h276z
M1142 642c-3.33301 -12.667 -14.334 -24.666 -33.001 -35.999l-12 -8c13.333 0 20 -7.33301 20 -22v-134h-162v134c1.33301 7.33301 5 12.333 11 15s9.33301 5 10 7l-19 13c-12 8 -20.333 16.333 -25 25c-1.33301 5.33301 -2.66602 12.333 -3.99902 21
c0 21.333 10 42.333 30 63l51 53c6.66699 6 12 13.667 16 23l9 22l14 -22c6 -10.667 11.333 -18.334 16 -23.001l51 -53c19.333 -20.667 29 -41.667 29 -63zM234.996 642.001c-4 -12.667 -15 -24.666 -33 -35.999l-12 -8c13.333 0 20 -7.33301 20 -22v-134h-162v134
c1.33301 7.33301 5 12.333 11 15s9.33301 5 10 7l-19 13c-12.667 8 -21.334 16.333 -26.001 25c-1.33301 5.33301 -2.33301 12.333 -3 21c0 21.333 10 42.333 30 63l51 53c6.66699 6 11.667 13.667 15 23l10 22l13 -22c6.66699 -10.667 12.334 -18.334 17.001 -23.001
l50 -53c20 -20.667 30 -41.667 30 -63z" />
    <glyph glyph-name="u062C" unicode="&#x62c;" horiz-adv-x="1230" arabic-form="isolated" 
d="M1090 20l-0.000976562 199c0 6.66699 -2.66699 11.334 -8 14.001l-14 5c-3.33301 1.33301 -8 2 -14 2l-4 1c2 3.33301 5.33301 6 10 8c20 17.333 30 35 30 53c0 25.333 -14 45 -42 59l-25 13l-50 21c-12 4.66699 -19 8 -21 10l-20 -9c-12.667 -4 -29.667 -10.667 -51 -20
l-34 -18c-11.333 -6 -18.666 -12.667 -21.999 -20l-9 -18l-2 -18c0 -16.667 10.333 -34.334 31 -53.001l10 -6l-5 -3h-11c-14 -1.33301 -22.333 -8.33301 -25 -21v-199h276zM731.999 20l0.00195312 199c0 6.66699 -2.66699 11.334 -8 14.001l-14 5
c-4 1.33301 -8.66699 2 -14 2l-4 1c2 3.33301 5 6 9 8c20.667 17.333 31 35 31 53c0 10.667 -4.33301 22.667 -13 36c-4.66699 8 -12.334 14.667 -23.001 20l-31 16l-37 16l-34 15l-40 -15l-32 -14l-32 -18c-10.667 -6 -18.334 -12.667 -23.001 -20l-9 -18l-2 -18
c0 -16.667 10 -34.334 30 -53.001l11 -6l-5 -3c-6.66699 0 -11 -0.333008 -13 -1l-12 -5c-6 -2.66699 -9.66699 -7.66699 -11 -15v-199h276zM387.001 -333v271c0 7.33301 -3.66699 12.333 -11 15l-10 5l-15 2h-4c2 3.33301 5 6 9 8c20.667 17.333 31 35.333 31 54
c0 23.333 -12 41.333 -36 54l-31 18l-38 15c-10 4 -21.333 9 -34 15l-51 -20c-9.33301 -4 -16 -7 -20 -9l-33 -18c-21.333 -12 -32 -30.667 -32 -56c0 -17.333 9.66699 -35 29 -53l11 -6l-5 -2l-13 -1l-12 -6c-5.33301 -2 -9.33301 -7 -12 -15v-271h277zM950.001 444
c0 79.333 -24.667 143.334 -74 192.001s-113.666 73 -192.999 73c-68.667 0 -123.667 -17 -165 -51c-10.667 -8 -18.334 -22.333 -23.001 -43l-4 -27h-106l-11 9c-8.66699 10 -13 21.333 -13 34c0 22 12.333 45 37 69c80.667 76.667 176.667 115 288 115
c92.667 0 178.334 -37.333 257.001 -112c81.333 -76.667 119.666 -152.334 114.999 -227.001l-3 -32h-105zM574.001 840.001c20 -17.333 43.333 -26 70 -26c28.667 0 53 10.167 73 30.5s30 44.833 30 73.5c0 31.333 -12 56.666 -36 75.999
c-6.66699 8 -15.334 14.333 -26.001 19l-2 2l1 -4c8.66699 -13.333 13 -28.666 13 -45.999c0 -28 -10.167 -53.833 -30.5 -77.5s-44.166 -35.5 -71.499 -35.5c-14 0 -26.333 2.66699 -37 8h-2l9 -11zM1090 -713.999v198.001c0 7.33301 -2.66699 12.333 -8 15l-14 5
c-3.33301 1.33301 -8 2 -14 2l-4 1c2 3.33301 5.33301 6 10 8c20 17.333 30 35 30 53c0 25.333 -14 45 -42 59l-25 13l-50 20c-12 5.33301 -19 8.66602 -21 9.99902l-20 -8c-12.667 -4.66699 -29.667 -11.667 -51 -21l-34 -18c-10 -5.33301 -17.333 -11.666 -22 -18.999
l-9 -19l-2 -17c0 -16.667 10.333 -34.334 31 -53.001l10 -7l-5 -2l-11 -1c-14 -0.666992 -22.333 -7.66699 -25 -21v-198h276zM732.001 -713.998l0.000976562 198c0 7.33301 -2.66699 12.333 -8 15l-14 5c-4 1.33301 -8.66699 2 -14 2l-4 1c2 2.66699 5 5.33398 9 8.00098
c20.667 17.333 31 35 31 53c0 25.333 -14 45 -42 59l-25 13l-37 16l-34 14l-40 -15c-7.33301 -2.66699 -18 -7.33398 -32 -14.001l-32 -18c-10.667 -5.33301 -18.334 -11.666 -23.001 -18.999l-9 -19l-2 -17c0 -16.667 10 -34.334 30 -53.001l11 -7l-5 -2l-13 -1l-12 -5
c-6 -2 -9.66699 -7.33301 -11 -16v-198h276zM449.002 -293.998l698.002 0.000976562v-440h-707c-68 24 -143 81.333 -225 172c-22.667 26 -47.334 62.667 -74.001 110s-45.334 83.666 -56.001 108.999l-22 49v294l25 48c18.667 36.667 38.667 71.667 60 105
c28 44.667 54.667 80 80 106c88 92 174.333 152.667 259 182h660v-441h-698v-294zM607.004 -185.997v86h50v70h280v-70h-51v-86h-52v-85h-279v85h52zM922.004 -101.997v-154h-86v-15h101v169h-15z" />
    <glyph glyph-name="u062D" unicode="&#x62d;" horiz-adv-x="1230" arabic-form="isolated" 
d="M1090 20l-0.000976562 199c0 6.66699 -2.66699 11.334 -8 14.001l-14 5c-3.33301 1.33301 -8 2 -14 2l-4 1c2 3.33301 5.33301 6 10 8c20 17.333 30 35 30 53c0 25.333 -14 45 -42 59l-25 13l-50 21c-12 4.66699 -19 8 -21 10l-20 -9c-12.667 -4 -29.667 -10.667 -51 -20
l-34 -18c-11.333 -6 -18.666 -12.667 -21.999 -20l-9 -18l-2 -18c0 -16.667 10.333 -34.334 31 -53.001l10 -6l-5 -3h-11c-14 -1.33301 -22.333 -8.33301 -25 -21v-199h276zM731.999 20l0.00195312 199c0 6.66699 -2.66699 11.334 -8 14.001l-14 5
c-4 1.33301 -8.66699 2 -14 2l-4 1c2 3.33301 5 6 9 8c20.667 17.333 31 35 31 53c0 10.667 -4.33301 22.667 -13 36c-4.66699 8 -12.334 14.667 -23.001 20l-31 16l-37 16l-34 15l-40 -15l-32 -14l-32 -18c-10.667 -6 -18.334 -12.667 -23.001 -20l-9 -18l-2 -18
c0 -16.667 10 -34.334 30 -53.001l11 -6l-5 -3c-6.66699 0 -11 -0.333008 -13 -1l-12 -5c-6 -2.66699 -9.66699 -7.66699 -11 -15v-199h276zM387.001 -333v271c0 7.33301 -3.66699 12.333 -11 15l-10 5l-15 2h-4c2 3.33301 5 6 9 8c20.667 17.333 31 35.333 31 54
c0 23.333 -12 41.333 -36 54l-31 18l-38 15c-10 4 -21.333 9 -34 15l-51 -20c-9.33301 -4 -16 -7 -20 -9l-33 -18c-21.333 -12 -32 -30.667 -32 -56c0 -17.333 9.66699 -35 29 -53l11 -6l-5 -2l-13 -1l-12 -6c-5.33301 -2 -9.33301 -7 -12 -15v-271h277zM950.001 444
c0 79.333 -24.667 143.334 -74 192.001s-113.666 73 -192.999 73c-68.667 0 -123.667 -17 -165 -51c-10.667 -8 -18.334 -22.333 -23.001 -43l-4 -27h-106l-11 9c-8.66699 10 -13 21.333 -13 34c0 22 12.333 45 37 69c80.667 76.667 176.667 115 288 115
c92.667 0 178.334 -37.333 257.001 -112c81.333 -76.667 119.666 -152.334 114.999 -227.001l-3 -32h-105zM574.001 840.001c20 -17.333 43.333 -26 70 -26c28.667 0 53 10.167 73 30.5s30 44.833 30 73.5c0 31.333 -12 56.666 -36 75.999
c-6.66699 8 -15.334 14.333 -26.001 19l-2 2l1 -4c8.66699 -13.333 13 -28.666 13 -45.999c0 -28 -10.167 -53.833 -30.5 -77.5s-44.166 -35.5 -71.499 -35.5c-14 0 -26.333 2.66699 -37 8h-2l9 -11zM1090 -713.999v198.001c0 7.33301 -2.66699 12.333 -8 15l-14 5
c-3.33301 1.33301 -8 2 -14 2l-4 1c2 3.33301 5.33301 6 10 8c20 17.333 30 35 30 53c0 25.333 -14 45 -42 59l-25 13l-50 20c-12 5.33301 -19 8.66602 -21 9.99902l-20 -8c-12.667 -4.66699 -29.667 -11.667 -51 -21l-34 -18c-10 -5.33301 -17.333 -11.666 -22 -18.999
l-9 -19l-2 -17c0 -16.667 10.333 -34.334 31 -53.001l10 -7l-5 -2l-11 -1c-14 -0.666992 -22.333 -7.66699 -25 -21v-198h276zM732.001 -713.998l0.000976562 198c0 7.33301 -2.66699 12.333 -8 15l-14 5c-4 1.33301 -8.66699 2 -14 2l-4 1c2 2.66699 5 5.33398 9 8.00098
c20.667 17.333 31 35 31 53c0 25.333 -14 45 -42 59l-25 13l-37 16l-34 14l-40 -15c-7.33301 -2.66699 -18 -7.33398 -32 -14.001l-32 -18c-10.667 -5.33301 -18.334 -11.666 -23.001 -18.999l-9 -19l-2 -17c0 -16.667 10 -34.334 30 -53.001l11 -7l-5 -2l-13 -1l-12 -5
c-6 -2 -9.66699 -7.33301 -11 -16v-198h276zM449.002 -293.998l698.002 0.000976562v-440h-707c-68 24 -143 81.333 -225 172c-22.667 26 -47.334 62.667 -74.001 110s-45.334 83.666 -56.001 108.999l-22 49v294l25 48c18.667 36.667 38.667 71.667 60 105
c28 44.667 54.667 80 80 106c88 92 174.333 152.667 259 182h660v-441h-698v-294z" />
    <glyph glyph-name="u062E" unicode="&#x62e;" horiz-adv-x="1230" arabic-form="isolated" 
d="M1090 20l-0.000976562 199c0 6.66699 -2.66699 11.334 -8 14.001l-14 5c-3.33301 1.33301 -8 2 -14 2l-4 1c2 3.33301 5.33301 6 10 8c20 17.333 30 35 30 53c0 25.333 -14 45 -42 59l-25 13l-50 21c-12 4.66699 -19 8 -21 10l-20 -9c-12.667 -4 -29.667 -10.667 -51 -20
l-34 -18c-11.333 -6 -18.666 -12.667 -21.999 -20l-9 -18l-2 -18c0 -16.667 10.333 -34.334 31 -53.001l10 -6l-5 -3h-11c-14 -1.33301 -22.333 -8.33301 -25 -21v-199h276zM731.999 20l0.00195312 199c0 6.66699 -2.66699 11.334 -8 14.001l-14 5
c-4 1.33301 -8.66699 2 -14 2l-4 1c2 3.33301 5 6 9 8c20.667 17.333 31 35 31 53c0 10.667 -4.33301 22.667 -13 36c-4.66699 8 -12.334 14.667 -23.001 20l-31 16l-37 16l-34 15l-40 -15l-32 -14l-32 -18c-10.667 -6 -18.334 -12.667 -23.001 -20l-9 -18l-2 -18
c0 -16.667 10 -34.334 30 -53.001l11 -6l-5 -3c-6.66699 0 -11 -0.333008 -13 -1l-12 -5c-6 -2.66699 -9.66699 -7.66699 -11 -15v-199h276zM387.001 -333v271c0 7.33301 -3.66699 12.333 -11 15l-10 5l-15 2h-4c2 3.33301 5 6 9 8c20.667 17.333 31 35.333 31 54
c0 23.333 -12 41.333 -36 54l-31 18l-38 15c-10 4 -21.333 9 -34 15l-51 -20c-9.33301 -4 -16 -7 -20 -9l-33 -18c-21.333 -12 -32 -30.667 -32 -56c0 -17.333 9.66699 -35 29 -53l11 -6l-5 -2l-13 -1l-12 -6c-5.33301 -2 -9.33301 -7 -12 -15v-271h277zM950.001 444
c0 79.333 -24.667 143.334 -74 192.001s-113.666 73 -192.999 73c-68.667 0 -123.667 -17 -165 -51c-10.667 -8 -18.334 -22.333 -23.001 -43l-4 -27h-106l-11 9c-8.66699 10 -13 21.333 -13 34c0 22 12.333 45 37 69c80.667 76.667 176.667 115 288 115
c92.667 0 178.334 -37.333 257.001 -112c81.333 -76.667 119.666 -152.334 114.999 -227.001l-3 -32h-105zM574.001 840.001c20 -17.333 43.333 -26 70 -26c28.667 0 53 10.167 73 30.5s30 44.833 30 73.5c0 31.333 -12 56.666 -36 75.999
c-6.66699 8 -15.334 14.333 -26.001 19l-2 2l1 -4c8.66699 -13.333 13 -28.666 13 -45.999c0 -28 -10.167 -53.833 -30.5 -77.5s-44.166 -35.5 -71.499 -35.5c-14 0 -26.333 2.66699 -37 8h-2l9 -11zM1090 -713.999v198.001c0 7.33301 -2.66699 12.333 -8 15l-14 5
c-3.33301 1.33301 -8 2 -14 2l-4 1c2 3.33301 5.33301 6 10 8c20 17.333 30 35 30 53c0 25.333 -14 45 -42 59l-25 13l-50 20c-12 5.33301 -19 8.66602 -21 9.99902l-20 -8c-12.667 -4.66699 -29.667 -11.667 -51 -21l-34 -18c-10 -5.33301 -17.333 -11.666 -22 -18.999
l-9 -19l-2 -17c0 -16.667 10.333 -34.334 31 -53.001l10 -7l-5 -2l-11 -1c-14 -0.666992 -22.333 -7.66699 -25 -21v-198h276zM732.001 -713.998l0.000976562 198c0 7.33301 -2.66699 12.333 -8 15l-14 5c-4 1.33301 -8.66699 2 -14 2l-4 1c2 2.66699 5 5.33398 9 8.00098
c20.667 17.333 31 35 31 53c0 25.333 -14 45 -42 59l-25 13l-37 16l-34 14l-40 -15c-7.33301 -2.66699 -18 -7.33398 -32 -14.001l-32 -18c-10.667 -5.33301 -18.334 -11.666 -23.001 -18.999l-9 -19l-2 -17c0 -16.667 10 -34.334 30 -53.001l11 -7l-5 -2l-13 -1l-12 -5
c-6 -2 -9.66699 -7.33301 -11 -16v-198h276zM449.002 -293.998l698.002 0.000976562v-440h-707c-68 24 -143 81.333 -225 172c-22.667 26 -47.334 62.667 -74.001 110s-45.334 83.666 -56.001 108.999l-22 49v294l25 48c18.667 36.667 38.667 71.667 60 105
c28 44.667 54.667 80 80 106c88 92 174.333 152.667 259 182h660v-441h-698v-294zM184.004 1035h140l49 134l37 -134h139l-113 -82l46 -131l-113 82l-113 -82l41 131z" />
    <glyph glyph-name="u062F" unicode="&#x62f;" horiz-adv-x="963" arabic-form="isolated" 
d="M887 0h-788v441h788v-441zM830 20v199c0 6.66699 -2.66699 11.334 -8 14.001l-13 5c-4 1.33301 -9 2 -15 2l-4 1c2 3.33301 5.33301 6 10 8c20 17.333 30 35 30 53c0 25.333 -14 45 -42 59l-25 13l-49 21c-12.667 4.66699 -20 8 -22 10l-20 -9
c-12.667 -4 -29.667 -10.667 -51 -20l-33 -18c-12 -6 -19.667 -12.667 -23 -20l-8 -18l-3 -18c0 -16.667 10.333 -34.334 31 -53.001l10 -6l-5 -3h-11c-14 -1.33301 -22.333 -8.33301 -25 -21v-199h276zM472 20l0.00195312 199c0 6.66699 -2.66699 11.334 -8 14.001l-14 5
c-4 1.33301 -8.66699 2 -14 2l-4 1c2 3.33301 5 6 9 8c20.667 17.333 31 35 31 53c0 10.667 -4.33301 22.667 -13 36c-4.66699 8 -12.334 14.667 -23.001 20l-31 16l-37 16l-34 15l-40 -15l-32 -14l-32 -18c-10.667 -6 -18.334 -12.667 -23.001 -20l-9 -18l-2 -18
c0 -16.667 10 -34.334 30 -53.001l11 -6l-5 -3c-6.66699 0 -11 -0.333008 -13 -1l-12 -5c-6 -2.66699 -9.66699 -7.66699 -11 -15v-199h276zM769.002 444c0 79.333 -24.6689 143.334 -74.002 192.001s-113.666 73 -192.999 73c-68.667 0 -123.667 -17 -165 -51
c-10 -8 -17.667 -22.333 -23 -43l-4 -27h-106l-11 9c-8.66699 10 -13 21.333 -13 34c0 22 12.333 45 37 69c80.667 76.667 176.667 115 288 115c92.667 0 178.334 -37.333 257.001 -112c82 -76.667 120.333 -152.334 115 -227.001l-2 -32h-106zM393 840.001
c20 -17.333 43.334 -26 70.001 -26c28.667 0 53 10.167 73 30.5s30 44.833 30 73.5c0 31.333 -11.667 56.666 -35 75.999c-7.33301 8 -16 14.333 -26 19l-3 2l1 -4c8.66699 -13.333 13 -28.666 13 -45.999c0 -28 -9.66699 -53.667 -29 -77c-21.333 -24 -45.333 -36 -72 -36
c-14.667 0 -27.334 2.66699 -38.001 8h-2l9 -11z" />
    <glyph glyph-name="u0630" unicode="&#x630;" horiz-adv-x="963" arabic-form="isolated" 
d="M887 0h-788v441h788v-441zM830 20v199c0 6.66699 -2.66699 11.334 -8 14.001l-13 5c-4 1.33301 -9 2 -15 2l-4 1c2 3.33301 5.33301 6 10 8c20 17.333 30 35 30 53c0 25.333 -14 45 -42 59l-25 13l-49 21c-12.667 4.66699 -20 8 -22 10l-20 -9
c-12.667 -4 -29.667 -10.667 -51 -20l-33 -18c-12 -6 -19.667 -12.667 -23 -20l-8 -18l-3 -18c0 -16.667 10.333 -34.334 31 -53.001l10 -6l-5 -3h-11c-14 -1.33301 -22.333 -8.33301 -25 -21v-199h276zM472 20l0.00195312 199c0 6.66699 -2.66699 11.334 -8 14.001l-14 5
c-4 1.33301 -8.66699 2 -14 2l-4 1c2 3.33301 5 6 9 8c20.667 17.333 31 35 31 53c0 10.667 -4.33301 22.667 -13 36c-4.66699 8 -12.334 14.667 -23.001 20l-31 16l-37 16l-34 15l-40 -15l-32 -14l-32 -18c-10.667 -6 -18.334 -12.667 -23.001 -20l-9 -18l-2 -18
c0 -16.667 10 -34.334 30 -53.001l11 -6l-5 -3c-6.66699 0 -11 -0.333008 -13 -1l-12 -5c-6 -2.66699 -9.66699 -7.66699 -11 -15v-199h276zM769.002 444c0 79.333 -24.6689 143.334 -74.002 192.001s-113.666 73 -192.999 73c-68.667 0 -123.667 -17 -165 -51
c-10 -8 -17.667 -22.333 -23 -43l-4 -27h-106l-11 9c-8.66699 10 -13 21.333 -13 34c0 22 12.333 45 37 69c80.667 76.667 176.667 115 288 115c92.667 0 178.334 -37.333 257.001 -112c82 -76.667 120.333 -152.334 115 -227.001l-2 -32h-106zM393 840.001
c20 -17.333 43.334 -26 70.001 -26c28.667 0 53 10.167 73 30.5s30 44.833 30 73.5c0 31.333 -11.667 56.666 -35 75.999c-7.33301 8 -16 14.333 -26 19l-3 2l1 -4c8.66699 -13.333 13 -28.666 13 -45.999c0 -28 -9.66699 -53.667 -29 -77c-21.333 -24 -45.333 -36 -72 -36
c-14.667 0 -27.334 2.66699 -38.001 8h-2l9 -11zM166.001 1086h125l41 117l36 -117h126l-102 -74l41 -119l-101 74l-102 -74l37 119z" />
    <glyph glyph-name="u0631" unicode="&#x631;" horiz-adv-x="821" arabic-form="isolated" 
d="M773 -491l-0.000976562 710c0 6.66699 -2.66699 11.334 -8 14.001l-14 5c-4 1.33301 -8.66699 2 -14 2l-5 1c2.66699 3.33301 6 6 10 8c20.667 17.333 31 35 31 53c0 25.333 -14 45 -42 59l-25 13l-50 21c-12 4.66699 -19.333 8 -22 10l-19 -9
c-12.667 -4 -30 -10.667 -52 -20l-33 -18c-11.333 -6 -18.666 -12.667 -21.999 -20l-9 -18l-2 -18c0 -16.667 10 -34.334 30 -53.001l10 -6l-5 -3h-11c-14 -1.33301 -22 -8.33301 -24 -21v-710h276zM777.999 495l-36.002 -18c24 0 36 -9.33301 36 -28v-9h-304v9
c2.66699 9.33301 10 16 22 20s18.333 6.66699 19 8l-38 18c-23.333 10.667 -39.666 23.667 -48.999 39c-3.33301 6 -5 13 -5 21c0 27.333 19 54.666 57 81.999l126 89c10 6.66699 16.667 13 20 19c4.66699 -5.33301 12.334 -12 23.001 -20l29 -20l95 -69
c36.667 -27.333 55 -54.666 55 -81.999c0 -24 -16.667 -43.667 -50 -59zM429.997 -46v487h407v-959h-733v472h326zM432.997 -494l0.000976562 198.999c0 6.66699 -2.66699 11.334 -8 14.001l-14 5c-4 1.33301 -8.66699 2 -14 2l-4 1c2 2.66699 5 5.33398 9 8.00098
c20.667 17.333 31 35 31 53c0 25.333 -13.667 45 -41 59l-26 13l-43 20c-18.667 8 -30 13.333 -34 16c-4 -3.33301 -12.667 -8.33301 -26 -15l-40 -19l-32 -18c-10.667 -6 -18.334 -12.667 -23.001 -20l-9 -18l-2 -18c0 -16.667 10 -34.334 30 -53.001l11 -6l-5 -3h-13
l-12 -5c-6 -2.66699 -9.66699 -8 -11 -16v-199h276z" />
    <glyph glyph-name="u0632" unicode="&#x632;" horiz-adv-x="821" arabic-form="isolated" 
d="M773 -491l-0.000976562 710c0 6.66699 -2.66699 11.334 -8 14.001l-14 5c-4 1.33301 -8.66699 2 -14 2l-5 1c2.66699 3.33301 6 6 10 8c20.667 17.333 31 35 31 53c0 25.333 -14 45 -42 59l-25 13l-50 21c-12 4.66699 -19.333 8 -22 10l-19 -9
c-12.667 -4 -30 -10.667 -52 -20l-33 -18c-11.333 -6 -18.666 -12.667 -21.999 -20l-9 -18l-2 -18c0 -16.667 10 -34.334 30 -53.001l10 -6l-5 -3h-11c-14 -1.33301 -22 -8.33301 -24 -21v-710h276zM777.999 495l-36.002 -18c24 0 36 -9.33301 36 -28v-9h-304v9
c2.66699 9.33301 10 16 22 20s18.333 6.66699 19 8l-38 18c-23.333 10.667 -39.666 23.667 -48.999 39c-3.33301 6 -5 13 -5 21c0 27.333 19 54.666 57 81.999l126 89c10 6.66699 16.667 13 20 19c4.66699 -5.33301 12.334 -12 23.001 -20l29 -20l95 -69
c36.667 -27.333 55 -54.666 55 -81.999c0 -24 -16.667 -43.667 -50 -59zM429.997 -46v487h407v-959h-733v472h326zM432.997 -494l0.000976562 198.999c0 6.66699 -2.66699 11.334 -8 14.001l-14 5c-4 1.33301 -8.66699 2 -14 2l-4 1c2 2.66699 5 5.33398 9 8.00098
c20.667 17.333 31 35 31 53c0 25.333 -13.667 45 -41 59l-26 13l-43 20c-18.667 8 -30 13.333 -34 16c-4 -3.33301 -12.667 -8.33301 -26 -15l-40 -19l-32 -18c-10.667 -6 -18.334 -12.667 -23.001 -20l-9 -18l-2 -18c0 -16.667 10 -34.334 30 -53.001l11 -6l-5 -3h-13
l-12 -5c-6 -2.66699 -9.66699 -8 -11 -16v-199h276zM432.998 1079h140l45 131l41 -131h139l-113 -82l46 -132l-113 83l-113 -83l41 132z" />
    <glyph glyph-name="u0633" unicode="&#x633;" horiz-adv-x="2390" arabic-form="isolated" 
d="M1472 0v441h867v-441h-867zM1872 22l0.000976562 172c0 8 -4 13.667 -12 17l-13 5l-15 2l-5 2c3.33301 4 7 6.66699 11 8c22.667 18.667 34 38.334 34 59.001c0 26 -13 46.333 -39 61c-13.333 6.66699 -25 13 -35 19c-22.667 8 -49 19.333 -79 34l-22 -9l-59 -24l-35 -19
c-25.333 -13.333 -38 -34 -38 -62c0 -19.333 11.333 -39 34 -59l12 -7l-6 -3c-6.66699 0 -11.334 -0.333008 -14.001 -1l-14 -6c-6 -2.66699 -10 -8.33398 -12 -17.001v-172h307zM2255 22l0.000976562 172.001c0 8 -4 13.667 -12 17c-11.333 4.66699 -20.666 7 -28 7l-4 2
c2.66699 4 6 6.66699 10 8c22.667 18.667 34 38.667 34 60c0 11.333 -4.33301 24 -13 38c-6 10 -17 19 -33 27l-29 14l-44 18c-10 4 -21.333 9.33301 -34 16l-22 -9l-58 -23l-36 -20c-24.667 -12.667 -37 -33.334 -37 -62.001c0 -20 11 -39.667 33 -59l12 -7l-5 -3
c-6.66699 0 -11.334 -0.333008 -14.001 -1l-15 -6c-6 -2 -10 -7.66699 -12 -17v-172h307zM2408 634.001c-10 0 -31.333 -3.66699 -64 -11c-14 0 -24.333 -5.66699 -31 -17v-164h-160v164c-1.33301 2.66699 -5 6 -11 10l-15 7l-54 11h80v46c0 11.333 -8.66699 17 -26 17
l105 284l112 -288l-16 -8c-6.66699 -1.33301 -11.667 -3 -15 -5v-46h95zM2254 507.001v59h-38v-59h38zM2098 562.001c-10 0 -31.332 -3.66699 -63.999 -11c-14 0 -24.333 -5.66699 -31 -17v-92h-160v92c-0.666992 2.66699 -4.33398 6 -11.001 10l-15 7l-54 11h80v46
c0 11.333 -8.66699 17 -26 17l93 302l124 -306l-16 -8c-6 -1.33301 -11 -3 -15 -5v-46h95zM1886 464.001v30h-37v-30h37zM1781 482.001c-10 0 -31.333 -3.33203 -64 -9.99902c-14 0 -24.333 -6 -31 -18v-12h-160v12c-0.666992 3.33301 -4 6.66602 -10 9.99902l-16 8l-54 10
h80v46c0 12 -8.66699 18 -26 18l106 283l111 -287l-16 -8c-6 -1.33301 -11 -3.33301 -15 -6v-46h95zM267.003 -440.998v441h1241v-441h-1241zM643.003 -417.998l0.00195312 172.002c0 8 -4 13.333 -12 16l-13 5l-15 3l-5 1c3.33301 4 7 7 11 9
c22.667 18.667 34 38.334 34 59.001c0 25.333 -13 45.666 -39 60.999c-13.333 6 -25 12.333 -35 19l-45 18c-10 4 -21.333 9 -34 15l-22 -9c-26.667 -8.66699 -46.334 -16.334 -59.001 -23.001l-35 -19c-25.333 -14 -38 -34.667 -38 -62c0 -20 11.333 -39.667 34 -59l12 -8
l-6 -2c-6.66699 0 -11.334 -0.666992 -14.001 -2l-14 -5c-5.33301 -2.66699 -9.33301 -8.33398 -12 -17.001v-172h307zM1041 -417.996l0.00195312 172.002c0 8 -4 13.333 -12 16l-13 5l-15 3l-5 1c3.33301 4 7 7 11 9c22.667 18.667 34 38.334 34 59.001
c0 25.333 -13 45.666 -39 60.999c-13.333 6 -25 12.333 -35 19l-45 18c-10 4 -21.333 9 -34 15l-22 -9c-26.667 -8.66699 -46.334 -16.334 -59.001 -23.001l-35 -19c-25.333 -14 -38 -34.667 -38 -62c0 -20 11.333 -39.667 34 -59l12 -8l-6 -2
c-6.66699 0 -11.334 -0.666992 -14.001 -2l-14 -5c-5.33301 -2.66699 -9.33301 -8.33398 -12 -17.001v-172h307zM1424.01 -417.994l0.000976562 172.001c0 7.33301 -3.66699 12.666 -11 15.999c-11.333 5.33301 -20.666 8 -27.999 8l-5 1c3.33301 4 6.66602 7 9.99902 9
c22.667 18.667 34 38.334 34 59.001c0 27.333 -15.333 49 -46 65l-29 15l-44 18c-10 4 -21.333 9 -34 15l-22 -9l-57 -23l-37 -19c-24.667 -13.333 -37 -34.333 -37 -63c0 -20 11 -39.333 33 -58l12 -8l-5 -2c-6.66699 0 -11.334 -0.666992 -14.001 -2l-15 -5
c-5.33301 -2.66699 -9.33301 -8.33398 -12 -17.001v-172h307zM464.008 317.007c-4 -12.667 -14.998 -25 -32.998 -37l-12 -8c13.333 0 20 -7 20 -21v-250h-163v250c1.33301 7.33301 5.16602 12.333 11.499 15s9.83301 4.66699 10.5 6l-19 13
c-12.667 8 -21.334 16.667 -26.001 26c-0.666992 4 -1.66699 11 -3 21c0 20.667 10 41.667 30 63l51 52c5.33301 5.33301 10.333 16 15 32l8 31l19 -42c4 -9.33301 8.33301 -16.333 13 -21l50 -52c20 -20.667 30 -42 30 -64z" />
    <glyph glyph-name="u0634" unicode="&#x634;" horiz-adv-x="2390" arabic-form="isolated" 
d="M1472 0v441h867v-441h-867zM1872 22l0.000976562 172c0 8 -4 13.667 -12 17l-13 5l-15 2l-5 2c3.33301 4 7 6.66699 11 8c22.667 18.667 34 38.334 34 59.001c0 26 -13 46.333 -39 61c-13.333 6.66699 -25 13 -35 19c-22.667 8 -49 19.333 -79 34l-22 -9l-59 -24l-35 -19
c-25.333 -13.333 -38 -34 -38 -62c0 -19.333 11.333 -39 34 -59l12 -7l-6 -3c-6.66699 0 -11.334 -0.333008 -14.001 -1l-14 -6c-6 -2.66699 -10 -8.33398 -12 -17.001v-172h307zM2255 22l0.000976562 172.001c0 8 -4 13.667 -12 17c-11.333 4.66699 -20.666 7 -28 7l-4 2
c2.66699 4 6 6.66699 10 8c22.667 18.667 34 38.667 34 60c0 11.333 -4.33301 24 -13 38c-6 10 -17 19 -33 27l-29 14l-44 18c-10 4 -21.333 9.33301 -34 16l-22 -9l-58 -23l-36 -20c-24.667 -12.667 -37 -33.334 -37 -62.001c0 -20 11 -39.667 33 -59l12 -7l-5 -3
c-6.66699 0 -11.334 -0.333008 -14.001 -1l-15 -6c-6 -2 -10 -7.66699 -12 -17v-172h307zM2408 634.001c-10 0 -31.333 -3.66699 -64 -11c-14 0 -24.333 -5.66699 -31 -17v-164h-160v164c-1.33301 2.66699 -5 6 -11 10l-15 7l-54 11h80v46c0 11.333 -8.66699 17 -26 17
l105 284l112 -288l-16 -8c-6.66699 -1.33301 -11.667 -3 -15 -5v-46h95zM2254 507.001v59h-38v-59h38zM2098 562.001c-10 0 -31.332 -3.66699 -63.999 -11c-14 0 -24.333 -5.66699 -31 -17v-92h-160v92c-0.666992 2.66699 -4.33398 6 -11.001 10l-15 7l-54 11h80v46
c0 11.333 -8.66699 17 -26 17l93 302l124 -306l-16 -8c-6 -1.33301 -11 -3 -15 -5v-46h95zM1886 464.001v30h-37v-30h37zM1781 482.001c-10 0 -31.333 -3.33203 -64 -9.99902c-14 0 -24.333 -6 -31 -18v-12h-160v12c-0.666992 3.33301 -4 6.66602 -10 9.99902l-16 8l-54 10
h80v46c0 12 -8.66699 18 -26 18l106 283l111 -287l-16 -8c-6 -1.33301 -11 -3.33301 -15 -6v-46h95zM1599 1053h125l41 118l36 -118h126l-101 -73l40 -119l-101 74l-101 -74l37 119zM1884 1053h125l42 118l36 -118h126l-102 -73l40 -119l-100 74l-102 -74l37 119zM1744 1351
h126l40 118l37 -118h125l-101 -74l41 -118l-102 74l-101 -74l37 118zM267.003 -440.998v441h1241v-441h-1241zM643.003 -417.998l0.00195312 172.002c0 8 -4 13.333 -12 16l-13 5l-15 3l-5 1c3.33301 4 7 7 11 9c22.667 18.667 34 38.334 34 59.001
c0 25.333 -13 45.666 -39 60.999c-13.333 6 -25 12.333 -35 19l-45 18c-10 4 -21.333 9 -34 15l-22 -9c-26.667 -8.66699 -46.334 -16.334 -59.001 -23.001l-35 -19c-25.333 -14 -38 -34.667 -38 -62c0 -20 11.333 -39.667 34 -59l12 -8l-6 -2
c-6.66699 0 -11.334 -0.666992 -14.001 -2l-14 -5c-5.33301 -2.66699 -9.33301 -8.33398 -12 -17.001v-172h307zM1041 -417.996l0.00195312 172.002c0 8 -4 13.333 -12 16l-13 5l-15 3l-5 1c3.33301 4 7 7 11 9c22.667 18.667 34 38.334 34 59.001
c0 25.333 -13 45.666 -39 60.999c-13.333 6 -25 12.333 -35 19l-45 18c-10 4 -21.333 9 -34 15l-22 -9c-26.667 -8.66699 -46.334 -16.334 -59.001 -23.001l-35 -19c-25.333 -14 -38 -34.667 -38 -62c0 -20 11.333 -39.667 34 -59l12 -8l-6 -2
c-6.66699 0 -11.334 -0.666992 -14.001 -2l-14 -5c-5.33301 -2.66699 -9.33301 -8.33398 -12 -17.001v-172h307zM1424.01 -417.994l0.000976562 172.001c0 7.33301 -3.66699 12.666 -11 15.999c-11.333 5.33301 -20.666 8 -27.999 8l-5 1c3.33301 4 6.66602 7 9.99902 9
c22.667 18.667 34 38.334 34 59.001c0 27.333 -15.333 49 -46 65l-29 15l-44 18c-10 4 -21.333 9 -34 15l-22 -9l-57 -23l-37 -19c-24.667 -13.333 -37 -34.333 -37 -63c0 -20 11 -39.333 33 -58l12 -8l-5 -2c-6.66699 0 -11.334 -0.666992 -14.001 -2l-15 -5
c-5.33301 -2.66699 -9.33301 -8.33398 -12 -17.001v-172h307zM464.008 317.007c-4 -12.667 -14.998 -25 -32.998 -37l-12 -8c13.333 0 20 -7 20 -21v-250h-163v250c1.33301 7.33301 5.16602 12.333 11.499 15s9.83301 4.66699 10.5 6l-19 13
c-12.667 8 -21.334 16.667 -26.001 26c-0.666992 4 -1.66699 11 -3 21c0 20.667 10 41.667 30 63l51 52c5.33301 5.33301 10.333 16 15 32l8 31l19 -42c4 -9.33301 8.33301 -16.333 13 -21l50 -52c20 -20.667 30 -42 30 -64z" />
    <glyph glyph-name="u0635" unicode="&#x635;" horiz-adv-x="2404" arabic-form="isolated" 
d="M1472 0v441h874v-441h-874zM1886 22l-0.000976562 172c0 8 -4 13.667 -12 17l-13 5l-15 2l-4 2c2.66699 4 6.33398 6.66699 11.001 8c22 18.667 33 38.334 33 59.001c0 26 -13 46.333 -39 61c-13.333 6.66699 -25 13 -35 19c-22.667 8 -49 19.333 -79 34l-22 -9l-59 -24
l-35 -19c-24.667 -13.333 -37 -34 -37 -62c0 -19.333 11 -39 33 -59l12 -7l-6 -3c-6.66699 0 -11 -0.333008 -13 -1l-15 -6c-6 -2.66699 -9.66699 -8.33398 -11 -17.001v-172h306zM2269 22l0.000976562 172.001c0 8 -3.66699 13.667 -11 17c-11.333 4.66699 -20.666 7 -28 7
l-5 2c3.33301 4 7 6.66699 11 8c22 18.667 33 38.667 33 60c0 11.333 -4.33301 24 -13 38c-6 10 -17 19 -33 27l-28 14l-44 18c-10.667 4 -22.334 9.33301 -35 16l-22 -9l-57 -23l-37 -20c-24.667 -12.667 -37 -33.334 -37 -62.001c0 -20 11.333 -39.667 34 -59l12 -7l-6 -3
c-6.66699 0 -11.334 -0.333008 -14.001 -1l-15 -6c-6 -2 -9.66699 -7.66699 -11 -17v-172h306zM267 -440.999v441h1241v-441h-1241zM643 -417.999l0.00195312 172.002c0 8 -4 13.333 -12 16l-13 5l-15 3l-5 1c3.33301 4 7 7 11 9c22.667 18.667 34 38.334 34 59.001
c0 25.333 -13 45.666 -39 60.999c-13.333 6 -25 12.333 -35 19l-45 18c-10 4 -21.333 9 -34 15l-22 -9c-26.667 -8.66699 -46.334 -16.334 -59.001 -23.001l-35 -19c-25.333 -14 -38 -34.667 -38 -62c0 -20 11.333 -39.667 34 -59l12 -8l-6 -2
c-6.66699 0 -11.334 -0.666992 -14.001 -2l-14 -5c-5.33301 -2.66699 -9.33301 -8.33398 -12 -17.001v-172h307zM1041 -417.997l0.00195312 172.002c0 8 -4 13.333 -12 16l-13 5l-15 3l-5 1c3.33301 4 7 7 11 9c22.667 18.667 34 38.334 34 59.001
c0 25.333 -13 45.666 -39 60.999c-13.333 6 -25 12.333 -35 19l-45 18c-10 4 -21.333 9 -34 15l-22 -9c-26.667 -8.66699 -46.334 -16.334 -59.001 -23.001l-35 -19c-25.333 -14 -38 -34.667 -38 -62c0 -20 11.333 -39.667 34 -59l12 -8l-6 -2
c-6.66699 0 -11.334 -0.666992 -14.001 -2l-14 -5c-5.33301 -2.66699 -9.33301 -8.33398 -12 -17.001v-172h307zM1424 -417.995l0.000976562 172.001c0 7.33301 -3.66699 12.666 -11 15.999c-11.333 5.33301 -20.666 8 -27.999 8l-5 1c3.33301 4 6.66602 7 9.99902 9
c22.667 18.667 34 38.334 34 59.001c0 27.333 -15.333 49 -46 65l-29 15l-44 18c-10 4 -21.333 9 -34 15l-22 -9l-57 -23l-37 -19c-24.667 -13.333 -37 -34.333 -37 -63c0 -20 11 -39.333 33 -58l12 -8l-5 -2c-6.66699 0 -11.334 -0.666992 -14.001 -2l-15 -5
c-5.33301 -2.66699 -9.33301 -8.33398 -12 -17.001v-172h307zM2259 444.006c0 84.667 -28 154.834 -84 210.501s-126.667 83.5 -212 83.5c-86 0 -160.333 -27.333 -223 -82c-65.333 -57.333 -98 -128.333 -98 -213h-77v11v10c0 92 44.333 174.667 133 248
c84.667 68.667 174.334 103 269.001 103c92.667 0 178.334 -37.333 257 -112c81.333 -76.667 119.666 -152.334 114.999 -227.001l-3 -32h-77zM1855 840.006c20 -17.333 43.3311 -26 69.998 -26c28.667 0 52.834 10.167 72.501 30.5s29.5 44.833 29.5 73.5
c0 31.333 -11.667 56.666 -35 75.999c-7.33301 8 -16 14.333 -26 19l-3 2l2 -4c8.66699 -13.333 13 -28.666 13 -45.999c0 -28 -10.167 -53.833 -30.5 -77.5s-44.166 -35.5 -71.499 -35.5c-14 0 -26.333 2.66699 -37 8h-2l9 -11zM464.003 317.006
c-4 -12.667 -14.998 -25 -32.998 -37l-12 -8c13.333 0 20 -7 20 -21v-250h-163v250c1.33301 7.33301 5.16602 12.333 11.499 15s9.83301 4.66699 10.5 6l-19 13c-12.667 8 -21.334 16.667 -26.001 26c-0.666992 4 -1.66699 11 -3 21c0 20.667 10 41.667 30 63l51 52
c5.33301 5.33301 10.333 16 15 32l8 31l19 -42c4 -9.33301 8.33301 -16.333 13 -21l50 -52c20 -20.667 30 -42 30 -64z" />
    <glyph glyph-name="u0636" unicode="&#x636;" horiz-adv-x="2404" arabic-form="isolated" 
d="M1472 0v441h874v-441h-874zM1886 22l-0.000976562 172c0 8 -4 13.667 -12 17l-13 5l-15 2l-4 2c2.66699 4 6.33398 6.66699 11.001 8c22 18.667 33 38.334 33 59.001c0 26 -13 46.333 -39 61c-13.333 6.66699 -25 13 -35 19c-22.667 8 -49 19.333 -79 34l-22 -9l-59 -24
l-35 -19c-24.667 -13.333 -37 -34 -37 -62c0 -19.333 11 -39 33 -59l12 -7l-6 -3c-6.66699 0 -11 -0.333008 -13 -1l-15 -6c-6 -2.66699 -9.66699 -8.33398 -11 -17.001v-172h306zM2269 22l0.000976562 172.001c0 8 -3.66699 13.667 -11 17c-11.333 4.66699 -20.666 7 -28 7
l-5 2c3.33301 4 7 6.66699 11 8c22 18.667 33 38.667 33 60c0 11.333 -4.33301 24 -13 38c-6 10 -17 19 -33 27l-28 14l-44 18c-10.667 4 -22.334 9.33301 -35 16l-22 -9l-57 -23l-37 -20c-24.667 -12.667 -37 -33.334 -37 -62.001c0 -20 11.333 -39.667 34 -59l12 -7l-6 -3
c-6.66699 0 -11.334 -0.333008 -14.001 -1l-15 -6c-6 -2 -9.66699 -7.66699 -11 -17v-172h306zM267 -440.999v441h1241v-441h-1241zM643 -417.999l0.00195312 172.002c0 8 -4 13.333 -12 16l-13 5l-15 3l-5 1c3.33301 4 7 7 11 9c22.667 18.667 34 38.334 34 59.001
c0 25.333 -13 45.666 -39 60.999c-13.333 6 -25 12.333 -35 19l-45 18c-10 4 -21.333 9 -34 15l-22 -9c-26.667 -8.66699 -46.334 -16.334 -59.001 -23.001l-35 -19c-25.333 -14 -38 -34.667 -38 -62c0 -20 11.333 -39.667 34 -59l12 -8l-6 -2
c-6.66699 0 -11.334 -0.666992 -14.001 -2l-14 -5c-5.33301 -2.66699 -9.33301 -8.33398 -12 -17.001v-172h307zM1041 -417.997l0.00195312 172.002c0 8 -4 13.333 -12 16l-13 5l-15 3l-5 1c3.33301 4 7 7 11 9c22.667 18.667 34 38.334 34 59.001
c0 25.333 -13 45.666 -39 60.999c-13.333 6 -25 12.333 -35 19l-45 18c-10 4 -21.333 9 -34 15l-22 -9c-26.667 -8.66699 -46.334 -16.334 -59.001 -23.001l-35 -19c-25.333 -14 -38 -34.667 -38 -62c0 -20 11.333 -39.667 34 -59l12 -8l-6 -2
c-6.66699 0 -11.334 -0.666992 -14.001 -2l-14 -5c-5.33301 -2.66699 -9.33301 -8.33398 -12 -17.001v-172h307zM1424 -417.995l0.000976562 172.001c0 7.33301 -3.66699 12.666 -11 15.999c-11.333 5.33301 -20.666 8 -27.999 8l-5 1c3.33301 4 6.66602 7 9.99902 9
c22.667 18.667 34 38.334 34 59.001c0 27.333 -15.333 49 -46 65l-29 15l-44 18c-10 4 -21.333 9 -34 15l-22 -9l-57 -23l-37 -19c-24.667 -13.333 -37 -34.333 -37 -63c0 -20 11 -39.333 33 -58l12 -8l-5 -2c-6.66699 0 -11.334 -0.666992 -14.001 -2l-15 -5
c-5.33301 -2.66699 -9.33301 -8.33398 -12 -17.001v-172h307zM2259 444.006c0 84.667 -28 154.834 -84 210.501s-126.667 83.5 -212 83.5c-86 0 -160.333 -27.333 -223 -82c-65.333 -57.333 -98 -128.333 -98 -213h-77v11v10c0 92 44.333 174.667 133 248
c84.667 68.667 174.334 103 269.001 103c92.667 0 178.334 -37.333 257 -112c81.333 -76.667 119.666 -152.334 114.999 -227.001l-3 -32h-77zM1855 840.006c20 -17.333 43.3311 -26 69.998 -26c28.667 0 52.834 10.167 72.501 30.5s29.5 44.833 29.5 73.5
c0 31.333 -11.667 56.666 -35 75.999c-7.33301 8 -16 14.333 -26 19l-3 2l2 -4c8.66699 -13.333 13 -28.666 13 -45.999c0 -28 -10.167 -53.833 -30.5 -77.5s-44.166 -35.5 -71.499 -35.5c-14 0 -26.333 2.66699 -37 8h-2l9 -11zM1257 1079.01h140l45 131l40 -131h140
l-113 -82l45 -132l-112 83l-113 -83l41 132zM464.003 317.006c-4 -12.667 -14.998 -25 -32.998 -37l-12 -8c13.333 0 20 -7 20 -21v-250h-163v250c1.33301 7.33301 5.16602 12.333 11.499 15s9.83301 4.66699 10.5 6l-19 13c-12.667 8 -21.334 16.667 -26.001 26
c-0.666992 4 -1.66699 11 -3 21c0 20.667 10 41.667 30 63l51 52c5.33301 5.33301 10.333 16 15 32l8 31l19 -42c4 -9.33301 8.33301 -16.333 13 -21l50 -52c20 -20.667 30 -42 30 -64z" />
    <glyph glyph-name="u0637" unicode="&#x637;" horiz-adv-x="1361" arabic-form="isolated" 
d="M1279 0h-1241v441h1241v-441zM1201 22l0.000976562 172c0 8 -4 13.667 -12 17l-13 5l-15 2l-5 2c3.33301 4 7 6.66699 11 8c22.667 18.667 34 38.334 34 59.001c0 26 -13 46.333 -39 61c-13.333 6.66699 -25 13 -35 19c-22.667 8 -49 19.333 -79 34l-22 -9l-59 -24
l-35 -19c-25.333 -13.333 -38 -34 -38 -62c0 -19.333 11.333 -39 34 -59l12 -7l-6 -3c-6.66699 0 -11.334 -0.333008 -14.001 -1l-14 -6c-6 -2.66699 -10 -8.33398 -12 -17.001v-172h307zM803.001 22v172c0 8 -4 13.667 -12 17l-13 5l-16 2l-4 2
c2.66699 4 6.33398 6.66699 11.001 8c22.667 18.667 34 38.334 34 59.001c0 26 -13 46.333 -39 61c-14 6.66699 -25.667 13 -35 19c-23.333 8 -50 19.333 -80 34l-21 -9l-59 -24l-35 -19c-25.333 -13.333 -38 -34 -38 -62c0 -19.333 11.333 -39 34 -59l11 -7l-5 -3
c-6.66699 0 -11.334 -0.333008 -14.001 -1l-14 -6c-6 -2.66699 -10 -8.33398 -12 -17.001v-172h307zM419.001 22l0.000976562 172.001c0 8 -3.66699 13.667 -11 17c-12 4.66699 -21.667 7 -29 7l-4 2c2.66699 4 6 6.66699 10 8c22.667 18.667 34 38.667 34 60
c0 11.333 -4.33301 24 -13 38c-6 10 -17 19 -33 27l-29 14l-44 18c-10 4 -21.333 9.33301 -34 16l-22 -9l-58 -23l-36 -20c-24.667 -12.667 -37 -33.334 -37 -62.001c0 -20 11 -39.667 33 -59l12 -7l-5 -3c-6.66699 0 -11.334 -0.333008 -14.001 -1l-15 -6
c-6 -2 -10 -7.66699 -12 -17v-172h307zM1100 444.001c0 84.667 -28.1689 154.834 -84.502 210.501s-126.833 83.5 -211.5 83.5c-86 0 -160.333 -27.333 -223 -82c-65.333 -57.333 -98 -128.333 -98 -213h-77l-1 11v10c0 92 44.667 174.667 134 248
c84.667 68.667 174.334 103 269.001 103c92.667 0 178.334 -37.333 257.001 -112c81.333 -76.667 119.333 -152.334 114 -227.001l-2 -32h-77zM696 840.001c20 -17.333 42.999 -26 68.999 -26c28.667 0 53 10.167 73 30.5s30 44.833 30 73.5
c0 31.333 -11.667 56.666 -35 75.999c-7.33301 8 -16 14.333 -26 19l-3 2l2 -4c8.66699 -13.333 13 -28.666 13 -45.999c0 -28 -10.167 -53.833 -30.5 -77.5s-44.166 -35.5 -71.499 -35.5c-14 0 -26.333 2.66699 -37 8h-2l9 -11zM379.999 1014h-55v-487h55v487z
M457.999 1139c-3.33301 -12.667 -14 -25.001 -32 -37.001l-13 -8c13.333 0 20 -7 20 -21v-631h-162v631c1.33301 7.33301 5 12.333 11 15s9.33301 4.66699 10 6l-19 13c-12 8.66699 -20.333 17.334 -25 26.001c-1.33301 5.33301 -2.66602 12.333 -3.99902 21
c0 21.333 10 42.333 30 63l51 52c5.33301 5.33301 9.66602 15 12.999 29l8 28l15 -28l19 -29l51 -52c19.333 -20.667 29 -42 29 -64z" />
    <glyph glyph-name="u0638" unicode="&#x638;" horiz-adv-x="1361" arabic-form="isolated" 
d="M1279 0h-1241v441h1241v-441zM1201 22l0.000976562 172c0 8 -4 13.667 -12 17l-13 5l-15 2l-5 2c3.33301 4 7 6.66699 11 8c22.667 18.667 34 38.334 34 59.001c0 26 -13 46.333 -39 61c-13.333 6.66699 -25 13 -35 19c-22.667 8 -49 19.333 -79 34l-22 -9l-59 -24
l-35 -19c-25.333 -13.333 -38 -34 -38 -62c0 -19.333 11.333 -39 34 -59l12 -7l-6 -3c-6.66699 0 -11.334 -0.333008 -14.001 -1l-14 -6c-6 -2.66699 -10 -8.33398 -12 -17.001v-172h307zM803.001 22v172c0 8 -4 13.667 -12 17l-13 5l-16 2l-4 2
c2.66699 4 6.33398 6.66699 11.001 8c22.667 18.667 34 38.334 34 59.001c0 26 -13 46.333 -39 61c-14 6.66699 -25.667 13 -35 19c-23.333 8 -50 19.333 -80 34l-21 -9l-59 -24l-35 -19c-25.333 -13.333 -38 -34 -38 -62c0 -19.333 11.333 -39 34 -59l11 -7l-5 -3
c-6.66699 0 -11.334 -0.333008 -14.001 -1l-14 -6c-6 -2.66699 -10 -8.33398 -12 -17.001v-172h307zM419.001 22l0.000976562 172.001c0 8 -3.66699 13.667 -11 17c-12 4.66699 -21.667 7 -29 7l-4 2c2.66699 4 6 6.66699 10 8c22.667 18.667 34 38.667 34 60
c0 11.333 -4.33301 24 -13 38c-6 10 -17 19 -33 27l-29 14l-44 18c-10 4 -21.333 9.33301 -34 16l-22 -9l-58 -23l-36 -20c-24.667 -12.667 -37 -33.334 -37 -62.001c0 -20 11 -39.667 33 -59l12 -7l-5 -3c-6.66699 0 -11.334 -0.333008 -14.001 -1l-15 -6
c-6 -2 -10 -7.66699 -12 -17v-172h307zM1100 444.001c0 84.667 -28.1689 154.834 -84.502 210.501s-126.833 83.5 -211.5 83.5c-86 0 -160.333 -27.333 -223 -82c-65.333 -57.333 -98 -128.333 -98 -213h-77l-1 11v10c0 92 44.667 174.667 134 248
c84.667 68.667 174.334 103 269.001 103c92.667 0 178.334 -37.333 257.001 -112c81.333 -76.667 119.333 -152.334 114 -227.001l-2 -32h-77zM696 840.001c20 -17.333 42.999 -26 68.999 -26c28.667 0 53 10.167 73 30.5s30 44.833 30 73.5
c0 31.333 -11.667 56.666 -35 75.999c-7.33301 8 -16 14.333 -26 19l-3 2l2 -4c8.66699 -13.333 13 -28.666 13 -45.999c0 -28 -10.167 -53.833 -30.5 -77.5s-44.166 -35.5 -71.499 -35.5c-14 0 -26.333 2.66699 -37 8h-2l9 -11zM484.999 1099l102 -74l-37 -119l102 74
l100 -74l-41 119l103 74h-126l-36 117l-41 -117h-126zM379.999 1014h-55v-487h55v487zM457.999 1139c-3.33301 -12.667 -14.002 -25 -32.002 -37l-13 -8c13.333 0 20 -7 20 -21v-631h-162v631c1.33301 7.33301 5 12.333 11 15s9.33301 4.66699 10 6l-19 13
c-12 8.66699 -20.333 17.334 -25 26.001c-1.33301 5.33301 -2.66602 12.333 -3.99902 21c0 21.333 10 42.333 30 63l51 52c4 4 8 11.333 12 22l13 35l19 -37c4.66699 -10.667 8.33398 -17.334 11.001 -20.001l51 -52c19.333 -20.667 29 -42 29 -64z" />
    <glyph glyph-name="u0639" unicode="&#x639;" horiz-adv-x="1230" arabic-form="isolated" 
d="M1090 20l-0.000976562 199c0 6.66699 -2.66699 11.334 -8 14.001l-14 5c-3.33301 1.33301 -8 2 -14 2l-4 1c2 3.33301 5.33301 6 10 8c20 17.333 30 35 30 53c0 25.333 -14 45 -42 59l-25 13l-50 21c-12 4.66699 -19 8 -21 10l-20 -9c-12.667 -4 -29.667 -10.667 -51 -20
l-34 -18c-11.333 -6 -18.666 -12.667 -21.999 -20l-9 -18l-2 -18c0 -16.667 10.333 -34.334 31 -53.001l10 -6l-5 -3h-11c-14 -1.33301 -22.333 -8.33301 -25 -21v-199h276zM731.999 20l0.00195312 199c0 6.66699 -2.66699 11.334 -8 14.001l-14 5
c-4 1.33301 -8.66699 2 -14 2l-4 1c2 3.33301 5 6 9 8c20.667 17.333 31 35 31 53c0 10.667 -4.33301 22.667 -13 36c-4.66699 8 -12.334 14.667 -23.001 20l-31 16l-37 16l-34 15l-40 -15l-32 -14l-32 -18c-10.667 -6 -18.334 -12.667 -23.001 -20l-9 -18l-2 -18
c0 -16.667 10 -34.334 30 -53.001l11 -6l-5 -3c-6.66699 0 -11 -0.333008 -13 -1l-12 -5c-6 -2.66699 -9.66699 -7.66699 -11 -15v-199h276zM387.001 -333v271c0 7.33301 -3.66699 12.333 -11 15l-10 5l-15 2h-4c2 3.33301 5 6 9 8c20.667 17.333 31 35.333 31 54
c0 23.333 -12 41.333 -36 54l-31 18l-38 15c-10 4 -21.333 9 -34 15l-51 -20c-9.33301 -4 -16 -7 -20 -9l-33 -18c-21.333 -12 -32 -30.667 -32 -56c0 -17.333 9.66699 -35 29 -53l11 -6l-5 -2l-13 -1l-12 -6c-5.33301 -2 -9.33301 -7 -12 -15v-271h277zM1090 -714v198.001
c0 7.33301 -2.66699 12.333 -8 15l-14 5c-3.33301 1.33301 -8 2 -14 2l-4 1c2 3.33301 5.33301 6 10 8c20 17.333 30 35 30 53c0 25.333 -14 45 -42 59l-25 13l-50 20c-12 5.33301 -19 8.66602 -21 9.99902l-20 -8c-12.667 -4.66699 -29.667 -11.667 -51 -21l-34 -18
c-10 -5.33301 -17.333 -11.666 -22 -18.999l-9 -19l-2 -17c0 -16.667 10.333 -34.334 31 -53.001l10 -7l-5 -2l-11 -1c-14 -0.666992 -22.333 -7.66699 -25 -21v-198h276zM732.001 -713.999l0.000976562 198c0 7.33301 -2.66699 12.333 -8 15l-14 5
c-4 1.33301 -8.66699 2 -14 2l-4 1c2 2.66699 5 5.33398 9 8.00098c20.667 17.333 31 35 31 53c0 25.333 -14 45 -42 59l-25 13l-37 16l-34 14l-40 -15c-7.33301 -2.66699 -18 -7.33398 -32 -14.001l-32 -18c-10.667 -5.33301 -18.334 -11.666 -23.001 -18.999l-9 -19
l-2 -17c0 -16.667 10 -34.334 30 -53.001l11 -7l-5 -2l-13 -1l-12 -5c-6 -2 -9.66699 -7.33301 -11 -16v-198h276zM449.002 -293.999l698.002 0.000976562v-440h-707c-68 24 -143 81.333 -225 172c-22.667 26 -47.334 62.667 -74.001 110s-45.334 83.666 -56.001 108.999
l-22 49v294l25 48c18.667 36.667 38.667 71.667 60 105c28 44.667 54.667 80 80 106c88 92 174.333 152.667 259 182h660v-441h-698v-294zM1142 588.002l-105.999 -0.00195312c0 12 -1 21 -3 27c-8 34 -39 60 -93 78c-30.667 10.667 -62.334 16 -95.001 16
c-80 0 -144.667 -24.167 -194 -72.5s-74 -112.5 -74 -192.5h-105l-3 32c-4.66699 74.667 33.333 150.334 114 227.001c78.667 74.667 164.667 112 258 112c110.667 0 206.667 -38.333 288 -115c24.667 -24 37 -47 37 -69c0 -13.333 -4 -24.666 -12 -33.999zM768.005 842
c20 -17.333 43.334 -26.0029 70.001 -26.0029c28.667 0 53 10.333 73 31s30 45.334 30 74.001c0 31.333 -11.667 56.333 -35 75c-7.33301 8.66699 -16 15.334 -26 20.001l-3 2l1 -4c8.66699 -13.333 13 -28.666 13 -45.999c0 -28 -10 -53.833 -30 -77.5
s-43.667 -35.5 -71 -35.5c-14.667 0 -27.334 2.66699 -38.001 8h-2l10 -11z" />
    <glyph glyph-name="u063A" unicode="&#x63a;" horiz-adv-x="1230" arabic-form="isolated" 
d="M1090 20l-0.000976562 199c0 6.66699 -2.66699 11.334 -8 14.001l-14 5c-3.33301 1.33301 -8 2 -14 2l-4 1c2 3.33301 5.33301 6 10 8c20 17.333 30 35 30 53c0 25.333 -14 45 -42 59l-25 13l-50 21c-12 4.66699 -19 8 -21 10l-20 -9c-12.667 -4 -29.667 -10.667 -51 -20
l-34 -18c-11.333 -6 -18.666 -12.667 -21.999 -20l-9 -18l-2 -18c0 -16.667 10.333 -34.334 31 -53.001l10 -6l-5 -3h-11c-14 -1.33301 -22.333 -8.33301 -25 -21v-199h276zM731.999 20l0.00195312 199c0 6.66699 -2.66699 11.334 -8 14.001l-14 5
c-4 1.33301 -8.66699 2 -14 2l-4 1c2 3.33301 5 6 9 8c20.667 17.333 31 35 31 53c0 10.667 -4.33301 22.667 -13 36c-4.66699 8 -12.334 14.667 -23.001 20l-31 16l-37 16l-34 15l-40 -15l-32 -14l-32 -18c-10.667 -6 -18.334 -12.667 -23.001 -20l-9 -18l-2 -18
c0 -16.667 10 -34.334 30 -53.001l11 -6l-5 -3c-6.66699 0 -11 -0.333008 -13 -1l-12 -5c-6 -2.66699 -9.66699 -7.66699 -11 -15v-199h276zM387.001 -333v271c0 7.33301 -3.66699 12.333 -11 15l-10 5l-15 2h-4c2 3.33301 5 6 9 8c20.667 17.333 31 35.333 31 54
c0 23.333 -12 41.333 -36 54l-31 18l-38 15c-10 4 -21.333 9 -34 15l-51 -20c-9.33301 -4 -16 -7 -20 -9l-33 -18c-21.333 -12 -32 -30.667 -32 -56c0 -17.333 9.66699 -35 29 -53l11 -6l-5 -2l-13 -1l-12 -6c-5.33301 -2 -9.33301 -7 -12 -15v-271h277zM1090 -714v198.001
c0 7.33301 -2.66699 12.333 -8 15l-14 5c-3.33301 1.33301 -8 2 -14 2l-4 1c2 3.33301 5.33301 6 10 8c20 17.333 30 35 30 53c0 25.333 -14 45 -42 59l-25 13l-50 20c-12 5.33301 -19 8.66602 -21 9.99902l-20 -8c-12.667 -4.66699 -29.667 -11.667 -51 -21l-34 -18
c-10 -5.33301 -17.333 -11.666 -22 -18.999l-9 -19l-2 -17c0 -16.667 10.333 -34.334 31 -53.001l10 -7l-5 -2l-11 -1c-14 -0.666992 -22.333 -7.66699 -25 -21v-198h276zM732.001 -713.999l0.000976562 198c0 7.33301 -2.66699 12.333 -8 15l-14 5
c-4 1.33301 -8.66699 2 -14 2l-4 1c2 2.66699 5 5.33398 9 8.00098c20.667 17.333 31 35 31 53c0 25.333 -14 45 -42 59l-25 13l-37 16l-34 14l-40 -15c-7.33301 -2.66699 -18 -7.33398 -32 -14.001l-32 -18c-10.667 -5.33301 -18.334 -11.666 -23.001 -18.999l-9 -19
l-2 -17c0 -16.667 10 -34.334 30 -53.001l11 -7l-5 -2l-13 -1l-12 -5c-6 -2 -9.66699 -7.33301 -11 -16v-198h276zM449.002 -293.999l698.002 0.000976562v-440h-707c-68 24 -143 81.333 -225 172c-22.667 26 -47.334 62.667 -74.001 110s-45.334 83.666 -56.001 108.999
l-22 49v294l25 48c18.667 36.667 38.667 71.667 60 105c28 44.667 54.667 80 80 106c88 92 174.333 152.667 259 182h660v-441h-698v-294zM1142 588.002l-105.999 -0.00195312c0 12 -1 21 -3 27c-8 34 -39 60 -93 78c-30.667 10.667 -62.334 16 -95.001 16
c-80 0 -144.667 -24.167 -194 -72.5s-74 -112.5 -74 -192.5h-105l-3 32c-4.66699 74.667 33.333 150.334 114 227.001c78.667 74.667 164.667 112 258 112c110.667 0 206.667 -38.333 288 -115c24.667 -24 37 -47 37 -69c0 -13.333 -4 -24.666 -12 -33.999zM768.005 842
c20 -17.333 43.334 -26.0029 70.001 -26.0029c28.667 0 53 10.333 73 31s30 45.334 30 74.001c0 31.333 -11.667 56.333 -35 75c-7.33301 8.66699 -16 15.334 -26 20.001l-3 2l1 -4c8.66699 -13.333 13 -28.666 13 -45.999c0 -28 -10 -53.833 -30 -77.5
s-43.667 -35.5 -71 -35.5c-14.667 0 -27.334 2.66699 -38.001 8h-2l10 -11zM698.006 1197h140l48 134l38 -134h139l-113 -82l46 -132l-113 82l-113 -82l41 132z" />
    <glyph glyph-name="u0641" unicode="&#x641;" horiz-adv-x="1238" arabic-form="isolated" 
d="M1139 0h-1084v441h1084v-441zM1104 20l-0.000976562 199c0 6.66699 -2.66699 11.334 -8 14.001l-14 5c-4 1.33301 -8.66699 2 -14 2l-5 1c2.66699 3.33301 6 6 10 8c20.667 17.333 31 35 31 53c0 25.333 -14 45 -42 59l-25 13l-50 21c-12 4.66699 -19 8 -21 10l-20 -9
c-12.667 -4 -30 -10.667 -52 -20l-33 -18c-11.333 -6 -18.666 -12.667 -21.999 -20l-9 -18l-2 -18c0 -16.667 10 -34.334 30 -53.001l10 -6l-5 -3h-11c-13.333 -1.33301 -21.333 -8.33301 -24 -21v-199h276zM744.999 20v199c0 6.66699 -2.66699 11.334 -8 14.001l-13 5
c-4 1.33301 -9 2 -15 2l-3 1c1.33301 3.33301 4.33301 6 9 8c20 17.333 30 35 30 53c0 10.667 -4 22.667 -12 36c-5.33301 8 -13 14.667 -23 20l-31 16l-37 16l-34 15l-40 -15l-32 -14l-33 -18c-10 -6 -17.667 -12.667 -23 -20l-8 -18l-3 -18
c0 -16.667 10.333 -34.334 31 -53.001l10 -6l-5 -3c-6 0 -10.333 -0.333008 -13 -1l-12 -5c-6 -2.66699 -9.66699 -7.66699 -11 -15v-199h276zM1124 567l-36.999 -18c24.667 0 37 -9.33301 37 -28v-81h-305v81c2.66699 9.33301 10 16 22 20s18.333 6.66699 19 8l-37 18
c-24 10.667 -40.333 23.667 -49 39c-4 6 -6 13 -6 21c0 27.333 19.333 54.666 58 81.999l126 89c9.33301 6.66699 15.666 13 18.999 19c5.33301 -5.33301 13.333 -12 24 -20l28 -20l95 -69c37.333 -27.333 56 -54.666 56 -81.999c0 -24 -16.667 -43.667 -50 -59zM910 636
c0 -42.667 20.999 -64.001 62.999 -64.001s63 21.333 63 64c0 16.667 -6.16699 31.334 -18.5 44.001s-27.166 19 -44.499 19c-42 0 -63 -21 -63 -63zM500.999 1079h140l45 131l40 -131h140l-113 -82l45 -132l-112 83l-113 -83l41 132zM391.999 19.999v199
c0 6.66699 -2.66699 11.334 -8 14.001l-13 5c-4 1.33301 -9 2 -15 2l-3 1c2 3.33301 5 6 9 8c20 17.333 30 35 30 53c0 10.667 -4 22.667 -12 36c-4.66699 8 -12.334 14.667 -23.001 20l-31 16l-37 16l-34 15l-40 -15l-32 -14l-33 -18c-10 -6 -17.667 -12.667 -23 -20
l-8 -18l-2 -18c0 -16.667 10 -34.334 30 -53.001l11 -6l-5 -3c-6.66699 0 -11 -0.333008 -13 -1l-13 -5c-5.33301 -2.66699 -8.66602 -7.66699 -9.99902 -15v-199h275zM248.999 641.999c-3.33301 -12.667 -14 -24.667 -32 -36l-13 -8c14 0 21 -7.33301 21 -22v-134h-163v134
c1.33301 7.33301 5.16602 12.333 11.499 15s9.83301 5 10.5 7l-20 13c-12 8 -20.333 16.333 -25 25c-1.33301 5.33301 -2.66602 12.333 -3.99902 21c0 21.333 10.333 42.333 31 63l51 53c4.66699 4.66699 8.66699 12.667 12 24l6 24l18 -25l18 -23l51 -53
c19.333 -20.667 29 -41.667 29 -63z" />
    <glyph glyph-name="u0642" unicode="&#x642;" horiz-adv-x="881" arabic-form="isolated" 
d="M808 0h-767v441h767v-441zM744 20l-0.00195312 199c0 6.66699 -2.66699 11.334 -8 14.001l-14 5c-4 1.33301 -8.66699 2 -14 2l-5 1c2.66699 3.33301 6.33398 6 11.001 8c20 17.333 30 35 30 53c0 25.333 -14 45 -42 59l-25 13l-50 21c-12 4.66699 -19 8 -21 10l-20 -9
c-12.667 -4 -30 -10.667 -52 -20l-33 -18c-11.333 -6 -18.666 -12.667 -21.999 -20l-9 -18l-2 -18c0 -16.667 10 -34.334 30 -53.001l10 -6l-5 -3h-11c-13.333 -1.33301 -21.333 -8.33301 -24 -21v-199h276zM384.998 20v199c0 6.66699 -2.66699 11.334 -8 14.001l-13 5
c-4 1.33301 -9 2 -15 2l-3 1c1.33301 3.33301 4.33301 6 9 8c20 17.333 30 35 30 53c0 10.667 -4 22.667 -12 36c-5.33301 8 -13 14.667 -23 20l-31 16l-37 16l-34 15l-40 -15l-32 -14l-33 -18c-10 -6 -17.667 -12.667 -23 -20l-8 -18l-3 -18
c0 -16.667 10.333 -34.334 31 -53.001l10 -6l-5 -3c-6 0 -10.333 -0.333008 -13 -1l-12 -5c-6 -2.66699 -9.66699 -7.66699 -11 -15v-199h276zM792.998 567l-36.999 -18c24.667 0 37 -9.33301 37 -28v-81h-305v81c2.66699 9.33301 10 16 22 20s18.333 6.66699 19 8l-37 18
c-24 10.667 -40.333 23.667 -49 39c-4 6 -6 13 -6 21c0 27.333 19.333 54.666 58 81.999l126 89c9.33301 6.66699 15.666 13 18.999 19c5.33301 -5.33301 13.333 -12 24 -20l28 -20l95 -69c36.667 -27.333 55 -54.666 55 -81.999c0 -24 -16.333 -43.667 -49 -59z
M155.999 1079h139l46 131l40 -131h140l-113 -82l45 -132l-112 83l-113 -83l41 132zM471.999 1079h140l45 131l41 -131h139l-113 -82l46 -132l-113 83l-113 -83l41 132zM578.999 636c0 -42.667 20.999 -64.001 62.999 -64.001s63 21.333 63 64
c0 16.667 -6.16699 31.334 -18.5 44.001s-27.166 19 -44.499 19c-42 0 -63 -21 -63 -63zM234.998 641.999c-4 -12.667 -14.999 -24.667 -32.999 -36l-12 -8c13.333 0 20 -7.33301 20 -22v-134h-162v134c1.33301 7.33301 5 12.333 11 15s9.33301 5 10 7l-19 13
c-12.667 8 -21.334 16.333 -26.001 25c-1.33301 5.33301 -2.33301 12.333 -3 21c0 21.333 10 42.333 30 63l51 53c5.33301 4.66699 9.33301 12.667 12 24l7 24l17 -25l19 -23l50 -53c20 -20.667 30 -41.667 30 -63z" />
    <glyph glyph-name="u0643" unicode="&#x643;" horiz-adv-x="1382" arabic-form="isolated" 
d="M1290 0h-1213v441h1213v-441zM443 20l0.000976562 199c0 6.66699 -2.66699 11.334 -8 14.001l-14 5c-4 1.33301 -8.66699 2 -14 2l-4 1c2 3.33301 5.33301 6 10 8c20 17.333 30 35 30 53c0 10.667 -4 22.667 -12 36c-5.33301 8 -13 14.667 -23 20l-31 16l-38 16l-34 15
l-39 -15l-33 -14l-32 -18c-10.667 -6 -18.334 -12.667 -23.001 -20l-9 -18l-2 -18c0 -16.667 10 -34.334 30 -53.001l11 -6l-5 -3c-6 0 -10.333 -0.333008 -13 -1l-12 -5c-6 -2.66699 -9.66699 -7.66699 -11 -15v-199h276zM817.001 20v199
c0 6.66699 -2.66699 11.334 -8 14.001l-13 5c-4 1.33301 -9 2 -15 2l-3 1c1.33301 3.33301 4.33301 6 9 8c20 17.333 30 35 30 53c0 10.667 -4 22.667 -12 36c-5.33301 8 -13 14.667 -23 20l-31 16l-37 16l-34 15l-40 -15l-32 -14l-33 -18c-10 -6 -17.667 -12.667 -23 -20
l-8 -18l-3 -18c0 -16.667 10.333 -34.334 31 -53.001l10 -6l-5 -3c-6 0 -10.333 -0.333008 -13 -1l-12 -5c-6 -2.66699 -9.66699 -7.66699 -11 -15v-199h276zM1192 20l0.00195312 199c0 6.66699 -2.66699 11.334 -8 14.001l-14 5c-4 1.33301 -8.66699 2 -14 2l-4 1
c2 3.33301 5 6 9 8c20.667 17.333 31 35 31 53c0 10.667 -4.33301 22.667 -13 36c-4.66699 8 -12.334 14.667 -23.001 20l-31 16l-37 16l-34 15l-40 -15l-32 -14l-32 -18c-10.667 -6 -18.334 -12.667 -23.001 -20l-9 -18l-2 -18c0 -16.667 10 -34.334 30 -53.001l11 -6
l-5 -3c-6.66699 0 -11 -0.333008 -13 -1l-12 -5c-6 -2.66699 -9.66699 -7.66699 -11 -15v-199h276zM271.003 642c-4 -12.667 -14.999 -24.667 -32.999 -36l-12 -8c13.333 0 20 -7.33301 20 -22v-134h-162v134c1.33301 7.33301 5 12.333 11 15s9.33301 5 10 7l-19 13
c-12.667 8 -21.334 16.333 -26.001 25c-1.33301 5.33301 -2.33301 12.333 -3 21c0 21.333 10 42.333 30 63l51 53c5.33301 4.66699 9.33301 12.667 12 24l7 24l17 -25l19 -23l50 -53c20 -20.667 30 -41.667 30 -63zM1061 813l-9.99902 -11.999l-8 -9
c-20.667 -17.333 -44 -26 -70 -26c-28.667 0 -53 10.167 -73 30.5s-30 44.833 -30 73.5c0 31.333 11.667 56.666 35 75.999c8 8 16.667 14.667 26 20l3 2l-2 -5c-8.66699 -12.667 -13 -28 -13 -46c0 -27.333 10.167 -53 30.5 -77s44.166 -36 71.499 -36
c14.667 0 27 2.66699 37 8zM1418 1431l-729.998 -638.999l-53 -99c68.667 76.667 164.667 115 288 115c92.667 0 178.334 -37.333 257.001 -112c81.333 -76.667 119.666 -152.334 114.999 -227.001l-3 -32h-105c0 79.333 -24.667 143.333 -74 192s-114 73 -194 73
c-64.667 0 -119.334 -17 -164.001 -51l-33 -25c-6.66699 -4.66699 -16.334 -12.667 -29.001 -24c-32 -17.333 -63 -26 -93 -26s-61 8.66699 -93 26c-69.333 36.667 -104 95.667 -104 177z" />
    <glyph glyph-name="u0644" unicode="&#x644;" horiz-adv-x="881" arabic-form="isolated" 
d="M815 0l-70.999 -42c-48.667 -30 -102.334 -56.667 -161.001 -80c-70.667 -29.333 -129.667 -44 -177 -44c-42 0 -93.667 14.333 -155 43c-52.667 24 -99.667 50.667 -141 80l-62 43v441h767v-441zM751.001 20l-0.000976562 199c0 6.66699 -2.66699 11.334 -8 14.001
l-14 5c-4 1.33301 -8.66699 2 -14 2l-4 1c2 3.33301 5.33301 6 10 8c20 17.333 30 35 30 53c0 25.333 -14 45 -42 59l-25 13l-50 21c-12 4.66699 -19 8 -21 10l-20 -9c-12.667 -4 -30 -10.667 -52 -20l-33 -18c-11.333 -6 -18.666 -12.667 -21.999 -20l-9 -18l-2 -18
c0 -16.667 10 -34.334 30 -53.001l11 -6l-6 -3h-10c-14 -1.33301 -22.333 -8.33301 -25 -21v-199h276zM392 20l0.000976562 199c0 6.66699 -2.66699 11.334 -8 14.001l-13 5c-4 1.33301 -9 2 -15 2l-3 1c2 3.33301 5 6 9 8c20 17.333 30 35 30 53c0 10.667 -4 22.667 -12 36
c-4.66699 8 -12.334 14.667 -23.001 20l-31 16l-51 19c-6 2 -13.333 5.33301 -22 10l-38 -14c-6.66699 -2 -17.334 -6.33301 -32.001 -13l-33 -18c-10 -6 -17.667 -12.667 -23 -20l-8 -18l-2 -18c0 -16.667 10 -34.334 30 -53.001l11 -6l-5 -3
c-6.66699 0 -11 -0.333008 -13 -1l-13 -5c-5.33301 -2.66699 -8.66602 -7.66699 -9.99902 -15v-199h275zM762.001 1014h-55v-487h55v487zM840.001 1139c-4 -12.667 -14.998 -25.001 -32.998 -37.001l-12 -8c13.333 0 20 -7 20 -21v-631h-163v631
c1.33301 7.33301 5.16602 12.333 11.499 15s9.83301 4.66699 10.5 6l-20 13c-12 8.66699 -20.333 17.334 -25 26.001c-1.33301 5.33301 -2.33301 12.333 -3 21c0 21.333 10 42.333 30 63l51 52c5.33301 6 10.666 15.333 15.999 28l10 25l17 -35c4 -8.66699 8 -14.667 12 -18
l50 -52c20 -20.667 30 -42 30 -64zM242.003 641.999c-3.33301 -12.667 -14 -24.667 -32 -36l-13 -8c13.333 0 20 -7.33301 20 -22v-134h-162v134c1.33301 7.33301 5 12.333 11 15s9.33301 5 10 7l-19 13c-12 8 -20.333 16.333 -25 25
c-1.33301 5.33301 -2.66602 12.333 -3.99902 21c0 21.333 10 42.333 30 63l51 53c5.33301 4.66699 9.66602 12.667 12.999 24l6 24l17 -25l19 -23l51 -53c19.333 -20.667 29 -41.667 29 -63z" />
    <glyph glyph-name="u0645" unicode="&#x645;" horiz-adv-x="1089" arabic-form="isolated" 
d="M822 333c0 30 -4.50098 60 -13.501 90s-18.167 51.333 -27.5 64c-15.333 20.667 -32.333 31 -51 31c-11.333 0 -24 -5 -38 -15c-13.333 -12 -27.666 -30 -42.999 -54c16 -18.667 33.667 -33.667 53 -45l60 -37l27 -14zM860.999 -10
c-4 -8.66699 -9.33496 -16.667 -16.002 -24l-21 -21c-18.667 -17.333 -35.667 -26 -51 -26h-3c-20.667 0 -49.667 13 -87 39c-23.333 10 -57.333 28 -102 54c-1.33301 -2 -4.66602 -3 -9.99902 -3c-4 0 -11.667 1.33301 -23 4l-21 4l-10 -2l-22 -11
c-7.33301 -2 -15.666 -3.33301 -24.999 -4l-6 -2v-532h-384l1 975h359c24 11.333 54.667 43.333 92 96c51.333 72 83.666 115.333 96.999 130c41.333 44 83.333 66 126 66c48 0 86.667 -19.333 116 -58c14.667 -20 34.334 -61.333 59.001 -124l28 -76
c8.66699 -22.667 19.667 -34 33 -34zM759.997 20v198.999c0 6.66699 -2.66699 11.334 -8 14.001l-13 5c-4 1.33301 -9 2 -15 2l-3 1c2 3.33301 5 6 9 8c20 17.333 30 35 30 53c0 10.667 -4 22.667 -12 36c-4.66699 8 -12.334 14.667 -23.001 20l-31 16l-41 18
c-8 2.66699 -18 7.33398 -30 14.001l-56 -22l-16 -8l-33 -18c-10 -6 -17.667 -12.667 -23 -20l-8 -18l-2 -18c0 -16.667 10 -34.334 30 -53.001l11 -6l-5 -3c-6.66699 0 -11 -0.333008 -13 -1l-13 -5c-5.33301 -2.66699 -8.66602 -7.66699 -9.99902 -15v-199h275z
M414.997 -484.001l0.00292969 703c0 6.66699 -2.66699 11.334 -8 14.001l-14 5c-4 1.33301 -8.66699 2 -14 2l-4 1c2 3.33301 5 6 9 8c20.667 17.333 31 35 31 53c0 10.667 -4.33301 22.667 -13 36c-4.66699 8 -12.334 14.667 -23.001 20l-31 16l-51 19
c-6 2 -13 5.33301 -21 10l-39 -14c-6.66699 -2 -17.334 -6.33301 -32.001 -13l-32 -18c-10.667 -6 -18.334 -12.667 -23.001 -20l-9 -18l-2 -18c0 -16.667 10 -34.334 30 -53.001l11 -6l-5 -3c-6.66699 0 -11 -0.333008 -13 -1l-12 -5
c-6 -2.66699 -9.66699 -7.66699 -11 -15v-703h276zM640 784.999c20 -17.333 43.334 -25.999 70.001 -25.999c28.667 0 53 10.167 73 30.5s30 44.833 30 73.5c0 31.333 -11.667 56.666 -35 75.999c-7.33301 8 -16 14.333 -26 19l-3 2l1 -4c8.66699 -12.667 13 -28 13 -46
c0 -27.333 -10.167 -53 -30.5 -77s-43.833 -36 -70.5 -36c-14.667 0 -27.334 2.66699 -38.001 8l-2 1l9 -12z" />
    <glyph glyph-name="u0646" unicode="&#x646;" horiz-adv-x="1194" arabic-form="isolated" 
d="M1125 0h-1084v441h1084v-441zM1068 20l-0.000976562 199c0 6.66699 -2.66699 11.334 -8 14.001l-14 5c-4 1.33301 -8.66699 2 -14 2l-5 1c2.66699 3.33301 6 6 10 8c20.667 17.333 31 35 31 53c0 25.333 -14 45 -42 59l-25 13l-50 21c-12 4.66699 -19 8 -21 10l-20 -9
c-12.667 -4 -30 -10.667 -52 -20l-33 -18c-11.333 -6 -18.666 -12.667 -21.999 -20l-9 -18l-2 -18c0 -16.667 10 -34.334 30 -53.001l10 -6l-5 -3h-11c-13.333 -1.33301 -21.333 -8.33301 -24 -21v-199h276zM708.999 20v199c0 6.66699 -2.66699 11.334 -8 14.001l-13 5
c-4 1.33301 -9 2 -15 2l-3 1c1.33301 3.33301 4.33301 6 9 8c20 17.333 30 35 30 53c0 10.667 -4 22.667 -12 36c-5.33301 8 -13 14.667 -23 20l-31 16l-37 16l-34 15l-40 -15l-32 -14l-33 -18c-10 -6 -17.667 -12.667 -23 -20l-8 -18l-3 -18
c0 -16.667 10.333 -34.334 31 -53.001l10 -6l-5 -3c-6 0 -10.333 -0.333008 -13 -1l-12 -5c-6 -2.66699 -9.66699 -7.66699 -11 -15v-199h276zM363.999 20l-0.00195312 199c0 6.66699 -3.33301 11.667 -10 15l-11 4l-15 2l-3 1c2 3.33301 4.66699 6 8 8
c20.667 16.667 31 34.667 31 54c0 22.667 -11.667 40.667 -35 54l-31 17l-38 16c-10 4 -21.333 9 -34 15l-51 -21c-9.33301 -3.33301 -16 -6 -20 -8l-33 -18c-22 -12 -33 -30.667 -33 -56c0 -17.333 10 -35 30 -53l11 -6l-5 -3c-7.33301 0 -11.666 -0.333008 -12.999 -1
c-3.33301 0 -7.66602 -1.33301 -12.999 -4s-9 -8 -11 -16v-199h276zM392.997 1079h140l45 131l40 -131h140l-113 -82l45 -132l-112 83l-113 -83l41 132zM1142 642c-3.33301 -12.667 -14.333 -24.667 -33 -36l-12 -8c13.333 0 20 -7.33301 20 -22v-134h-162v134
c1.33301 7.33301 5 12.333 11 15s9.33301 5 10 7l-19 13c-12 8 -20.333 16.333 -25 25c-1.33301 5.33301 -2.66602 12.333 -3.99902 21c0 21.333 10 42.333 30 63l51 53c5.33301 4.66699 9.66602 12.667 12.999 24l6 24l17 -25l19 -23l51 -53
c19.333 -20.667 29 -41.667 29 -63zM234.997 642c-4 -12.667 -14.999 -24.667 -32.999 -36l-12 -8c13.333 0 20 -7.33301 20 -22v-134h-162v134c1.33301 7.33301 5 12.333 11 15s9.33301 5 10 7l-19 13c-12.667 8 -21.334 16.333 -26.001 25
c-1.33301 5.33301 -2.33301 12.333 -3 21c0 21.333 10 42.333 30 63l51 53c5.33301 4.66699 9.33301 12.667 12 24l7 24l17 -25l19 -23l50 -53c20 -20.667 30 -41.667 30 -63z" />
    <glyph glyph-name="u0647" unicode="&#x647;" horiz-adv-x="664" arabic-form="isolated" 
d="M41 422c0 26 15.999 55.3311 47.999 87.998c23.333 16.667 79.666 59.334 168.999 128.001l35 27l31 28c4.66699 -7.33301 19.334 -18.333 44.001 -33l37 -22l88 -61c88 -60.667 132 -112.667 132 -156c0 -9.33301 -3 -19.666 -9 -30.999
c-10.667 -20 -34 -38.333 -70 -55l-54 -25c2.66699 -4 11.834 -8.33301 27.501 -13s26.5 -14 32.5 -28v-183h-439v183c0 27.333 17.667 41 53 41c-22.667 9.33301 -40 17.333 -52 24c-48.667 26.667 -73 56 -73 88zM204.999 368.998c0 -34.667 12.167 -64 36.5 -88
s53.833 -36 88.5 -36s64 12 88 36s36 53.333 36 88c0 34 -12.167 63.167 -36.5 87.5s-53.5 36.5 -87.5 36.5c-34.667 0 -64.167 -12 -88.5 -36s-36.5 -53.333 -36.5 -88z" />
    <glyph glyph-name="u0648" unicode="&#x648;" horiz-adv-x="821" arabic-form="isolated" 
d="M773 -491v206c0 6.66699 -2.66699 11.334 -8 14.001l-14 5c-4 1.33301 -8.66699 2 -14 2l-5 1c2.66699 3.33301 6 6 10 8c20.667 17.333 31 35 31 53c0 25.333 -14 45 -42 59l-25 13l-50 21c-12 4.66699 -19.333 8 -22 10l-19 -9c-12.667 -4 -30 -10.667 -52 -20l-33 -18
c-10.667 -6 -18 -12.667 -22 -20l-9 -18l-2 -18c0 -16.667 10 -34.334 30 -53.001l10 -6l-5 -3h-11c-14 -1.33301 -22 -8.33301 -24 -21v-206h276zM430 -46l2 50c-64.667 59.333 -97 135 -97 227c0 88 31.667 158 95 210c72 58.667 144.333 88 217 88
c48.667 0 95 -14.667 139 -44c16 -10 33 -24.667 51 -44v-959h-733v472h326zM433 -494l0.000976562 198.999c0 6.66699 -2.66699 11.334 -8 14.001l-14 5c-4 1.33301 -8.66699 2 -14 2l-4 1c2 2.66699 5 5.33398 9 8.00098c20.667 17.333 31 35 31 53
c0 25.333 -13.667 45 -41 59l-26 13l-43 20c-18.667 8 -30 13.333 -34 16c-4 -3.33301 -12.667 -8.33301 -26 -15l-40 -19l-32 -18c-10.667 -6 -18.334 -12.667 -23.001 -20l-9 -18l-2 -18c0 -16.667 10 -34.334 30 -53.001l11 -6l-5 -3h-13l-12 -5
c-6 -2.66699 -9.66699 -8 -11 -16v-199h276zM451.001 226.999c0 -31.333 7.66699 -58.999 23 -82.999c30.667 -48.667 75 -73 133 -73c65.333 0 112 29.667 140 89c10 21.333 15 43.666 15 66.999c0 65.333 -29.333 112 -88 140c-21.333 10 -43.666 15 -66.999 15
c-42.667 0 -79.334 -15.167 -110.001 -45.5s-46 -66.833 -46 -109.5z" />
    <glyph glyph-name="u0649" unicode="&#x649;" horiz-adv-x="1991" arabic-form="isolated" 
d="M1089 0v441h844v-441h-844zM1870 22v172c0 8 -4 13.667 -12 17l-13 5l-16 2l-4 2c2.66699 4 6.33398 6.66699 11.001 8c22.667 18.667 34 38.334 34 59.001c0 26 -13 46.333 -39 61c-14 6.66699 -25.667 13 -35 19l-49 19c-10 4 -22 9.33301 -36 16
c0 -0.666992 -13.333 -6.66699 -40 -18l-34 -15l-36 -20c-25.333 -13.333 -38 -34 -38 -62c0 -19.333 11.333 -39 34 -59l11 -7l-5 -3c-6.66699 0 -11.334 -0.333008 -14.001 -1l-14 -6c-6 -2.66699 -10 -8.33398 -12 -17.001v-172h307zM121 -441v440.999h1240v-441l-51 -12
c-11.333 -3.33301 -30.333 -8.33301 -57 -15c-133.333 -33.333 -266 -57.666 -398 -72.999c-43.333 -5.33301 -83.333 -8 -120 -8c-72 0 -160.667 9.33301 -266 28c-95.333 16.667 -176 34 -242 52zM497 -418.001v172.002c0 8 -4 13.333 -12 16l-13 5l-16 3l-4 1
c2.66699 4 6.33398 7 11.001 9c22.667 18.667 34 38.334 34 59.001c0 25.333 -13 45.666 -39 60.999c-14 6 -25.667 12.333 -35 19l-45 18c-10 4 -21.667 9 -35 15l-21 -9c-27.333 -8.66699 -47 -16.334 -59 -23.001l-35 -19c-25.333 -14 -38 -34.667 -38 -62
c0 -20 11.333 -39.667 34 -59l11 -8l-5 -2c-6.66699 0 -11.334 -0.666992 -14.001 -2l-14 -5c-5.33301 -2.66699 -9.33301 -8.33398 -12 -17.001v-172h307zM895 -417.999l0.00195312 172.002c0 8 -4 13.333 -12 16l-13 5l-15 3l-5 1c3.33301 4 7 7 11 9
c22.667 18.667 34 38.334 34 59.001c0 25.333 -13 45.666 -39 60.999c-13.333 6 -25 12.333 -35 19l-45 18c-10 4 -21.333 9 -34 15l-22 -9c-26.667 -8.66699 -46.334 -16.334 -59.001 -23.001l-35 -19c-25.333 -14 -38 -34.667 -38 -62c0 -20 11.333 -39.667 34 -59l12 -8
l-6 -2c-6.66699 0 -11.334 -0.666992 -14.001 -2l-14 -5c-5.33301 -2.66699 -9.33301 -8.33398 -12 -17.001v-172h307zM1278 -417.997v172.001c0 7.33301 -4 12.666 -12 15.999c-11.333 5.33301 -20.666 8 -27.999 8l-4 1c2.66699 4 6 7 10 9
c22.667 18.667 34 38.334 34 59.001c0 27.333 -15.333 49 -46 65l-29 15l-44 18c-10 4 -21.333 9 -34 15l-22 -9l-58 -23l-36 -19c-24.667 -13.333 -37 -34.333 -37 -63c0 -20 11 -39.333 33 -58l12 -8l-5 -2c-6.66699 0 -11.334 -0.666992 -14.001 -2l-15 -5
c-5.33301 -2.66699 -9.33301 -8.33398 -12 -17.001v-172h307zM318.002 317.004c-4 -12.667 -14.999 -25 -32.999 -37l-12 -8c13.333 0 20 -7 20 -21v-250h-163v250c1.33301 7.33301 5.16602 12.333 11.499 15s9.83301 4.66699 10.5 6l-20 13c-12 8 -20.333 16.667 -25 26
c-0.666992 4 -1.66699 11 -3 21c0 20.667 10 41.667 30 63l51 52c5.33301 5.33301 10 16 14 32l9 31l19 -42c4 -9.33301 8.33301 -16.333 13 -21l50 -52c20 -20.667 30 -42 30 -64zM1467 22.0039l-0.000976562 172c0 8 -4.33301 13.667 -13 17l-13 5l-15 2l-4 2
c2.66699 4 6.33398 6.66699 11.001 8c22.667 18.667 34 38.334 34 59.001c0 12.667 -4.66699 25.667 -14 39c-6.66699 10 -15 17.333 -25 22l-35 18c-12 6 -27 12.5 -45 19.5s-29.333 12.5 -34 16.5c-4.66699 -3.33301 -16.667 -8.33301 -36 -15s-34.333 -13 -45 -19
l-36 -19c-24.667 -13.333 -37 -34 -37 -62c0 -19.333 11.333 -39 34 -59l11 -7l-6 -3c-6.66699 0 -11 -0.333008 -13 -1l-15 -6c-5.33301 -2.66699 -9 -8.33398 -11 -17.001v-172h307z" />
    </font>
</defs>
</svg>
