<?xml version="1.0" standalone="no"?>
<!DOCTYPE svg PUBLIC "-//W3C//DTD SVG 1.1//EN" "http://www.w3.org/Graphics/SVG/1.1/DTD/svg11.dtd" >
<svg>
<metadata>
Created by FontForge 20090914 at Wed Oct 19 01:37:59 2011
 By www-data
(c) by Abolfazl Seilsepour - +98 912 591 3420  -  seilsepor@yahoo.com
</metadata>
<defs>
<font id="FarNarenj" horiz-adv-x="0" >
  <font-face 
    font-family="Far.Narenj"
    font-weight="400"
    font-stretch="normal"
    units-per-em="2048"
    panose-1="0 0 3 0 0 0 0 0 0 0"
    ascent="1638"
    descent="-410"
    bbox="-214 -1092 1856 2076"
    underline-thickness="80"
    underline-position="-760"
    unicode-range="U+0020-U+FEFC"
  />
<missing-glyph horiz-adv-x="1024" 
d="M128 0v1342h768v-1342h-768zM256 128h512v1086h-512v-1086z" />
    <glyph glyph-name="uE818" unicode="&#x651;&#x64b;" 
d="M255 1498c0 -40.667 -7.99902 -72.332 -23.999 -94.999c-12 -16.667 -25 -25 -39 -25c-12.667 0 -25.334 10.333 -38.001 31c-14.667 -19.333 -27.667 -29 -39 -29c-13.333 0 -26 8.33301 -38 25c-15.333 22.667 -23 54.667 -23 96c0 54 5.66699 95.333 17 124h38
c-12 -36 -18 -77.667 -18 -125c0 -55.333 7.66699 -83 23 -83c12.667 0 19.667 20.333 21 61l1 46c0 18 6.66699 27 20 27c12 0 18 -9 18 -27l-1 -46c4.66699 -42.667 11 -64 19 -64c18 0 27 27.667 27 83c0 46 -6.66699 88 -20 126h37
c12.667 -32.667 19 -74.334 19 -125.001zM114.001 1700c28.667 75.333 80 136.333 154 183l17 -23c-67.333 -48 -114 -104 -140 -168zM36.001 1707c33.333 84.667 80.668 145.667 142.001 183l16 -22c-54.667 -40 -96.334 -95.667 -125.001 -167z" />
    <glyph glyph-name="uFC5E" unicode="&#x651;&#x64c;" arabic-form="isolated" 
d="M284 1491c0 -40.667 -8.33398 -72.332 -25.001 -94.999c-12 -16.667 -25 -25 -39 -25c-12.667 0 -25.334 10.333 -38.001 31c-14.667 -19.333 -27.667 -29 -39 -29c-13.333 0 -25.666 8.33301 -36.999 25c-16 22.667 -24 54.667 -24 96c0 54 6 95.333 18 124h38
c-12.667 -36 -19 -78 -19 -126c0 -54.667 7.66699 -82 23 -82c12.667 0 19.667 20.333 21 61l1 46c0.666992 18 7.33398 27 20.001 27s18.667 -9 18 -27l-1 -46c4.66699 -42.667 11 -64 19 -64c18 0 27 27.667 27 83c0 46 -6.66699 88 -20 126h37
c13.333 -32.667 20 -74.334 20 -125.001zM263.999 2051c-16.667 -13.333 -42.668 -45 -78.001 -95h22c29.333 0 44 -19.667 44 -59c-1.33301 -10.667 -4.66602 -28 -9.99902 -52c-16.667 -53.333 -51.667 -103.666 -105 -150.999l-20 27c46 36 69 58.333 69 67
c-32 0 -48 34.667 -48 104c0 51.333 35.667 112.666 107 183.999zM217.998 1892c0 20.667 -7 30.999 -21 30.999h-13c-9.33301 0 -14 -12 -14 -36c0 -45.333 6 -68 18 -68c8.66699 0 16 9.66699 22 29c5.33301 16.667 8 31.334 8 44.001z" />
    <glyph glyph-name="uFC5F" unicode="&#x651;&#x64d;" arabic-form="isolated" 
d="M274 1850c0 -41.333 -8 -73 -24 -95c-12 -17.333 -25 -26 -39 -26c-12.667 0 -25.334 10.333 -38.001 31c-15.333 -19.333 -28.333 -29 -39 -29c-13.333 0 -26 8.66699 -38 26c-15.333 22 -23 53.667 -23 95c0 54 5.66699 95.333 17 124h38c-12 -35.333 -18 -77 -18 -125
c0 -55.333 7.66699 -83 23 -83c12.667 0 19.334 20.333 20.001 61l2 46c0 18 6.66699 27 20 27c12 0 18 -9 18 -27l-2 -46c5.33301 -42 12 -63 20 -63c17.333 0 26 27.667 26 83c0 45.333 -6.33301 87 -19 125h37c12.667 -32.667 19 -74 19 -124zM103 1466
c29.333 74.667 80.667 135.333 154 182l17 -23c-67.333 -48 -114 -103.667 -140 -167zM25.001 1473c33.333 84 81 144.668 143 182.001l16 -21c-55.333 -40.667 -97.333 -96.334 -126 -167.001z" />
    <glyph glyph-name="uFC60" unicode="&#x651;&#x64e;" arabic-form="isolated" 
d="M274 1461c0 -41.333 -8 -73.333 -24 -96c-12 -16.667 -25 -25 -39 -25c-12.667 0 -25.334 10.333 -38.001 31c-15.333 -19.333 -28.333 -29 -39 -29c-13.333 0 -26 8.66699 -38 26c-15.333 22 -23 53.667 -23 95c0 54 5.66699 95.333 17 124h38
c-12 -35.333 -18 -77 -18 -125c0 -55.333 7.66699 -83 23 -83c12.667 0 19.334 20.333 20.001 61l2 46c0 18 6.66699 27 20 27c12 0 18 -9 18 -27l-2 -46c5.33301 -42 12 -63 20 -63c17.333 0 26 27.667 26 83c0 45.333 -6.33301 87 -19 125h37
c12.667 -32.667 19 -74 19 -124zM78 1650c33.333 84 81.333 145.001 144 183.001l16 -22c-56.667 -40.667 -99 -96.334 -127 -167.001z" />
    <glyph glyph-name="uFC61" unicode="&#x651;&#x64f;" arabic-form="isolated" 
d="M293 1470c0 -40.667 -8 -72.335 -24 -95.002c-12.667 -17.333 -25.667 -26 -39 -26c-12.667 0 -25.334 10.333 -38.001 31c-15.333 -18.667 -28.333 -28 -39 -28c-13.333 0 -26 8.33301 -38 25c-15.333 22.667 -23 54.334 -23 95.001c0 54.667 5.66699 96.334 17 125.001
h38c-12 -36 -18 -78 -18 -126c0 -55.333 7.66699 -83 23 -83c12.667 0 19.334 20.333 20.001 61l1 46c0.666992 18.667 7.66699 28 21 28c12 0 17.667 -9.33301 17 -28l-1 -46c5.33301 -42 12 -63 20 -63c17.333 0 26 27.667 26 83c0 45.333 -6.33301 87 -19 125h37
c12.667 -32.667 19 -74 19 -124zM264 1833c0 -46 -31 -106.332 -93 -180.999l-33 20c31.333 30 55 59.667 71 89h-25c-32.667 0 -49 20.333 -49 61c0 14 5.66699 38 17 72c16.667 45.333 35.667 68 57 68c15.333 0 28.333 -12.833 39 -38.5s16 -55.834 16 -90.501zM228 1840
c0 49.333 -7.00098 78 -21.001 86c-7.33301 -5.33301 -15.166 -19.833 -23.499 -43.5s-12.5 -40.167 -12.5 -49.5c0 -22.667 4.33301 -34 13 -34h28c10.667 0 16 13.667 16 41z" />
    <glyph glyph-name="uFC62" unicode="&#x651;&#x650;" arabic-form="isolated" 
d="M265 1743c0 -40.667 -8.00098 -72.332 -24.001 -94.999c-12.667 -16.667 -25.667 -25 -39 -25s-26 10.333 -38 31c-15.333 -19.333 -28.333 -29 -39 -29c-14 0 -26.667 8.33301 -38 25c-15.333 22.667 -23 54.667 -23 96c0 54 5.66699 95.333 17 124h38
c-12.667 -36 -19 -78 -19 -126c0 -54.667 7.66699 -82 23 -82c13.333 0 20.333 20.333 21 61l1 46c0.666992 18 7.66699 27 21 27c12 0 17.667 -9 17 -27l-1 -46c4.66699 -42.667 11.334 -64 20.001 -64c17.333 0 26 27.667 26 83c0 46 -6.66699 88 -20 126h37
c13.333 -32.667 20 -74.334 20 -125.001zM69.999 1384c33.333 84 81.333 145 144 183l16 -22c-56 -40.667 -98 -96 -126 -166z" />
    <glyph glyph-name="uFDF2" unicode="&#xfedf;&#xfee0;&#xfeea;" horiz-adv-x="657" arabic-form="isolated" 
d="M378 0c-62.667 0 -94.002 46.333 -94.002 139c0 17.333 1.33301 43.333 4 78s4 59 4 73c0 48 -12.333 72 -37 72c-33.333 0 -58.666 -37 -75.999 -111c-5.33301 -24 -8 -49.667 -8 -77c0 -56.667 10 -114.667 30 -174h-43c-20.667 60 -31 118 -31 174c0 28 3 53.667 9 77
c24.667 103.333 65.334 155 122.001 155c53.333 0 80 -44.333 80 -133c0 -14.667 -0.833008 -37 -2.5 -67s-2.5 -51.667 -2.5 -65c0 -64 16.667 -96 50 -96h39c20.667 0 31 18.667 31 56v724h45v-724c0 -37.333 10.333 -56 31 -56h52c20.667 0 31 18.667 31 56v1226h45
v-1229c0 -65.333 -25.333 -98 -76 -98h-59c-18.667 0 -34.667 7 -48 21c-16.667 -14 -38.667 -21 -66 -21h-30zM541.998 1122c0 -40.667 -8.33398 -72.332 -25.001 -94.999c-12 -16.667 -25 -25 -39 -25c-12.667 0 -25.334 10.333 -38.001 31
c-14.667 -19.333 -27.667 -29 -39 -29c-13.333 0 -25.666 8.33301 -36.999 25c-16 22.667 -24 54.667 -24 96c0 54 6 95.333 18 124h38c-12.667 -36 -19 -77.667 -19 -125c0 -55.333 7.66699 -83 23 -83c12.667 0 19.667 20.333 21 61l1 46
c0.666992 18 7.33398 27 20.001 27s18.667 -9 18 -27l-1 -46c4.66699 -42.667 11 -64 19 -64c18 0 27 27.667 27 83c0 46 -6.66699 88 -20 126h37c13.333 -32.667 20 -74.334 20 -125.001zM424.997 1400h30v-140h-30v140z" />
    <glyph glyph-name="uFEF5" unicode="&#xfedf;&#xfe82;" horiz-adv-x="916" arabic-form="isolated" 
d="M916 929c0 -103.333 -36.001 -213.668 -108.001 -331.001c-32.667 -52.667 -93 -132 -181 -238c111.333 -112 167 -198.333 167 -259c0 -67.333 -49.333 -101 -148 -101h-99c-99.333 0 -149 36 -149 108c0 47.333 56.333 132 169 254
c-83.333 98.667 -143.666 178.667 -180.999 240c-73.333 120.667 -110 233.334 -110 338.001c0 140.667 72.333 268.667 217 384l29 -30c-134 -120 -201 -238.667 -201 -356c0 -132.667 92 -313 276 -541c181.333 212.667 272 390.667 272 534c0 128 -66.667 248 -200 360
l24 40c148.667 -131.333 223 -265.333 223 -402zM746.999 102.998c0 42.667 -49.667 116.333 -149 221c-103.333 -108 -155 -180.333 -155 -217c0 -41.333 34.667 -62 104 -62h99c67.333 0 101 19.333 101 58zM139.999 744.997c-6.66699 16 -12.667 34.334 -18 55.001
c-12.667 50 -20 107.667 -22 173c-2.66699 106 42.666 201.667 135.999 287c68.667 62.667 150.334 109.667 245.001 141l9 -48c-24 -8.66699 -47.333 -18.334 -70 -29.001c-54 -26.667 -100.667 -57 -140 -91c-88.667 -75.333 -133 -162 -133 -260
c0 -78 13 -149.667 39 -215z" />
    <glyph glyph-name="uFEF6" unicode="&#xfee0;&#xfe82;" horiz-adv-x="807" arabic-form="final" 
d="M731 722c0 -110 -55 -228.332 -165 -354.999c76.667 -106 148.667 -213.333 216 -322h48v-45h-351c-99.333 0 -149 36 -149 108c0 47.333 56.333 132 169 254c-140.667 166.667 -211 346 -211 538c0 85.333 23.667 165.666 71 240.999c34.667 54.667 78.667 103 132 145
c47.333 36.667 71 51 71 43l38 -32c-178 -97.333 -267 -230 -267 -398s66 -334 198 -498c101.333 115.333 152 223 152 323c0 113.333 -42.667 223 -128 329l31 38c96.667 -111.333 145 -234.333 145 -369zM719 59.001l-181 262.001c-109.333 -108.667 -164 -180 -164 -214
c0 -41.333 35 -62 105 -62h99c95.333 0 143 3.33301 143 10c0 1.33301 -0.666992 2.66602 -2 3.99902zM153 745.002c-7.33301 16 -13.668 34.334 -19.001 55.001c-12.667 50 -19.667 107.667 -21 173c-3.33301 106 41.667 201.667 135 287
c68.667 62.667 150.334 109.667 245.001 141l9 -48c-23.333 -8.66699 -46.333 -18.334 -69 -29.001c-54.667 -26.667 -101.667 -57 -141 -91c-88 -75.333 -132 -162 -132 -260c0 -78 13 -149.667 39 -215z" />
    <glyph glyph-name="uFEF7" unicode="&#xfedf;&#xfe84;" horiz-adv-x="761" arabic-form="isolated" 
d="M761 929c0 -103.333 -36 -213.668 -108 -331.001c-32.667 -52.667 -93.334 -132 -182.001 -238c112 -112 168 -198.333 168 -259c0 -67.333 -49.333 -101 -148 -101h-99c-99.333 0 -149 36 -149 108c0 47.333 56.333 132 169 254
c-83.333 98.667 -143.666 178.667 -180.999 240c-73.333 120.667 -110 233.334 -110 338.001c0 140.667 72.333 268.667 217 384l29 -30c-134 -120 -201 -238.667 -201 -356c0 -132.667 92 -313 276 -541c181.333 212.667 272 390.667 272 534c0 128 -66.667 248 -200 360
l24 40c148.667 -131.333 223 -265.333 223 -402zM592 102.998c0 42.667 -49.667 116.333 -149 221c-104 -108 -156 -180.333 -156 -217c0 -41.333 35 -62 105 -62h99c67.333 0 101 19.333 101 58zM70 1457c0 54 45.333 87.333 136 100v-43
c-60.667 -22.667 -91 -40.667 -91 -54c0 -10 20.333 -24.667 61 -44s61 -41.666 61 -66.999c0 -54.667 -45.333 -88 -136 -100v42c60.667 11.333 91 30.666 91 57.999c0 10.667 -20.333 25.167 -61 43.5s-61 39.833 -61 64.5z" />
    <glyph glyph-name="uFEF8" unicode="&#xfee0;&#xfe84;" horiz-adv-x="638" arabic-form="final" 
d="M562 722c0 -110 -54.667 -228.332 -164 -354.999c76 -106 147.667 -213.333 215 -322h48v-45h-351c-99.333 0 -149 36 -149 108c0 47.333 56.333 132 169 254c-140.667 166.667 -211 346 -211 538c0 85.333 23.667 165.666 71 240.999c34.667 54.667 78.667 103 132 145
c47.333 36.667 71 51 71 43l38 -32c-178 -97.333 -267 -230 -267 -398s66 -334 198 -498c101.333 115.333 152 223 152 323c0 113.333 -42.667 223 -128 329l31 38c96.667 -111.333 145 -234.333 145 -369zM551 59.001l-182 262.001c-108.667 -108.667 -163 -180 -163 -214
c0 -41.333 34.667 -62 104 -62h99c95.333 0 143 3.33301 143 10c0 1.33301 -0.333008 2.66602 -1 3.99902zM70 1486c0 54 45.333 87.333 136 100v-43c-60.667 -22.667 -91 -40.667 -91 -54c0 -10 20.333 -24.667 61 -44s61 -41.666 61 -66.999
c0 -54.667 -45.333 -88 -136 -100v42c60.667 11.333 91 30.666 91 57.999c0 10.667 -20.333 25.167 -61 43.5s-61 39.833 -61 64.5z" />
    <glyph glyph-name="uFEF9" unicode="&#xfedf;&#xfe88;" horiz-adv-x="741" arabic-form="isolated" 
d="M741 929c0 -103.333 -36.333 -213.668 -109 -331.001c-32.667 -52.667 -93 -132 -181 -238c112 -112 168 -198.333 168 -259c0 -67.333 -49.667 -101 -149 -101h-99c-99.333 0 -149 36 -149 108c0 47.333 56.333 132 169 254c-82.667 98.667 -142.667 178.667 -180 240
c-74 120.667 -111 233.334 -111 338.001c0 140.667 72.333 268.667 217 384l29 -30c-134 -120 -201 -238.667 -201 -356c0 -132.667 92 -313 276 -541c181.333 212.667 272 390.667 272 534c0 128 -66.667 248 -200 360l24 40c149.333 -131.333 224 -265.333 224 -402z
M571 102.998c0 42.667 -49.667 116.333 -149 221c-103.333 -108 -155 -180.333 -155 -217c0 -41.333 34.667 -62 104 -62h99c67.333 0 101 19.333 101 58zM165 -147.003c0 54.667 45.333 88 136 100v-42c-60.667 -22.667 -91 -40.667 -91 -54c0 -10 20.333 -24.833 61 -44.5
s61 -42.167 61 -67.5c0 -54.667 -45.333 -88 -136 -100v43c60.667 10.667 91 29.667 91 57c0 10.667 -20.333 25.167 -61 43.5s-61 39.833 -61 64.5z" />
    <glyph glyph-name="uFEFA" unicode="&#xfee0;&#xfe88;" horiz-adv-x="650" arabic-form="final" 
d="M574 722c0 -110 -55.001 -228.332 -165.001 -354.999c76.667 -106 148.334 -213.333 215.001 -322h49v-45h-351c-100 0 -150 36 -150 108c0 47.333 56.333 132 169 254c-140 166.667 -210 346 -210 538c0 85.333 23.667 165.666 71 240.999c34 54.667 78 103 132 145
c47.333 36.667 71 51 71 43l38 -32c-178 -97.333 -267 -230 -267 -398s66 -334 198 -498c100.667 115.333 151 223 151 323c0 113.333 -42.333 223 -127 329l31 38c96.667 -111.333 145 -234.333 145 -369zM561.999 59.001l-182 262c-108.667 -108.667 -163 -180 -163 -214
c0 -41.333 35 -62 105 -62h99c95.333 0 143 3.33301 143 10zM69.999 -152.999c0 54.667 45.333 87.999 136 99.999v-42c-60.667 -22.667 -91 -40.667 -91 -54c0 -10 20.333 -24.667 61 -44s61 -42 61 -68c0 -54 -45.333 -87.333 -136 -100v43c60.667 11.333 91 30.333 91 57
c0 10.667 -20.333 25.334 -61 44.001s-61 40 -61 64z" />
    <glyph glyph-name="uFEFB" unicode="&#xfedf;&#xfe8e;" horiz-adv-x="741" arabic-form="isolated" 
d="M741 929c0 -103.333 -36.333 -213.668 -109 -331.001c-32.667 -52.667 -93 -132 -181 -238c112 -112 168 -198.333 168 -259c0 -67.333 -49.667 -101 -149 -101h-99c-99.333 0 -149 36 -149 108c0 47.333 56.333 132 169 254c-82.667 98.667 -142.667 178.667 -180 240
c-74 120.667 -111 233.334 -111 338.001c0 140.667 72.333 268.667 217 384l29 -30c-134 -120 -201 -238.667 -201 -356c0 -132.667 92 -313 276 -541c181.333 212.667 272 390.667 272 534c0 128 -66.667 248 -200 360l24 40c149.333 -131.333 224 -265.333 224 -402z
M571 102.998c0 42.667 -49.667 116.333 -149 221c-103.333 -108 -155 -180.333 -155 -217c0 -41.333 34.667 -62 104 -62h99c67.333 0 101 19.333 101 58z" />
    <glyph glyph-name="uFEFC" unicode="&#xfee0;&#xfe8e;" horiz-adv-x="619" arabic-form="final" 
d="M543 722c0 -110 -55.001 -228.332 -165.001 -354.999c76.667 -106 148.334 -213.333 215.001 -322h49v-45h-351c-100 0 -150 36 -150 108c0 47.333 56.333 132 169 254c-140 166.667 -210 346 -210 538c0 85.333 23.667 165.666 71 240.999c34 54.667 78 103 132 145
c47.333 36.667 71 51 71 43l38 -32c-178 -97.333 -267 -230 -267 -398s66 -334 198 -498c100.667 115.333 151 223 151 323c0 113.333 -42.333 223 -127 329l31 38c96.667 -111.333 145 -234.333 145 -369zM530.999 59.001l-181 262c-109.333 -108.667 -164 -180 -164 -214
c0 -41.333 35 -62 105 -62h99c95.333 0 143 3.33301 143 10z" />
    <glyph glyph-name="u0622" unicode="&#x622;" horiz-adv-x="470" arabic-form="isolated" 
d="M400 0h-45v1120h45v-1120zM167 677c-7.33301 16 -13.667 34.667 -19 56c-12.667 50 -20 107.667 -22 173c-2.66699 106 42.666 201.667 135.999 287c68.667 62 150.334 109 245.001 141l9 -48c-23.333 -8.66699 -46.333 -18.667 -69 -30
c-54.667 -26 -101.667 -56 -141 -90c-88 -75.333 -132 -162 -132 -260c0 -78 13 -149.667 39 -215z" />
    <glyph glyph-name="u0623" unicode="&#x623;" horiz-adv-x="228" arabic-form="isolated" 
d="M171 0h-45v1327h45v-1327zM7 1644c0 54.667 45.333 88.332 136 100.999v-43c-60.667 -22.667 -91 -40.667 -91 -54c0 -10 20.333 -24.667 61 -44s61 -42 61 -68c0 -54 -45.333 -87.333 -136 -100v43c60.667 11.333 91 30.333 91 57c0 10.667 -20.333 25.334 -61 44.001
s-61 40 -61 64z" />
    <glyph glyph-name="u0624" unicode="&#x624;" horiz-adv-x="378" arabic-form="isolated" 
d="M378 136c0 -80 -27.333 -157.665 -82 -232.998c-48.667 -66.667 -137 -154.667 -265 -264l-31 31l164 154c73.333 73.333 120.333 134.666 141 183.999c-16 -5.33301 -37.333 -8 -64 -8c-72 0 -108 37.667 -108 113c0 33.333 10.333 84.666 31 153.999
c33.333 94 70 141 110 141c34 0 60.667 -31 80 -93c16 -52 24 -111.667 24 -179zM333 147.002c0 68.667 -7 123.333 -21 164c-11.333 34 -24 51 -38 51c-24.667 0 -47.667 -39 -69 -117c-17.333 -61.333 -26 -105 -26 -131c0 -46 16 -69 48 -69h39c44.667 0 67 34 67 102z
M107 670.001c0 54.667 45 88 135 100v-42c-60.667 -22.667 -91 -40.667 -91 -54c0 -10 20.333 -24.667 61 -44s61 -42 61 -68c0 -54 -45 -87.333 -135 -100v43c60.667 11.333 91 30.333 91 57c0 10.667 -20.333 25.167 -61 43.5s-61 39.833 -61 64.5z" />
    <glyph glyph-name="u0625" unicode="&#x625;" horiz-adv-x="223" arabic-form="isolated" 
d="M171 0h-45v1327h45v-1327zM-2 -162c0 54.667 45.333 88 136 100v-43c-60.667 -22.667 -91 -40.667 -91 -54c0 -10 20.333 -24.667 61 -44s61 -41.666 61 -66.999c0 -54.667 -45.333 -88 -136 -100v42c60.667 11.333 91 30.666 91 57.999
c0 10.667 -20.333 25.167 -61 43.5s-61 39.833 -61 64.5z" />
    <glyph glyph-name="u0626" unicode="&#x626;" horiz-adv-x="1408" arabic-form="isolated" 
d="M1408 360h-94.999c-40.667 0 -86 -8.33301 -136 -25c-65.333 -21.333 -98 -48.333 -98 -81c0 -32 28.667 -65.667 86 -101c54.667 -34 91.334 -59.667 110.001 -77c22.667 -22 34 -46.333 34 -73c0 -33.333 -24 -83 -72 -149c-74.667 -104 -176 -210 -304 -318
c-186 -157.333 -348.333 -236 -487 -236c-134.667 0 -248 40 -340 120c-70.667 60.667 -106 111.334 -106 152.001l40 20c0 -34 30 -78.333 90 -133c82.667 -76 188 -114 316 -114c123.333 0 273.666 74 450.999 222c131.333 109.333 227.666 208 288.999 296l39 57
c23.333 37.333 35 65 35 83s-11 36 -33 54c-10 8.66699 -41 29.667 -93 63c-68 43.333 -102 87.333 -102 132c0 43.333 23.667 78.666 71 105.999c54.667 31.333 134 47 238 47h67v-45zM391.001 13c0 54.667 45.333 88 136 100v-42c-60.667 -22.667 -91 -40.667 -91 -54
c0 -10 20.333 -24.833 61 -44.5s61 -42.167 61 -67.5c0 -54.667 -45.333 -88 -136 -100v43c60.667 10.667 91 29.667 91 57c0 10.667 -20.333 25.167 -61 43.5s-61 39.833 -61 64.5z" />
    <glyph glyph-name="u0627" unicode="&#x627;" horiz-adv-x="228" arabic-form="isolated" 
d="M171 0h-45v1327h45v-1327z" />
    <glyph glyph-name="u0628" unicode="&#x628;" horiz-adv-x="787" arabic-form="isolated" 
d="M734 413l-39 -21.001c35.333 -72.667 53 -148.667 53 -228s-21.667 -119 -65 -119h-453c-40.667 0 -61 38.333 -61 115c0 76 17 153.333 51 232l-38 22c-36.667 -82.667 -55 -162.667 -55 -240c0 -116 32.667 -174 98 -174h470c62 0 93 58 93 174
c0 82.667 -18 162.334 -54 239.001zM496 -136.001c0 -32.667 -16.667 -49 -50 -49c-32 0 -48 16.333 -48 49c0 31.333 16 47 48 47c33.333 0 50 -15.667 50 -47z" />
    <glyph glyph-name="u0629" unicode="&#x629;" horiz-adv-x="412" arabic-form="isolated" 
d="M414 128c0 77.333 -38 160.667 -114 250c-14.667 18 -25 27 -31 27s-15.667 -9 -29 -27c-76 -100 -114 -183.333 -114 -250c0 -85.333 47.333 -128 142 -128c97.333 0 146 42.667 146 128zM268 45.001c-64.667 0 -97 28 -97 84c0 63.333 33 133.666 99 210.999
c66 -77.333 99 -147.666 99 -210.999c0 -56 -33.667 -84 -101 -84zM114 701.001c0 54.667 45.333 88.332 136 100.999v-43c-60.667 -22.667 -91 -40.667 -91 -54c0 -10 20.333 -24.667 61 -44s61 -42 61 -68c0 -54 -45.333 -87.333 -136 -100v43
c60.667 11.333 91 30.333 91 57c0 10.667 -20.333 25.334 -61 44.001s-61 40 -61 64z" />
    <glyph glyph-name="u062A" unicode="&#x62a;" horiz-adv-x="779" arabic-form="isolated" 
d="M734 413l-39 -21.001c35.333 -72.667 53 -148.667 53 -228s-21.667 -119 -65 -119h-453c-40.667 0 -61 38.333 -61 115c0 76 17 153.333 51 232l-38 22c-36.667 -82.667 -55 -162.667 -55 -240c0 -116 32.667 -174 98 -174h470c62 0 93 58 93 174
c0 82.667 -18 162.334 -54 239.001zM568 556.999c0 -33.333 -16.333 -50 -49 -50c-33.333 0 -50 16.667 -50 50c0 31.333 16.667 47 50 47c32.667 0 49 -15.667 49 -47zM458 556.999c0 -33.333 -16.667 -50 -50 -50c-32.667 0 -49 16.667 -49 50c0 31.333 16.333 47 49 47
c33.333 0 50 -15.667 50 -47z" />
    <glyph glyph-name="u062B" unicode="&#x62b;" horiz-adv-x="779" arabic-form="isolated" 
d="M734 413l-39 -21.001c35.333 -72.667 53 -148.667 53 -228s-21.667 -119 -65 -119h-453c-40.667 0 -61 38.333 -61 115c0 76 17 153.333 51 232l-38 22c-36.667 -82.667 -55 -162.667 -55 -240c0 -116 32.667 -174 98 -174h470c62 0 93 58 93 174
c0 82.667 -18 162.334 -54 239.001zM515 579.999c0 -32 -16.333 -48 -49 -48s-49 16 -49 48c0 32.667 16.333 49 49 49s49 -16.333 49 -49zM573 488.999c0 -31.333 -17 -47 -51 -47c-32 0 -48 15.667 -48 47c0 32.667 16 49 48 49c34 0 51 -16.333 51 -49zM458 488.999
c0 -31.333 -16.667 -47 -50 -47c-32.667 0 -49 15.667 -49 47c0 32.667 16.333 49 49 49c33.333 0 50 -16.333 50 -49z" />
    <glyph glyph-name="u062C" unicode="&#x62c;" horiz-adv-x="582" arabic-form="isolated" 
d="M581 -630l-43.001 -14.999c-26.667 101.333 -96.667 188 -210 260c-56.667 35.333 -95.667 63.333 -117 84c-56.667 53.333 -85 111.666 -85 174.999c0 113.333 108 170 324 170c-201.333 95.333 -328.666 208.666 -381.999 339.999l40 21
c36 -87.333 100.333 -162.666 193 -225.999c56.667 -38.667 148.667 -86 276 -142l-9 -39c-5.33301 0 -22 0.5 -50 1.5s-52 1.5 -72 1.5c-184 0 -276 -43.333 -276 -130c0 -51.333 25.333 -99.333 76 -144c16.667 -15.333 67.667 -51.333 153 -108
c93.333 -61.333 154 -144.333 182 -249zM456.999 -135.999c0 -32.667 -16.333 -49 -49 -49s-49 16.333 -49 49c0 31.333 16.333 47 49 47s49 -15.667 49 -47z" />
    <glyph glyph-name="u062D" unicode="&#x62d;" horiz-adv-x="575" arabic-form="isolated" 
d="M583 -630l-43 -14.999c-26 101.333 -96 188 -210 260c-56.667 35.333 -95.667 63.333 -117 84c-56 53.333 -84 111.666 -84 174.999c0 113.333 107.667 170 323 170c-200.667 95.333 -328 208.666 -382 339.999l40 21c36 -87.333 100.667 -162.666 194 -225.999
c56.667 -38.667 148.667 -86 276 -142l-10 -39c-4.66699 0 -21.167 0.5 -49.5 1.5s-52.5 1.5 -72.5 1.5c-184 0 -276 -43.333 -276 -130c0 -51.333 25.333 -99.333 76 -144c16.667 -15.333 67.667 -51.333 153 -108c93.333 -61.333 154 -144.333 182 -249z" />
    <glyph glyph-name="u062E" unicode="&#x62e;" horiz-adv-x="583" arabic-form="isolated" 
d="M581 -630l-43.001 -14.999c-26.667 101.333 -96.667 188 -210 260c-56.667 35.333 -95.667 63.333 -117 84c-56.667 53.333 -85 111.666 -85 174.999c0 113.333 108 170 324 170c-201.333 95.333 -328.666 208.666 -381.999 339.999l40 21
c36 -87.333 100.333 -162.666 193 -225.999c56.667 -38.667 148.667 -86 276 -142l-9 -39c-5.33301 0 -22 0.5 -50 1.5s-52 1.5 -72 1.5c-184 0 -276 -43.333 -276 -130c0 -51.333 25.333 -99.333 76 -144c16.667 -15.333 67.667 -51.333 153 -108
c93.333 -61.333 154 -144.333 182 -249zM246.999 558.001c0 -33.333 -16.333 -50 -49 -50s-49 16.667 -49 50c0 31.333 16.333 47 49 47s49 -15.667 49 -47z" />
    <glyph glyph-name="u062F" unicode="&#x62f;" horiz-adv-x="359" arabic-form="isolated" 
d="M359 113c-2.66699 -75.333 -54.332 -113.001 -154.999 -113.001h-115v45h112c73.333 0 111.666 24.333 114.999 73c0 32.667 -15 78.334 -45 137.001c-4 7.33301 -32 55.666 -84 144.999l37 23c90 -145.333 135 -248.666 135 -309.999z" />
    <glyph glyph-name="u0630" unicode="&#x630;" horiz-adv-x="361" arabic-form="isolated" 
d="M359 113c-2.66699 -75.333 -54.332 -113.001 -154.999 -113.001h-115v45h112c73.333 0 111.666 24.333 114.999 73c0 32.667 -15 78.334 -45 137.001c-4 7.33301 -32 55.666 -84 144.999l37 23c90 -145.333 135 -248.666 135 -309.999zM217.002 557.999
c0 -33.333 -16.333 -50 -49 -50c-32 0 -48 16.667 -48 50c0 31.333 16 47 48 47c32.667 0 49 -15.667 49 -47z" />
    <glyph glyph-name="u0631" unicode="&#x631;" horiz-adv-x="392" arabic-form="isolated" 
d="M392 192c0 -107.333 -51.668 -219.669 -155.001 -337.002c-61.333 -69.333 -129.666 -138.666 -204.999 -207.999l-32 32c40.667 36.667 109 106.334 205 209.001c94.667 116 142 217.333 142 304c0 67.333 -23.667 130.333 -71 189l32 30c56 -64 84 -137 84 -219z" />
    <glyph glyph-name="u0632" unicode="&#x632;" horiz-adv-x="390" arabic-form="isolated" 
d="M392 192c0 -107.333 -51.668 -219.669 -155.001 -337.002c-61.333 -69.333 -129.666 -138.666 -204.999 -207.999l-32 32c40.667 36.667 109 106.334 205 209.001c94.667 116 142 217.333 142 304c0 67.333 -23.667 130.333 -71 189l32 30c56 -64 84 -137 84 -219z
M312.999 533.997c0 -33.333 -16.667 -50 -50 -50c-32 0 -48 16.667 -48 50c0 31.333 16 47 48 47c33.333 0 50 -15.667 50 -47z" />
    <glyph glyph-name="u0633" unicode="&#x633;" horiz-adv-x="1653" arabic-form="isolated" 
d="M1662 161c0 -108 -37.334 -162.001 -112.001 -162.001c-26 0 -47.333 11.667 -64 35c-24 -22.667 -49.667 -34 -77 -34s-48.666 11 -63.999 33c-34 -67.333 -70 -127 -108 -179c-74 -103.333 -175.333 -209.333 -304 -318c-186 -157.333 -348.333 -236 -487 -236
c-134.667 0 -248 40 -340 120c-70.667 60.667 -106 111.334 -106 152.001l40 20c0 -34 30 -78.333 90 -133c82.667 -76 188 -114 316 -114c123.333 0 274 74 452 222c132.667 110 229 208.667 289 296c56.667 82.667 91 134.667 103 156c28.667 52 43 101 43 147
c0 75.333 -19 150.666 -57 225.999l42 20c22 -42 40 -102.333 54 -181c6 -34 7.66699 -64.333 5 -91c-4 -39.333 -6 -55 -6 -47c0 -10 2.66699 -20 8 -30c3.33301 -12 14.333 -18 33 -18c41.333 0 62 38.333 62 115c0 51.333 -17.667 130 -53 236l39 16
c39.333 -91.333 59 -175.333 59 -252c0 -15.333 -0.666992 -30.333 -2 -45s-2 -21.667 -2 -21c0 -32.667 13.333 -49 40 -49c40.667 0 61 39 61 117c0 70.667 -18 147.334 -54 230.001l39 20c40.667 -77.333 61 -161 61 -251z" />
    <glyph glyph-name="u0634" unicode="&#x634;" horiz-adv-x="1662" arabic-form="isolated" 
d="M1662 161c0 -108 -37.334 -162.001 -112.001 -162.001c-26 0 -47.333 11.667 -64 35c-24 -22.667 -49.667 -34 -77 -34s-48.666 11 -63.999 33c-34 -67.333 -70 -127 -108 -179c-74 -103.333 -175.333 -209.333 -304 -318c-186 -157.333 -348.333 -236 -487 -236
c-134.667 0 -248 40 -340 120c-70.667 60.667 -106 111.334 -106 152.001l40 20c0 -34 30 -78.333 90 -133c82.667 -76 188 -114 316 -114c123.333 0 274 74 452 222c132.667 110 229 208.667 289 296c56.667 82.667 91 134.667 103 156c28.667 52 43 101 43 147
c0 75.333 -19 150.666 -57 225.999l42 20c22 -42 40 -102.333 54 -181c6 -34 7.66699 -64.333 5 -91c-4 -39.333 -6 -55 -6 -47c0 -10 2.66699 -20 8 -30c3.33301 -12 14.333 -18 33 -18c41.333 0 62 38.333 62 115c0 51.333 -17.667 130 -53 236l39 16
c39.333 -91.333 59 -175.333 59 -252c0 -15.333 -0.666992 -30.333 -2 -45s-2 -21.667 -2 -21c0 -32.667 13.333 -49 40 -49c40.667 0 61 39 61 117c0 70.667 -18 147.334 -54 230.001l39 20c40.667 -77.333 61 -161 61 -251zM1478 602.999c0 -32 -16.667 -48 -50 -48
c-32 0 -48 16 -48 48c0 32.667 16 49 48 49c33.333 0 50 -16.333 50 -49zM1535 511.999c0 -31.333 -16.667 -47 -50 -47c-32.667 0 -49 15.667 -49 47c0 32.667 16.333 49 49 49c33.333 0 50 -16.333 50 -49zM1420 511.999c0 -31.333 -16.333 -47 -49 -47
c-33.333 0 -50 15.667 -50 47c0 32.667 16.667 49 50 49c32.667 0 49 -16.333 49 -49z" />
    <glyph glyph-name="u0635" unicode="&#x635;" horiz-adv-x="1777" arabic-form="isolated" 
d="M1777 124c0 -52 -9 -86.3301 -27 -102.997c-16 -14 -49 -21 -99 -21h-241c-30.667 0 -53 10 -67 30c-34 -66.667 -69.333 -125.334 -106 -176.001c-74 -103.333 -175.333 -209.333 -304 -318c-186 -157.333 -348.333 -236 -487 -236c-134.667 0 -248 40 -340 120
c-70.667 60.667 -106 111.334 -106 152.001l40 20c0 -34 30 -78.333 90 -133c82.667 -76 188 -114 316 -114c123.333 0 274 74 452 222c132.667 110 229 208.667 289 296c56.667 82.667 91 134.667 103 156c28.667 52 43 101 43 147c0 75.333 -19 150.666 -57 225.999l42 20
c22 -42 40 -102.333 54 -181c6 -33.333 9 -63 9 -89c0 -17.333 -1.5 -33.833 -4.5 -49.5s-4.5 -23.834 -4.5 -24.501c-2.66699 -10.667 2 -18.334 14 -23.001c2.66699 15.333 14.334 37 35.001 65l167 227c33.333 45.333 65.333 68 96 68
c21.333 0 40.666 -10.333 57.999 -31c23.333 -28 35 -71 35 -129v-121zM1731 120.003l-0.000976562 107.999c0 88 -15.667 132 -47 132c-15.333 0 -44.666 -29 -87.999 -87l-142 -194c-4.66699 -5.33301 -12 -16.666 -22 -33.999h226c28.667 0 47 3.33301 55 10
c12 9.33301 18 31 18 65z" />
    <glyph glyph-name="u0636" unicode="&#x636;" horiz-adv-x="1777" arabic-form="isolated" 
d="M1777 124c0 -52 -9 -86.3301 -27 -102.997c-16 -14 -49 -21 -99 -21h-241c-30.667 0 -53 10 -67 30c-34 -66.667 -69.333 -125.334 -106 -176.001c-74 -103.333 -175.333 -209.333 -304 -318c-186 -157.333 -348.333 -236 -487 -236c-134.667 0 -248 40 -340 120
c-70.667 60.667 -106 111.334 -106 152.001l40 20c0 -34 30 -78.333 90 -133c82.667 -76 188 -114 316 -114c123.333 0 274 74 452 222c132.667 110 229 208.667 289 296c56.667 82.667 91 134.667 103 156c28.667 52 43 101 43 147c0 75.333 -19 150.666 -57 225.999l42 20
c22 -42 40 -102.333 54 -181c6 -33.333 9 -63 9 -89c0 -17.333 -1.5 -33.833 -4.5 -49.5s-4.5 -23.834 -4.5 -24.501c-2.66699 -10.667 2 -18.334 14 -23.001c2.66699 15.333 14.334 37 35.001 65l167 227c33.333 45.333 65.333 68 96 68
c21.333 0 40.666 -10.333 57.999 -31c23.333 -28 35 -71 35 -129v-121zM1731 120.003l-0.000976562 107.999c0 88 -15.667 132 -47 132c-15.333 0 -44.666 -29 -87.999 -87l-142 -194c-4.66699 -5.33301 -12 -16.666 -22 -33.999h226c28.667 0 47 3.33301 55 10
c12 9.33301 18 31 18 65zM1554 558.002c0 -33.333 -16.667 -50 -50 -50c-32 0 -48 16.667 -48 50c0 31.333 16 47 48 47c33.333 0 50 -15.667 50 -47z" />
    <glyph glyph-name="u0637" unicode="&#x637;" horiz-adv-x="508" arabic-form="isolated" 
d="M528 883c0 -163.333 -42.001 -322.333 -126.001 -477c2.66699 0.666992 7 1 13 1c22 0 41.333 -10.667 58 -32c23.333 -28.667 35 -72 35 -130v-121c0 -52 -9 -86.333 -27 -103c-16 -14 -48.667 -21 -98 -21h-242c-15.333 0 -24 12 -26 36
c-1.33301 10 11.334 34.667 38.001 74l152 227c119.333 178.667 179 363 179 553c0 62 -15.333 122 -46 180c-52.667 99.333 -143 175 -271 227l18 39c228.667 -96 343 -247 343 -453zM461.999 120v108c0 91.333 -16.667 137 -50 137c-19.333 0 -44.333 -22.333 -75 -67
l-152 -219c-12 -16.667 -19 -28 -21 -34h226c28.667 0 47 3.33301 55 10c11.333 9.33301 17 31 17 65z" />
    <glyph glyph-name="u0638" unicode="&#x638;" horiz-adv-x="507" arabic-form="isolated" 
d="M528 883c0 -163.333 -42.001 -322.333 -126.001 -477c2.66699 0.666992 7 1 13 1c22 0 41.333 -10.667 58 -32c23.333 -28.667 35 -72 35 -130v-121c0 -52 -9 -86.333 -27 -103c-16 -14 -48.667 -21 -98 -21h-242c-15.333 0 -24 12 -26 36
c-1.33301 10 11.334 34.667 38.001 74l152 227c119.333 178.667 179 363 179 553c0 62 -15.333 122 -46 180c-52.667 99.333 -143 175 -271 227l18 39c228.667 -96 343 -247 343 -453zM461.999 120v108c0 91.333 -16.667 137 -50 137c-19.333 0 -44.333 -22.333 -75 -67
l-152 -219c-12 -16.667 -19 -28 -21 -34h226c28.667 0 47 3.33301 55 10c11.333 9.33301 17 31 17 65zM320.999 555c0 -32.667 -16.667 -49 -50 -49c-32 0 -48 16.333 -48 49c0 32 16 48 48 48c33.333 0 50 -16 50 -48z" />
    <glyph glyph-name="u0639" unicode="&#x639;" horiz-adv-x="583" arabic-form="isolated" 
d="M583 0l-221.001 -0.000976562c-54 0 -99.167 -11.667 -135.5 -35s-54.5 -53 -54.5 -89c0 -48 22.667 -93.333 68 -136c26.667 -26 76.667 -62 150 -108c56 -35.333 103 -83.666 141 -144.999c32.667 -52.667 49 -96 49 -130l-41 -6
c-18 93.333 -76.667 175.666 -176 246.999l-123 82c-74 62 -111 127.333 -111 196c0 97.333 69.667 153 209 167c-142.667 58.667 -214 148.334 -214 269.001c0 64.667 22.667 97 68 97c40.667 0 128.334 -40 263.001 -120l-21 -37c-135.333 76.667 -215.333 115 -240 115
c-16.667 0 -25 -18.333 -25 -55c0 -88.667 48.333 -158 145 -208c76 -39.333 157.667 -59 245 -59h24c18.667 0 28 -7.66699 28 -23c0 -14.667 -9.33301 -22 -28 -22z" />
    <glyph glyph-name="u063A" unicode="&#x63a;" horiz-adv-x="583" arabic-form="isolated" 
d="M583 0l-221.001 -0.000976562c-54 0 -99.167 -11.667 -135.5 -35s-54.5 -53 -54.5 -89c0 -48 22.667 -93.333 68 -136c26.667 -26 76.667 -62 150 -108c56 -35.333 103 -83.666 141 -144.999c32.667 -52.667 49 -96 49 -130l-41 -6
c-18 93.333 -76.667 175.666 -176 246.999l-123 82c-74 62 -111 127.333 -111 196c0 97.333 69.667 153 209 167c-142.667 58.667 -214 148.334 -214 269.001c0 64.667 22.667 97 68 97c40.667 0 128.334 -40 263.001 -120l-21 -37c-135.333 76.667 -215.333 115 -240 115
c-16.667 0 -25 -18.333 -25 -55c0 -88.667 48.333 -158 145 -208c76 -39.333 157.667 -59 245 -59h24c18.667 0 28 -7.66699 28 -23c0 -14.667 -9.33301 -22 -28 -22zM377.999 556.999c0 -33.333 -16.333 -50 -49 -50c-32 0 -48 16.667 -48 50c0 31.333 16 47 48 47
c32.667 0 49 -15.667 49 -47z" />
    <glyph glyph-name="u0641" unicode="&#x641;" horiz-adv-x="776" arabic-form="isolated" 
d="M776 136c0 -90.667 -39.001 -135.999 -117.001 -135.999h-431c-67.333 0 -101 60.333 -101 181c0 76.667 17.333 155 52 235l38 -22c-33.333 -78.667 -50 -156.334 -50 -233.001c0 -77.333 20.333 -116 61 -116h322c-12 20 -18 41.667 -18 65c0 33.333 12 87 36 161
c30.667 97.333 66 146 106 146c28.667 0 52.834 -26.667 72.501 -80s29.5 -120.333 29.5 -201zM733.999 118.001c0 54.667 -4 100.667 -12 138c-14 71.333 -29.667 107 -47 107c-20.667 0 -43.667 -42 -69 -126c-17.333 -58.667 -26 -104 -26 -136c0 -43.333 14 -65 42 -65
h35c51.333 0 77 27.333 77 82zM715.999 558.001c0 -33.333 -16.333 -50 -49 -50c-32 0 -48 16.667 -48 50c0 31.333 16 47 48 47c32.667 0 49 -15.667 49 -47z" />
    <glyph glyph-name="u0642" unicode="&#x642;" horiz-adv-x="1368" arabic-form="isolated" 
d="M1365 136c-3.33301 -76 -46 -170.003 -128 -282.003c-75.333 -104 -176.666 -209.667 -303.999 -317c-186 -156.667 -348.333 -235 -487 -235c-134.667 0 -248 40 -340 120c-70.667 60.667 -106 111.667 -106 153l40 19c0 -33.333 30 -77.666 90 -132.999
c82.667 -76 188 -114 316 -114c123.333 0 274 73.667 452 221c133.333 110.667 229.666 209 288.999 295c20.667 28.667 51 75.334 91 140.001c-9.33301 -2 -19 -3 -29 -3h-39c-58.667 0 -88 36.667 -88 110c0 32 12 84 36 156c30.667 93.333 66 140 106 140
c29.333 0 54 -25.667 74 -77c21.333 -53.333 30.333 -117.666 27 -192.999zM1321 127.997c0 54 -3.66602 100 -10.999 138c-12.667 63.333 -28.334 95 -47.001 95c-23.333 0 -46.333 -38.333 -69 -115c-18 -58.667 -27 -104 -27 -136c0 -43.333 14.333 -65 43 -65h34
c51.333 0 77 27.667 77 83zM1372 557.997c0 -33.333 -16.667 -50 -50 -50c-32.667 0 -49 16.667 -49 50c0 31.333 16.333 47 49 47c33.333 0 50 -15.667 50 -47zM1262 557.997c0 -33.333 -16.667 -50 -50 -50c-32.667 0 -49 16.667 -49 50c0 31.333 16.333 47 49 47
c33.333 0 50 -15.667 50 -47z" />
    <glyph glyph-name="u0643" unicode="&#x643;" horiz-adv-x="780" arabic-form="isolated" 
d="M795 1299c-101.333 -28.667 -180.667 -88.334 -238 -179.001c-48.667 -78 -73 -162.667 -73 -254s25.667 -184 77 -278l142 -227c51.333 -87.333 77 -167.666 77 -240.999c0 -18 -7.33301 -40.333 -22 -67c-19.333 -35.333 -44 -53 -74 -53h-456c-68 0 -102 55 -102 165
c0 77.333 19 159.333 57 246l38 -22c-32.667 -76 -49 -152 -49 -228c0 -77.333 18.667 -116 56 -116h456c12.667 0 24.167 8.83301 34.5 26.5s15.5 37.167 15.5 58.5c0 64.667 -25.667 138.334 -77 221.001l-142 225c-51.333 96.667 -77 194 -77 292
c0 129.333 41.333 241.333 124 336c70 79.333 144.333 124.666 223 135.999z" />
    <glyph glyph-name="u0644" unicode="&#x644;" horiz-adv-x="1431" arabic-form="isolated" 
d="M1347 1327l0.00195312 -1227c0 -68.667 -34.333 -150.667 -103 -246c-72 -100.667 -174.333 -206.667 -307 -318c-188.667 -158 -352.334 -237 -491.001 -237c-134.667 0 -248 39.667 -340 119c-70.667 61.333 -106 112.333 -106 153l40 20c0 -34 30 -78.667 90 -134
c82.667 -76 188 -114 316 -114c123.333 0 274.666 74.333 453.999 223c135.333 112 232 210.667 290 296c74.667 110 112 192.333 112 247v1218h45z" />
    <glyph glyph-name="u0645" unicode="&#x645;" horiz-adv-x="512" arabic-form="isolated" 
d="M512 107c0 -50 -15.334 -82 -46.001 -96c-14.667 -7.33301 -44.667 -11 -90 -11h-48c-42.667 0 -80 -13.333 -112 -40s-48 -59.667 -48 -99c0 -30.667 11.333 -73.667 34 -129l46 -111c25.333 -77.333 38 -157 38 -239v-87h-46v143c0 66 -19.167 142 -57.5 228
s-57.5 151 -57.5 195c0 56 18 98.667 54 128c14.667 12 45.334 27.667 92.001 47c-18.667 21.333 -28 55.333 -28 102c0 61.333 8.66699 119.333 26 174c20 61.333 48.333 92 85 92c36 0 72 -37.333 108 -112c33.333 -69.333 50 -131 50 -185zM466.999 107
c0 37.333 -13 87.333 -39 150c-28 66 -52.667 99 -74 99c-10 0 -21.667 -14.333 -35 -43c-21.333 -43.333 -32 -102.333 -32 -177c0 -60.667 16 -91 48 -91h86c30.667 0 46 20.667 46 62z" />
    <glyph glyph-name="u0646" unicode="&#x646;" horiz-adv-x="1379" arabic-form="isolated" 
d="M1345 33c-20 -53.333 -53.999 -113.333 -101.999 -180c-73.333 -102 -175.666 -208 -306.999 -318c-188 -157.333 -351.333 -236 -490 -236c-134.667 0 -248 39.667 -340 119c-70.667 61.333 -106 112.333 -106 153l40 20c0 -33.333 30 -77 90 -131
c82.667 -74.667 188 -112 316 -112c123.333 0 274.666 73.333 453.999 220c136 111.333 232.333 209.333 289 294c37.333 55.333 74.666 120 111.999 194c17.333 35.333 26 76 26 122c0 60 -17.333 135.667 -52 227l41 20c42 -106 63 -188 63 -246
c0 -52 -11.333 -100.667 -34 -146zM1204 118c0 -32.667 -16.333 -49 -49 -49s-49 16.333 -49 49c0 32 16.333 48 49 48s49 -16 49 -48z" />
    <glyph glyph-name="u0647" unicode="&#x647;" horiz-adv-x="414" arabic-form="isolated" 
d="M414 128c0 77.333 -38 160.667 -114 250c-14.667 18 -25 27 -31 27s-15.667 -9 -29 -27c-76 -100 -114 -183.333 -114 -250c0 -85.333 47.333 -128 142 -128c97.333 0 146 42.667 146 128zM268 45.001c-64.667 0 -97 28 -97 84c0 63.333 33 133.666 99 210.999
c66 -77.333 99 -147.666 99 -210.999c0 -56 -33.667 -84 -101 -84z" />
    <glyph glyph-name="u0648" unicode="&#x648;" horiz-adv-x="378" arabic-form="isolated" 
d="M378 136c0 -80 -27.333 -157.665 -82 -232.998c-48.667 -66.667 -137 -154.667 -265 -264l-31 31l164 154c73.333 73.333 120.333 134.666 141 183.999c-16 -5.33301 -37.333 -8 -64 -8c-72 0 -108 37.667 -108 113c0 33.333 10.333 84.666 31 153.999
c33.333 94 70 141 110 141c34 0 60.667 -31 80 -93c16 -52 24 -111.667 24 -179zM333 147.002c0 68.667 -7 123.333 -21 164c-11.333 34 -24 51 -38 51c-24.667 0 -47.667 -39 -69 -117c-17.333 -61.333 -26 -105 -26 -131c0 -46 16 -69 48 -69h39c44.667 0 67 34 67 102z
" />
    <glyph glyph-name="u0649" unicode="&#x649;" horiz-adv-x="1408" arabic-form="isolated" 
d="M1408 360h-94.999c-40.667 0 -86 -8.33301 -136 -25c-65.333 -21.333 -98 -48.333 -98 -81c0 -32 28.667 -65.667 86 -101c54.667 -34 91.334 -59.667 110.001 -77c22.667 -22 34 -46.333 34 -73c0 -33.333 -24 -83 -72 -149c-74.667 -104 -176 -210 -304 -318
c-186 -157.333 -348.333 -236 -487 -236c-134.667 0 -248 40 -340 120c-70.667 60.667 -106 111.334 -106 152.001l40 20c0 -34 30 -78.333 90 -133c82.667 -76 188 -114 316 -114c123.333 0 273.666 74 450.999 222c131.333 109.333 227.666 208 288.999 296l39 57
c23.333 37.333 35 65 35 83s-11 36 -33 54c-10 8.66699 -41 29.667 -93 63c-68 43.333 -102 87.333 -102 132c0 43.333 23.667 78.666 71 105.999c54.667 31.333 134 47 238 47h67v-45z" />
    <glyph glyph-name="u064A" unicode="&#x64a;" horiz-adv-x="1408" arabic-form="isolated" 
d="M1408 360h-94.999c-40.667 0 -86 -8.33301 -136 -25c-65.333 -21.333 -98 -48.333 -98 -81c0 -32 28.667 -65.667 86 -101c54.667 -34 91.334 -59.667 110.001 -77c22.667 -22 34 -46.333 34 -73c0 -33.333 -24 -83 -72 -149c-74.667 -104 -176 -210 -304 -318
c-186 -157.333 -348.333 -236 -487 -236c-134.667 0 -248 40 -340 120c-70.667 60.667 -106 111.334 -106 152.001l40 20c0 -34 30 -78.333 90 -133c82.667 -76 188 -114 316 -114c123.333 0 273.666 74 450.999 222c131.333 109.333 227.666 208 288.999 296l39 57
c23.333 37.333 35 65 35 83s-11 36 -33 54c-10 8.66699 -41 29.667 -93 63c-68 43.333 -102 87.333 -102 132c0 43.333 23.667 78.666 71 105.999c54.667 31.333 134 47 238 47h67v-45z" />
    <glyph glyph-name="u067E" unicode="&#x67e;" horiz-adv-x="780" arabic-form="isolated" 
d="M734 413l-39 -21.001c35.333 -72.667 53 -148.667 53 -228s-21.667 -119 -65 -119h-453c-40.667 0 -61 38.333 -61 115c0 76 17 153.333 51 232l-38 22c-36.667 -82.667 -55 -162.667 -55 -240c0 -116 32.667 -174 98 -174h470c62 0 93 58 93 174
c0 82.667 -18 162.334 -54 239.001zM563 -132.001c0 -33.333 -16.667 -50 -50 -50c-32 0 -48 16.667 -48 50c0 31.333 16 47 48 47c33.333 0 50 -15.667 50 -47zM448 -132.001c0 -33.333 -16.333 -50 -49 -50s-49 16.667 -49 50c0 31.333 16.333 47 49 47s49 -15.667 49 -47
zM506 -223.001c0 -33.333 -16.333 -50 -49 -50s-49 16.667 -49 50c0 31.333 16.333 47 49 47s49 -15.667 49 -47z" />
    <glyph glyph-name="u0686" unicode="&#x686;" horiz-adv-x="586" arabic-form="isolated" 
d="M582 -630l-43.001 -14.999c-26.667 101.333 -96.667 188 -210 260c-56.667 35.333 -95.667 63.333 -117 84c-56 53.333 -84 111.666 -84 174.999c0 113.333 107.667 170 323 170c-201.333 95.333 -328.666 208.666 -381.999 339.999l40 21
c36 -87.333 100.333 -162.666 193 -225.999c56.667 -38.667 148.667 -86 276 -142l-9 -39c-5.33301 0 -22 0.5 -50 1.5s-52 1.5 -72 1.5c-184 0 -276 -43.333 -276 -130c0 -51.333 25.333 -99.333 76 -144c16.667 -15.333 67.667 -51.333 153 -108
c93.333 -61.333 154 -144.333 182 -249zM525.999 -131.999c0 -33.333 -17 -50 -51 -50c-32 0 -48 16.667 -48 50c0 31.333 16 47 48 47c34 0 51 -15.667 51 -47zM410.999 -131.999c0 -33.333 -16.667 -50 -50 -50c-32.667 0 -49 16.667 -49 50c0 31.333 16.333 47 49 47
c33.333 0 50 -15.667 50 -47zM467.999 -222.999c0 -33.333 -16.333 -50 -49 -50s-49 16.667 -49 50c0 31.333 16.333 47 49 47s49 -15.667 49 -47z" />
    <glyph glyph-name="u0698" unicode="&#x698;" horiz-adv-x="394" arabic-form="isolated" 
d="M392 192c0 -107.333 -51.668 -219.669 -155.001 -337.002c-61.333 -69.333 -129.666 -138.666 -204.999 -207.999l-32 32c40.667 36.667 109 106.334 205 209.001c94.667 116 142 217.333 142 304c0 67.333 -23.667 130.333 -71 189l32 30c56 -64 84 -137 84 -219z
M334.999 579.997c0 -32 -16.667 -48 -50 -48c-32 0 -48 16 -48 48c0 32.667 16 49 48 49c33.333 0 50 -16.333 50 -49zM391.999 488.997c0 -31.333 -16.667 -47 -50 -47c-32.667 0 -49 15.667 -49 47c0 32.667 16.333 49 49 49c33.333 0 50 -16.333 50 -49zM276.999 488.997
c0 -31.333 -16.333 -47 -49 -47c-33.333 0 -50 15.667 -50 47c0 32.667 16.667 49 50 49c32.667 0 49 -16.333 49 -49z" />
    <glyph glyph-name="u06AF" unicode="&#x6af;" horiz-adv-x="783" arabic-form="isolated" 
d="M649 1312c-95.333 -41.333 -162.333 -115.999 -201 -223.999l-44 11c36.667 127.333 111.667 211.666 225 252.999zM800 1299c-101.333 -28.667 -180.333 -88.334 -237 -179.001c-48.667 -78 -73 -162.667 -73 -254s25.667 -184 77 -278l142 -227
c50.667 -87.333 76 -167.666 76 -240.999c0 -18 -7 -40.333 -21 -67c-20 -35.333 -44.667 -53 -74 -53h-457c-67.333 0 -101 55 -101 165c0 77.333 19 159.333 57 246l38 -22c-32.667 -76 -49 -152 -49 -228c0 -77.333 18.333 -116 55 -116h457
c12 0 23.167 8.83301 33.5 26.5s15.5 37.167 15.5 58.5c0 64.667 -25.333 138.334 -76 221.001l-142 225c-51.333 96.667 -77 194 -77 292c0 129.333 41.333 241.333 124 336c70 79.333 144.333 124.666 223 135.999z" />
    <glyph glyph-name="uFB57" unicode="&#x67e;" horiz-adv-x="839" arabic-form="final" 
d="M862 0h-44c-20.667 -0 -39.667 10.333 -57 31c-19.333 -20.667 -40.333 -31 -63 -31h-468c-68.667 0 -103 58 -103 174c0 76.667 18.333 156.667 55 240l38 -22c-34 -78.667 -51 -156 -51 -232c0 -76.667 20.333 -115 61 -115h457c40.667 0 61 38.667 61 116
c0 75.333 -16.667 152.333 -50 231l38 21c40.667 -96 61 -187.333 61 -274c0 -22 -2 -40.333 -6 -55c0.666992 -26 9.66699 -39 27 -39h44v-45zM563 -132c0 -33.333 -16.667 -50 -50 -50c-32 0 -48 16.667 -48 50c0 31.333 16 47 48 47c33.333 0 50 -15.667 50 -47z
M448 -132c0 -33.333 -16.333 -50 -49 -50s-49 16.667 -49 50c0 31.333 16.333 47 49 47s49 -15.667 49 -47zM506 -223c0 -33.333 -16.333 -50 -49 -50s-49 16.667 -49 50c0 31.333 16.333 47 49 47s49 -15.667 49 -47z" />
    <glyph glyph-name="uFB58" unicode="&#x67e;" horiz-adv-x="231" arabic-form="initial" 
d="M126 412c38 -88 57 -170.332 57 -246.999c0 -110 -35.333 -165 -106 -165h-110v45h108c44.667 0 67 36 67 108c0 71.333 -18.333 150.666 -55 237.999zM175 -131.999c0 -33.333 -17 -50 -51 -50c-32 0 -48 16.667 -48 50c0 31.333 16 47 48 47c34 0 51 -15.667 51 -47z
M60 -131.999c0 -33.333 -16.667 -50 -50 -50c-32.667 0 -49 16.667 -49 50c0 31.333 16.333 47 49 47c33.333 0 50 -15.667 50 -47zM117 -222.999c0 -33.333 -16.333 -50 -49 -50s-49 16.667 -49 50c0 31.333 16.333 47 49 47s49 -15.667 49 -47z" />
    <glyph glyph-name="uFB59" unicode="&#x67e;" horiz-adv-x="260" arabic-form="medial" 
d="M283 0h-75c-20 0 -38.333 10 -55 30c-18.667 -20 -40 -30 -64 -30h-112v45h106c39.333 0 59 35.667 59 107c0 73.333 -17.333 151.333 -52 234l39 21c38.667 -91.333 58 -179.333 58 -264c0 -22 -1.66699 -41.333 -5 -58c0 -26.667 8.66699 -40 26 -40h75v-45zM208 -132
c0 -33.333 -17 -50 -51 -50c-32 0 -48 16.667 -48 50c0 31.333 16 47 48 47c34 0 51 -15.667 51 -47zM93 -132c0 -33.333 -16.333 -50 -49 -50c-33.333 0 -50 16.667 -50 50c0 31.333 16.667 47 50 47c32.667 0 49 -15.667 49 -47zM151 -223c0 -33.333 -16.667 -50 -50 -50
c-32 0 -48 16.667 -48 50c0 31.333 16 47 48 47c33.333 0 50 -15.667 50 -47z" />
    <glyph glyph-name="uFB7B" unicode="&#x686;" horiz-adv-x="561" arabic-form="final" 
d="M581 -630l-43.001 -14.999c-26.667 101.333 -96.667 188 -210 260c-56.667 35.333 -95.667 63.333 -117 84c-56.667 53.333 -85 111.666 -85 174.999c0 113.333 108 170 324 170c-201.333 95.333 -328.666 208.666 -381.999 339.999l40 21
c36 -87.333 100.333 -162.666 193 -225.999c56.667 -38.667 148.667 -86 276 -142l-9 -39c-5.33301 0 -22 0.5 -50 1.5s-52 1.5 -72 1.5c-184 0 -276 -43.333 -276 -130c0 -51.333 25.333 -99.333 76 -144c16.667 -15.333 67.667 -51.333 153 -108
c93.333 -61.333 154 -144.333 182 -249zM525.999 -131.999c0 -33.333 -17 -50 -51 -50c-32 0 -48 16.667 -48 50c0 31.333 16 47 48 47c34 0 51 -15.667 51 -47zM410.999 -131.999c0 -33.333 -16.667 -50 -50 -50c-32.667 0 -49 16.667 -49 50c0 31.333 16.333 47 49 47
c33.333 0 50 -15.667 50 -47zM467.999 -222.999c0 -33.333 -16.333 -50 -49 -50s-49 16.667 -49 50c0 31.333 16.333 47 49 47s49 -15.667 49 -47z" />
    <glyph glyph-name="uFB7C" unicode="&#x686;" horiz-adv-x="576" arabic-form="initial" 
d="M573 39l-10 -39h-588v45h470c-200.667 95.333 -328 209 -382 341l40 21c36 -86.667 100.667 -162 194 -226c56.667 -38.667 148.667 -86 276 -142zM356 -132c0 -33.333 -16.667 -50 -50 -50c-32 0 -48 16.667 -48 50c0 31.333 16 47 48 47c33.333 0 50 -15.667 50 -47z
M241 -132c0 -33.333 -16.333 -50 -49 -50s-49 16.667 -49 50c0 31.333 16.333 47 49 47s49 -15.667 49 -47zM299 -223c0 -33.333 -16.333 -50 -49 -50s-49 16.667 -49 50c0 31.333 16.333 47 49 47s49 -15.667 49 -47z" />
    <glyph glyph-name="uFB7D" unicode="&#x686;" horiz-adv-x="557" arabic-form="medial" 
d="M573 39l-10 -39h-588v45h470c-200.667 95.333 -328 209 -382 341l40 21c36 -86.667 100.667 -162 194 -226c56.667 -38.667 148.667 -86 276 -142zM356 -132c0 -33.333 -16.667 -50 -50 -50c-32 0 -48 16.667 -48 50c0 31.333 16 47 48 47c33.333 0 50 -15.667 50 -47z
M241 -132c0 -33.333 -16.333 -50 -49 -50s-49 16.667 -49 50c0 31.333 16.333 47 49 47s49 -15.667 49 -47zM299 -223c0 -33.333 -16.333 -50 -49 -50s-49 16.667 -49 50c0 31.333 16.333 47 49 47s49 -15.667 49 -47z" />
    <glyph glyph-name="uFB8B" unicode="&#x698;" horiz-adv-x="416" arabic-form="final" 
d="M439 0l-45.999 -0.000976562c-17.333 0 -32.333 7 -45 21c-26 -56 -63 -111.333 -111 -166c-60.667 -69.333 -129 -138.666 -205 -207.999l-32 32c40.667 36.667 109 106.334 205 209.001c94.667 116 142 217.333 142 304c0 62 -23.667 125 -71 189l32 30
c56 -71.333 84 -144.333 84 -219c0 -34.667 -6 -70.334 -18 -107.001c-2.66699 -26.667 3.66602 -40 18.999 -40h46v-45zM333.001 579.999c0 -32 -16.333 -48 -49 -48c-32 0 -48 16 -48 48c0 32.667 16 49 48 49c32.667 0 49 -16.333 49 -49zM391.001 488.999
c0 -31.333 -17 -47 -51 -47c-32 0 -48 15.667 -48 47c0 32.667 16 49 48 49c34 0 51 -16.333 51 -49zM276.001 488.999c0 -31.333 -16.333 -47 -49 -47c-33.333 0 -50 15.667 -50 47c0 32.667 16.667 49 50 49c32.667 0 49 -16.333 49 -49z" />
    <glyph glyph-name="uFEDA" unicode="&#x6a9;" horiz-adv-x="828" arabic-form="final" 
d="M851 0h-40.002c-27.333 -0 -47.666 10.333 -60.999 31c-20.667 -20.667 -40.667 -31 -60 -31h-460c-68.667 -0 -103 54.333 -103 163c0 76.667 19.333 159.334 58 248.001l38 -22c-34 -80 -51 -157.667 -51 -233c0 -74 19.333 -111 58 -111h460
c12 0 23.167 8.83301 33.5 26.5s15.5 37.167 15.5 58.5c0 64.667 -25.333 138.334 -76 221.001l-142 225c-51.333 96.667 -77 194 -77 292c0 129.333 41.333 241.333 124 336c70 79.333 144.333 124.666 223 135.999l9 -41c-101.333 -28.667 -180.333 -88.334 -237 -179.001
c-48.667 -78 -73 -162.667 -73 -254s25.333 -184 76 -278l141 -224c50.667 -85.333 76 -163.333 76 -234l-4 -40c0.666992 -30 11.334 -45 32.001 -45h40v-45z" />
    <glyph glyph-name="uFEDB" unicode="&#x6a9;" horiz-adv-x="385" arabic-form="initial" 
d="M400 1299c-101.333 -28.667 -180.334 -88.333 -237.001 -179c-48.667 -78 -73 -162.667 -73 -254s25.333 -184.333 76 -279l143 -228c50.667 -87.333 76 -167 76 -239c0 -18 -7.33301 -40.333 -22 -67c-19.333 -35.333 -43.666 -53 -72.999 -53h-313v45h313
c12 0 23.167 8.83301 33.5 26.5s15.5 37.167 15.5 58.5c0 64.667 -25.333 138.334 -76 221.001l-143 225c-50.667 96.667 -76 194 -76 292c0 129.333 41.333 241.333 124 336c70 79.333 144.333 124.666 223 135.999z" />
    <glyph glyph-name="uFEDC" unicode="&#x6a9;" horiz-adv-x="435" arabic-form="medial" 
d="M458 0l-47 -0.000976562c-28 0 -48.333 10.333 -61 31c-20.667 -20.667 -40.667 -31 -60 -31h-314v45h314c12 0 23.167 8.83301 33.5 26.5s15.5 37.167 15.5 58.5c0 64.667 -25.333 138.334 -76 221.001l-143 225c-50.667 96.667 -76 194 -76 292
c0 129.333 41.333 241.333 124 336c70 79.333 144.333 124.666 223 135.999l9 -41c-101.333 -28.667 -180.333 -88.334 -237 -179.001c-48.667 -78 -73 -162.667 -73 -254s25.333 -183.666 76 -276.999l141 -224c50.667 -85.333 76 -163.666 76 -234.999l-5 -40
c1.33301 -30 12.333 -45 33 -45h47v-45z" />
    <glyph glyph-name="uFB93" unicode="&#x6af;" horiz-adv-x="829" arabic-form="final" 
d="M643 1312c-95.333 -41.333 -162 -115.999 -200 -223.999l-45 11c37.333 127.333 112.333 211.666 225 252.999zM851 0.000976562h-40.002c-27.333 0 -47.666 10.333 -60.999 31c-20.667 -20.667 -40.667 -31 -60 -31h-460c-68.667 0 -103 54.333 -103 163
c0 76.667 19.333 159.334 58 248.001l38 -22c-34 -80 -51 -157.667 -51 -233c0 -74 19.333 -111 58 -111h460c12 0 23.167 8.83301 33.5 26.5s15.5 37.167 15.5 58.5c0 64.667 -25.333 138.334 -76 221.001l-142 225c-51.333 96.667 -77 194 -77 292
c0 129.333 41.333 241.333 124 336c70 79.333 144.333 124.666 223 135.999l9 -41c-101.333 -28.667 -180.333 -88.334 -237 -179.001c-48.667 -78 -73 -162.667 -73 -254s25.333 -184 76 -278l141 -224c50.667 -85.333 76 -163.333 76 -234l-4 -40
c0.666992 -30 11.334 -45 32.001 -45h40v-45z" />
    <glyph glyph-name="uFB94" unicode="&#x6af;" horiz-adv-x="390" arabic-form="initial" 
d="M256 1310c-94.667 -41.333 -161.334 -115.999 -200.001 -223.999l-46 11c38.667 127.333 114.334 211.666 227.001 252.999zM400 1299c-101.333 -28.667 -180.334 -88.333 -237.001 -179c-48.667 -78 -73 -162.667 -73 -254s25.333 -184.333 76 -279l143 -228
c50.667 -87.333 76 -167 76 -239c0 -18 -7.33301 -40.333 -22 -67c-19.333 -35.333 -43.666 -53 -72.999 -53h-313v45h313c12 0 23.167 8.83301 33.5 26.5s15.5 37.167 15.5 58.5c0 64.667 -25.333 138.334 -76 221.001l-143 225c-50.667 96.667 -76 194 -76 292
c0 129.333 41.333 241.333 124 336c70 79.333 144.333 124.666 223 135.999z" />
    <glyph glyph-name="uFB95" unicode="&#x6af;" horiz-adv-x="436" arabic-form="medial" 
d="M256 1310c-94.667 -41.333 -161.334 -115.999 -200.001 -223.999l-46 11c38.667 127.333 114.334 211.666 227.001 252.999zM458 0.000976562l-47 -0.000976562c-28 -0 -48.333 10.333 -61 31c-20.667 -20.667 -40.667 -31 -60 -31h-314v45h314
c12 0 23.167 8.83301 33.5 26.5s15.5 37.167 15.5 58.5c0 64.667 -25.333 138.334 -76 221.001l-143 225c-50.667 96.667 -76 194 -76 292c0 129.333 41.333 241.333 124 336c70 79.333 144.333 124.666 223 135.999l9 -41c-101.333 -28.667 -180.333 -88.334 -237 -179.001
c-48.667 -78 -73 -162.667 -73 -254s25.333 -183.666 76 -276.999l141 -224c50.667 -85.333 76 -163.666 76 -234.999l-5 -40c1.33301 -30 12.333 -45 33 -45h47v-45z" />
    <glyph glyph-name="uFE94" unicode="&#x6c0;" horiz-adv-x="398" arabic-form="final" 
d="M422 2l-45.001 0.000976562c-62.667 0 -94 46.333 -94 139c0 18 1.33301 44.333 4 79s4 58.667 4 72c0 48.667 -12.333 73 -37 73c-33.333 0 -58.666 -37.333 -75.999 -112c-5.33301 -23.333 -8 -49 -8 -77c0 -56.667 10 -114.667 30 -174h-44
c-20 60 -30 118.333 -30 175c0 27.333 3 52.666 9 75.999c24.667 103.333 65 155 121 155c54 0 81 -44.333 81 -133c0 -14.667 -0.833008 -37 -2.5 -67s-2.5 -51.333 -2.5 -64c0 -64.667 16.667 -97 50 -97h40v-45zM140.999 712.001c0 54.667 45 88 135 100v-42
c-60.667 -22.667 -91 -40.667 -91 -54c0 -10 20.333 -24.667 61 -44s61 -42 61 -68c0 -54 -45 -87.333 -135 -100v43c60.667 11.333 91 30.333 91 57c0 10.667 -20.333 25.167 -61 43.5s-61 39.833 -61 64.5z" />
    <glyph glyph-name="uFEF2" unicode="&#x6cc;" horiz-adv-x="1135" arabic-form="final" 
d="M1163 0l-136 0.000976562c-24.667 0 -48.5 -5.16699 -71.5 -15.5s-34.5 -22.5 -34.5 -36.5c0 -8 14.333 -20.333 43 -37c40 -23.333 69.667 -44.333 89 -63c36 -33.333 54 -69 54 -107c0 -22 -4.33301 -40 -13 -54c-22 -32 -76.333 -84.333 -163 -157
c-181.333 -153.333 -343.333 -230 -486 -230c-134.667 0 -248 40 -340 120c-70 60.667 -105 111.334 -105 152.001l40 20c0 -34 30 -78.333 90 -133c82 -76 187 -114 315 -114c127.333 0 272 67.333 434 202c78.667 66 129 110.667 151 134s33 44.666 33 63.999
c0 28 -27.667 62.333 -83 103l-72 48c-21.333 15.333 -32 32.666 -32 51.999c0 64.667 57.333 97 172 97h115v-45z" />
    <glyph glyph-name="uFEF3" unicode="&#x6cc;" horiz-adv-x="230" arabic-form="initial" 
d="M141 412c38 -88 57 -170.332 57 -246.999c0 -110 -35.333 -165 -106 -165h-110v45h108c44.667 0 67 36 67 108c0 71.333 -18.333 150.666 -55 237.999zM207 -130.999c0 -33.333 -16.667 -50 -50 -50c-32.667 0 -49 16.667 -49 50c0 31.333 16.333 47 49 47
c33.333 0 50 -15.667 50 -47zM96 -130.999c0 -33.333 -16.333 -50 -49 -50c-33.333 0 -50 16.667 -50 50c0 31.333 16.667 47 50 47c32.667 0 49 -15.667 49 -47z" />
    <glyph glyph-name="uFEF4" unicode="&#x6cc;" horiz-adv-x="239" arabic-form="medial" 
d="M262 0h-54c-20 0 -38.333 10 -55 30c-18.667 -20 -40 -30 -64 -30h-112v45h106c39.333 0 59 35.667 59 107c0 73.333 -17.333 151.333 -52 234l39 21c38.667 -91.333 58 -179.333 58 -264c0 -22 -1.66699 -41.333 -5 -58c0 -26.667 8.66699 -40 26 -40h54v-45zM207 -131
c0 -33.333 -16.667 -50 -50 -50c-32.667 0 -49 16.667 -49 50c0 31.333 16.333 47 49 47c33.333 0 50 -15.667 50 -47zM96 -131c0 -33.333 -16.333 -50 -49 -50c-33.333 0 -50 16.667 -50 50c0 31.333 16.667 47 50 47c32.667 0 49 -15.667 49 -47z" />
    <glyph glyph-name="Hcircumflex" unicode="&#x622;" horiz-adv-x="465" arabic-form="final" 
d="M488 45v-45h-46c-58 0 -87 36 -87 108v1012h45v-1012c0 -42 12 -63 36 -63h52zM167 677c-7.33301 16 -13.667 34.667 -19 56c-12.667 50 -20 107.667 -22 173c-2.66699 106 42.666 201.667 135.999 287c68.667 62 150.334 109 245.001 141l9 -48
c-23.333 -8.66699 -46.333 -18.667 -69 -30c-54.667 -26 -101.667 -56 -141 -90c-88 -75.333 -132 -162 -132 -260c0 -78 13 -149.667 39 -215z" />
    <glyph glyph-name="uFE84" unicode="&#x623;" horiz-adv-x="239" arabic-form="final" 
d="M259 45v-45h-46c-58 0 -87 36 -87 108v1219h45v-1219c0 -42 12 -63 36 -63h52zM7 1644c0 54.667 45.333 88.332 136 100.999v-43c-60.667 -22.667 -91 -40.667 -91 -54c0 -10 20.333 -24.667 61 -44s61 -42 61 -68c0 -54 -45.333 -87.333 -136 -100v43
c60.667 11.333 91 30.333 91 57c0 10.667 -20.333 25.334 -61 44.001s-61 40 -61 64z" />
    <glyph glyph-name="uFE86" unicode="&#x624;" horiz-adv-x="416" arabic-form="final" 
d="M439 0h-88.001c-39.333 -95.333 -146 -215.666 -320 -360.999l-31 31l160 149c70.667 71.333 117.334 131.666 140.001 180.999h-59c-72 0 -108 37.667 -108 113c0 33.333 10.333 84.666 31 153.999c33.333 94 70 141 110 141c34 0 60.667 -31 80 -93
c16 -52 24 -111.667 24 -179c0 -29.333 -4 -59.666 -12 -90.999h73v-45zM332.999 147c0 68.667 -7 123.333 -21 164c-11.333 34 -24 51 -38 51c-24.667 0 -47.667 -39 -69 -117c-17.333 -61.333 -26 -105 -26 -131c0 -46 16 -69 48 -69h93c8.66699 38.667 13 72.667 13 102z
M94.999 676.999c0 54.667 45 87.999 135 99.999v-42c-60 -22.667 -90 -40.667 -90 -54c0 -10 20.167 -24.667 60.5 -44s60.5 -42 60.5 -68c0 -54 -45 -87.333 -135 -100v43c60.667 11.333 91 30.333 91 57c0 10.667 -20.333 25.334 -61 44.001s-61 40 -61 64z" />
    <glyph glyph-name="uFE88" unicode="&#x625;" horiz-adv-x="239" arabic-form="final" 
d="M259 45v-45h-46c-58 0 -87 36 -87 108v1219h45v-1219c0 -42 12 -63 36 -63h52zM42 -168c0 54 45.333 87.333 136 100v-43c-60.667 -22.667 -91 -40.667 -91 -54c0 -10 20.333 -24.667 61 -44s61 -41.666 61 -66.999c0 -54.667 -45.333 -88 -136 -100v42
c60.667 11.333 91 30.666 91 57.999c0 10.667 -20.333 25.167 -61 43.5s-61 39.833 -61 64.5z" />
    <glyph glyph-name="uFE8A" unicode="&#x626;" horiz-adv-x="1135" arabic-form="final" 
d="M1163 0l-136 0.000976562c-24.667 0 -48.5 -5.16699 -71.5 -15.5s-34.5 -22.5 -34.5 -36.5c0 -8 14.333 -20.333 43 -37c40 -23.333 69.667 -44.333 89 -63c36 -33.333 54 -69 54 -107c0 -22 -4.33301 -40 -13 -54c-22 -32 -76.333 -84.333 -163 -157
c-181.333 -153.333 -343.333 -230 -486 -230c-134.667 0 -248 40 -340 120c-70 60.667 -105 111.334 -105 152.001l40 20c0 -34 30 -78.333 90 -133c82 -76 187 -114 315 -114c127.333 0 272 67.333 434 202c78.667 66 129 110.667 151 134s33 44.666 33 63.999
c0 28 -27.667 62.333 -83 103l-72 48c-21.333 15.333 -32 32.666 -32 51.999c0 64.667 57.333 97 172 97h115v-45zM425 -101.999c0 54.667 45 88 135 100v-42c-60.667 -22.667 -91 -40.667 -91 -54c0 -10 20.333 -24.667 61 -44s61 -42 61 -68c0 -54.667 -45 -88 -135 -100
v43c60.667 11.333 91 30.333 91 57c0 10.667 -20.333 25.167 -61 43.5s-61 39.833 -61 64.5z" />
    <glyph glyph-name="uFE8B" unicode="&#x626;" horiz-adv-x="228" arabic-form="initial" 
d="M138 412c38 -88 57 -170.332 57 -246.999c0 -110 -35.333 -165 -106 -165h-111v45h108c45.333 0 68 36 68 108c0 71.333 -18.333 150.666 -55 237.999zM-19 647.001c0 54 45.333 87.334 136 100.001v-43c-60.667 -22.667 -91 -40.667 -91 -54
c0 -10 20.333 -24.667 61 -44s61 -42 61 -68c0 -54 -45.333 -87.333 -136 -100v43c60.667 11.333 91 30.333 91 57c0 11.333 -20.333 26.166 -61 44.499s-61 39.833 -61 64.5z" />
    <glyph glyph-name="uFE8C" unicode="&#x626;" horiz-adv-x="260" arabic-form="medial" 
d="M283 0h-75c-20 0 -38.333 10 -55 30c-18.667 -20 -40 -30 -64 -30h-112v45h106c39.333 0 59 35.667 59 107c0 73.333 -17.333 151.333 -52 234l39 21c38.667 -91.333 58 -179.333 58 -264c0 -22 -1.66699 -41.333 -5 -58c0 -26.667 8.66699 -40 26 -40h75v-45zM-39 699
c0 54 45.333 87.333 136 100v-43c-60.667 -22.667 -91 -40.667 -91 -54c0 -10 20.333 -24.667 61 -44s61 -41.666 61 -66.999c0 -54.667 -45.333 -88 -136 -100v42c60.667 11.333 91 30.666 91 57.999c0 10.667 -20.333 25.167 -61 43.5s-61 39.833 -61 64.5z" />
    <glyph glyph-name="uFE8E" unicode="&#x627;" horiz-adv-x="236" arabic-form="final" 
d="M259 45v-45h-46c-58 0 -87 36 -87 108v1219h45v-1219c0 -42 12 -63 36 -63h52z" />
    <glyph glyph-name="uFE90" unicode="&#x628;" horiz-adv-x="839" arabic-form="final" 
d="M862 0h-44c-20.667 -0 -39.667 10.333 -57 31c-19.333 -20.667 -40.333 -31 -63 -31h-468c-68.667 0 -103 58 -103 174c0 76.667 18.333 156.667 55 240l38 -22c-34 -78.667 -51 -156 -51 -232c0 -76.667 20.333 -115 61 -115h457c40.667 0 61 38.667 61 116
c0 75.333 -16.667 152.333 -50 231l38 21c40.667 -96 61 -187.333 61 -274c0 -22 -2 -40.333 -6 -55c0.666992 -26 9.66699 -39 27 -39h44v-45zM496 -136c0 -32.667 -16.667 -49 -50 -49c-32 0 -48 16.333 -48 49c0 31.333 16 47 48 47c33.333 0 50 -15.667 50 -47z" />
    <glyph glyph-name="uFE91" unicode="&#x628;" horiz-adv-x="186" arabic-form="initial" 
d="M126 412c38 -88 57 -170.332 57 -246.999c0 -110 -35.333 -165 -106 -165h-110v45h108c44.667 0 67 36 67 108c0 71.333 -18.333 150.666 -55 237.999zM104 -135.999c0 -32.667 -16.667 -49 -50 -49c-32 0 -48 16.333 -48 49c0 31.333 16 47 48 47
c33.333 0 50 -15.667 50 -47z" />
    <glyph glyph-name="uFE92" unicode="&#x628;" horiz-adv-x="237" arabic-form="medial" 
d="M260 0h-52c-20 0 -38.333 10 -55 30c-18.667 -20 -40 -30 -64 -30h-112v45h106c39.333 0 59 35.667 59 107c0 73.333 -17.333 151.333 -52 234l39 21c38.667 -91.333 58 -179.333 58 -264c0 -22 -1.66699 -41.333 -5 -58c0 -26.667 8.66699 -40 26 -40h52v-45zM122 -136
c0 -32.667 -16.333 -49 -49 -49s-49 16.333 -49 49c0 31.333 16.333 47 49 47s49 -15.667 49 -47z" />
    <glyph glyph-name="uFE96" unicode="&#x62a;" horiz-adv-x="839" arabic-form="final" 
d="M862 0h-44c-20.667 -0 -39.667 10.333 -57 31c-19.333 -20.667 -40.333 -31 -63 -31h-468c-68.667 0 -103 58 -103 174c0 76.667 18.333 156.667 55 240l38 -22c-34 -78.667 -51 -156 -51 -232c0 -76.667 20.333 -115 61 -115h457c40.667 0 61 38.667 61 116
c0 75.333 -16.667 152.333 -50 231l38 21c40.667 -96 61 -187.333 61 -274c0 -22 -2 -40.333 -6 -55c0.666992 -26 9.66699 -39 27 -39h44v-45zM568 557c0 -33.333 -16.333 -50 -49 -50c-33.333 0 -50 16.667 -50 50c0 31.333 16.667 47 50 47c32.667 0 49 -15.667 49 -47z
M458 557c0 -33.333 -16.667 -50 -50 -50c-32.667 0 -49 16.667 -49 50c0 31.333 16.333 47 49 47c33.333 0 50 -15.667 50 -47z" />
    <glyph glyph-name="uFE97" unicode="&#x62a;" horiz-adv-x="228" arabic-form="initial" 
d="M138 412c38 -88 57 -170.332 57 -246.999c0 -110 -35.333 -165 -106 -165h-111v45h108c45.333 0 68 36 68 108c0 71.333 -18.333 150.666 -55 237.999zM227 557.001c0 -33.333 -16.667 -50 -50 -50c-32.667 0 -49 16.667 -49 50c0 31.333 16.333 47 49 47
c33.333 0 50 -15.667 50 -47zM116 557.001c0 -33.333 -16.333 -50 -49 -50c-33.333 0 -50 16.667 -50 50c0 31.333 16.667 47 50 47c32.667 0 49 -15.667 49 -47z" />
    <glyph glyph-name="uFE98" unicode="&#x62a;" horiz-adv-x="260" arabic-form="medial" 
d="M283 0h-75c-20 0 -38.333 10 -55 30c-18.667 -20 -40 -30 -64 -30h-112v45h106c39.333 0 59 35.667 59 107c0 73.333 -17.333 151.333 -52 234l39 21c38.667 -91.333 58 -179.333 58 -264c0 -22 -1.66699 -41.333 -5 -58c0 -26.667 8.66699 -40 26 -40h75v-45zM237 557
c0 -33.333 -16.667 -50 -50 -50c-32.667 0 -49 16.667 -49 50c0 31.333 16.333 47 49 47c33.333 0 50 -15.667 50 -47zM126 557c0 -33.333 -16.333 -50 -49 -50s-49 16.667 -49 50c0 31.333 16.333 47 49 47s49 -15.667 49 -47z" />
    <glyph glyph-name="uFE9A" unicode="&#x62b;" horiz-adv-x="839" arabic-form="final" 
d="M862 0h-44c-20.667 -0 -39.667 10.333 -57 31c-19.333 -20.667 -40.333 -31 -63 -31h-468c-68.667 0 -103 58 -103 174c0 76.667 18.333 156.667 55 240l38 -22c-34 -78.667 -51 -156 -51 -232c0 -76.667 20.333 -115 61 -115h457c40.667 0 61 38.667 61 116
c0 75.333 -16.667 152.333 -50 231l38 21c40.667 -96 61 -187.333 61 -274c0 -22 -2 -40.333 -6 -55c0.666992 -26 9.66699 -39 27 -39h44v-45zM514 580c0 -32 -16.333 -48 -49 -48s-49 16 -49 48c0 32.667 16.333 49 49 49s49 -16.333 49 -49zM572 489
c0 -31.333 -17 -47 -51 -47c-32 0 -48 15.667 -48 47c0 32.667 16 49 48 49c34 0 51 -16.333 51 -49zM457 489c0 -31.333 -16.667 -47 -50 -47c-32.667 0 -49 15.667 -49 47c0 32.667 16.333 49 49 49c33.333 0 50 -16.333 50 -49z" />
    <glyph glyph-name="uFE9B" unicode="&#x62b;" horiz-adv-x="241" arabic-form="initial" 
d="M149 412c38 -88 57 -170.332 57 -246.999c0 -110 -35.333 -165 -106 -165h-110v45h108c44.667 0 67 36 67 108c0 71.333 -18.333 150.666 -55 237.999zM185 585.001c0 -31.333 -16.333 -47 -49 -47s-49 15.667 -49 47c0 33.333 16.333 50 49 50s49 -16.667 49 -50z
M243 494.001c0 -31.333 -17 -47 -51 -47c-32 0 -48 15.667 -48 47c0 33.333 16 50 48 50c34 0 51 -16.667 51 -50zM128 494.001c0 -31.333 -16.667 -47 -50 -47c-32.667 0 -49 15.667 -49 47c0 33.333 16.333 50 49 50c33.333 0 50 -16.667 50 -50z" />
    <glyph glyph-name="uFE9C" unicode="&#x62b;" horiz-adv-x="260" arabic-form="medial" 
d="M283 0h-75c-20 0 -38.333 10 -55 30c-18.667 -20 -40 -30 -64 -30h-112v45h106c39.333 0 59 35.667 59 107c0 73.333 -17.333 151.333 -52 234l39 21c38.667 -91.333 58 -179.333 58 -264c0 -22 -1.66699 -41.333 -5 -58c0 -26.667 8.66699 -40 26 -40h75v-45zM179 580
c0 -32 -16.333 -48 -49 -48c-32 0 -48 16 -48 48c0 32.667 16 49 48 49c32.667 0 49 -16.333 49 -49zM237 489c0 -31.333 -17 -47 -51 -47c-32 0 -48 15.667 -48 47c0 32.667 16 49 48 49c34 0 51 -16.333 51 -49zM122 489c0 -31.333 -16.667 -47 -50 -47
c-32.667 0 -49 15.667 -49 47c0 32.667 16.333 49 49 49c33.333 0 50 -16.333 50 -49z" />
    <glyph glyph-name="uFE9E" unicode="&#x62c;" horiz-adv-x="561" arabic-form="final" 
d="M581 -630l-43.001 -14.999c-26.667 101.333 -96.667 188 -210 260c-56.667 35.333 -95.667 63.333 -117 84c-56.667 53.333 -85 111.666 -85 174.999c0 113.333 108 170 324 170c-201.333 95.333 -328.666 208.666 -381.999 339.999l40 21
c36 -87.333 100.333 -162.666 193 -225.999c56.667 -38.667 148.667 -86 276 -142l-9 -39c-5.33301 0 -22 0.5 -50 1.5s-52 1.5 -72 1.5c-184 0 -276 -43.333 -276 -130c0 -51.333 25.333 -99.333 76 -144c16.667 -15.333 67.667 -51.333 153 -108
c93.333 -61.333 154 -144.333 182 -249zM446.999 -135.999c0 -32.667 -16.333 -49 -49 -49s-49 16.333 -49 49c0 31.333 16.333 47 49 47s49 -15.667 49 -47z" />
    <glyph glyph-name="uFE9F" unicode="&#x62c;" horiz-adv-x="576" arabic-form="initial" 
d="M573 39l-10 -39h-588v45h470c-200.667 95.333 -328 209 -382 341l40 21c36 -86.667 100.667 -162 194 -226c56.667 -38.667 148.667 -86 276 -142zM300 -136c0 -32.667 -16.333 -49 -49 -49s-49 16.333 -49 49c0 31.333 16.333 47 49 47s49 -15.667 49 -47z" />
    <glyph glyph-name="uFEA0" unicode="&#x62c;" horiz-adv-x="557" arabic-form="medial" 
d="M573 39l-10 -39h-588v45h470c-200.667 95.333 -328 209 -382 341l40 21c36 -86.667 100.667 -162 194 -226c56.667 -38.667 148.667 -86 276 -142zM300 -136c0 -32.667 -16.333 -49 -49 -49s-49 16.333 -49 49c0 31.333 16.333 47 49 47s49 -15.667 49 -47z" />
    <glyph glyph-name="uFEA2" unicode="&#x62d;" horiz-adv-x="561" arabic-form="final" 
d="M583 -630l-43 -14.999c-26 101.333 -96 188 -210 260c-56.667 35.333 -95.667 63.333 -117 84c-56 53.333 -84 111.666 -84 174.999c0 113.333 107.667 170 323 170c-200.667 95.333 -328 208.666 -382 339.999l40 21c36 -87.333 100.667 -162.666 194 -225.999
c56.667 -38.667 148.667 -86 276 -142l-10 -39c-4.66699 0 -21.167 0.5 -49.5 1.5s-52.5 1.5 -72.5 1.5c-184 0 -276 -43.333 -276 -130c0 -51.333 25.333 -99.333 76 -144c16.667 -15.333 67.667 -51.333 153 -108c93.333 -61.333 154 -144.333 182 -249z" />
    <glyph glyph-name="uFEA3" unicode="&#x62d;" horiz-adv-x="573" arabic-form="initial" 
d="M573 39l-10 -39h-588v45h470c-200.667 95.333 -328 209 -382 341l40 21c36 -86.667 100.667 -162 194 -226c56.667 -38.667 148.667 -86 276 -142z" />
    <glyph glyph-name="uFEA4" unicode="&#x62d;" horiz-adv-x="554" arabic-form="medial" 
d="M573 39l-10 -39h-588v45h470c-200.667 95.333 -328 209 -382 341l40 21c36 -86.667 100.667 -162 194 -226c56.667 -38.667 148.667 -86 276 -142z" />
    <glyph glyph-name="uFEA6" unicode="&#x62e;" horiz-adv-x="563" arabic-form="final" 
d="M581 -630l-43.001 -14.999c-26.667 101.333 -96.667 188 -210 260c-56.667 35.333 -95.667 63.333 -117 84c-56.667 53.333 -85 111.666 -85 174.999c0 113.333 108 170 324 170c-201.333 95.333 -328.666 208.666 -381.999 339.999l40 21
c36 -87.333 100.333 -162.666 193 -225.999c56.667 -38.667 148.667 -86 276 -142l-9 -39c-5.33301 0 -22 0.5 -50 1.5s-52 1.5 -72 1.5c-184 0 -276 -43.333 -276 -130c0 -51.333 25.333 -99.333 76 -144c16.667 -15.333 67.667 -51.333 153 -108
c93.333 -61.333 154 -144.333 182 -249zM246.999 558.001c0 -33.333 -16.333 -50 -49 -50s-49 16.667 -49 50c0 31.333 16.333 47 49 47s49 -15.667 49 -47z" />
    <glyph glyph-name="uFEA7" unicode="&#x62e;" horiz-adv-x="576" arabic-form="initial" 
d="M573 39l-10 -39h-588v45h470c-200.667 95.333 -328 209 -382 341l40 21c36 -86.667 100.667 -162 194 -226c56.667 -38.667 148.667 -86 276 -142zM179 558c0 -33.333 -16.667 -50 -50 -50c-32 0 -48 16.667 -48 50c0 31.333 16 47 48 47c33.333 0 50 -15.667 50 -47z
" />
    <glyph glyph-name="uFEA8" unicode="&#x62e;" horiz-adv-x="554" arabic-form="medial" 
d="M573 39l-10 -39h-588v45h470c-200.667 95.333 -328 209 -382 341l40 21c36 -86.667 100.667 -162 194 -226c56.667 -38.667 148.667 -86 276 -142zM179 558c0 -33.333 -16.667 -50 -50 -50c-32 0 -48 16.667 -48 50c0 31.333 16 47 48 47c33.333 0 50 -15.667 50 -47z
" />
    <glyph glyph-name="uFEAA" unicode="&#x62f;" horiz-adv-x="400" arabic-form="final" 
d="M420 0l-37.999 -0.00195312c-23.333 0 -42.666 12 -57.999 36c-21.333 -24 -62.333 -36 -123 -36h-115v45h113c75.333 0 113.666 24.333 114.999 73c0 32.667 -15 78.334 -45 137.001c-4 7.33301 -32 55.666 -84 144.999l37 24
c89.333 -147.333 134 -250.666 134 -309.999c1.33301 -7.33301 0.666016 -15.666 -2.00098 -24.999c0.666992 -29.333 10 -44 28 -44h38v-45z" />
    <glyph glyph-name="uFEAC" unicode="&#x630;" horiz-adv-x="400" arabic-form="final" 
d="M420 0l-37.999 -0.00195312c-23.333 0 -42.666 12 -57.999 36c-21.333 -24 -62.333 -36 -123 -36h-115v45h113c75.333 0 113.666 24.333 114.999 73c0 32.667 -15 78.334 -45 137.001c-4 7.33301 -32 55.666 -84 144.999l37 24
c89.333 -147.333 134 -250.666 134 -309.999c1.33301 -7.33301 0.666016 -15.666 -2.00098 -24.999c0.666992 -29.333 10 -44 28 -44h38v-45zM217.001 557.998c0 -33.333 -16.333 -50 -49 -50c-32 0 -48 16.667 -48 50c0 31.333 16 47 48 47c32.667 0 49 -15.667 49 -47z
" />
    <glyph glyph-name="uFEAE" unicode="&#x631;" horiz-adv-x="416" arabic-form="final" 
d="M439 0l-45.999 -0.000976562c-17.333 0 -32.333 7 -45 21c-26 -56 -63 -111.333 -111 -166c-60.667 -69.333 -129 -138.666 -205 -207.999l-32 32c40.667 36.667 109 106.334 205 209.001c94.667 116 142 217.333 142 304c0 62 -23.667 125 -71 189l32 30
c56 -71.333 84 -144.333 84 -219c0 -34.667 -6 -70.334 -18 -107.001c-2.66699 -26.667 3.66602 -40 18.999 -40h46v-45z" />
    <glyph glyph-name="uFEB0" unicode="&#x632;" horiz-adv-x="416" arabic-form="final" 
d="M439 0l-45.999 -0.000976562c-17.333 0 -32.333 7 -45 21c-26 -56 -63 -111.333 -111 -166c-60.667 -69.333 -129 -138.666 -205 -207.999l-32 32c40.667 36.667 109 106.334 205 209.001c94.667 116 142 217.333 142 304c0 62 -23.667 125 -71 189l32 30
c56 -71.333 84 -144.333 84 -219c0 -34.667 -6 -70.334 -18 -107.001c-2.66699 -26.667 3.66602 -40 18.999 -40h46v-45zM312.001 533.999c0 -33.333 -16.667 -50 -50 -50c-32 0 -48 16.667 -48 50c0 31.333 16 47 48 47c33.333 0 50 -15.667 50 -47z" />
    <glyph glyph-name="uFEB2" unicode="&#x633;" horiz-adv-x="1699" arabic-form="final" 
d="M1722 0l-46 -0.00195312c-18.667 0 -35.334 11 -50.001 33c-19.333 -22.667 -45 -34 -77 -34c-26.667 0 -47.667 12.333 -63 37c-24 -23.333 -49.667 -35 -77 -35s-48.666 11 -63.999 33c-34 -66.667 -70 -126.334 -108 -179.001
c-74 -103.333 -175.333 -209.333 -304 -318c-186 -157.333 -348.333 -236 -487 -236c-134.667 0 -248 40 -340 120c-70.667 60.667 -106 111.334 -106 152.001l40 20c0 -34 30 -78.333 90 -133c82.667 -76 188 -114 316 -114c123.333 0 274 74 452 222
c132.667 110.667 229 209.334 289 296.001c56.667 83.333 91 135.333 103 156c28.667 52 43 101 43 147c0 76 -19 151.333 -57 226l42 20c22 -42 40 -102.333 54 -181c6 -34 7.66699 -64.333 5 -91c-4 -39.333 -6 -55 -6 -47c0 -10 2.66699 -20 8 -30
c3.33301 -12 14.333 -18 33 -18c41.333 0 62 38.333 62 115c0 51.333 -17.667 130 -53 236l39 16c39.333 -91.333 59 -175.333 59 -252c0 -15.333 -0.666992 -30.166 -2 -44.499l-2 -21.5c0 -30.667 13.333 -47.334 40 -50.001c40.667 0.666992 61 39.667 61 117
c0 70.667 -18 147.334 -54 230.001l39 20c40 -85.333 60 -168.333 60 -249c0 -14.667 -0.666992 -29.667 -2 -45s-2 -23.333 -2 -24c0 -32.667 10.667 -49 32 -49h33v-45z" />
    <glyph glyph-name="uFEB3" unicode="&#x633;" horiz-adv-x="466" arabic-form="initial" 
d="M466 161c0 -108 -37.3311 -162.001 -111.998 -162.001c-26 0 -47.333 11.667 -64 35c-24 -22.667 -49.667 -34 -77 -34c-28.667 0 -50.334 12 -65.001 36c-20.667 -24 -46.334 -36 -77.001 -36h-94v45h92c45.333 0 68 40.333 68 121c0 67.333 -18.333 144 -55 230l42 16
c39.333 -96 59 -179.667 59 -251c0 -15.333 -1 -29.833 -3 -43.5s-3 -19.5 -3 -17.5c0 -36.667 13 -55 39 -55c41.333 0 62 38.333 62 115c0 51.333 -17.667 130 -53 236l39 16c39.333 -91.333 59 -175.333 59 -252c0 -15.333 -0.666992 -30.333 -2 -45s-2 -21.667 -2 -21
c0 -32.667 13.333 -49 40 -49c40.667 0 61 39 61 117c0 70.667 -18 147.334 -54 230.001l39 20c40.667 -77.333 61 -161 61 -251z" />
    <glyph glyph-name="uFEB4" unicode="&#x633;" horiz-adv-x="505" arabic-form="medial" 
d="M528 0l-46.998 -0.000976562c-18.667 0 -35.334 11 -50.001 33c-17.333 -22.667 -42.666 -34 -75.999 -34c-26 0 -47.333 11.667 -64 35c-24 -22.667 -49.667 -34 -77 -34c-28.667 0 -50.334 12 -65.001 36c-20.667 -24 -46.334 -36 -77.001 -36h-95v45h93
c45.333 0 68 40.333 68 121c0 67.333 -18.333 144 -55 230l42 16c39.333 -96 59 -179.667 59 -251c0 -15.333 -1 -29.833 -3 -43.5s-3 -19.5 -3 -17.5c0 -36.667 13 -55 39 -55c41.333 0 62 38.333 62 115c0 51.333 -17.333 130 -52 236l39 16
c39.333 -91.333 59 -175.333 59 -252c0 -15.333 -0.833008 -30.333 -2.5 -45s-2.5 -21.667 -2.5 -21c0 -32.667 13.333 -49 40 -49c40.667 0 61 39 61 117c0 70.667 -18 147.334 -54 230.001l39 20c40.667 -85.333 61 -168.333 61 -249
c0 -14.667 -0.833008 -29.667 -2.5 -45s-2.5 -23.333 -2.5 -24c0 -32.667 10.667 -49 32 -49h34v-45z" />
    <glyph glyph-name="uFEB6" unicode="&#x634;" horiz-adv-x="1704" arabic-form="final" 
d="M1722 0l-46 -0.00195312c-18.667 0 -35.334 11 -50.001 33c-19.333 -22.667 -45 -34 -77 -34c-26.667 0 -47.667 12.333 -63 37c-24 -23.333 -49.667 -35 -77 -35s-48.666 11 -63.999 33c-34 -66.667 -70 -126.334 -108 -179.001
c-74 -103.333 -175.333 -209.333 -304 -318c-186 -157.333 -348.333 -236 -487 -236c-134.667 0 -248 40 -340 120c-70.667 60.667 -106 111.334 -106 152.001l40 20c0 -34 30 -78.333 90 -133c82.667 -76 188 -114 316 -114c123.333 0 274 74 452 222
c132.667 110.667 229 209.334 289 296.001c56.667 83.333 91 135.333 103 156c28.667 52 43 101 43 147c0 76 -19 151.333 -57 226l42 20c22 -42 40 -102.333 54 -181c6 -34 7.66699 -64.333 5 -91c-4 -39.333 -6 -55 -6 -47c0 -10 2.66699 -20 8 -30
c3.33301 -12 14.333 -18 33 -18c41.333 0 62 38.333 62 115c0 51.333 -17.667 130 -53 236l39 16c39.333 -91.333 59 -175.333 59 -252c0 -15.333 -0.666992 -30.166 -2 -44.499l-2 -21.5c0 -30.667 13.333 -47.334 40 -50.001c40.667 0.666992 61 39.667 61 117
c0 70.667 -18 147.334 -54 230.001l39 20c40 -85.333 60 -168.333 60 -249c0 -14.667 -0.666992 -29.667 -2 -45s-2 -23.333 -2 -24c0 -32.667 10.667 -49 32 -49h33v-45zM1479 602.998c0 -32 -16.667 -48 -50 -48c-32 0 -48 16 -48 48c0 32.667 16 49 48 49
c33.333 0 50 -16.333 50 -49zM1536 511.998c0 -31.333 -16.667 -47 -50 -47c-32.667 0 -49 15.667 -49 47c0 32.667 16.333 49 49 49c33.333 0 50 -16.333 50 -49zM1421 511.998c0 -31.333 -16.333 -47 -49 -47c-33.333 0 -50 15.667 -50 47c0 32.667 16.667 49 50 49
c32.667 0 49 -16.333 49 -49z" />
    <glyph glyph-name="uFEB7" unicode="&#x634;" horiz-adv-x="471" arabic-form="initial" 
d="M466 161c0 -108 -37.3311 -162.001 -111.998 -162.001c-26 0 -47.333 11.667 -64 35c-24 -22.667 -49.667 -34 -77 -34c-28.667 0 -50.334 12 -65.001 36c-20.667 -24 -46.334 -36 -77.001 -36h-94v45h92c45.333 0 68 40.333 68 121c0 67.333 -18.333 144 -55 230l42 16
c39.333 -96 59 -179.667 59 -251c0 -15.333 -1 -29.833 -3 -43.5s-3 -19.5 -3 -17.5c0 -36.667 13 -55 39 -55c41.333 0 62 38.333 62 115c0 51.333 -17.667 130 -53 236l39 16c39.333 -91.333 59 -175.333 59 -252c0 -15.333 -0.666992 -30.333 -2 -45s-2 -21.667 -2 -21
c0 -32.667 13.333 -49 40 -49c40.667 0 61 39 61 117c0 70.667 -18 147.334 -54 230.001l39 20c40.667 -77.333 61 -161 61 -251zM285.002 613.999c0 -31.333 -16.333 -47 -49 -47s-49 15.667 -49 47c0 33.333 16.333 50 49 50s49 -16.667 49 -50zM343.002 522.999
c0 -31.333 -17 -47 -51 -47c-32 0 -48 15.667 -48 47c0 33.333 16 50 48 50c34 0 51 -16.667 51 -50zM228.002 522.999c0 -31.333 -16.667 -47 -50 -47c-32.667 0 -49 15.667 -49 47c0 33.333 16.333 50 49 50c33.333 0 50 -16.667 50 -50z" />
    <glyph glyph-name="uFEB8" unicode="&#x634;" horiz-adv-x="508" arabic-form="medial" 
d="M528 0l-46.998 -0.000976562c-18.667 0 -35.334 11 -50.001 33c-17.333 -22.667 -42.666 -34 -75.999 -34c-26 0 -47.333 11.667 -64 35c-24 -22.667 -49.667 -34 -77 -34c-28.667 0 -50.334 12 -65.001 36c-20.667 -24 -46.334 -36 -77.001 -36h-95v45h93
c45.333 0 68 40.333 68 121c0 67.333 -18.333 144 -55 230l42 16c39.333 -96 59 -179.667 59 -251c0 -15.333 -1 -29.833 -3 -43.5s-3 -19.5 -3 -17.5c0 -36.667 13 -55 39 -55c41.333 0 62 38.333 62 115c0 51.333 -17.333 130 -52 236l39 16
c39.333 -91.333 59 -175.333 59 -252c0 -15.333 -0.833008 -30.333 -2.5 -45s-2.5 -21.667 -2.5 -21c0 -32.667 13.333 -49 40 -49c40.667 0 61 39 61 117c0 70.667 -18 147.334 -54 230.001l39 20c40.667 -85.333 61 -168.333 61 -249
c0 -14.667 -0.833008 -29.667 -2.5 -45s-2.5 -23.333 -2.5 -24c0 -32.667 10.667 -49 32 -49h34v-45zM285.002 613.999c0 -31.333 -16.333 -47 -49 -47s-49 15.667 -49 47c0 33.333 16.333 50 49 50s49 -16.667 49 -50zM343.002 522.999c0 -31.333 -17 -47 -51 -47
c-32 0 -48 15.667 -48 47c0 33.333 16 50 48 50c34 0 51 -16.667 51 -50zM228.002 522.999c0 -31.333 -16.667 -47 -50 -47c-32.667 0 -49 15.667 -49 47c0 33.333 16.333 50 49 50c33.333 0 50 -16.667 50 -50z" />
    <glyph glyph-name="uFEBA" unicode="&#x635;" horiz-adv-x="1833" arabic-form="final" 
d="M1856 -1h-46c-22 0 -41.667 8.33301 -59 25c-14.667 -16.667 -48 -25 -100 -25h-241c-30.667 0 -53 10 -67 30c-34 -66.667 -69.333 -125.334 -106 -176.001c-74 -103.333 -175.333 -209.333 -304 -318c-186 -157.333 -348.333 -236 -487 -236
c-134.667 0 -248 39.667 -340 119c-70.667 61.333 -106 112.333 -106 153l40 20c0 -34 30 -78.667 90 -134c82.667 -76 188 -114 316 -114c123.333 0 274 74.333 452 223c132.667 110 229 208.667 289 296c56.667 82.667 91 134.667 103 156c28.667 52 43 100.667 43 146
c0 76 -19 151.667 -57 227l42 20c22 -42 40 -102.333 54 -181c6 -34.667 7.66699 -65.667 5 -93c-4.66699 -39.333 -7 -55.666 -7 -48.999c0 -10 2.66699 -19.667 8 -29l8 -15c2.66699 15.333 14.334 37 35.001 65l167 227c33.333 45.333 65.333 68 96 68
c21.333 0 40.666 -10.333 57.999 -31c23.333 -28.667 35 -71.667 35 -129v-121c0 -14 -1.66699 -29.333 -5 -46c6.66699 -22 20.667 -33 42 -33h42v-45zM1731 118l-0.000976562 109c0 88 -15.667 132 -47 132c-15.333 0 -44.666 -29.333 -87.999 -88l-142 -193
c-4.66699 -5.33301 -12 -16.666 -22 -33.999h226c28.667 0 47 3.33301 55 10c12 9.33301 18 30.666 18 63.999z" />
    <glyph glyph-name="uFEBB" unicode="&#x635;" horiz-adv-x="590" arabic-form="initial" 
d="M590 124c0 -54.667 -10.667 -90.001 -32 -106.001c-15.333 -12 -46.333 -18 -93 -18h-242c-31.333 0 -54 11 -68 33c-19.333 -22 -45 -33 -77 -33h-101v45h99c46.667 0 70 40.333 70 121c0 63.333 -19 140 -57 230l42 16c40.667 -98.667 61 -184 61 -256
c0 -13.333 -2 -32 -6 -56c-3.33301 -23.333 1 -41.666 13 -54.999c-4.66699 5.33301 7.33301 27 36 65l166 227c33.333 45.333 65.333 68 96 68c22 0 41.333 -10.333 58 -31c23.333 -28 35 -71 35 -129v-121zM544 119.999l-0.00195312 107.999c0 88 -15.667 132 -47 132
c-15.333 0 -44.666 -29 -87.999 -87l-142 -194c-4 -5.33301 -11.333 -16.666 -22 -33.999h226c28.667 0 47.334 3.33301 56.001 10c11.333 9.33301 17 31 17 65z" />
    <glyph glyph-name="uFEBC" unicode="&#x635;" horiz-adv-x="642" arabic-form="medial" 
d="M665 0l-46 -0.000976562c-22.667 0 -42.334 8.33301 -59.001 25c-15.333 -16.667 -48.666 -25 -99.999 -25h-242c-30.667 0 -53 11 -67 33c-20 -22 -45.667 -33 -77 -33h-97v45h94c46.667 0 70 40.333 70 121c0 63.333 -19 140 -57 230l42 16
c40.667 -98 61 -183.333 61 -256c0 -14 -0.833008 -27.333 -2.5 -40s-2.5 -18 -2.5 -16c0 -31.333 3 -49.666 9 -54.999c-2.66699 5.33301 10.333 27 39 65l167 227c33.333 45.333 65 68 95 68c22 0 41.333 -10.333 58 -31c23.333 -28 35 -71 35 -129v-121
c0 -14 -1.33301 -29.333 -4 -46c6 -22 19.667 -33 41 -33h43v-45zM539 119.999v107.999c0 88 -15.667 132 -47 132c-15.333 0 -44.333 -29 -87 -87l-143 -194c-4 -5.33301 -11.333 -16.666 -22 -33.999h227c28.667 0 47 3.33301 55 10c11.333 9.33301 17 31 17 65z" />
    <glyph glyph-name="uFEBE" unicode="&#x636;" horiz-adv-x="1835" arabic-form="final" 
d="M1856 0l-46 0.00195312c-22 0 -41.667 8.33301 -59 25c-14.667 -16.667 -48 -25 -100 -25h-241c-30.667 0 -53 10 -67 30c-34 -66.667 -69.333 -125.334 -106 -176.001c-74 -103.333 -175.333 -209.333 -304 -318c-186 -157.333 -348.333 -236 -487 -236
c-134.667 0 -248 40 -340 120c-70.667 60.667 -106 111.334 -106 152.001l40 20c0 -34 30 -78.333 90 -133c82.667 -76 188 -114 316 -114c123.333 0 274 74 452 222c132.667 110 229 208.667 289 296c56.667 82.667 91 134.667 103 156c28.667 52 43 101 43 147
c0 75.333 -19 150.666 -57 225.999l42 20c22 -42 40 -102.333 54 -181c6 -34.667 7.66699 -65.334 5 -92.001c-4.66699 -40 -7 -56.667 -7 -50c0 -9.33301 2.66699 -19 8 -29l8 -15c2.66699 15.333 14.334 37 35.001 65l167 227c33.333 45.333 65.333 68 96 68
c21.333 0 40.666 -10.333 57.999 -31c23.333 -28 35 -71 35 -129v-121c0 -14 -1.66699 -29.333 -5 -46c6.66699 -22 20.667 -33 42 -33h42v-45zM1731 120.002l-0.000976562 107.999c0 88 -15.667 132 -47 132c-15.333 0 -44.666 -29 -87.999 -87l-142 -194
c-4.66699 -5.33301 -12 -16.666 -22 -33.999h226c28.667 0 47 3.33301 55 10c12 9.33301 18 31 18 65zM1551 558.001c0 -33.333 -16.333 -50 -49 -50c-32 0 -48 16.667 -48 50c0 31.333 16 47 48 47c32.667 0 49 -15.667 49 -47z" />
    <glyph glyph-name="uFEBF" unicode="&#x636;" horiz-adv-x="589" arabic-form="initial" 
d="M590 124c0 -54.667 -10.667 -90.001 -32 -106.001c-15.333 -12 -46.333 -18 -93 -18h-242c-31.333 0 -54 11 -68 33c-19.333 -22 -45 -33 -77 -33h-101v45h99c46.667 0 70 40.333 70 121c0 63.333 -19 140 -57 230l42 16c40.667 -98.667 61 -184 61 -256
c0 -13.333 -2 -32 -6 -56c-3.33301 -23.333 1 -41.666 13 -54.999c-4.66699 5.33301 7.33301 27 36 65l166 227c33.333 45.333 65.333 68 96 68c22 0 41.333 -10.333 58 -31c23.333 -28 35 -71 35 -129v-121zM544 119.999l-0.00195312 107.999c0 88 -15.667 132 -47 132
c-15.333 0 -44.666 -29 -87.999 -87l-142 -194c-4 -5.33301 -11.333 -16.666 -22 -33.999h226c28.667 0 47.334 3.33301 56.001 10c11.333 9.33301 17 31 17 65zM383.998 557.998c0 -33.333 -16.667 -50 -50 -50c-32 0 -48 16.667 -48 50c0 31.333 16 47 48 47
c33.333 0 50 -15.667 50 -47z" />
    <glyph glyph-name="uFEC0" unicode="&#x636;" horiz-adv-x="642" arabic-form="medial" 
d="M665 0l-46 -0.000976562c-22.667 0 -42.334 8.33301 -59.001 25c-15.333 -16.667 -48.666 -25 -99.999 -25h-242c-30.667 0 -53 11 -67 33c-20 -22 -45.667 -33 -77 -33h-97v45h94c46.667 0 70 40.333 70 121c0 63.333 -19 140 -57 230l42 16
c40.667 -98 61 -183.333 61 -256c0 -14 -0.833008 -27.333 -2.5 -40s-2.5 -18 -2.5 -16c0 -31.333 3 -49.666 9 -54.999c-2.66699 5.33301 10.333 27 39 65l167 227c33.333 45.333 65 68 95 68c22 0 41.333 -10.333 58 -31c23.333 -28 35 -71 35 -129v-121
c0 -14 -1.33301 -29.333 -4 -46c6 -22 19.667 -33 41 -33h43v-45zM539 119.999v107.999c0 88 -15.667 132 -47 132c-15.333 0 -44.333 -29 -87 -87l-143 -194c-4 -5.33301 -11.333 -16.666 -22 -33.999h227c28.667 0 47 3.33301 55 10c11.333 9.33301 17 31 17 65z
M384 557.998c0 -33.333 -16.667 -50 -50 -50c-32 0 -48 16.667 -48 50c0 31.333 16 47 48 47c33.333 0 50 -15.667 50 -47z" />
    <glyph glyph-name="uFEC2" unicode="&#x637;" horiz-adv-x="542" arabic-form="final" 
d="M588 0h-46c-22 -0 -41.667 8.33301 -59 25c-14 -16.667 -49.667 -25 -107 -25h-225c-24 -0 -36 9.33301 -36 28c0 18 12.333 45.333 37 82l152 227c119.333 178.667 179 363 179 553c0 62 -15.333 122 -46 180c-52.667 99.333 -143 175 -271 227l18 39
c228.667 -96 343 -247 343 -453c0 -163.333 -41.667 -322.333 -125 -477c2 0.666992 6 1 12 1c22 0 41.667 -10.667 59 -32c23.333 -28.667 34.666 -72 33.999 -130l-1 -120c2.66699 -19.333 2.33398 -35.333 -0.999023 -48c6 -21.333 19.333 -32 40 -32h43v-45zM461 120
v108c0 91.333 -16.667 137 -50 137c-19.333 0 -44.333 -22.333 -75 -67l-152 -219c-11.333 -16.667 -18 -28 -20 -34h225c28.667 0 47 3.33301 55 10c11.333 9.33301 17 31 17 65z" />
    <glyph glyph-name="uFEC3" unicode="&#x637;" horiz-adv-x="391" arabic-form="initial" 
d="M411 883c0 -163.333 -41.998 -322.333 -125.998 -477c2.66699 0.666992 7 1 13 1c21.333 0 40.666 -10.667 57.999 -32c23.333 -28.667 35 -72 35 -130v-121c0 -52 -9 -86.333 -27 -103c-16 -14 -48.667 -21 -98 -21h-290v45h23c4.66699 14 17 35.667 37 65l151 227
c120 178.667 180 363 180 553c0 62 -15.333 122 -46 180c-52.667 99.333 -143.334 175 -272.001 227l19 39c228.667 -96 343 -247 343 -453zM345.002 120l0.000976562 108c0 91.333 -17 137 -51 137c-18.667 0 -43.334 -22.333 -74.001 -67l-152 -219
c-12 -16.667 -19 -28 -21 -34h226c28 0 46.333 3.33301 55 10c11.333 9.33301 17 31 17 65z" />
    <glyph glyph-name="uFEC4" unicode="&#x637;" horiz-adv-x="451" arabic-form="medial" 
d="M474 0h-45.999c-22.667 -0 -42.334 8.33301 -59.001 25c-14 -16.667 -49.667 -25 -107 -25h-284v45h23c4.66699 14 17 35.667 37 65l152 227c119.333 178.667 179 363 179 553c0 62 -15.333 122 -46 180c-52.667 99.333 -143 175 -271 227l18 39
c228.667 -96 343 -247 343 -453c0 -163.333 -42 -322.333 -126 -477c2.66699 0.666992 7 1 13 1c22 0 41.667 -10.667 59 -32c23.333 -28.667 34.666 -72 33.999 -130l-1 -120c2.66699 -19.333 2.33398 -35.333 -0.999023 -48c6 -21.333 19.333 -32 40 -32h43v-45z
M347.001 120v108c0 91.333 -16.667 137 -50 137c-19.333 0 -44.333 -22.333 -75 -67l-152 -219c-12 -16.667 -19 -28 -21 -34h226c28.667 0 47 3.33301 55 10c11.333 9.33301 17 31 17 65z" />
    <glyph glyph-name="uFEC6" unicode="&#x638;" horiz-adv-x="543" arabic-form="final" 
d="M588 0h-46c-22 -0 -41.667 8.33301 -59 25c-14 -16.667 -49.667 -25 -107 -25h-225c-24 -0 -36 9.33301 -36 28c0 18 12.333 45.333 37 82l152 227c119.333 178.667 179 363 179 553c0 62 -15.333 122 -46 180c-52.667 99.333 -143 175 -271 227l18 39
c228.667 -96 343 -247 343 -453c0 -163.333 -41.667 -322.333 -125 -477c2 0.666992 6 1 12 1c22 0 41.667 -10.667 59 -32c23.333 -28.667 34.666 -72 33.999 -130l-1 -120c2.66699 -19.333 2.33398 -35.333 -0.999023 -48c6 -21.333 19.333 -32 40 -32h43v-45zM461 120
v108c0 91.333 -16.667 137 -50 137c-19.333 0 -44.333 -22.333 -75 -67l-152 -219c-11.333 -16.667 -18 -28 -20 -34h225c28.667 0 47 3.33301 55 10c11.333 9.33301 17 31 17 65zM310 555c0 -32.667 -16.667 -49 -50 -49c-32 0 -48 16.333 -48 49c0 32 16 48 48 48
c33.333 0 50 -16 50 -48z" />
    <glyph glyph-name="uFEC7" unicode="&#x638;" horiz-adv-x="391" arabic-form="initial" 
d="M411 883c0 -163.333 -41.998 -322.333 -125.998 -477c2.66699 0.666992 7 1 13 1c21.333 0 40.666 -10.667 57.999 -32c23.333 -28.667 35 -72 35 -130v-121c0 -52 -9 -86.333 -27 -103c-16 -14 -48.667 -21 -98 -21h-290v45h23c4.66699 14 17 35.667 37 65l151 227
c120 178.667 180 363 180 553c0 62 -15.333 122 -46 180c-52.667 99.333 -143.334 175 -272.001 227l19 39c228.667 -96 343 -247 343 -453zM345.002 120l0.000976562 108c0 91.333 -17 137 -51 137c-18.667 0 -43.334 -22.333 -74.001 -67l-152 -219
c-12 -16.667 -19 -28 -21 -34h226c28 0 46.333 3.33301 55 10c11.333 9.33301 17 31 17 65zM194.003 558c0 -33.333 -16.333 -50 -49 -50c-32 0 -48 16.667 -48 50c0 31.333 16 47 48 47c32.667 0 49 -15.667 49 -47z" />
    <glyph glyph-name="uFEC8" unicode="&#x638;" horiz-adv-x="451" arabic-form="medial" 
d="M474 0h-45.999c-22.667 -0 -42.334 8.33301 -59.001 25c-14 -16.667 -49.667 -25 -107 -25h-284v45h23c4.66699 14 17 35.667 37 65l152 227c119.333 178.667 179 363 179 553c0 62 -15.333 122 -46 180c-52.667 99.333 -143 175 -271 227l18 39
c228.667 -96 343 -247 343 -453c0 -163.333 -42 -322.333 -126 -477c2.66699 0.666992 7 1 13 1c22 0 41.667 -10.667 59 -32c23.333 -28.667 34.666 -72 33.999 -130l-1 -120c2.66699 -19.333 2.33398 -35.333 -0.999023 -48c6 -21.333 19.333 -32 40 -32h43v-45z
M347.001 120v108c0 91.333 -16.667 137 -50 137c-19.333 0 -44.333 -22.333 -75 -67l-152 -219c-12 -16.667 -19 -28 -21 -34h226c28.667 0 47 3.33301 55 10c11.333 9.33301 17 31 17 65zM194.001 558c0 -33.333 -16.333 -50 -49 -50c-32 0 -48 16.667 -48 50
c0 31.333 16 47 48 47c32.667 0 49 -15.667 49 -47z" />
    <glyph glyph-name="uFECA" unicode="&#x639;" horiz-adv-x="620" arabic-form="final" 
d="M643 0l-47.001 -0.000976562c-66 0 -133.333 18.667 -202 56l-142 -62c-55.333 -26 -83 -61.667 -83 -107c0 -47.333 22.333 -92.666 67 -135.999c27.333 -25.333 77.333 -61 150 -107c56.667 -36 104.334 -84.333 143.001 -145c34 -53.333 51 -96.666 51 -129.999
l-41 -6c-17.333 91.333 -77 173.333 -179 246l-124 82c-74 62.667 -111 128 -111 196c0 57.333 30 102 90 134l135 61c-89.333 63.333 -134 138.333 -134 225c0 69.333 21 104 63 104c16.667 0 49.667 -11 99 -33l96 -41c56.667 -24.667 85 -53.334 85 -86.001
c0 -55.333 -40 -111 -120 -167c56.667 -26 109 -39 157 -39h47v-45zM513.999 250.999c0 11.333 -14.6689 23.333 -44.002 36l-130 59c-27.333 12.667 -45 19 -53 19c-17.333 0 -26 -18.333 -26 -55c0 -40 14.333 -80 43 -120c24.667 -34.667 54.334 -62 89.001 -82
c24.667 12.667 49.334 32 74.001 58c31.333 32.667 47 61 47 85z" />
    <glyph glyph-name="uFECB" unicode="&#x639;" horiz-adv-x="532" arabic-form="initial" 
d="M513 0h-535.999v45h285c-138.667 58.667 -208 147.667 -208 267c0 64.667 22.667 97 68 97c40 0 127.667 -40 263 -120l-22 -37c-134.667 76.667 -214.334 115 -239.001 115c-16.667 0 -25 -18.333 -25 -55c0 -88.667 48.333 -158 145 -208
c76 -39.333 157.667 -59 245 -59h24c18.667 0 28 -7.66699 28 -23c0 -14.667 -9.33301 -22 -28 -22z" />
    <glyph glyph-name="uFECC" unicode="&#x639;" horiz-adv-x="436" arabic-form="medial" 
d="M460 0h-46c-66.667 0 -133.667 18.667 -201 56c-83.333 -37.333 -147 -56 -191 -56h-45v45h48c43.333 0 90.333 12.667 141 38c-88 64.667 -132 139.334 -132 224.001c0 69.333 21 104 63 104c16.667 0 50 -11 100 -33l95 -41c56.667 -24.667 85 -53.334 85 -86.001
c0 -55.333 -39.667 -111 -119 -167c54.667 -24.667 106 -38 154 -40c9.33301 0 25.333 0.333008 48 1v-45zM332 251c0 11.333 -14.333 23.333 -43 36l-130 59c-28 12.667 -45.667 19 -53 19c-18 0 -27 -18.333 -27 -55c0 -40 14.333 -80 43 -120
c24.667 -34.667 54.667 -62 90 -82c24 12.667 48.667 32 74 58c30.667 32.667 46 61 46 85z" />
    <glyph glyph-name="uFECE" unicode="&#x63a;" horiz-adv-x="622" arabic-form="final" 
d="M643 0l-47.001 -0.000976562c-66 0 -133.333 18.667 -202 56l-142 -62c-55.333 -26 -83 -61.667 -83 -107c0 -47.333 22.333 -92.666 67 -135.999c27.333 -25.333 77.333 -61 150 -107c56.667 -36 104.334 -84.333 143.001 -145c34 -53.333 51 -96.666 51 -129.999
l-41 -6c-17.333 91.333 -77 173.333 -179 246l-124 82c-74 62.667 -111 128 -111 196c0 57.333 30 102 90 134l135 61c-89.333 63.333 -134 138.333 -134 225c0 69.333 21 104 63 104c16.667 0 49.667 -11 99 -33l96 -41c56.667 -24.667 85 -53.334 85 -86.001
c0 -55.333 -40 -111 -120 -167c56.667 -26 109 -39 157 -39h47v-45zM513.999 250.999c0 11.333 -14.6689 23.333 -44.002 36l-130 59c-27.333 12.667 -45 19 -53 19c-17.333 0 -26 -18.333 -26 -55c0 -40 14.333 -80 43 -120c24.667 -34.667 54.334 -62 89.001 -82
c24.667 12.667 49.334 32 74.001 58c31.333 32.667 47 61 47 85zM484.997 557.999c0 -33.333 -16.667 -50 -50 -50c-32 0 -48 16.667 -48 50c0 31.333 16 47 48 47c33.333 0 50 -15.667 50 -47z" />
    <glyph glyph-name="uFECF" unicode="&#x63a;" horiz-adv-x="532" arabic-form="initial" 
d="M513 0h-535.999v45h285c-138.667 58.667 -208 147.667 -208 267c0 64.667 22.667 97 68 97c40 0 127.667 -40 263 -120l-22 -37c-134.667 76.667 -214.334 115 -239.001 115c-16.667 0 -25 -18.333 -25 -55c0 -88.667 48.333 -158 145 -208
c76 -39.333 157.667 -59 245 -59h24c18.667 0 28 -7.66699 28 -23c0 -14.667 -9.33301 -22 -28 -22zM355.001 558c0 -33.333 -16.333 -50 -49 -50c-32 0 -48 16.667 -48 50c0 31.333 16 47 48 47c32.667 0 49 -15.667 49 -47z" />
    <glyph glyph-name="uFED0" unicode="&#x63a;" horiz-adv-x="436" arabic-form="medial" 
d="M460 0h-46c-66.667 0 -133.667 18.667 -201 56c-83.333 -37.333 -147 -56 -191 -56h-45v45h48c43.333 0 90.333 12.667 141 38c-88 64.667 -132 139.334 -132 224.001c0 69.333 21 104 63 104c16.667 0 50 -11 100 -33l95 -41c56.667 -24.667 85 -53.334 85 -86.001
c0 -55.333 -39.667 -111 -119 -167c54.667 -24.667 106 -38 154 -40c8.66699 0 24.667 0.333008 48 1v-45zM332 251c0 11.333 -14.333 23.333 -43 36l-130 59c-28 12.667 -45.667 19 -53 19c-18 0 -27 -18.333 -27 -55c0 -40 14.333 -80 43 -120
c24.667 -34.667 54.667 -62 90 -82c24 12.667 48.667 32 74 58c30.667 32.667 46 61 46 85zM269 558c0 -33.333 -16.333 -50 -49 -50c-32 0 -48 16.667 -48 50c0 31.333 16 47 48 47c32.667 0 49 -15.667 49 -47z" />
    <glyph glyph-name="uFED2" unicode="&#x641;" horiz-adv-x="825" arabic-form="final" 
d="M848 0l-46 0.000976562c-24.667 0 -44.334 11.333 -59.001 34c-22 -22.667 -49.667 -34 -83 -34h-433c-67.333 0 -101 60.333 -101 181c0 76.667 17.333 155 52 235l38 -22c-33.333 -78.667 -50 -156.334 -50 -233.001c0 -77.333 20.333 -116 61 -116h322
c-12 20 -18 41.667 -18 65c0 33.333 12 87 36 161c30.667 97.333 66 146 106 146c28.667 0 52.834 -26.667 72.501 -80s29.5 -120.333 29.5 -201c0 -18.667 -0.333008 -30.667 -1 -36c2 -36.667 10 -55 24 -55h50v-45zM730 128.001c0 54 -3.66602 100 -10.999 138
c-14.667 71.333 -30.334 107 -47.001 107c-20.667 0 -43.667 -42.333 -69 -127c-18 -58.667 -27 -104 -27 -136c0 -43.333 14.333 -65 43 -65h34c51.333 0 77 27.667 77 83zM713.001 558.001c0 -33.333 -16.333 -50 -49 -50s-49 16.667 -49 50c0 31.333 16.333 47 49 47
s49 -15.667 49 -47z" />
    <glyph glyph-name="uFED3" unicode="&#x641;" horiz-adv-x="350" arabic-form="initial" 
d="M350 136c0 -90.667 -39.332 -136 -117.999 -136h-255v45h146c-11.333 20 -17 41.667 -17 65c0 33.333 11.667 87 35 161c31.333 97.333 66.666 146 105.999 146c28.667 0 53 -26.667 73 -80s30 -120.333 30 -201zM305.001 128c0 54 -4 100 -12 138
c-14 71.333 -29.667 107 -47 107c-20.667 0 -43.667 -42.333 -69 -127c-17.333 -58.667 -26 -104 -26 -136c0 -43.333 14 -65 42 -65h35c51.333 0 77 27.667 77 83zM297.001 558c0 -33.333 -16.667 -50 -50 -50c-32 0 -48 16.667 -48 50c0 31.333 16 47 48 47
c33.333 0 50 -15.667 50 -47z" />
    <glyph glyph-name="uFED4" unicode="&#x641;" horiz-adv-x="389" arabic-form="medial" 
d="M412 0h-36.999c-26 0 -46 12 -60 36c-21.333 -24 -50.333 -36 -87 -36h-251v45h146c-11.333 20 -17 41.667 -17 65c0 33.333 11.667 87 35 161c31.333 97.333 66.666 146 105.999 146c28.667 0 53 -26.667 73 -80s30 -120.333 30 -201
c0 -3.33301 -1.33301 -14.333 -4 -33c2.66699 -38.667 11 -58 25 -58h41v-45zM305.001 128c0 54 -4 100 -12 138c-14 71.333 -29.667 107 -47 107c-20.667 0 -43.667 -42.333 -69 -127c-17.333 -58.667 -26 -104 -26 -136c0 -43.333 14 -65 42 -65h35
c51.333 0 77 27.667 77 83zM297.001 558c0 -33.333 -16.667 -50 -50 -50c-32 0 -48 16.667 -48 50c0 31.333 16 47 48 47c33.333 0 50 -15.667 50 -47z" />
    <glyph glyph-name="uFED6" unicode="&#x642;" horiz-adv-x="1420" arabic-form="final" 
d="M1442 0l-115 -0.00195312c-20 -42 -50 -90.667 -90 -146c-72.667 -102 -174 -207.667 -304 -317c-186 -156.667 -348.333 -235 -487 -235c-134.667 0 -248 40 -340 120c-70.667 60.667 -106 111.667 -106 153l40 19c0 -33.333 30 -77.666 90 -132.999
c82.667 -76 188 -114 316 -114c123.333 0 274 73.667 452 221c132.667 110 229 208.333 289 295c18.667 26 47.667 71.667 87 137h-64c-58.667 0 -88 36.667 -88 110c0 32 12 84 36 156c30.667 93.333 66 140 106 140c29.333 0 54.333 -24.667 75 -74
c21.333 -52 30 -117.333 26 -196c-1.33301 -25.333 -8 -55.666 -20 -90.999h97v-45zM1320 132.998c0 54 -3.33203 98.333 -9.99902 133c-12.667 63.333 -28.334 95 -47.001 95c-23.333 0 -46.333 -38.333 -69 -115c-18 -58.667 -27 -104 -27 -136
c0 -43.333 14.333 -65 43 -65h87c15.333 36.667 23 66 23 88zM1373 559.998c0 -32.667 -16.333 -49 -49 -49c-33.333 0 -50 16.333 -50 49c0 31.333 16.667 47 50 47c32.667 0 49 -15.667 49 -47zM1263 559.998c0 -32.667 -16.667 -49 -50 -49c-32.667 0 -49 16.333 -49 49
c0 31.333 16.333 47 49 47c33.333 0 50 -15.667 50 -47z" />
    <glyph glyph-name="uFED7" unicode="&#x642;" horiz-adv-x="350" arabic-form="initial" 
d="M350 136c0 -90.667 -39.334 -135.999 -118.001 -135.999h-255v45h146c-11.333 20 -17 41.667 -17 65c0 39.333 11.333 94.666 34 165.999c30.667 94 66.334 141 107.001 141c28.667 0 53 -26.667 73 -80s30 -120.333 30 -201zM304.999 128.001c0 54 -4 100 -12 138
c-14 71.333 -29.667 107 -47 107c-20.667 0 -43.667 -42.333 -69 -127c-17.333 -58.667 -26 -104 -26 -136c0 -43.333 14 -65 42 -65h35c51.333 0 77 27.667 77 83zM352.999 560.001c0 -32.667 -16.333 -49 -49 -49c-33.333 0 -50 16.333 -50 49c0 31.333 16.667 47 50 47
c32.667 0 49 -15.667 49 -47zM242.999 560.001c0 -32.667 -16.667 -49 -50 -49c-32.667 0 -49 16.333 -49 49c0 31.333 16.333 47 49 47c33.333 0 50 -15.667 50 -47z" />
    <glyph glyph-name="uFED8" unicode="&#x642;" horiz-adv-x="399" arabic-form="medial" 
d="M423 0h-47.999c-26 0 -46 12 -60 36c-21.333 -24 -50.333 -36 -87 -36h-251v45h146c-11.333 20 -17 41.667 -17 65c0 33.333 11.667 87 35 161c31.333 97.333 66.666 146 105.999 146c28.667 0 53 -26.667 73 -80s30 -120.333 30 -201
c0 -3.33301 -1.33301 -14.333 -4 -33c2.66699 -38.667 11 -58 25 -58h52v-45zM305.001 128c0 54 -4 100 -12 138c-14 71.333 -29.667 107 -47 107c-20.667 0 -43.667 -42.333 -69 -127c-17.333 -58.667 -26 -104 -26 -136c0 -43.333 14 -65 42 -65h35
c51.333 0 77 27.667 77 83zM353.001 560c0 -32.667 -16.333 -49 -49 -49c-33.333 0 -50 16.333 -50 49c0 31.333 16.667 47 50 47c32.667 0 49 -15.667 49 -47zM243.001 560c0 -32.667 -16.667 -49 -50 -49c-32.667 0 -49 16.333 -49 49c0 31.333 16.333 47 49 47
c33.333 0 50 -15.667 50 -47z" />
    <glyph glyph-name="uFEDE" unicode="&#x644;" horiz-adv-x="1393" arabic-form="final" 
d="M1416 0l-45.998 -0.000976562c-8 0 -19.667 7.33301 -35 22c-8.66699 -39.333 -39.334 -95.666 -92.001 -168.999c-72.667 -101.333 -175 -207.333 -307 -318c-188 -157.333 -351.333 -236 -490 -236c-134.667 0 -248 39.667 -340 119
c-70.667 61.333 -106 112.333 -106 153l40 20c0 -34 30 -78.667 90 -134c82.667 -76 188 -114 316 -114c123.333 0 274.666 74.333 453.999 223c135.333 112 232 210.667 290 296c74.667 110 112 191 112 243v1222h45v-1242c1.33301 -26.667 11.333 -40 30 -40h39v-45z" />
    <glyph glyph-name="uFEDF" unicode="&#x644;" horiz-adv-x="103" arabic-form="initial" 
d="M103 98c0 -65.333 -25 -98 -75 -98h-51v45h51c20.667 0 31 18.667 31 56v1226h44v-1229z" />
    <glyph glyph-name="uFEE0" unicode="&#x644;" horiz-adv-x="161" arabic-form="medial" 
d="M184 0h-46c-18.667 0 -34.667 7 -48 21c-16.667 -14 -38.667 -21 -66 -21h-47v45h61c20.667 0 31 18.667 31 56v1226h45v-1226c0 -37.333 10.333 -56 31 -56h39v-45z" />
    <glyph glyph-name="uFEE2" unicode="&#x645;" horiz-adv-x="637" arabic-form="final" 
d="M660 0h-45.999c-36.667 0 -72.667 19.667 -108 59c-11.333 -39.333 -54.333 -59 -129 -59h-48c-42.667 0 -80 -13.333 -112 -40s-48 -59.667 -48 -99c0 -30.667 11.333 -73.667 34 -129l47 -111c24.667 -77.333 37 -157 37 -239v-87h-46v143c0 66 -19.167 142 -57.5 228
s-57.5 151 -57.5 195c0 56 18.333 98.667 55 128c14 12 44.667 27.667 92 47c-19.333 21.333 -29 55.333 -29 102c0 61.333 8.66699 119.333 26 174c20 61.333 48.333 92 85 92c34 0 66.667 -30 98 -90c27.333 -52.667 46.666 -113 57.999 -181
c31.333 -58.667 66 -88 104 -88h45v-45zM468.001 107c0 36.667 -12.333 86 -37 148c-26.667 67.333 -52 101 -76 101c-9.33301 0 -21 -14.333 -35 -43c-20.667 -43.333 -31 -102.333 -31 -177c0 -60.667 15.667 -91 47 -91h86c30.667 0 46 20.667 46 62z" />
    <glyph glyph-name="uFEE3" unicode="&#x645;" horiz-adv-x="336" arabic-form="initial" 
d="M336 107c0 -50 -15.3311 -82.001 -45.998 -96.001c-16 -7.33301 -46 -11 -90 -11h-48c-20.667 0 -41 13 -61 39c-18.667 -26 -37 -39 -55 -39h-59v45h47c19.333 0 33.666 20.667 42.999 62v-3c0 -1.33301 0.333008 0 1 4v31c0 62.667 8.33301 120.334 25 173.001
c20 61.333 48.333 92 85 92c37.333 0 73.666 -37 108.999 -111c32.667 -68 49 -130 49 -186zM291.002 106.999c0 39.333 -12.334 89.667 -37.001 151c-27.333 65.333 -52.666 98 -75.999 98c-9.33301 0 -21 -14.333 -35 -43c-20.667 -43.333 -31 -102.333 -31 -177
c0 -60.667 15.667 -91 47 -91h86c30.667 0 46 20.667 46 62z" />
    <glyph glyph-name="uFEE4" unicode="&#x645;" horiz-adv-x="460" arabic-form="medial" 
d="M483 0l-46 0.000976562c-36.667 0 -72.667 19.667 -108 59c-11.333 -39.333 -54.333 -59 -129 -59h-48c-20.667 0 -41 13 -61 39c-18 -26 -37.667 -39 -59 -39h-55v45h55c16.667 0 28.667 20.667 36 62v31c0 63.333 8.33301 121.333 25 174c20 61.333 48.333 92 85 92
c34.667 0 68 -30.667 100 -92c28 -54.667 46.333 -114.334 55 -179.001c32 -58.667 64.667 -88 98 -88h52v-45zM291 107.001c0 38.667 -12.333 88.667 -37 150c-26.667 66 -52 99 -76 99c-9.33301 0 -21 -14.333 -35 -43c-20.667 -43.333 -31 -102.333 -31 -177
c0 -60.667 15.667 -91 47 -91h86c30.667 0 46 20.667 46 62z" />
    <glyph glyph-name="uFEE6" unicode="&#x646;" horiz-adv-x="1426" arabic-form="final" 
d="M1449 0h-59.001c-27.333 0 -42.666 11 -45.999 33c-10.667 -41.333 -44.334 -101.333 -101.001 -180c-72.667 -102 -175 -208 -307 -318c-188 -157.333 -351.333 -236 -490 -236c-134.667 0 -248 39.667 -340 119c-70.667 61.333 -106 112.333 -106 153l40 20
c0 -33.333 30 -77 90 -131c82.667 -74.667 188 -112 316 -112c123.333 0 274.666 73.333 453.999 220c136.667 112 233.334 210 290.001 294c44.667 66 82.334 131 113.001 195c18.667 40 28 82 28 126c0 53.333 -18.667 127.333 -56 222l41 20c42 -90.667 63 -175 63 -253
c0 -16 -0.666992 -31.667 -2 -47c-6 -53.333 3.33301 -80 28 -80h44v-45zM1204 118c0 -32.667 -16.333 -49 -49 -49s-49 16.333 -49 49c0 32 16.333 48 49 48s49 -16 49 -48z" />
    <glyph glyph-name="uFEE7" unicode="&#x646;" horiz-adv-x="184" arabic-form="initial" 
d="M126 412c38 -88 57 -170.332 57 -246.999c0 -110 -35.333 -165 -106 -165h-110v45h108c44.667 0 67 36 67 108c0 71.333 -18.333 150.666 -55 237.999zM137 558.001c0 -33.333 -16.667 -50 -50 -50c-32 0 -48 16.667 -48 50c0 31.333 16 47 48 47
c33.333 0 50 -15.667 50 -47z" />
    <glyph glyph-name="uFEE8" unicode="&#x646;" horiz-adv-x="237" arabic-form="medial" 
d="M260 0h-52c-20 0 -38.333 10 -55 30c-18.667 -20 -40 -30 -64 -30h-112v45h106c39.333 0 59 35.667 59 107c0 73.333 -17.333 151.333 -52 234l39 21c38.667 -91.333 58 -179.333 58 -264c0 -22 -1.66699 -41.333 -5 -58c0 -26.667 8.66699 -40 26 -40h52v-45zM137 558
c0 -33.333 -16.667 -50 -50 -50c-32 0 -48 16.667 -48 50c0 31.333 16 47 48 47c33.333 0 50 -15.667 50 -47z" />
    <glyph glyph-name="uFEEA" unicode="&#x647;" horiz-adv-x="399" arabic-form="final" 
d="M422 0h-45.001c-62.667 -0 -94 46.333 -94 139c0 17.333 1.33301 43.333 4 78s4 59 4 73c0 48 -12.333 72 -37 72c-33.333 0 -58.666 -37 -75.999 -111c-5.33301 -24 -8 -49.667 -8 -77c0 -56.667 10 -114.667 30 -174h-44c-20 60 -30 118 -30 174c0 28 3 53.667 9 77
c24.667 103.333 65 155 121 155c54 0 81 -44.333 81 -133c0 -14.667 -0.833008 -37 -2.5 -67s-2.5 -51.667 -2.5 -65c0 -64 16.667 -96 50 -96h40v-45z" />
    <glyph glyph-name="uFEEB" unicode="&#x647;" horiz-adv-x="450" arabic-form="initial" 
d="M450 103c0 -68.667 -40.333 -103 -121 -103c-54 0 -95.667 7 -125 21c-25.333 -14 -50 -21 -74 -21h-153v45h167c-62 41.333 -93 89.333 -93 144c0 39.333 18.167 74.5 54.5 105.5s77.5 45.5 123.5 43.5l-51 51l29 32c43.333 -40 104.333 -101.667 183 -185
c40 -50 60 -94.333 60 -133zM406 101c0 39.333 -27.667 86.667 -83 142c1.33301 -10 2 -19.333 2 -28c0 -56 -25 -109.667 -75 -161c24 -6 50.333 -9 79 -9c51.333 0 77 18.667 77 56zM271 166.001c7.33301 16 11.001 32.335 11.001 49.002c0 52.667 -21.333 79 -64 79
c-26.667 0 -53 -10 -79 -30c-28 -22.667 -42 -48.334 -42 -77.001c0 -46 33.667 -85.333 101 -118c29.333 19.333 53.666 51.666 72.999 96.999z" />
    </font>
</defs>
</svg>
