<?xml version="1.0" standalone="no"?>
<!DOCTYPE svg PUBLIC "-//W3C//DTD SVG 1.1//EN" "http://www.w3.org/Graphics/SVG/1.1/DTD/svg11.dtd" >
<svg>
<metadata>
Created by FontForge 20090914 at Wed Oct 19 01:38:39 2011
 By www-data
(c) by Abolfazl Seilsepour - +98 912 591 3420  -  seilsepor@yahoo.com
</metadata>
<defs>
<font id="FarNaskh" horiz-adv-x="0" >
  <font-face 
    font-family="Far.Naskh"
    font-weight="400"
    font-stretch="normal"
    units-per-em="2048"
    panose-1="0 0 4 0 0 0 0 0 0 0"
    ascent="1638"
    descent="-410"
    bbox="-209.554 -1323 2284 1808"
    underline-thickness="80"
    underline-position="-660"
    unicode-range="U+0020-U+FEFC"
  />
<missing-glyph horiz-adv-x="1024" 
d="M128 0v1398h768v-1398h-768zM256 128h512v1142h-512v-1142z" />
    <glyph glyph-name="uE818" unicode="&#x651;&#x64b;" 
 />
    <glyph glyph-name="uFC5E" unicode="&#x651;&#x64c;" arabic-form="isolated" 
 />
    <glyph glyph-name="uFC5F" unicode="&#x651;&#x64d;" arabic-form="isolated" 
 />
    <glyph glyph-name="uFC60" unicode="&#x651;&#x64e;" arabic-form="isolated" 
 />
    <glyph glyph-name="uFC61" unicode="&#x651;&#x64f;" arabic-form="isolated" 
 />
    <glyph glyph-name="uFC62" unicode="&#x651;&#x650;" arabic-form="isolated" 
 />
    <glyph glyph-name="uFDF2" unicode="&#xfedf;&#xfee0;&#xfeea;" horiz-adv-x="1736" arabic-form="isolated" 
d="M918 1620c7.33301 0 13.0039 -2.66602 17.0039 -7.99902s7.66699 -10 11 -14c20.667 -33.333 36.667 -68.666 48 -105.999s17.5 -75 18.5 -113s-3.66699 -75.333 -14 -112s-27.5 -71.334 -51.5 -104.001c-2.66699 -7.33301 -7 -11 -13 -11c-4.66699 0 -6 4.66699 -4 14
c21.333 62 31.333 125.667 30 191c-0.666992 65.333 -20.334 124.666 -59.001 177.999v13c0 5.33301 0.166992 11.833 0.5 19.5s1.16602 15.167 2.49902 22.5s3.16602 13.833 5.49902 19.5s5.16602 9.16699 8.49902 10.5zM868.004 980.001v17.9961v9
c0 6.66699 -0.333008 10.334 -1 11.001v60c0 2.66699 0.833008 7.33398 2.5 14.001s3.83398 13.834 6.50098 21.501s5.5 14.834 8.5 21.501s5.83301 11.334 8.5 14.001v3c2 0 3 -1 3 -3l2 -37.5c0.666992 -12.333 1 -25.166 1 -38.499s0.166992 -26.333 0.5 -39
s0.833008 -25.334 1.5 -38.001c0 -13.333 4.16699 -23.5 12.5 -30.5s17.833 -10.833 28.5 -11.5s20.834 2.33301 30.501 9s15.5 17.334 17.5 32.001v79v45c0 11.333 0.333008 18.333 1 21s1.33398 5.66699 2.00098 9c2 20.667 5.33301 26.334 10 17.001
c5.33301 -6 8.33301 -14 9 -24c3.33301 -17.333 6.16602 -35.333 8.49902 -54s5.83301 -36 10.5 -52s11.5 -29.667 20.5 -41s21.833 -18.333 38.5 -21c11.333 0 17 5 17 15c0 2 -0.666992 8.5 -2 19.5l-4.5 39c-1.66699 15 -3.16699 31 -4.5 48s-2 32.5 -2 46.5
c-1.33301 4.66699 -1.5 10.667 -0.5 18s2.66699 13.666 5 18.999s5 8.16602 8 8.49902s5.83301 -4.16699 8.5 -13.5c9.33301 -28 17.166 -56.5 23.499 -85.5s10.833 -57.167 13.5 -84.5c0 -12.667 -1 -24.834 -3 -36.501s-5.5 -22 -10.5 -31s-11.833 -16.167 -20.5 -21.5
s-19.334 -8 -32.001 -8c-14 -1.33301 -27.5 2.5 -40.5 11.5s-22.5 20.167 -28.5 33.5c-6.66699 -17.333 -16.667 -32.5 -30 -45.5s-29 -19.5 -47 -19.5c-22 0 -39 6.33301 -51 19s-19 28 -21 46v28zM581.004 424.997c-2.66699 -2 -7 -4.8291 -13 -8.49609
s-15 -9.5 -27 -17.5l-51 -34l-82 -55.5l-120 -81.5c7.33301 -4 23.833 -8.16699 49.5 -12.5s53.834 -6.5 84.501 -6.5c33.333 0 65 3.16699 95 9.5s54 19.166 72 38.499c0.666992 10.667 1.33398 25.667 2.00098 45s0.666992 38.166 0 56.499
s-1.83398 34.166 -3.50098 47.499s-3.83398 19.666 -6.50098 18.999zM602.004 174.001c-8.66699 -17.333 -17.6641 -32.8271 -26.9971 -46.4941s-19.833 -25.334 -31.5 -35.001s-24.834 -17.834 -39.501 -24.501s-32 -11.667 -52 -15
c-11.333 -1.33301 -24.333 -2.33301 -39 -3s-31.667 -1 -51 -1c-38 0 -73.667 3.66699 -107 11s-59 19.666 -77 36.999c-18.667 18 -19.667 43.667 -3 77c20 41.333 46 78.5 78 111.5s67.167 63 105.5 90s78.333 51.833 120 74.5l121.5 66c6 6 8.66699 16.667 8 32
c-1.33301 17.333 1 29.333 7 36l20.5 51.5c7 17 15.167 34.167 24.5 51.5c0 2 2 6.66699 6 14c3.33301 3.33301 5.83301 4.5 7.5 3.5s3.5 -3.16699 5.5 -6.5c7.33301 -47.333 11.5 -92.833 12.5 -136.5s1.5 -87.5 1.5 -131.5s0.5 -88.167 1.5 -132.5
s4.83301 -89.5 11.5 -135.5c1.33301 -22.667 5.5 -45.167 12.5 -67.5s16.833 -42.5 29.5 -60.5s28.334 -32.5 47.001 -43.5s40 -16.5 64 -16.5c45.333 0 85 15 119 45c34.667 30.667 57.334 67 68.001 109c1.33301 42 0.5 83 -2.5 123s-6.5 79.833 -10.5 119.5l-11.5 119
c-3.66699 39.667 -5 80 -4 121s4.83301 83.167 11.5 126.5s18 88.666 34 135.999c1.33301 5.33301 3.66602 8.16602 6.99902 8.49902s5 -2.5 5 -8.5c12.667 -98.667 26 -194.5 40 -287.5s30.333 -187.833 49 -284.5c3.33301 -27.333 8.83301 -54.5 16.5 -81.5
s17.5 -52.167 29.5 -75.5s26.667 -44 44 -62s37.333 -31.5 60 -40.5s48.167 -13 76.5 -12s60.166 8.83301 95.499 23.5c-2 22.667 -6.66699 49 -14 79s-15.666 61.833 -24.999 95.5l-29 104.5c-10 36 -19 71.333 -27 106s-14.333 67.834 -19 99.501
s-6.33398 60.5 -5.00098 86.5c7.33301 58 13.333 103.5 18 136.5l11 76l5.5 36.5c1 6.66699 1.5 12.667 1.5 18c6.66699 10.667 12.167 17.5 16.5 20.5s8.16602 -3.16699 11.499 -18.5c8.66699 -56.667 17.834 -111.667 27.501 -165l29.5 -158l31 -156.5
c10.667 -52.333 21 -105.833 31 -160.5c3.33301 -19.333 6 -37.833 8 -55.5s3 -34.5 3 -50.5c0 -25.333 -1.66699 -48.833 -5 -70.5s-8 -42.834 -14 -63.501s-13.5 -41 -22.5 -61l-29.5 -63c-12 -9.33301 -28.167 -17.666 -48.5 -24.999s-42.5 -12.5 -66.5 -15.5
s-48.833 -3.33301 -74.5 -1s-49.834 8.5 -72.501 18.5c-25.333 12.667 -44.833 25.834 -58.5 39.501s-24.334 28.667 -32.001 45s-13.834 34.666 -18.501 54.999s-11 43.166 -19 68.499c-3.33301 -33.333 -11.833 -67.333 -25.5 -102s-31.667 -66.167 -54 -94.5
s-48.833 -51.5 -79.5 -69.5s-64.667 -27 -102 -27c-33.333 0 -62.5 6 -87.5 18s-46.333 28 -64 48s-32 43.167 -43 69.5s-19.667 54.166 -26 83.499s-10.666 58.833 -12.999 88.5s-3.5 58.167 -3.5 85.5z" />
    <glyph glyph-name="uFEF5" unicode="&#xfedf;&#xfe82;" horiz-adv-x="1079" arabic-form="isolated" 
d="M674 163c34 -3.33301 67.833 -4.00098 101.5 -2.00098s66.5 5.33301 98.5 10c0 4.66699 -1.33301 15.334 -4 32.001s-5.83398 33.834 -9.50098 51.501s-7.66699 33.5 -12 47.5s-8.16602 21 -11.499 21c-2 0 -5.5 -1.83301 -10.5 -5.5s-13.167 -11.334 -24.5 -23.001
l-48 -49zM587 163.999c4.66699 1.33301 9.17188 2.99316 13.5049 4.99316s9.66602 5.5 15.999 10.5s14.5 12.333 24.5 22s22.667 22.667 38 39l56.5 61.5l80.5 90c-62.667 126 -127.834 231.833 -195.501 317.5s-141.5 154.167 -221.5 205.5
c-1.33301 -6.66699 -2.66602 -14.667 -3.99902 -24s-3.5 -17.833 -6.5 -25.5s-7.16699 -13.167 -12.5 -16.5s-13 -2 -23 4c-32 28 -61 56.5 -87 85.5s-49 62.5 -69 100.5c-2 34 -0.333008 67 5 99s10.333 64.333 15 97c2.66699 12 7.83398 18.5 15.501 19.5
s15.5 -1.16699 23.5 -6.5c63.333 -38 120.166 -75.167 170.499 -111.5s95.833 -72.666 136.5 -108.999s77 -73.5 109 -111.5s61.667 -77.833 89 -119.5s53 -85.667 77 -132s48 -96.166 72 -149.499c11.333 40.667 17.833 81.5 19.5 122.5s1.66699 82.333 0 124
s-3.16699 83.334 -4.5 125.001s0.333984 83.5 5.00098 125.5l-23.5 30.5c-7.66699 10.333 -14.667 21 -21 32s-11.333 22.5 -15 34.5s-5.16699 24.667 -4.5 38c-2 8.66699 1 21.5 9 38.5s18 34.833 30 53.5s24.667 36.667 38 54s24 30.666 32 39.999
c3.33301 4.66699 6.83301 8.66699 10.5 12s6.5 5 8.5 5c6.66699 0 8 -7 4 -21c-6.66699 -21.333 -7.5 -40.666 -2.5 -57.999s13.333 -33.5 25 -48.5s25 -29.167 40 -42.5l43.5 -40c3.33301 -8.66699 3.5 -19 0.5 -31s-7.83301 -24.667 -14.5 -38
s-14.334 -26.833 -23.001 -40.5l-24 -38.5c-7.33301 -12 -13.5 -22.667 -18.5 -32s-7.16699 -16 -6.5 -20c2 -59.333 2 -111.333 0 -156s-5.16699 -83.667 -9.5 -117s-9.83301 -61.666 -16.5 -84.999s-13.667 -43.5 -21 -60.5s-14.833 -31.333 -22.5 -43l-21.5 -32.5
c13.333 -34 21.666 -70.167 24.999 -108.5s2.83301 -77.666 -1.5 -117.999s-12.166 -81 -23.499 -122s-25 -81.5 -41 -121.5l-67 -2.5c-27.333 -1 -57 -2.33301 -89 -4s-65.167 -3.16699 -99.5 -4.5s-67.5 -2.83301 -99.5 -4.5s-61.333 -3 -88 -4l-65 -2.5
c-2 8 -1.66699 22.333 1 43s6.83398 41.834 12.501 63.501s12.167 41.167 19.5 58.5s14.666 27 21.999 29c3.33301 0 12.666 0.666992 27.999 2s31.666 2.83301 48.999 4.5s33.666 3.33398 48.999 5.00098s24.666 3.16699 27.999 4.5zM123.005 1321.99
c-22.667 -10 -27 -4.33398 -13 16.999c28 32 56.833 56.833 86.5 74.5s61.5 27.167 95.5 28.5c20.667 0 40.667 -3.33301 60 -10s39.333 -10 60 -10c17.333 0 34.5 2.66699 51.5 8s33.167 12.333 48.5 21s29.166 18.167 41.499 28.5s22.5 20.5 30.5 30.5
c8 8.66699 13.5 12.834 16.5 12.501s1.83301 -6.5 -3.5 -18.5c-10 -20.667 -23.5 -41.167 -40.5 -61.5s-36.167 -38.5 -57.5 -54.5s-43.833 -29 -67.5 -39s-47.167 -15 -70.5 -15c-12.667 0 -24.167 1.33301 -34.5 4s-20.166 5.66699 -29.499 9s-18.5 6.33301 -27.5 9
s-18.5 4 -28.5 4c-24 0 -45.5 -4 -64.5 -12s-36.833 -16.667 -53.5 -26z" />
    <glyph glyph-name="uFEF6" unicode="&#xfee0;&#xfe82;" horiz-adv-x="1440" arabic-form="final" 
d="M384 762c-15.333 14 -33.835 32.8311 -55.502 56.498s-42.834 49.5 -63.501 77.5s-38.334 56.333 -53.001 85s-22.334 54.667 -23.001 78c4 30 6 55.667 6 77v54c0 14 1.16699 24.333 3.5 31s8.16602 10 17.499 10c18.667 -4.66699 39.834 -14.834 63.501 -30.501
s48 -34.5 73 -56.5s50.333 -46.167 76 -72.5l73 -78l63.5 -73l48 -57.5c28.667 -36 53.834 -76 75.501 -120s39 -89.667 52 -137s21.167 -95 24.5 -143s1 -93.667 -7 -137c-21.333 -115.333 -35.333 -114 -42 4c-3.33301 44.667 -11.333 87.334 -24 128.001
s-27.667 78.334 -45 113.001s-36.166 66.5 -56.499 95.5s-39.5 54.667 -57.5 77s-34.167 41 -48.5 56s-24.166 25.833 -29.499 32.5c0.666992 -29.333 -0.666016 -51.666 -3.99902 -66.999s-8.16602 -25.166 -14.499 -29.499s-14 -3.83301 -23 1.5
s-18.833 13.666 -29.5 24.999zM886.998 918.998c-8 48 -9.33398 95.834 -4.00098 143.501s13.333 95.5 24 143.5c0.666992 2 2 7.33301 4 16s4.33301 17.5 7 26.5s5.66699 17 9 24s6.66602 10.167 9.99902 9.5s6.66602 -6.66699 9.99902 -18s6.33301 -30.666 9 -57.999
l29.5 -208c10.333 -70.667 22.333 -141.667 36 -213s29.5 -142.833 47.5 -214.5s39 -142.5 63 -212.5c10 -29.333 22.833 -53.833 38.5 -73.5s36 -35.667 61 -48s55.5 -21 91.5 -26s79.667 -7.16699 131 -6.5v-199c-11.333 -1.33301 -22.166 -2.5 -32.499 -3.5
s-20.5 -1.5 -30.5 -1.5c-9.33301 0 -18.666 0.166992 -27.999 0.5s-18.666 0.833008 -27.999 1.5c-46 2.66699 -86.333 8.83398 -121 18.501s-64.667 25.5 -90 47.5s-46.666 51.667 -63.999 89s-31.333 85 -42 143c-1.33301 7.33301 -3 18.166 -5 32.499l-6.5 45
c-2.33301 15.667 -4.66602 30.5 -6.99902 44.5s-4.83301 24.333 -7.5 31c-10.667 -50.667 -25.834 -99.667 -45.501 -147s-43.5 -91 -71.5 -131s-60.167 -75.333 -96.5 -106s-76.833 -54.667 -121.5 -72c-4 -2.66699 -11.667 -5.83398 -23 -9.50098
s-30.166 -8.5 -56.499 -14.5s-62 -13.667 -107 -23l-175.5 -35c-8.66699 -1.33301 -18.667 -2.5 -30 -3.5s-20 -1 -26 0s-7.33301 3.66699 -4 8s15.666 11.5 36.999 21.5l113.5 52c39 18.667 78.167 39.334 117.5 62.001s78 47.167 116 73.5s74.333 55.166 109 86.499
c20 18 42.833 40.333 68.5 67s49.5 55.667 71.5 87s40 63.5 54 96.5s19.333 65.167 16 96.5c-2.66699 25.333 -7.83398 66.166 -15.501 122.499s-19.5 134.5 -35.5 234.5zM101.997 1323c-22.667 -10 -27 -4.33398 -13 16.999c28 32 56.833 56.833 86.5 74.5
s61.5 27.167 95.5 28.5c20.667 0 40.667 -3.33301 60 -10s39.333 -10 60 -10c17.333 0 34.5 2.66699 51.5 8s33.167 12.333 48.5 21s29.166 18.167 41.499 28.5s22.5 20.5 30.5 30.5c8 8.66699 13.5 12.834 16.5 12.501s1.83301 -6.5 -3.5 -18.5
c-10 -20.667 -23.5 -41.167 -40.5 -61.5s-36.167 -38.5 -57.5 -54.5s-43.833 -29 -67.5 -39s-47.167 -15 -70.5 -15c-12.667 0 -24.167 1.33301 -34.5 4s-20.166 5.66699 -29.499 9s-18.5 6.33301 -27.5 9s-18.5 4 -28.5 4c-24 0 -45.5 -4 -64.5 -12
s-36.833 -16.667 -53.5 -26z" />
    <glyph glyph-name="uFEF7" unicode="&#xfedf;&#xfe84;" horiz-adv-x="929" arabic-form="isolated" 
d="M599 163c34 -3.33301 67.833 -4.00098 101.5 -2.00098s66.5 5.33301 98.5 10c0 4.66699 -1.33301 15.334 -4 32.001s-5.83398 33.834 -9.50098 51.501s-7.66699 33.5 -12 47.5s-8.16602 21 -11.499 21c-2 0 -5.5 -1.83301 -10.5 -5.5s-13.167 -11.334 -24.5 -23.001
l-48 -49zM512 163.999c4.66699 1.33301 9.17188 2.99316 13.5049 4.99316s9.66602 5.5 15.999 10.5s14.5 12.333 24.5 22s22.667 22.667 38 39l56.5 61.5l80.5 90c-62.667 126 -127.834 231.833 -195.501 317.5s-141.5 154.167 -221.5 205.5
c-1.33301 -6.66699 -2.66602 -14.667 -3.99902 -24s-3.5 -17.833 -6.5 -25.5s-7.16699 -13.167 -12.5 -16.5s-13 -2 -23 4c-32 28 -61 56.5 -87 85.5s-49 62.5 -69 100.5c-2 34 -0.333008 67 5 99s10.333 64.333 15 97c2.66699 12 7.83398 18.5 15.501 19.5
s15.5 -1.16699 23.5 -6.5c63.333 -38 120.166 -75.167 170.499 -111.5s95.833 -72.666 136.5 -108.999s77 -73.5 109 -111.5s61.667 -77.833 89 -119.5s53 -85.667 77 -132s48 -96.166 72 -149.499c11.333 40.667 17.833 81.5 19.5 122.5s1.66699 82.333 0 124
s-3.16699 83.334 -4.5 125.001s0.333984 83.5 5.00098 125.5l-23.5 30.5c-7.66699 10.333 -14.667 21 -21 32s-11.333 22.5 -15 34.5s-5.16699 24.667 -4.5 38c-2 8.66699 1 21.5 9 38.5s18 34.833 30 53.5s24.667 36.667 38 54s24 30.666 32 39.999
c3.33301 4.66699 6.83301 8.66699 10.5 12s6.5 5 8.5 5c6.66699 0 8 -7 4 -21c-6.66699 -21.333 -7.5 -40.666 -2.5 -57.999s13.333 -33.5 25 -48.5s25 -29.167 40 -42.5l43.5 -40c3.33301 -8.66699 3.5 -19 0.5 -31s-7.83301 -24.667 -14.5 -38
s-14.334 -26.833 -23.001 -40.5l-24 -38.5c-7.33301 -12 -13.5 -22.667 -18.5 -32s-7.16699 -16 -6.5 -20c2 -59.333 2 -111.333 0 -156s-5.16699 -83.667 -9.5 -117s-9.83301 -61.666 -16.5 -84.999s-13.667 -43.5 -21 -60.5s-14.833 -31.333 -22.5 -43l-21.5 -32.5
c13.333 -34 21.666 -70.167 24.999 -108.5s2.83301 -77.666 -1.5 -117.999s-12.166 -81 -23.499 -122s-25 -81.5 -41 -121.5l-67 -2.5c-27.333 -1 -57 -2.33301 -89 -4s-65.167 -3.16699 -99.5 -4.5s-67.5 -2.83301 -99.5 -4.5s-61.333 -3 -88 -4l-65 -2.5
c-2 8 -1.66699 22.333 1 43s6.83398 41.834 12.501 63.501s12.167 41.167 19.5 58.5s14.666 27 21.999 29c3.33301 0 12.666 0.666992 27.999 2s31.666 2.83301 48.999 4.5s33.666 3.33398 48.999 5.00098s24.666 3.16699 27.999 4.5zM114.005 1583.99
c4.66699 12.667 9.50195 26.6719 14.502 42.0049s10.5 30.666 16.5 45.999s12.833 30 20.5 44s16.5 26 26.5 36c10 8.66699 21.333 16.167 34 22.5s26 10.666 40 12.999s28 2.16602 42 -0.500977s27.333 -8.33398 40 -17.001c0 -4 -1.33301 -10 -4 -18
s-5.83398 -16.667 -9.50098 -26s-7.5 -18.333 -11.5 -27s-7.66699 -16 -11 -22c-6.66699 -8 -13 -9 -19 -3c-10 8 -20.667 13 -32 15s-22.5 1.5 -33.5 -1.5s-21.333 -7.66699 -31 -14s-18.5 -13.833 -26.5 -22.5c2.66699 -12 9.83398 -22.167 21.501 -30.5
s24.667 -14.833 39 -19.5s28.666 -8 42.999 -10s25.5 -3 33.5 -3c22 1.33301 44.167 5.66602 66.5 12.999s43.5 15 63.5 23c9.33301 3.33301 12 1.33301 8 -6c-8 -14 -16.167 -27.5 -24.5 -40.5l-29.5 -44.5c-23.333 -8 -47.5 -15.667 -72.5 -23
s-49.167 -15.833 -72.5 -25.5s-45.333 -21.5 -66 -35.5s-38.334 -31.333 -53.001 -52c-1.33301 -2.66699 -3.5 -4.16699 -6.5 -4.5s-3.83301 1.5 -2.5 5.5c2.66699 19.333 8 37.166 16 53.499s17 33.5 27 51.5c1.33301 2 1 4.33301 -1 7c-12 8.66699 -23 18.834 -33 30.501
s-14.333 26.167 -13 43.5z" />
    <glyph glyph-name="uFEF8" unicode="&#xfee0;&#xfe84;" horiz-adv-x="1388" arabic-form="final" 
d="M328 762c-15.333 14 -33.835 32.8311 -55.502 56.498s-42.834 49.5 -63.501 77.5s-38.334 56.333 -53.001 85s-22.334 54.667 -23.001 78c4 30 6 55.667 6 77v54c0 14 1.16699 24.333 3.5 31s8.16602 10 17.499 10c18.667 -4.66699 39.834 -14.834 63.501 -30.501
s48 -34.5 73 -56.5s50.333 -46.167 76 -72.5l73 -78l63.5 -73l48 -57.5c28.667 -36 53.834 -76 75.501 -120s39 -89.667 52 -137s21.167 -95 24.5 -143s1 -93.667 -7 -137c-21.333 -115.333 -35.333 -114 -42 4c-3.33301 44.667 -11.333 87.334 -24 128.001
s-27.667 78.334 -45 113.001s-36.166 66.5 -56.499 95.5s-39.5 54.667 -57.5 77s-34.167 41 -48.5 56s-24.166 25.833 -29.499 32.5c0.666992 -29.333 -0.666016 -51.666 -3.99902 -66.999s-8.16602 -25.166 -14.499 -29.499s-14 -3.83301 -23 1.5
s-18.833 13.666 -29.5 24.999zM830.998 918.998c-8 48 -9.33398 95.834 -4.00098 143.501s13.333 95.5 24 143.5c0.666992 2 2 7.33301 4 16s4.33301 17.5 7 26.5s5.66699 17 9 24s6.66602 10.167 9.99902 9.5s6.66602 -6.66699 9.99902 -18s6.33301 -30.666 9 -57.999
l29.5 -208c10.333 -70.667 22.333 -141.667 36 -213s29.5 -142.833 47.5 -214.5s39 -142.5 63 -212.5c10 -29.333 22.833 -53.833 38.5 -73.5s36 -35.667 61 -48s55.5 -21 91.5 -26s79.667 -7.16699 131 -6.5v-199c-11.333 -1.33301 -22.166 -2.5 -32.499 -3.5
s-20.5 -1.5 -30.5 -1.5c-9.33301 0 -18.666 0.166992 -27.999 0.5s-18.666 0.833008 -27.999 1.5c-46 2.66699 -86.333 8.83398 -121 18.501s-64.667 25.5 -90 47.5s-46.666 51.667 -63.999 89s-31.333 85 -42 143c-1.33301 7.33301 -3 18.166 -5 32.499l-6.5 45
c-2.33301 15.667 -4.66602 30.5 -6.99902 44.5s-4.83301 24.333 -7.5 31c-10.667 -50.667 -25.834 -99.667 -45.501 -147s-43.5 -91 -71.5 -131s-60.167 -75.333 -96.5 -106s-76.833 -54.667 -121.5 -72c-4 -2.66699 -11.667 -5.83398 -23 -9.50098
s-30.166 -8.5 -56.499 -14.5s-62 -13.667 -107 -23l-175.5 -35c-8.66699 -1.33301 -18.667 -2.5 -30 -3.5s-20 -1 -26 0s-7.33301 3.66699 -4 8s15.666 11.5 36.999 21.5l113.5 52c39 18.667 78.167 39.334 117.5 62.001s78 47.167 116 73.5s74.333 55.166 109 86.499
c20 18 42.833 40.333 68.5 67s49.5 55.667 71.5 87s40 63.5 54 96.5s19.333 65.167 16 96.5c-2.66699 25.333 -7.83398 66.166 -15.501 122.499s-19.5 134.5 -35.5 234.5zM138.997 1553c4.66699 12.667 9.50195 26.6719 14.502 42.0049s10.5 30.666 16.5 45.999
s12.833 30 20.5 44s16.5 26 26.5 36c10 8.66699 21.333 16.167 34 22.5s26 10.666 40 12.999s28 2.16602 42 -0.500977s27.333 -8.33398 40 -17.001c0 -4 -1.33301 -10 -4 -18s-5.83398 -16.667 -9.50098 -26s-7.5 -18.333 -11.5 -27s-7.66699 -16 -11 -22
c-6.66699 -8 -13 -9 -19 -3c-10 8 -20.667 13 -32 15s-22.5 1.5 -33.5 -1.5s-21.333 -7.66699 -31 -14s-18.5 -13.833 -26.5 -22.5c2.66699 -12 9.83398 -22.167 21.501 -30.5s24.667 -14.833 39 -19.5s28.666 -8 42.999 -10s25.5 -3 33.5 -3
c22 1.33301 44.167 5.66602 66.5 12.999s43.5 15 63.5 23c9.33301 3.33301 12 1.33301 8 -6c-8 -14 -16.167 -27.5 -24.5 -40.5l-29.5 -44.5c-23.333 -8 -47.5 -15.667 -72.5 -23s-49.167 -15.833 -72.5 -25.5s-45.333 -21.5 -66 -35.5s-38.334 -31.333 -53.001 -52
c-1.33301 -2.66699 -3.5 -4.16699 -6.5 -4.5s-3.83301 1.5 -2.5 5.5c2.66699 19.333 8 37.166 16 53.499s17 33.5 27 51.5c1.33301 2 1 4.33301 -1 7c-12 8.66699 -23 18.834 -33 30.501s-14.333 26.167 -13 43.5z" />
    <glyph glyph-name="uFEF9" unicode="&#xfedf;&#xfe88;" horiz-adv-x="997" arabic-form="isolated" 
d="M605 163c34 -3.33301 67.833 -4.00098 101.5 -2.00098s66.5 5.33301 98.5 10c0 4.66699 -1.33301 15.334 -4 32.001s-5.83398 33.834 -9.50098 51.501s-7.66699 33.5 -12 47.5s-8.16602 21 -11.499 21c-2 0 -5.5 -1.83301 -10.5 -5.5s-13.167 -11.334 -24.5 -23.001
l-48 -49zM518 163.999c4.66699 1.33301 9.17188 2.99316 13.5049 4.99316s9.66602 5.5 15.999 10.5s14.5 12.333 24.5 22s22.667 22.667 38 39l56.5 61.5l80.5 90c-62.667 126 -127.834 231.833 -195.501 317.5s-141.5 154.167 -221.5 205.5
c-1.33301 -6.66699 -2.66602 -14.667 -3.99902 -24s-3.5 -17.833 -6.5 -25.5s-7.16699 -13.167 -12.5 -16.5s-13 -2 -23 4c-32 28 -61 56.5 -87 85.5s-49 62.5 -69 100.5c-2 34 -0.333008 67 5 99s10.333 64.333 15 97c2.66699 12 7.83398 18.5 15.501 19.5
s15.5 -1.16699 23.5 -6.5c63.333 -38 120.166 -75.167 170.499 -111.5s95.833 -72.666 136.5 -108.999s77 -73.5 109 -111.5s61.667 -77.833 89 -119.5s53 -85.667 77 -132s48 -96.166 72 -149.499c11.333 40.667 17.833 81.5 19.5 122.5s1.66699 82.333 0 124
s-3.16699 83.334 -4.5 125.001s0.333984 83.5 5.00098 125.5l-23.5 30.5c-7.66699 10.333 -14.667 21 -21 32s-11.333 22.5 -15 34.5s-5.16699 24.667 -4.5 38c-2 8.66699 1 21.5 9 38.5s18 34.833 30 53.5s24.667 36.667 38 54s24 30.666 32 39.999
c3.33301 4.66699 6.83301 8.66699 10.5 12s6.5 5 8.5 5c6.66699 0 8 -7 4 -21c-6.66699 -21.333 -7.5 -40.666 -2.5 -57.999s13.333 -33.5 25 -48.5s25 -29.167 40 -42.5l43.5 -40c3.33301 -8.66699 3.5 -19 0.5 -31s-7.83301 -24.667 -14.5 -38
s-14.334 -26.833 -23.001 -40.5l-24 -38.5c-7.33301 -12 -13.5 -22.667 -18.5 -32s-7.16699 -16 -6.5 -20c2 -59.333 2 -111.333 0 -156s-5.16699 -83.667 -9.5 -117s-9.83301 -61.666 -16.5 -84.999s-13.667 -43.5 -21 -60.5s-14.833 -31.333 -22.5 -43l-21.5 -32.5
c13.333 -34 21.666 -70.167 24.999 -108.5s2.83301 -77.666 -1.5 -117.999s-12.166 -81 -23.499 -122s-25 -81.5 -41 -121.5l-67 -2.5c-27.333 -1 -57 -2.33301 -89 -4s-65.167 -3.16699 -99.5 -4.5s-67.5 -2.83301 -99.5 -4.5s-61.333 -3 -88 -4l-65 -2.5
c-2 8 -1.66699 22.333 1 43s6.83398 41.834 12.501 63.501s12.167 41.167 19.5 58.5s14.666 27 21.999 29c3.33301 0 12.666 0.666992 27.999 2s31.666 2.83301 48.999 4.5s33.666 3.33398 48.999 5.00098s24.666 3.16699 27.999 4.5zM189.005 -444.008
c4.66699 12.667 9.50195 26.6719 14.502 42.0049s10.5 30.666 16.5 45.999s12.833 30 20.5 44s16.5 26 26.5 36c10 8.66699 21.333 16.167 34 22.5s26 10.666 40 12.999s28 2.16602 42 -0.500977s27.333 -8.33398 40 -17.001c0 -4 -1.33301 -10 -4 -18
s-5.83398 -16.667 -9.50098 -26s-7.5 -18.333 -11.5 -27s-7.66699 -16 -11 -22c-6.66699 -8 -13 -9 -19 -3c-10 8 -20.667 13 -32 15s-22.5 1.5 -33.5 -1.5s-21.333 -7.66699 -31 -14s-18.5 -13.833 -26.5 -22.5c2.66699 -12 9.83398 -22.167 21.501 -30.5
s24.667 -14.833 39 -19.5s28.666 -8 42.999 -10s25.5 -3 33.5 -3c22 1.33301 44.167 5.66602 66.5 12.999s43.5 15 63.5 23c9.33301 3.33301 12 1.33301 8 -6c-8 -14 -16.167 -27.5 -24.5 -40.5l-29.5 -44.5c-23.333 -8 -47.5 -15.667 -72.5 -23
s-49.167 -15.833 -72.5 -25.5s-45.333 -21.5 -66 -35.5s-38.334 -31.333 -53.001 -52c-1.33301 -2.66699 -3.5 -4.16699 -6.5 -4.5s-3.83301 1.5 -2.5 5.5c2.66699 19.333 8 37.166 16 53.499s17 33.5 27 51.5c1.33301 2 1 4.33301 -1 7c-12 8.66699 -23 18.834 -33 30.501
s-14.333 26.167 -13 43.5z" />
    <glyph glyph-name="uFEFA" unicode="&#xfee0;&#xfe88;" horiz-adv-x="1371" arabic-form="final" 
d="M317 762c-15.333 14 -33.835 32.8311 -55.502 56.498s-42.834 49.5 -63.501 77.5s-38.334 56.333 -53.001 85s-22.334 54.667 -23.001 78c4 30 6 55.667 6 77v54c0 14 1.16699 24.333 3.5 31s8.16602 10 17.499 10c18.667 -4.66699 39.834 -14.834 63.501 -30.501
s48 -34.5 73 -56.5s50.333 -46.167 76 -72.5l73 -78l63.5 -73l48 -57.5c28.667 -36 53.834 -76 75.501 -120s39 -89.667 52 -137s21.167 -95 24.5 -143s1 -93.667 -7 -137c-21.333 -115.333 -35.333 -114 -42 4c-3.33301 44.667 -11.333 87.334 -24 128.001
s-27.667 78.334 -45 113.001s-36.166 66.5 -56.499 95.5s-39.5 54.667 -57.5 77s-34.167 41 -48.5 56s-24.166 25.833 -29.499 32.5c0.666992 -29.333 -0.666016 -51.666 -3.99902 -66.999s-8.16602 -25.166 -14.499 -29.499s-14 -3.83301 -23 1.5
s-18.833 13.666 -29.5 24.999zM819.998 918.998c-8 48 -9.33398 95.834 -4.00098 143.501s13.333 95.5 24 143.5c0.666992 2 2 7.33301 4 16s4.33301 17.5 7 26.5s5.66699 17 9 24s6.66602 10.167 9.99902 9.5s6.66602 -6.66699 9.99902 -18s6.33301 -30.666 9 -57.999
l29.5 -208c10.333 -70.667 22.333 -141.667 36 -213s29.5 -142.833 47.5 -214.5s39 -142.5 63 -212.5c10 -29.333 22.833 -53.833 38.5 -73.5s36 -35.667 61 -48s55.5 -21 91.5 -26s79.667 -7.16699 131 -6.5v-199c-11.333 -1.33301 -22.166 -2.5 -32.499 -3.5
s-20.5 -1.5 -30.5 -1.5c-9.33301 0 -18.666 0.166992 -27.999 0.5s-18.666 0.833008 -27.999 1.5c-46 2.66699 -86.333 8.83398 -121 18.501s-64.667 25.5 -90 47.5s-46.666 51.667 -63.999 89s-31.333 85 -42 143c-1.33301 7.33301 -3 18.166 -5 32.499l-6.5 45
c-2.33301 15.667 -4.66602 30.5 -6.99902 44.5s-4.83301 24.333 -7.5 31c-10.667 -50.667 -25.834 -99.667 -45.501 -147s-43.5 -91 -71.5 -131s-60.167 -75.333 -96.5 -106s-76.833 -54.667 -121.5 -72c-4 -2.66699 -11.667 -5.83398 -23 -9.50098
s-30.166 -8.5 -56.499 -14.5s-62 -13.667 -107 -23l-175.5 -35c-8.66699 -1.33301 -18.667 -2.5 -30 -3.5s-20 -1 -26 0s-7.33301 3.66699 -4 8s15.666 11.5 36.999 21.5l113.5 52c39 18.667 78.167 39.334 117.5 62.001s78 47.167 116 73.5s74.333 55.166 109 86.499
c20 18 42.833 40.333 68.5 67s49.5 55.667 71.5 87s40 63.5 54 96.5s19.333 65.167 16 96.5c-2.66699 25.333 -7.83398 66.166 -15.501 122.499s-19.5 134.5 -35.5 234.5zM140.997 -578.001c4.66699 12.667 9.50195 26.6719 14.502 42.0049s10.5 30.666 16.5 45.999
s12.833 30 20.5 44s16.5 26 26.5 36c10 8.66699 21.333 16.167 34 22.5s26 10.666 40 12.999s28 2.16602 42 -0.500977s27.333 -8.33398 40 -17.001c0 -4 -1.33301 -10 -4 -18s-5.83398 -16.667 -9.50098 -26s-7.5 -18.333 -11.5 -27s-7.66699 -16 -11 -22
c-6.66699 -8 -13 -9 -19 -3c-10 8 -20.667 13 -32 15s-22.5 1.5 -33.5 -1.5s-21.333 -7.66699 -31 -14s-18.5 -13.833 -26.5 -22.5c2.66699 -12 9.83398 -22.167 21.501 -30.5s24.667 -14.833 39 -19.5s28.666 -8 42.999 -10s25.5 -3 33.5 -3
c22 1.33301 44.167 5.66602 66.5 12.999s43.5 15 63.5 23c9.33301 3.33301 12 1.33301 8 -6c-8 -14 -16.167 -27.5 -24.5 -40.5l-29.5 -44.5c-23.333 -8 -47.5 -15.667 -72.5 -23s-49.167 -15.833 -72.5 -25.5s-45.333 -21.5 -66 -35.5s-38.334 -31.333 -53.001 -52
c-1.33301 -2.66699 -3.5 -4.16699 -6.5 -4.5s-3.83301 1.5 -2.5 5.5c2.66699 19.333 8 37.166 16 53.499s17 33.5 27 51.5c1.33301 2 1 4.33301 -1 7c-12 8.66699 -23 18.834 -33 30.501s-14.333 26.167 -13 43.5z" />
    <glyph glyph-name="uFEFB" unicode="&#xfedf;&#xfe8e;" horiz-adv-x="992" arabic-form="isolated" 
d="M578 163c34 -3.33301 67.833 -4.00098 101.5 -2.00098s66.5 5.33301 98.5 10c0 4.66699 -1.33301 15.334 -4 32.001s-5.83398 33.834 -9.50098 51.501s-7.66699 33.5 -12 47.5s-8.16602 21 -11.499 21c-2 0 -5.5 -1.83301 -10.5 -5.5s-13.167 -11.334 -24.5 -23.001
l-48 -49zM491 163.999c4.66699 1.33301 9.17188 2.99316 13.5049 4.99316s9.66602 5.5 15.999 10.5s14.5 12.333 24.5 22s22.667 22.667 38 39l56.5 61.5l80.5 90c-62.667 126 -127.834 231.833 -195.501 317.5s-141.5 154.167 -221.5 205.5
c-1.33301 -6.66699 -2.66602 -14.667 -3.99902 -24s-3.5 -17.833 -6.5 -25.5s-7.16699 -13.167 -12.5 -16.5s-13 -2 -23 4c-32 28 -61 56.5 -87 85.5s-49 62.5 -69 100.5c-2 34 -0.333008 67 5 99s10.333 64.333 15 97c2.66699 12 7.83398 18.5 15.501 19.5
s15.5 -1.16699 23.5 -6.5c63.333 -38 120.166 -75.167 170.499 -111.5s95.833 -72.666 136.5 -108.999s77 -73.5 109 -111.5s61.667 -77.833 89 -119.5s53 -85.667 77 -132s48 -96.166 72 -149.499c11.333 40.667 17.833 81.5 19.5 122.5s1.66699 82.333 0 124
s-3.16699 83.334 -4.5 125.001s0.333984 83.5 5.00098 125.5l-23.5 30.5c-7.66699 10.333 -14.667 21 -21 32s-11.333 22.5 -15 34.5s-5.16699 24.667 -4.5 38c-2 8.66699 1 21.5 9 38.5s18 34.833 30 53.5s24.667 36.667 38 54s24 30.666 32 39.999
c3.33301 4.66699 6.83301 8.66699 10.5 12s6.5 5 8.5 5c6.66699 0 8 -7 4 -21c-6.66699 -21.333 -7.5 -40.666 -2.5 -57.999s13.333 -33.5 25 -48.5s25 -29.167 40 -42.5l43.5 -40c3.33301 -8.66699 3.5 -19 0.5 -31s-7.83301 -24.667 -14.5 -38
s-14.334 -26.833 -23.001 -40.5l-24 -38.5c-7.33301 -12 -13.5 -22.667 -18.5 -32s-7.16699 -16 -6.5 -20c2 -59.333 2 -111.333 0 -156s-5.16699 -83.667 -9.5 -117s-9.83301 -61.666 -16.5 -84.999s-13.667 -43.5 -21 -60.5s-14.833 -31.333 -22.5 -43l-21.5 -32.5
c13.333 -34 21.666 -70.167 24.999 -108.5s2.83301 -77.666 -1.5 -117.999s-12.166 -81 -23.499 -122s-25 -81.5 -41 -121.5l-67 -2.5c-27.333 -1 -57 -2.33301 -89 -4s-65.167 -3.16699 -99.5 -4.5s-67.5 -2.83301 -99.5 -4.5s-61.333 -3 -88 -4l-65 -2.5
c-2 8 -1.66699 22.333 1 43s6.83398 41.834 12.501 63.501s12.167 41.167 19.5 58.5s14.666 27 21.999 29c3.33301 0 12.666 0.666992 27.999 2s31.666 2.83301 48.999 4.5s33.666 3.33398 48.999 5.00098s24.666 3.16699 27.999 4.5z" />
    <glyph glyph-name="uFEFC" unicode="&#xfee0;&#xfe8e;" horiz-adv-x="1362" arabic-form="final" 
d="M305 762c-15.333 14 -33.835 32.8311 -55.502 56.498s-42.834 49.5 -63.501 77.5s-38.334 56.333 -53.001 85s-22.334 54.667 -23.001 78c4 30 6 55.667 6 77v54c0 14 1.16699 24.333 3.5 31s8.16602 10 17.499 10c18.667 -4.66699 39.834 -14.834 63.501 -30.501
s48 -34.5 73 -56.5s50.333 -46.167 76 -72.5l73 -78l63.5 -73l48 -57.5c28.667 -36 53.834 -76 75.501 -120s39 -89.667 52 -137s21.167 -95 24.5 -143s1 -93.667 -7 -137c-21.333 -115.333 -35.333 -114 -42 4c-3.33301 44.667 -11.333 87.334 -24 128.001
s-27.667 78.334 -45 113.001s-36.166 66.5 -56.499 95.5s-39.5 54.667 -57.5 77s-34.167 41 -48.5 56s-24.166 25.833 -29.499 32.5c0.666992 -29.333 -0.666016 -51.666 -3.99902 -66.999s-8.16602 -25.166 -14.499 -29.499s-14 -3.83301 -23 1.5
s-18.833 13.666 -29.5 24.999zM807.998 918.998c-8 48 -9.33398 95.834 -4.00098 143.501s13.333 95.5 24 143.5c0.666992 2 2 7.33301 4 16s4.33301 17.5 7 26.5s5.66699 17 9 24s6.66602 10.167 9.99902 9.5s6.66602 -6.66699 9.99902 -18s6.33301 -30.666 9 -57.999
l29.5 -208c10.333 -70.667 22.333 -141.667 36 -213s29.5 -142.833 47.5 -214.5s39 -142.5 63 -212.5c10 -29.333 22.833 -53.833 38.5 -73.5s36 -35.667 61 -48s55.5 -21 91.5 -26s79.667 -7.16699 131 -6.5v-199c-11.333 -1.33301 -22.166 -2.5 -32.499 -3.5
s-20.5 -1.5 -30.5 -1.5c-9.33301 0 -18.666 0.166992 -27.999 0.5s-18.666 0.833008 -27.999 1.5c-46 2.66699 -86.333 8.83398 -121 18.501s-64.667 25.5 -90 47.5s-46.666 51.667 -63.999 89s-31.333 85 -42 143c-1.33301 7.33301 -3 18.166 -5 32.499l-6.5 45
c-2.33301 15.667 -4.66602 30.5 -6.99902 44.5s-4.83301 24.333 -7.5 31c-10.667 -50.667 -25.834 -99.667 -45.501 -147s-43.5 -91 -71.5 -131s-60.167 -75.333 -96.5 -106s-76.833 -54.667 -121.5 -72c-4 -2.66699 -11.667 -5.83398 -23 -9.50098
s-30.166 -8.5 -56.499 -14.5s-62 -13.667 -107 -23l-175.5 -35c-8.66699 -1.33301 -18.667 -2.5 -30 -3.5s-20 -1 -26 0s-7.33301 3.66699 -4 8s15.666 11.5 36.999 21.5l113.5 52c39 18.667 78.167 39.334 117.5 62.001s78 47.167 116 73.5s74.333 55.166 109 86.499
c20 18 42.833 40.333 68.5 67s49.5 55.667 71.5 87s40 63.5 54 96.5s19.333 65.167 16 96.5c-2.66699 25.333 -7.83398 66.166 -15.501 122.499s-19.5 134.5 -35.5 234.5z" />
    <glyph glyph-name="u0622" unicode="&#x622;" horiz-adv-x="813" arabic-form="isolated" 
d="M390 1540c68.667 0 132.169 13 190.502 39s112.5 62 162.5 108c7.33301 7.33301 12.166 9.5 14.499 6.5s2.16602 -7.16699 -0.500977 -12.5c-24.667 -48 -50.834 -90.167 -78.501 -126.5s-57.5 -66.666 -89.5 -90.999s-66.833 -42.5 -104.5 -54.5s-79.167 -18 -124.5 -18
c-32.667 0 -63.834 3.16699 -93.501 9.5s-60.5 13.833 -92.5 22.5l-16 -55l-16 -55c-4 -10 -7 -16.167 -9 -18.5s-3.66699 -2.5 -5 -0.5s-2.33301 5.33301 -3 10s-1.66699 9 -3 13c-5.33301 38 -16 73.167 -32 105.5s-39 63.5 -69 93.5
c-3.33301 4.66699 -4.33301 9.66699 -3 15s2 11 2 17l11.5 46l11.5 46c1.33301 8 3.83301 14.667 7.5 20s9.5 4.66602 17.5 -2.00098c44.667 -40.667 94.334 -70.5 149.001 -89.5s112.334 -28.5 173.001 -28.5zM290.002 1062c4 20.667 8.83398 42.835 14.501 66.502
s11.5 46.5 17.5 68.5s12.333 42 19 60s13 32 19 42l6 10c2 3.33301 5.33301 5.33301 10 6c0 -19.333 -0.166992 -37 -0.5 -53s-0.5 -34 -0.5 -54l34 -328l23.5 -241l15.5 -168c4 -44.667 6.83301 -80.834 8.5 -108.501s2.83398 -48.5 3.50098 -62.5s1 -24.333 1 -31v-11
c0.666992 -58.667 -3.5 -115.334 -12.5 -170.001s-24.167 -104 -45.5 -148c-2.66699 -4 -4.83398 -4.83301 -6.50098 -2.5s-2.83398 6.5 -3.50098 12.5c-10 106 -18.167 200 -24.5 282s-12.833 156.333 -19.5 223l-22.5 215l-16 156l-10.5 106.5
c-2.66699 27.667 -4.66699 50 -6 67l-3 37.5c-0.666992 8 -1 14 -1 18v7z" />
    <glyph glyph-name="u0623" unicode="&#x623;" horiz-adv-x="560" arabic-form="isolated" 
d="M208 1062c4 20.667 8.83398 42.835 14.501 66.502s11.5 46.5 17.5 68.5s12.333 42 19 60s13 32 19 42l6 10c2 3.33301 5.33301 5.33301 10 6c0 -19.333 -0.166992 -37 -0.5 -53s-0.5 -34 -0.5 -54l34 -328l23.5 -241l15.5 -168c4 -44.667 6.83301 -80.834 8.5 -108.501
s2.83398 -48.5 3.50098 -62.5s1 -24.333 1 -31v-11c0.666992 -58.667 -3.5 -115.334 -12.5 -170.001s-24.167 -104 -45.5 -148c-2.66699 -4 -4.83398 -4.83301 -6.50098 -2.5s-2.83398 6.5 -3.50098 12.5c-10 106 -18.167 200 -24.5 282s-12.833 156.333 -19.5 223
l-22.5 215l-16 156l-10.5 106.5c-2.66699 27.667 -4.66699 50 -6 67l-3 37.5c-0.666992 8 -1 14 -1 18v7zM102.001 1534c4.66699 12.667 9.50195 26.6719 14.502 42.0049s10.5 30.666 16.5 45.999s12.833 30 20.5 44s16.5 26 26.5 36c10 8.66699 21.333 16.167 34 22.5
s26 10.666 40 12.999s28 2.16602 42 -0.500977s27.333 -8.33398 40 -17.001c0 -4 -1.33301 -10 -4 -18s-5.83398 -16.667 -9.50098 -26s-7.5 -18.333 -11.5 -27s-7.66699 -16 -11 -22c-6.66699 -8 -13 -9 -19 -3c-10 8 -20.667 13 -32 15s-22.5 1.5 -33.5 -1.5
s-21.333 -7.66699 -31 -14s-18.5 -13.833 -26.5 -22.5c2.66699 -12 9.83398 -22.167 21.501 -30.5s24.667 -14.833 39 -19.5s28.666 -8 42.999 -10s25.5 -3 33.5 -3c22 1.33301 44.167 5.66602 66.5 12.999s43.5 15 63.5 23c9.33301 3.33301 12 1.33301 8 -6
c-8 -14 -16.167 -27.5 -24.5 -40.5l-29.5 -44.5c-23.333 -8 -47.5 -15.667 -72.5 -23s-49.167 -15.833 -72.5 -25.5s-45.333 -21.5 -66 -35.5s-38.334 -31.333 -53.001 -52c-1.33301 -2.66699 -3.5 -4.16699 -6.5 -4.5s-3.83301 1.5 -2.5 5.5
c2.66699 19.333 8 37.166 16 53.499s17 33.5 27 51.5c1.33301 2 1 4.33301 -1 7c-12 8.66699 -23 18.834 -33 30.501s-14.333 26.167 -13 43.5z" />
    <glyph glyph-name="u0624" unicode="&#x624;" horiz-adv-x="833" arabic-form="isolated" 
d="M434 859c4.66699 12.667 9.50195 26.6719 14.502 42.0049s10.5 30.666 16.5 45.999s12.833 30 20.5 44s16.5 26 26.5 36c10 8.66699 21.333 16.167 34 22.5s26 10.666 40 12.999s28 2.16602 42 -0.500977s27.333 -8.33398 40 -17.001c0 -4 -1.33301 -10 -4 -18
s-5.83398 -16.667 -9.50098 -26s-7.5 -18.333 -11.5 -27s-7.66699 -16 -11 -22c-6.66699 -8 -13 -9 -19 -3c-10 8 -20.667 13 -32 15s-22.5 1.5 -33.5 -1.5s-21.333 -7.66699 -31 -14s-18.5 -13.833 -26.5 -22.5c2.66699 -12 9.83398 -22.167 21.501 -30.5
s24.667 -14.833 39 -19.5s28.666 -8 42.999 -10s25.5 -3 33.5 -3c22 1.33301 44.167 5.66602 66.5 12.999s43.5 15 63.5 23c9.33301 3.33301 12 1.33301 8 -6c-8 -14 -16.167 -27.5 -24.5 -40.5l-29.5 -44.5c-23.333 -8 -47.5 -15.667 -72.5 -23
s-49.167 -15.833 -72.5 -25.5s-45.333 -21.5 -66 -35.5s-38.334 -31.333 -53.001 -52c-1.33301 -2.66699 -3.5 -4.16699 -6.5 -4.5s-3.83301 1.5 -2.5 5.5c2.66699 19.333 8 37.166 16 53.499s17 33.5 27 51.5c1.33301 2 1 4.33301 -1 7c-12 8.66699 -23 18.834 -33 30.501
s-14.333 26.167 -13 43.5zM450.002 298.005c22 -28 41.502 -49.667 58.502 -65s33.833 -25.5 50.5 -30.5s34 -5.5 52 -1.5s39 11 63 21c-12.667 22.667 -27.334 43.5 -44.001 62.5s-34.834 33.167 -54.501 42.5s-40 12.333 -61 9s-42.5 -16 -64.5 -38zM351.004 193.005
c3.33301 27.333 9.66406 57.3301 18.9971 89.9971s21.666 64.5 36.999 95.5s33.333 59.333 54 85s43.834 44.5 69.501 56.5s54 15.5 85 10.5s64.167 -22.167 99.5 -51.5c28 -28 49 -61.667 63 -101s22.5 -80.666 25.5 -123.999s1.16699 -87 -5.5 -131s-17 -84.667 -31 -122
c-9.33301 -24 -20.666 -50.667 -33.999 -80s-28.166 -59 -44.499 -89s-34.166 -59.5 -53.499 -88.5s-39.666 -55.167 -60.999 -78.5s-43.833 -42.833 -67.5 -58.5s-47.834 -25.5 -72.501 -29.5c-30 -1.33301 -60.5 -3.83301 -91.5 -7.5s-62 -6.5 -93 -8.5
s-61.833 -2.16699 -92.5 -0.5s-61 7.5 -91 17.5c-20.667 6.66699 -29.834 12.5 -27.501 17.5s12.5 8.5 30.5 10.5c63.333 8.66699 122.166 22.167 176.499 40.5s103.666 39.333 147.999 63s84 48.834 119 75.501s65.167 52.5 90.5 77.5s45.833 48.333 61.5 70
s26.5 39.5 32.5 53.5c6.66699 13.333 11.167 29.5 13.5 48.5s3 37.667 2 56s-3.66699 34.5 -8 48.5s-9.5 22.667 -15.5 26c-4 -9.33301 -8.83301 -22.666 -14.5 -39.999s-14 -34.666 -25 -51.999s-25.5 -32.5 -43.5 -45.5s-41.333 -19.833 -70 -20.5
c-23.333 0 -46.166 5.5 -68.499 16.5s-42.166 25.167 -59.499 42.5s-31.166 37.166 -41.499 59.499s-15.5 44.833 -15.5 67.5z" />
    <glyph glyph-name="u0625" unicode="&#x625;" horiz-adv-x="604" arabic-form="isolated" 
d="M222 1062c4 20.667 8.83398 42.835 14.501 66.502s11.5 46.5 17.5 68.5s12.333 42 19 60s13 32 19 42l6 10c2 3.33301 5.33301 5.33301 10 6c0 -19.333 -0.166992 -37 -0.5 -53s-0.5 -34 -0.5 -54l34 -328l23.5 -241l15.5 -168c4 -44.667 6.83301 -80.834 8.5 -108.501
s2.83398 -48.5 3.50098 -62.5s1 -24.333 1 -31v-11c0.666992 -58.667 -3.5 -115.334 -12.5 -170.001s-24.167 -104 -45.5 -148c-2.66699 -4 -4.83398 -4.83301 -6.50098 -2.5s-2.83398 6.5 -3.50098 12.5c-10 106 -18.167 200 -24.5 282s-12.833 156.333 -19.5 223
l-22.5 215l-16 156l-10.5 106.5c-2.66699 27.667 -4.66699 50 -6 67l-3 37.5c-0.666992 8 -1 14 -1 18v7zM158.001 -362.999c4.66699 12.667 9.50195 26.6719 14.502 42.0049s10.5 30.666 16.5 45.999s12.833 30 20.5 44s16.5 26 26.5 36c10 8.66699 21.333 16.167 34 22.5
s26 10.666 40 12.999s28 2.16602 42 -0.500977s27.333 -8.33398 40 -17.001c0 -4 -1.33301 -10 -4 -18s-5.83398 -16.667 -9.50098 -26s-7.5 -18.333 -11.5 -27s-7.66699 -16 -11 -22c-6.66699 -8 -13 -9 -19 -3c-10 8 -20.667 13 -32 15s-22.5 1.5 -33.5 -1.5
s-21.333 -7.66699 -31 -14s-18.5 -13.833 -26.5 -22.5c2.66699 -12 9.83398 -22.167 21.501 -30.5s24.667 -14.833 39 -19.5s28.666 -8 42.999 -10s25.5 -3 33.5 -3c22 1.33301 44.167 5.66602 66.5 12.999s43.5 15 63.5 23c9.33301 3.33301 12 1.33301 8 -6
c-8 -14 -16.167 -27.5 -24.5 -40.5l-29.5 -44.5c-23.333 -8 -47.5 -15.667 -72.5 -23s-49.167 -15.833 -72.5 -25.5s-45.333 -21.5 -66 -35.5s-38.334 -31.333 -53.001 -52c-1.33301 -2.66699 -3.5 -4.16699 -6.5 -4.5s-3.83301 1.5 -2.5 5.5
c2.66699 19.333 8 37.166 16 53.499s17 33.5 27 51.5c1.33301 2 1 4.33301 -1 7c-12 8.66699 -23 18.834 -33 30.501s-14.333 26.167 -13 43.5z" />
    <glyph glyph-name="u0626" unicode="&#x626;" horiz-adv-x="1256" arabic-form="isolated" 
d="M811 1064c4.66699 12.667 9.50195 26.6719 14.502 42.0049s10.5 30.666 16.5 45.999s12.833 30 20.5 44s16.5 26 26.5 36c10 8.66699 21.333 16.167 34 22.5s26 10.666 40 12.999s28 2.16602 42 -0.500977s27.333 -8.33398 40 -17.001c0 -4 -1.33301 -10 -4 -18
s-5.83398 -16.667 -9.50098 -26s-7.5 -18.333 -11.5 -27s-7.66699 -16 -11 -22c-6.66699 -8 -13 -9 -19 -3c-10 8 -20.667 13 -32 15s-22.5 1.5 -33.5 -1.5s-21.333 -7.66699 -31 -14s-18.5 -13.833 -26.5 -22.5c2.66699 -12 9.83398 -22.167 21.501 -30.5
s24.667 -14.833 39 -19.5s28.666 -8 42.999 -10s25.5 -3 33.5 -3c22 1.33301 44.167 5.66602 66.5 12.999s43.5 15 63.5 23c9.33301 3.33301 12 1.33301 8 -6c-8 -14 -16.167 -27.5 -24.5 -40.5l-29.5 -44.5c-23.333 -8 -47.5 -15.667 -72.5 -23
s-49.167 -15.833 -72.5 -25.5s-45.333 -21.5 -66 -35.5s-38.334 -31.333 -53.001 -52c-1.33301 -2.66699 -3.5 -4.16699 -6.5 -4.5s-3.83301 1.5 -2.5 5.5c2.66699 19.333 8 37.166 16 53.499s17 33.5 27 51.5c1.33301 2 1 4.33301 -1 7c-12 8.66699 -23 18.834 -33 30.501
s-14.333 26.167 -13 43.5zM78.002 -29.9951c0.666992 40 4.34082 78.4961 11.0078 115.496s15.834 73 27.501 108s25.667 69.5 42 103.5s34.5 68.333 54.5 103c5.33301 8 10.5 14.5 15.5 19.5s9.16699 7.66699 12.5 8s5.16602 -2.33398 5.49902 -8.00098
s-1.5 -15.167 -5.5 -28.5l-25 -72.5c-8.66699 -24.333 -16.5 -48.833 -23.5 -73.5s-12.667 -49.667 -17 -75s-6.5 -51 -6.5 -77c0 -53.333 8.33301 -99.5 25 -138.5s40.167 -71 70.5 -96s66.5 -43.5 108.5 -55.5s88.667 -18 140 -18c50.667 0 100.667 5.83301 150 17.5
s97.5 27.334 144.5 47.001s92.667 42.334 137 68.001s86.833 52.834 127.5 81.501c-14 10 -31.167 18 -51.5 24s-42 11.167 -65 15.5s-45.833 8 -68.5 11s-43.334 6.5 -62.001 10.5c-23.333 4 -48.166 10.667 -74.499 20s-50.833 21.5 -73.5 36.5s-41.167 33 -55.5 54
s-20.833 45.5 -19.5 73.5c0 32.667 6.83301 68.334 20.5 107.001s32.167 77.334 55.5 116.001s50.5 76.334 81.5 113.001s64 69 99 97s71 50.5 108 67.5s73.167 25.5 108.5 25.5c24.667 -0.666992 47 -6.33398 67 -17.001s36.667 -24.5 50 -41.5s23.166 -36.667 29.499 -59
s8.16602 -45.5 5.49902 -69.5l-41 -93c-10 -22 -17.5 -38 -22.5 -48s-8.33301 -16 -10 -18s-2.83398 -3 -3.50098 -3s-2.5 4.33301 -5.5 13s-6.83301 19 -11.5 31s-10 24.333 -16 37s-12 23 -18 31c-20.667 26 -43.834 41.833 -69.501 47.5s-52.5 4.5 -80.5 -3.5
s-55.833 -21.333 -83.5 -40s-53.834 -39.167 -78.501 -61.5s-46.667 -45.333 -66 -69s-34.333 -44.5 -45 -62.5c-2 -25.333 4.16699 -48.5 18.5 -69.5s32.666 -39.667 54.999 -56s46.5 -30 72.5 -41s49.667 -18.833 71 -23.5c36 -9.33301 69.667 -16.333 101 -21
s58.333 -11 81 -19s40.167 -19.5 52.5 -34.5s17.5 -37.5 15.5 -67.5c-5.33301 -10.667 -11 -23.334 -17 -38.001l-18.5 -45l-18.5 -44c-6 -14 -11.667 -25.667 -17 -35l-3.5 -3.5c-1.66699 -1.66699 -2.83398 -2.5 -3.50098 -2.5
c-44.667 -30.667 -91.667 -61.167 -141 -91.5s-100.333 -57.666 -153 -81.999s-106.667 -44 -162 -59s-111 -22.5 -167 -22.5c-54.667 0 -104.334 9.66699 -149.001 29s-83 46 -115 80s-56.667 74.333 -74 121s-26 97 -26 151z" />
    <glyph glyph-name="u0627" unicode="&#x627;" horiz-adv-x="483" arabic-form="isolated" 
d="M156 1062c4 20.667 8.83398 42.835 14.501 66.502s11.5 46.5 17.5 68.5s12.333 42 19 60s13 32 19 42l6 10c2 3.33301 5.33301 5.33301 10 6c0 -19.333 -0.166992 -37 -0.5 -53s-0.5 -34 -0.5 -54l34 -328l23.5 -241l15.5 -168c4 -44.667 6.83301 -80.834 8.5 -108.501
s2.83398 -48.5 3.50098 -62.5s1 -24.333 1 -31v-11c0.666992 -58.667 -3.5 -115.334 -12.5 -170.001s-24.167 -104 -45.5 -148c-2.66699 -4 -4.83398 -4.83301 -6.50098 -2.5s-2.83398 6.5 -3.50098 12.5c-10 106 -18.167 200 -24.5 282s-12.833 156.333 -19.5 223
l-22.5 215l-16 156l-10.5 106.5c-2.66699 27.667 -4.66699 50 -6 67l-3 37.5c-0.666992 8 -1 14 -1 18v7z" />
    <glyph glyph-name="u0628" unicode="&#x628;" horiz-adv-x="1641" arabic-form="isolated" 
d="M664 -404c3.33301 4.66699 9.33301 12.501 18 23.501l28 35l29 34.5c9.33301 10.667 16 18 20 22c5.33301 6.66699 10 9.83398 14 9.50098s8 -2.16602 12 -5.49902c24 -20.667 48.167 -40.334 72.5 -59.001s44.5 -36.334 60.5 -53.001
c3.33301 -3.33301 4.66602 -6.5 3.99902 -9.5s-2.66699 -6.5 -6 -10.5c-14.667 -21.333 -30 -41.666 -46 -60.999s-31.667 -39.333 -47 -60c-6.66699 -12 -15.667 -14.333 -27 -7c-8.66699 4.66699 -19.5 12 -32.5 22s-26 20.667 -39 32s-25.167 22.5 -36.5 33.5
s-19.666 20.167 -24.999 27.5c-4 5.33301 -5.66699 9.66602 -5 12.999s2.66699 7.66602 6 12.999zM92 314.001c-0.666992 14 0.333008 30.666 3 49.999s6.5 39.5 11.5 60.5s10.667 42 17 63s13.166 40.333 20.499 58s14.833 32.834 22.5 45.501s14.834 21.334 21.501 26.001
c-0.666992 -17.333 -2.5 -33.5 -5.5 -48.5l-9 -44l-8.5 -42.5c-2.66699 -14 -4 -28.667 -4 -44c0 -44 8.66699 -81.5 26 -112.5s40.166 -57 68.499 -78s60.833 -37.833 97.5 -50.5s74.334 -22.334 113.001 -29.001s76.667 -11 114 -13s71.333 -3 102 -3
c33.333 0 68.333 1.33301 105 4s73.667 6 111 10s74.5 8.83301 111.5 14.5s72.5 11.5 106.5 17.5c38.667 6.66699 78 16.334 118 29.001s76.333 25.5 109 38.5s59.5 24.833 80.5 35.5s31.5 17.667 31.5 21c0 17.333 -3 36.333 -9 57s-13 42 -21 64l-24.5 67
c-8.33301 22.667 -15.166 44.667 -20.499 66l46 90l24 47c5.33301 10 8.5 16 9.5 18s2.16699 3 3.5 3c4.66699 0 8.33398 -3.16699 11.001 -9.5s4.66699 -10.833 6 -13.5l29.5 -84c9.66699 -28 17.667 -56.333 24 -85s10.833 -57.5 13.5 -86.5s2 -58.5 -2 -88.5
c-0.666992 -5.33301 -2.5 -14.333 -5.5 -27l-10 -40.5l-10.5 -41c-3.33301 -13 -5.66602 -21.833 -6.99902 -26.5c-6.66699 -21.333 -14.834 -41.5 -24.501 -60.5s-25.167 -33.833 -46.5 -44.5c-124.667 -62.667 -251.334 -107.834 -380.001 -135.501
s-262.667 -41.5 -402 -41.5c-43.333 0 -87.5 1.5 -132.5 4.5s-88.5 9 -130.5 18s-81.333 21.667 -118 38s-68.834 38 -96.501 65s-49.5 60 -65.5 99s-24 85.5 -24 139.5z" />
    <glyph glyph-name="u0629" unicode="&#x629;" horiz-adv-x="618" arabic-form="isolated" 
d="M126 333c0 -28 5.66602 -51.001 16.999 -69.001s26.166 -32 44.499 -42s38.833 -17 61.5 -21s45.334 -6 68.001 -6c6 0 17.667 1.33301 35 4s34.833 6 52.5 10s33.334 8.5 47.001 13.5s20.167 10.167 19.5 15.5c-3.33301 24 -12 50.333 -26 79s-31 55.667 -51 81
s-42.167 46.5 -66.5 63.5s-48.5 25.5 -72.5 25.5c-16 0 -31.833 -5.16699 -47.5 -15.5s-29.5 -23.166 -41.5 -38.499s-21.667 -32 -29 -50s-11 -34.667 -11 -50zM23.999 198.999c2.66699 18.667 7.83203 43.5068 15.499 74.5068s17.667 64.5 30 100.5s27 72.333 44 109
s35.833 69.667 56.5 99s43.167 53.166 67.5 71.499s50.166 27.166 77.499 26.499c21.333 1.33301 42.833 -3.33398 64.5 -14.001s42.167 -25.334 61.5 -44.001s37.333 -40.167 54 -64.5s31 -49.5 43 -75.5s21.333 -51.833 28 -77.5s9.66699 -49.167 9 -70.5
c-0.666992 -2.66699 -2.16699 -7.5 -4.5 -14.5s-6.66602 -18.833 -12.999 -35.5s-15.666 -39.334 -27.999 -68.001l-49.5 -111c-14 -17.333 -31 -32.5 -51 -45.5s-40.667 -23.833 -62 -32.5s-42.333 -15.167 -63 -19.5s-38.667 -6.5 -54 -6.5c-30 0 -58.5 4 -85.5 12
s-51 20.167 -72 36.5s-37.667 36.666 -50 60.999s-18.5 53.166 -18.5 86.499v2zM172.997 1015.01c4.66699 12.667 9.50195 26.6719 14.502 42.0049s10.5 30.666 16.5 45.999s12.833 30 20.5 44s16.5 26 26.5 36c10 8.66699 21.333 16.167 34 22.5s26 10.666 40 12.999
s28 2.16602 42 -0.500977s27.333 -8.33398 40 -17.001c0 -4 -1.33301 -10 -4 -18s-5.83398 -16.667 -9.50098 -26s-7.5 -18.333 -11.5 -27s-7.66699 -16 -11 -22c-6.66699 -8 -13 -9 -19 -3c-10 8 -20.667 13 -32 15s-22.5 1.5 -33.5 -1.5s-21.333 -7.66699 -31 -14
s-18.5 -13.833 -26.5 -22.5c2.66699 -12 9.83398 -22.167 21.501 -30.5s24.667 -14.833 39 -19.5s28.666 -8 42.999 -10s25.5 -3 33.5 -3c22 1.33301 44.167 5.66602 66.5 12.999s43.5 15 63.5 23c9.33301 3.33301 12 1.33301 8 -6c-8 -14 -16.167 -27.5 -24.5 -40.5
l-29.5 -44.5c-23.333 -8 -47.5 -15.667 -72.5 -23s-49.167 -15.833 -72.5 -25.5s-45.333 -21.5 -66 -35.5s-38.334 -31.333 -53.001 -52c-1.33301 -2.66699 -3.5 -4.16699 -6.5 -4.5s-3.83301 1.5 -2.5 5.5c2.66699 19.333 8 37.166 16 53.499s17 33.5 27 51.5
c1.33301 2 1 4.33301 -1 7c-12 8.66699 -23 18.834 -33 30.501s-14.333 26.167 -13 43.5z" />
    <glyph glyph-name="u062A" unicode="&#x62a;" horiz-adv-x="1591" arabic-form="isolated" 
d="M541 699c-13.333 10 -16.668 21.3311 -10.001 33.998l49 67.5l49 67.5c5.33301 6 9.83301 8.66699 13.5 8s7.83398 -2.66699 12.501 -6l35.5 -29l36.5 -28.5c12 -9 23.5 -17 34.5 -24s20.5 -11.833 28.5 -14.5c7.33301 -2 11.666 -2.33301 12.999 -1s5 5.66602 11 12.999
c6.66699 7.33301 16.5 19 29.5 35l55.5 67c5.33301 5.33301 9.83301 7.16602 13.5 5.49902s6.83398 -3.5 9.50098 -5.5l74.5 -60l39 -31l15 -12c1.66699 -1.33301 2.83398 -2.33301 3.50098 -3c4 -2.66699 6.5 -6 7.5 -10s-0.166992 -8 -3.5 -12l-49.5 -63.5l-48.5 -63.5
c-6 -7.33301 -11 -10.666 -15 -9.99902s-8 2.33398 -12 5.00098c-23.333 14.667 -45 30.834 -65 48.501s-40.667 37.167 -62 58.5l-50 -64l-49 -63c-6.66699 -8 -15.167 -10 -25.5 -6s-18.833 8.33301 -25.5 13c-12 6.66699 -22.333 12.834 -31 18.501
s-17.334 11.667 -26.001 18s-17.5 13.333 -26.5 21zM75.998 313.998c-0.666992 14 0.333008 30.666 3 49.999s6.5 39.5 11.5 60.5s10.667 42 17 63s13.166 40.333 20.499 58s14.833 32.834 22.5 45.501s14.834 21.334 21.501 26.001
c-0.666992 -17.333 -2.5 -33.5 -5.5 -48.5l-9 -44l-8.5 -42.5c-2.66699 -14 -4 -28.667 -4 -44c0 -44 8.66699 -81.5 26 -112.5s40.166 -57 68.499 -78s60.833 -37.833 97.5 -50.5s74.334 -22.334 113.001 -29.001s76.667 -11 114 -13s71.333 -3 102 -3
c33.333 0 68.333 1.33301 105 4s73.667 6 111 10s74.5 8.83301 111.5 14.5s72.5 11.5 106.5 17.5c38.667 6.66699 78 16.334 118 29.001s76.333 25.5 109 38.5s59.5 24.833 80.5 35.5s31.5 17.667 31.5 21c0 17.333 -3 36.333 -9 57s-13 42 -21 64l-24.5 67
c-8.33301 22.667 -15.166 44.667 -20.499 66l46 90l24 47c5.33301 10 8.5 16 9.5 18s2.16699 3 3.5 3c4.66699 0 8.33398 -3.16699 11.001 -9.5s4.66699 -10.833 6 -13.5l29.5 -84c9.66699 -28 17.667 -56.333 24 -85s10.833 -57.5 13.5 -86.5s2 -58.5 -2 -88.5
c-0.666992 -5.33301 -2.5 -14.333 -5.5 -27l-10 -40.5l-10.5 -41c-3.33301 -13 -5.66602 -21.833 -6.99902 -26.5c-6.66699 -21.333 -14.834 -41.5 -24.501 -60.5s-25.167 -33.833 -46.5 -44.5c-124.667 -62.667 -251.334 -107.834 -380.001 -135.501
s-262.667 -41.5 -402 -41.5c-43.333 0 -87.5 1.5 -132.5 4.5s-88.5 9 -130.5 18s-81.333 21.667 -118 38s-68.834 38 -96.501 65s-49.5 60 -65.5 99s-24 85.5 -24 139.5z" />
    <glyph glyph-name="u062B" unicode="&#x62b;" horiz-adv-x="1641" arabic-form="isolated" 
d="M659 959l18.5 22.5l28.5 34.5l28.5 34.5l19.5 23.5c5.33301 6.66699 10 9.66699 14 9s7.66699 -2.66699 11 -6l73.5 -59c24.333 -18.667 44.5 -36 60.5 -52c3.33301 -4 4.66602 -7.33301 3.99902 -10s-2.66699 -6.33398 -6 -11.001
c-14.667 -21.333 -30 -41.666 -46 -60.999s-31.667 -39.333 -47 -60c-6.66699 -10.667 -15.667 -13 -27 -7c-8.66699 4.66699 -19.5 12 -32.5 22s-26 20.667 -39 32s-25.167 22.5 -36.5 33.5s-19.666 20.167 -24.999 27.5c-4 6 -5.66699 10.5 -5 13.5s2.66699 7.5 6 13.5z
M560 635c-14 10 -17.335 21 -10.002 33l49 68.5l49 67.5c5.33301 5.33301 10 7.83301 14 7.5s8 -2.16602 12 -5.49902c12.667 -9.33301 24.834 -18.833 36.501 -28.5l34.5 -28.5c12 -8.66699 24 -16.834 36 -24.501s21.333 -12.834 28 -15.501
c7.33301 -2 11.666 -2.16699 12.999 -0.5l11 13.5c6.66699 7.33301 16.5 19 29.5 35l55.5 67c5.33301 5.33301 9.83301 7.16602 13.5 5.49902s6.83398 -3.5 9.50098 -5.5l74.5 -60l39 -31l15 -12c1.66699 -1.33301 2.83398 -2.33301 3.50098 -3
c9.33301 -7.33301 10.666 -15 3.99902 -23l-49 -63.5l-49 -63.5c-6 -6.66699 -11 -9.66699 -15 -9s-8 2.33398 -12 5.00098c-23.333 14.667 -45 30.834 -65 48.501s-40.667 37.167 -62 58.5l-50 -64l-49 -63c-6.66699 -8 -15 -10 -25 -6s-18.667 8 -26 12
c-12 7.33301 -22.333 14 -31 20l-25.5 18c-8.33301 6 -17.166 12.833 -26.499 20.5zM86.998 314c-0.666992 14 0.333008 30.666 3 49.999s6.5 39.5 11.5 60.5s10.667 42 17 63s13.166 40.333 20.499 58s14.833 32.834 22.5 45.501s14.834 21.334 21.501 26.001
c-0.666992 -17.333 -2.5 -33.5 -5.5 -48.5l-9 -44l-8.5 -42.5c-2.66699 -14 -4 -28.667 -4 -44c0 -44 8.66699 -81.5 26 -112.5s40.166 -57 68.499 -78s60.833 -37.833 97.5 -50.5s74.334 -22.334 113.001 -29.001s76.667 -11 114 -13s71.333 -3 102 -3
c33.333 0 68.333 1.33301 105 4s73.667 6 111 10s74.5 8.83301 111.5 14.5s72.5 11.5 106.5 17.5c38.667 6.66699 78 16.334 118 29.001s76.333 25.5 109 38.5s59.5 24.833 80.5 35.5s31.5 17.667 31.5 21c0 17.333 -3 36.333 -9 57s-13 42 -21 64l-24.5 67
c-8.33301 22.667 -15.166 44.667 -20.499 66l46 90l24 47c5.33301 10 8.5 16 9.5 18s2.16699 3 3.5 3c4.66699 0 8.33398 -3.16699 11.001 -9.5s4.66699 -10.833 6 -13.5l29.5 -84c9.66699 -28 17.667 -56.333 24 -85s10.833 -57.5 13.5 -86.5s2 -58.5 -2 -88.5
c-0.666992 -5.33301 -2.5 -14.333 -5.5 -27l-10 -40.5l-10.5 -41c-3.33301 -13 -5.66602 -21.833 -6.99902 -26.5c-6.66699 -21.333 -14.834 -41.5 -24.501 -60.5s-25.167 -33.833 -46.5 -44.5c-124.667 -62.667 -251.334 -107.834 -380.001 -135.501
s-262.667 -41.5 -402 -41.5c-43.333 0 -87.5 1.5 -132.5 4.5s-88.5 9 -130.5 18s-81.333 21.667 -118 38s-68.834 38 -96.501 65s-49.5 60 -65.5 99s-24 85.5 -24 139.5z" />
    <glyph glyph-name="u062C" unicode="&#x62c;" horiz-adv-x="1053" arabic-form="isolated" 
d="M639 -147c3.33301 4.66699 9.33301 12.501 18 23.501l28 35l29 34.5c9.33301 10.667 16 18 20 22c5.33301 6.66699 10 9.83398 14 9.50098s8 -2.16602 12 -5.49902c24 -20.667 48.167 -40.334 72.5 -59.001s44.5 -36.334 60.5 -53.001
c3.33301 -3.33301 4.66602 -6.5 3.99902 -9.5s-2.66699 -6.5 -6 -10.5c-14.667 -21.333 -30 -41.666 -46 -60.999s-31.667 -39.333 -47 -60c-6.66699 -12 -15.667 -14.333 -27 -7c-8.66699 4.66699 -19.5 12 -32.5 22s-26 20.667 -39 32s-25.167 22.5 -36.5 33.5
s-19.666 20.167 -24.999 27.5c-4 5.33301 -5.66699 9.66602 -5 12.999s2.66699 7.66602 6 12.999zM715 583.001c54.667 -5.33301 108.997 -10.3369 162.997 -15.0039s108 -6.33398 162 -5.00098c10 0 13.333 -3.66699 10 -11c-6.66699 -17.333 -18.5 -41.166 -35.5 -71.499
s-36.833 -60.166 -59.5 -89.499c-0.666992 -1.33301 -2.5 -2.33301 -5.5 -3s-6.16699 -1 -9.5 -1c-2.66699 0 -5.5 -0.166992 -8.5 -0.5s-4.83301 -0.833008 -5.5 -1.5c-47.333 -6 -97.833 -15.667 -151.5 -29s-106.667 -30.833 -159 -52.5s-102.5 -47.167 -150.5 -76.5
s-90.5 -63.166 -127.5 -101.499s-66.333 -81.166 -88 -128.499s-32.5 -99.333 -32.5 -156c0 -43.333 6.66699 -84.833 20 -124.5s31.833 -76.5 55.5 -110.5s51.334 -65.167 83.001 -93.5s66 -53 103 -74s75.667 -38.333 116 -52s80.5 -22.834 120.5 -27.501
c10.667 -2 26.834 -4.33301 48.501 -7s55.167 -5 100.5 -7s105.166 -3.33301 179.499 -4s169.5 0 285.5 2c12 0 19.333 -1.33301 22 -4s2.66699 -5.66699 0 -9s-7 -6.5 -13 -9.5s-12 -5.16699 -18 -6.5c-14.667 -6 -37 -13.5 -67 -22.5s-64.167 -18.5 -102.5 -28.5
s-79.166 -20 -122.499 -30s-85.5 -19 -126.5 -27s-79.333 -14.5 -115 -19.5s-65.167 -7.5 -88.5 -7.5c-81.333 0 -155.5 13.167 -222.5 39.5s-124.667 63.333 -173 111s-85.833 105 -112.5 172s-40 141.5 -40 223.5c0 68.667 8.83301 137.5 26.5 206.5
s43.334 134 77.001 195s75 115.833 124 164.5s105.167 87 168.5 115l-92 24.5c-30 7.66699 -59.333 12.667 -88 15s-56.5 1.33301 -83.5 -3s-52.833 -14.166 -77.5 -29.499c-5.33301 -3.33301 -10 -5 -14 -5c-6 0 -10.5 3.16699 -13.5 9.5s-2.83301 13.833 0.5 22.5
c0.666992 4 4.16699 13.167 10.5 27.5l21 46.5l22 48.5c7 15.667 11.5 26.834 13.5 33.501c18 22.667 42.833 35.834 74.5 39.501s68.167 2.66699 109.5 -3s86.333 -13.834 135 -24.501s99 -19 151 -25z" />
    <glyph glyph-name="u062D" unicode="&#x62d;" horiz-adv-x="1053" arabic-form="isolated" 
d="M715 583c54.667 -5.33301 108.997 -10.3369 162.997 -15.0039s108 -6.33398 162 -5.00098c10 0 13.333 -3.66699 10 -11c-6.66699 -17.333 -18.5 -41.166 -35.5 -71.499s-36.833 -60.166 -59.5 -89.499c-0.666992 -1.33301 -2.5 -2.33301 -5.5 -3s-6.16699 -1 -9.5 -1
c-2.66699 0 -5.5 -0.166992 -8.5 -0.5s-4.83301 -0.833008 -5.5 -1.5c-47.333 -6 -97.833 -15.667 -151.5 -29s-106.667 -30.833 -159 -52.5s-102.5 -47.167 -150.5 -76.5s-90.5 -63.166 -127.5 -101.499s-66.333 -81.166 -88 -128.499s-32.5 -99.333 -32.5 -156
c0 -43.333 6.66699 -84.833 20 -124.5s31.833 -76.5 55.5 -110.5s51.334 -65.167 83.001 -93.5s66 -53 103 -74s75.667 -38.333 116 -52s80.5 -22.834 120.5 -27.501c10.667 -2 26.834 -4.33301 48.501 -7s55.167 -5 100.5 -7s105.166 -3.33301 179.499 -4s169.5 0 285.5 2
c12 0 19.333 -1.33301 22 -4s2.66699 -5.66699 0 -9s-7 -6.5 -13 -9.5s-12 -5.16699 -18 -6.5c-14.667 -6 -37 -13.5 -67 -22.5s-64.167 -18.5 -102.5 -28.5s-79.166 -20 -122.499 -30s-85.5 -19 -126.5 -27s-79.333 -14.5 -115 -19.5s-65.167 -7.5 -88.5 -7.5
c-81.333 0 -155.5 13.167 -222.5 39.5s-124.667 63.333 -173 111s-85.833 105 -112.5 172s-40 141.5 -40 223.5c0 68.667 8.83301 137.5 26.5 206.5s43.334 134 77.001 195s75 115.833 124 164.5s105.167 87 168.5 115l-92 24.5c-30 7.66699 -59.333 12.667 -88 15
s-56.5 1.33301 -83.5 -3s-52.833 -14.166 -77.5 -29.499c-5.33301 -3.33301 -10 -5 -14 -5c-6 0 -10.5 3.16699 -13.5 9.5s-2.83301 13.833 0.5 22.5c0.666992 4 4.16699 13.167 10.5 27.5l21 46.5l22 48.5c7 15.667 11.5 26.834 13.5 33.501
c18 22.667 42.833 35.834 74.5 39.501s68.167 2.66699 109.5 -3s86.333 -13.834 135 -24.501s99 -19 151 -25z" />
    <glyph glyph-name="u062E" unicode="&#x62e;" horiz-adv-x="1053" arabic-form="isolated" 
d="M537 938c3.33301 4.66699 9.33301 12.501 18 23.501l28 35l29 34.5c9.33301 10.667 16 18 20 22c5.33301 6.66699 10 9.83398 14 9.50098s8 -2.16602 12 -5.49902c24 -20.667 48.167 -40.334 72.5 -59.001s44.5 -36.334 60.5 -53.001
c3.33301 -3.33301 4.66602 -6.5 3.99902 -9.5s-2.66699 -6.5 -6 -10.5c-14.667 -21.333 -30 -41.666 -46 -60.999s-31.667 -39.333 -47 -60c-6.66699 -12 -15.667 -14.333 -27 -7c-8.66699 4.66699 -19.5 12 -32.5 22s-26 20.667 -39 32s-25.167 22.5 -36.5 33.5
s-19.666 20.167 -24.999 27.5c-4 5.33301 -5.66699 9.66602 -5 12.999s2.66699 7.66602 6 12.999zM715 583.001c54.667 -5.33301 108.997 -10.3369 162.997 -15.0039s108 -6.33398 162 -5.00098c10 0 13.333 -3.66699 10 -11c-6.66699 -17.333 -18.5 -41.166 -35.5 -71.499
s-36.833 -60.166 -59.5 -89.499c-0.666992 -1.33301 -2.5 -2.33301 -5.5 -3s-6.16699 -1 -9.5 -1c-2.66699 0 -5.5 -0.166992 -8.5 -0.5s-4.83301 -0.833008 -5.5 -1.5c-47.333 -6 -97.833 -15.667 -151.5 -29s-106.667 -30.833 -159 -52.5s-102.5 -47.167 -150.5 -76.5
s-90.5 -63.166 -127.5 -101.499s-66.333 -81.166 -88 -128.499s-32.5 -99.333 -32.5 -156c0 -43.333 6.66699 -84.833 20 -124.5s31.833 -76.5 55.5 -110.5s51.334 -65.167 83.001 -93.5s66 -53 103 -74s75.667 -38.333 116 -52s80.5 -22.834 120.5 -27.501
c10.667 -2 26.834 -4.33301 48.501 -7s55.167 -5 100.5 -7s105.166 -3.33301 179.499 -4s169.5 0 285.5 2c12 0 19.333 -1.33301 22 -4s2.66699 -5.66699 0 -9s-7 -6.5 -13 -9.5s-12 -5.16699 -18 -6.5c-14.667 -6 -37 -13.5 -67 -22.5s-64.167 -18.5 -102.5 -28.5
s-79.166 -20 -122.499 -30s-85.5 -19 -126.5 -27s-79.333 -14.5 -115 -19.5s-65.167 -7.5 -88.5 -7.5c-81.333 0 -155.5 13.167 -222.5 39.5s-124.667 63.333 -173 111s-85.833 105 -112.5 172s-40 141.5 -40 223.5c0 68.667 8.83301 137.5 26.5 206.5
s43.334 134 77.001 195s75 115.833 124 164.5s105.167 87 168.5 115l-92 24.5c-30 7.66699 -59.333 12.667 -88 15s-56.5 1.33301 -83.5 -3s-52.833 -14.166 -77.5 -29.499c-5.33301 -3.33301 -10 -5 -14 -5c-6 0 -10.5 3.16699 -13.5 9.5s-2.83301 13.833 0.5 22.5
c0.666992 4 4.16699 13.167 10.5 27.5l21 46.5l22 48.5c7 15.667 11.5 26.834 13.5 33.501c18 22.667 42.833 35.834 74.5 39.501s68.167 2.66699 109.5 -3s86.333 -13.834 135 -24.501s99 -19 151 -25z" />
    <glyph glyph-name="u062F" unicode="&#x62f;" horiz-adv-x="713" arabic-form="isolated" 
d="M37 -27c0.666992 4.66699 1.66895 10.666 3.00195 17.999l5.5 30.5l9 50l13.5 77.5l271 22.5l271 22.5c-5.33301 26 -12.333 54.5 -21 85.5s-19 61.5 -31 91.5s-25.333 57.833 -40 83.5s-30.334 45.834 -47.001 60.501c-3.33301 2 -5.66602 2.5 -6.99902 1.5
s-2.66602 -2.33301 -3.99902 -4s-3 -3.5 -5 -5.5s-5.33301 -3 -10 -3c-17.333 0 -35.5 7.33301 -54.5 22s-36.5 32.334 -52.5 53.001s-29.5 42 -40.5 64s-16.833 40.667 -17.5 56c3.33301 25.333 8 51.166 14 77.499s14 53.833 24 82.5c2 6 6.33301 8.5 13 7.5
s14 -3.66699 22 -8s16 -9.16602 24 -14.499l18 -12c40 -26.667 77.5 -59.167 112.5 -97.5s65.833 -80.333 92.5 -126s47.667 -93.5 63 -143.5s23 -99.667 23 -149c0 -13.333 -1.66699 -30 -5 -50s-7.66602 -41.333 -12.999 -64s-11.333 -45.5 -18 -68.5
s-13.334 -43.833 -20.001 -62.5s-13.167 -34.167 -19.5 -46.5s-11.5 -19.166 -15.5 -20.499c-2 -0.666992 -18.167 -2.33398 -48.5 -5.00098s-69.666 -6.33398 -117.999 -11.001l-163.5 -16.5c-60.667 -6.33301 -122 -13.5 -184 -21.5
c-4.66699 -0.666992 -9.83398 -1.16699 -15.501 -1.5s-10.834 0 -15.501 1s-8.33398 3.33301 -11.001 7s-3.33398 9.16699 -2.00098 16.5z" />
    <glyph glyph-name="u0630" unicode="&#x630;" horiz-adv-x="734" arabic-form="isolated" 
d="M234 1159c3.33301 4.66699 9.33301 12.501 18 23.501l28 35l29 34.5c9.33301 10.667 16 18 20 22c5.33301 6.66699 10 9.83398 14 9.50098s8 -2.16602 12 -5.49902c24 -20.667 48.167 -40.334 72.5 -59.001s44.5 -36.334 60.5 -53.001
c3.33301 -3.33301 4.66602 -6.5 3.99902 -9.5s-2.66699 -6.5 -6 -10.5c-14.667 -21.333 -30 -41.666 -46 -60.999s-31.667 -39.333 -47 -60c-6.66699 -12 -15.667 -14.333 -27 -7c-8.66699 4.66699 -19.5 12 -32.5 22s-26 20.667 -39 32s-25.167 22.5 -36.5 33.5
s-19.666 20.167 -24.999 27.5c-4 5.33301 -5.66699 9.66602 -5 12.999s2.66699 7.66602 6 12.999zM38 -26.999c0.666992 4.66699 1.66895 10.666 3.00195 17.999l5.5 30.5l9 50l13.5 77.5l271 22.5l271 22.5c-5.33301 26 -12.333 54.5 -21 85.5s-19 61.5 -31 91.5
s-25.333 57.833 -40 83.5s-30.334 45.834 -47.001 60.501c-3.33301 2 -5.66602 2.5 -6.99902 1.5s-2.66602 -2.33301 -3.99902 -4s-3 -3.5 -5 -5.5s-5.33301 -3 -10 -3c-17.333 0 -35.5 7.33301 -54.5 22s-36.5 32.334 -52.5 53.001s-29.5 42 -40.5 64
s-16.833 40.667 -17.5 56c3.33301 25.333 8 51.166 14 77.499s14 53.833 24 82.5c2 6 6.33301 8.5 13 7.5s14 -3.66699 22 -8s16 -9.16602 24 -14.499l18 -12c40 -26.667 77.5 -59.167 112.5 -97.5s65.833 -80.333 92.5 -126s47.667 -93.5 63 -143.5s23 -99.667 23 -149
c0 -13.333 -1.66699 -30 -5 -50s-7.66602 -41.333 -12.999 -64s-11.333 -45.5 -18 -68.5s-13.334 -43.833 -20.001 -62.5s-13.167 -34.167 -19.5 -46.5s-11.5 -19.166 -15.5 -20.499c-2 -0.666992 -18.167 -2.33398 -48.5 -5.00098s-69.666 -6.33398 -117.999 -11.001
l-163.5 -16.5c-60.667 -6.33301 -122 -13.5 -184 -21.5c-4.66699 -0.666992 -9.83398 -1.16699 -15.501 -1.5s-10.834 0 -15.501 1s-8.33398 3.33301 -11.001 7s-3.33398 9.16699 -2.00098 16.5z" />
    <glyph glyph-name="u0631" unicode="&#x631;" horiz-adv-x="592" arabic-form="isolated" 
d="M-139 -292c42 4.66699 91.165 15.5 147.498 32.5s113.5 40.667 171.5 71s113.167 67.833 165.5 112.5s95.5 97.334 129.5 158.001c6 22 5.16699 45.833 -2.5 71.5s-17.834 50.334 -30.501 74.001s-25.667 45.167 -39 64.5s-22.666 34 -27.999 44
c-1.33301 0 -1.5 1.66699 -0.5 5l6.5 21.5c3.33301 11 8.5 27 15.5 48l27.5 84.5c2 7.33301 4.5 12 7.5 14s6.16699 2.5 9.5 1.5s6.83301 -2.83301 10.5 -5.5l10.5 -8c38 -46 64.667 -92.667 80 -140s22 -95 20 -143s-11.167 -95.833 -27.5 -143.5
s-37.166 -94.167 -62.499 -139.5c-15.333 -27.333 -31.833 -55.333 -49.5 -84s-37.5 -55.167 -59.5 -79.5s-46.333 -44.833 -73 -61.5s-56.334 -26.334 -89.001 -29.001c-65.333 -6.66699 -124.666 -11 -177.999 -13s-107.666 1.66699 -162.999 11
c-23.333 7.33301 -34.5 13.666 -33.5 18.999s12.5 10 34.5 14z" />
    <glyph glyph-name="u0632" unicode="&#x632;" horiz-adv-x="641" arabic-form="isolated" 
d="M303 794c3.33301 4.66699 9.33301 12.501 18 23.501l28 35l29 34.5c9.33301 10.667 16 18 20 22c5.33301 6.66699 10 9.83398 14 9.50098s8 -2.16602 12 -5.49902c24 -20.667 48.167 -40.334 72.5 -59.001s44.5 -36.334 60.5 -53.001
c3.33301 -3.33301 4.66602 -6.5 3.99902 -9.5s-2.66699 -6.5 -6 -10.5c-14.667 -21.333 -30 -41.666 -46 -60.999s-31.667 -39.333 -47 -60c-6.66699 -12 -15.667 -14.333 -27 -7c-8.66699 4.66699 -19.5 12 -32.5 22s-26 20.667 -39 32s-25.167 22.5 -36.5 33.5
s-19.666 20.167 -24.999 27.5c-4 5.33301 -5.66699 9.66602 -5 12.999s2.66699 7.66602 6 12.999zM-108 -291.999c42 4.66699 91.165 15.5 147.498 32.5s113.5 40.667 171.5 71s113.167 67.833 165.5 112.5s95.5 97.334 129.5 158.001c6 22 5.16699 45.833 -2.5 71.5
s-17.834 50.334 -30.501 74.001s-25.667 45.167 -39 64.5s-22.666 34 -27.999 44c-1.33301 0 -1.5 1.66699 -0.5 5l6.5 21.5c3.33301 11 8.5 27 15.5 48l27.5 84.5c2 7.33301 4.5 12 7.5 14s6.16699 2.5 9.5 1.5s6.83301 -2.83301 10.5 -5.5l10.5 -8
c38 -46 64.667 -92.667 80 -140s22 -95 20 -143s-11.167 -95.833 -27.5 -143.5s-37.166 -94.167 -62.499 -139.5c-15.333 -27.333 -31.833 -55.333 -49.5 -84s-37.5 -55.167 -59.5 -79.5s-46.333 -44.833 -73 -61.5s-56.334 -26.334 -89.001 -29.001
c-65.333 -6.66699 -124.666 -11 -177.999 -13s-107.666 1.66699 -162.999 11c-23.333 7.33301 -34.5 13.666 -33.5 18.999s12.5 10 34.5 14z" />
    <glyph glyph-name="u0633" unicode="&#x633;" horiz-adv-x="2029" arabic-form="isolated" 
d="M106 -133c0 42 4.16699 83.1729 12.5 123.506s19.833 79.666 34.5 117.999s32 75.666 52 111.999s41.667 71.166 65 104.499c6 8.66699 12.333 16.334 19 23.001s12 10.5 16 11.5s5.83301 -1.33301 5.5 -7s-4.16602 -16.167 -11.499 -31.5l-39 -84
c-12.667 -28 -24 -56.333 -34 -85s-18 -57.5 -24 -86.5s-9 -58.833 -9 -89.5c0 -54 10.333 -101.5 31 -142.5s48.5 -75.167 83.5 -102.5s75.5 -47.833 121.5 -61.5s94.667 -20.5 146 -20.5c14.667 -0.666992 33.5 0.333008 56.5 3s48.167 7 75.5 13s55.5 13.667 84.5 23
s56.667 20.166 83 32.499s50.333 26.166 72 41.499s38.5 32 50.5 50c2 34.667 0.5 69 -4.5 103s-11.5 66.833 -19.5 98.5s-17.167 61.834 -27.5 90.501l-28.5 79.5c-8.66699 24.333 -16 45.833 -22 64.5s-9 33.667 -9 45c0 0.666992 0.166992 2.66699 0.5 6
s2 10.166 5 20.499l13.5 45.5l26 83c1.33301 4 2.66602 5.33301 3.99902 4s2.33301 -3 3 -5c16.667 -39.333 33.834 -73.833 51.501 -103.5s38.167 -54.167 61.5 -73.5s50.5 -33.833 81.5 -43.5s68.167 -14.5 111.5 -14.5c28.667 0 53.334 4.16699 74.001 12.5
s39.167 19.5 55.5 33.5s31.333 30.5 45 49.5l43.5 61.5c3.33301 4.66699 7.5 9 12.5 13s9.5 6.5 13.5 7.5s7.33301 0.166992 10 -2.5s3.33398 -8.33398 2.00098 -17.001c-2.66699 -15.333 -8 -29.5 -16 -42.5s-14.667 -27.833 -20 -44.5c6.66699 -5.33301 21 -11.5 43 -18.5
s45.667 -13.833 71 -20.5s49.333 -12.167 72 -16.5s37.667 -6.5 45 -6.5l-10.5 40.5c-3.66699 14.333 -6.83398 27.833 -9.50098 40.5l37.5 79.5l37.5 78.5c5.33301 11.333 9.33301 17.666 12 18.999s6 -4.66699 10 -18c12.667 -38.667 23.5 -78.834 32.5 -120.501
s13.5 -83.5 13.5 -125.5c-4.66699 -12.667 -10.834 -28 -18.501 -46l-23.5 -55l-23.5 -53c-7.66699 -16.667 -14.167 -30 -19.5 -40c-13.333 -0.666992 -31 0.5 -53 3.5s-45.833 7.16699 -71.5 12.5s-51.834 11.666 -78.501 18.999s-51.5 14.5 -74.5 21.5
s-42.833 13.833 -59.5 20.5s-27.667 12.334 -33 17.001c-19.333 -25.333 -39.833 -44.833 -61.5 -58.5s-44.5 -23.167 -68.5 -28.5s-49.167 -7.5 -75.5 -6.5s-53.5 3.83301 -81.5 8.5c-1.33301 -50.667 -4.83301 -98.5 -10.5 -143.5s-15.167 -92.5 -28.5 -142.5
c-7.33301 -28 -20.5 -54.833 -39.5 -80.5s-41.833 -49.5 -68.5 -71.5s-56.167 -42 -88.5 -60s-65.666 -33.167 -99.999 -45.5s-68.5 -21.666 -102.5 -27.999s-66 -8.83301 -96 -7.5c-68 -0.666992 -128.833 7.83301 -182.5 25.5s-99.334 44.167 -137.001 79.5
s-66.5 79 -86.5 131s-30 112 -30 180z" />
    <glyph glyph-name="u0634" unicode="&#x634;" horiz-adv-x="2076" arabic-form="isolated" 
d="M1276 1058l18.5 22.5l28.5 34.5l28.5 34.5l19.5 23.5c5.33301 6.66699 10 9.66699 14 9s7.66699 -2.66699 11 -6l73.5 -59c24.333 -18.667 44.5 -36 60.5 -52c3.33301 -4 4.66602 -7.33301 3.99902 -10s-2.66699 -6.33398 -6 -11.001
c-14.667 -21.333 -30 -41.666 -46 -60.999s-31.667 -39.333 -47 -60c-6.66699 -10.667 -15.667 -13 -27 -7c-8.66699 4.66699 -19.5 12 -32.5 22s-26 20.667 -39 32s-25.167 22.5 -36.5 33.5s-19.666 20.167 -24.999 27.5c-4 6 -5.66699 10.5 -5 13.5s2.66699 7.5 6 13.5z
M1177 734c-14 10 -17.335 21 -10.002 33l49 68.5l49 67.5c5.33301 5.33301 10 7.83301 14 7.5s8 -2.16602 12 -5.49902c12.667 -9.33301 24.834 -18.833 36.501 -28.5l34.5 -28.5c12 -8.66699 24 -16.834 36 -24.501s21.333 -12.834 28 -15.501
c7.33301 -2 11.666 -2.16699 12.999 -0.5l11 13.5c6.66699 7.33301 16.5 19 29.5 35l55.5 67c5.33301 5.33301 9.83301 7.16602 13.5 5.49902s6.83398 -3.5 9.50098 -5.5l74.5 -60l39 -31l15 -12c1.66699 -1.33301 2.83398 -2.33301 3.50098 -3
c9.33301 -7.33301 10.666 -15 3.99902 -23l-49 -63.5l-49 -63.5c-6 -6.66699 -11 -9.66699 -15 -9s-8 2.33398 -12 5.00098c-23.333 14.667 -45 30.834 -65 48.501s-40.667 37.167 -62 58.5l-50 -64l-49 -63c-6.66699 -8 -15 -10 -25 -6s-18.667 8 -26 12
c-12 7.33301 -22.333 14 -31 20l-25.5 18c-8.33301 6 -17.166 12.833 -26.499 20.5zM152.998 -133c0 42 4.16699 83.1729 12.5 123.506s19.833 79.666 34.5 117.999s32 75.666 52 111.999s41.667 71.166 65 104.499c6 8.66699 12.333 16.334 19 23.001s12 10.5 16 11.5
s5.83301 -1.33301 5.5 -7s-4.16602 -16.167 -11.499 -31.5l-39 -84c-12.667 -28 -24 -56.333 -34 -85s-18 -57.5 -24 -86.5s-9 -58.833 -9 -89.5c0 -54 10.333 -101.5 31 -142.5s48.5 -75.167 83.5 -102.5s75.5 -47.833 121.5 -61.5s94.667 -20.5 146 -20.5
c14.667 -0.666992 33.5 0.333008 56.5 3s48.167 7 75.5 13s55.5 13.667 84.5 23s56.667 20.166 83 32.499s50.333 26.166 72 41.499s38.5 32 50.5 50c2 34.667 0.5 69 -4.5 103s-11.5 66.833 -19.5 98.5s-17.167 61.834 -27.5 90.501l-28.5 79.5
c-8.66699 24.333 -16 45.833 -22 64.5s-9 33.667 -9 45c0 0.666992 0.166992 2.66699 0.5 6s2 10.166 5 20.499l13.5 45.5l26 83c1.33301 4 2.66602 5.33301 3.99902 4s2.33301 -3 3 -5c16.667 -39.333 33.834 -73.833 51.501 -103.5s38.167 -54.167 61.5 -73.5
s50.5 -33.833 81.5 -43.5s68.167 -14.5 111.5 -14.5c28.667 0 53.334 4.16699 74.001 12.5s39.167 19.5 55.5 33.5s31.333 30.5 45 49.5l43.5 61.5c3.33301 4.66699 7.5 9 12.5 13s9.5 6.5 13.5 7.5s7.33301 0.166992 10 -2.5s3.33398 -8.33398 2.00098 -17.001
c-2.66699 -15.333 -8 -29.5 -16 -42.5s-14.667 -27.833 -20 -44.5c6.66699 -5.33301 21 -11.5 43 -18.5s45.667 -13.833 71 -20.5s49.333 -12.167 72 -16.5s37.667 -6.5 45 -6.5l-10.5 40.5c-3.66699 14.333 -6.83398 27.833 -9.50098 40.5l37.5 79.5l37.5 78.5
c5.33301 11.333 9.33301 17.666 12 18.999s6 -4.66699 10 -18c12.667 -38.667 23.5 -78.834 32.5 -120.501s13.5 -83.5 13.5 -125.5c-4.66699 -12.667 -10.834 -28 -18.501 -46l-23.5 -55l-23.5 -53c-7.66699 -16.667 -14.167 -30 -19.5 -40
c-13.333 -0.666992 -31 0.5 -53 3.5s-45.833 7.16699 -71.5 12.5s-51.834 11.666 -78.501 18.999s-51.5 14.5 -74.5 21.5s-42.833 13.833 -59.5 20.5s-27.667 12.334 -33 17.001c-19.333 -25.333 -39.833 -44.833 -61.5 -58.5s-44.5 -23.167 -68.5 -28.5
s-49.167 -7.5 -75.5 -6.5s-53.5 3.83301 -81.5 8.5c-1.33301 -50.667 -4.83301 -98.5 -10.5 -143.5s-15.167 -92.5 -28.5 -142.5c-7.33301 -28 -20.5 -54.833 -39.5 -80.5s-41.833 -49.5 -68.5 -71.5s-56.167 -42 -88.5 -60s-65.666 -33.167 -99.999 -45.5
s-68.5 -21.666 -102.5 -27.999s-66 -8.83301 -96 -7.5c-68 -0.666992 -128.833 7.83301 -182.5 25.5s-99.334 44.167 -137.001 79.5s-66.5 79 -86.5 131s-30 112 -30 180z" />
    <glyph glyph-name="u0635" unicode="&#x635;" horiz-adv-x="2015" arabic-form="isolated" 
d="M1319 200c48.667 -9.33301 102.333 -15.832 161 -19.499s118.5 -4 179.5 -1s121 9.66699 180 20s113.5 24.833 163.5 43.5c-25.333 61.333 -54.833 107.333 -88.5 138s-69.834 50 -108.501 58s-79.167 6.16699 -121.5 -5.5s-84.666 -29.334 -126.999 -53.001
s-83.833 -51.5 -124.5 -83.5s-78.667 -64.333 -114 -97zM155.999 -133.999c2.66699 92 19.332 176.152 49.999 252.485s72 148.833 124 217.5c6 8 12 14 18 18s10.667 6 14 6c9.33301 0 8.66602 -9 -2.00098 -27c-23.333 -38.667 -43.5 -78.667 -60.5 -120
s-30.167 -81.833 -39.5 -121.5s-14.333 -77.667 -15 -114s3.66602 -69.166 12.999 -98.499c11.333 -31.333 26.5 -60.666 45.5 -87.999s43.5 -51.166 73.5 -71.499s65.833 -36.666 107.5 -48.999s90.5 -19.166 146.5 -20.499c38.667 1.33301 77.5 5.5 116.5 12.5
s76.5 16.833 112.5 29.5s70 28.5 102 47.5s60.667 41.167 86 66.5c1.33301 32 -0.166992 64.667 -4.5 98s-10.333 66 -18 98s-16 62.833 -25 92.5s-17.833 56.667 -26.5 81l-23 63.5c-6.66699 18 -11 31.333 -13 40c-0.666992 3.33301 -0.666992 7.33301 0 12s2.5 12 5.5 22
s7.5 24 13.5 42l24 71c1.33301 4 2.66602 7.5 3.99902 10.5s2.83301 5 4.5 6s3.33398 0.5 5.00098 -1.5s3.5 -6.33301 5.5 -13c11.333 -25.333 24.333 -50.666 39 -75.999s31.5 -48.166 50.5 -68.499s40.333 -36.666 64 -48.999s50.5 -18.166 80.5 -17.499
c17.333 15.333 37.666 34.833 60.999 58.5l75.5 75.5c27 26.667 55.333 53 85 79s59.834 49.333 90.501 70c35.333 24.667 71.666 46.334 108.999 65.001s74.5 32.5 111.5 41.5s73.667 12.167 110 9.5s70.833 -12.834 103.5 -30.501s63.167 -44 91.5 -79
s53.5 -80.5 75.5 -136.5c2.66699 -7.33301 4.5 -15.166 5.5 -23.499s-1.5 -17.833 -7.5 -28.5c-6 -13.333 -13.667 -28.666 -23 -45.999l-28 -52l-25.5 -48.5c-7.66699 -15 -13.167 -26.833 -16.5 -35.5c-16 -27.333 -45.167 -50.666 -87.5 -69.999
s-92.166 -35.166 -149.499 -47.499s-119.166 -21.166 -185.499 -26.499s-131.166 -7.66602 -194.499 -6.99902s-122.166 4.33398 -176.499 11.001s-98.5 15.667 -132.5 27l-7 -102c-2 -29.333 -4.66699 -56.5 -8 -81.5s-8.33301 -49 -15 -72s-16 -47.833 -28 -74.5
c-29.333 -46 -65.166 -85.5 -107.499 -118.5s-87.833 -59.667 -136.5 -80s-99.334 -33.833 -152.001 -40.5s-104 -6.66699 -154 0s-97.5 20.167 -142.5 40.5s-84 47.666 -117 81.999s-58.833 75.5 -77.5 123.5s-27 103.333 -25 166z" />
    <glyph glyph-name="u0636" unicode="&#x636;" horiz-adv-x="2015" arabic-form="isolated" 
d="M1413 889c3.33301 4.66699 9.33301 12.501 18 23.501l28 35l29 34.5c9.33301 10.667 16 18 20 22c5.33301 6.66699 10 9.83398 14 9.50098s8 -2.16602 12 -5.49902c24 -20.667 48.167 -40.334 72.5 -59.001s44.5 -36.334 60.5 -53.001
c3.33301 -3.33301 4.66602 -6.5 3.99902 -9.5s-2.66699 -6.5 -6 -10.5c-14.667 -21.333 -30 -41.666 -46 -60.999s-31.667 -39.333 -47 -60c-6.66699 -12 -15.667 -14.333 -27 -7c-8.66699 4.66699 -19.5 12 -32.5 22s-26 20.667 -39 32s-25.167 22.5 -36.5 33.5
s-19.666 20.167 -24.999 27.5c-4 5.33301 -5.66699 9.66602 -5 12.999s2.66699 7.66602 6 12.999zM1319 200.001c48.667 -9.33301 102.333 -15.832 161 -19.499s118.5 -4 179.5 -1s121 9.66699 180 20s113.5 24.833 163.5 43.5c-25.333 61.333 -54.833 107.333 -88.5 138
s-69.834 50 -108.501 58s-79.167 6.16699 -121.5 -5.5s-84.666 -29.334 -126.999 -53.001s-83.833 -51.5 -124.5 -83.5s-78.667 -64.333 -114 -97zM155.999 -133.998c2.66699 92 19.332 176.152 49.999 252.485s72 148.833 124 217.5c6 8 12 14 18 18s10.667 6 14 6
c9.33301 0 8.66602 -9 -2.00098 -27c-23.333 -38.667 -43.5 -78.667 -60.5 -120s-30.167 -81.833 -39.5 -121.5s-14.333 -77.667 -15 -114s3.66602 -69.166 12.999 -98.499c11.333 -31.333 26.5 -60.666 45.5 -87.999s43.5 -51.166 73.5 -71.499
s65.833 -36.666 107.5 -48.999s90.5 -19.166 146.5 -20.499c38.667 1.33301 77.5 5.5 116.5 12.5s76.5 16.833 112.5 29.5s70 28.5 102 47.5s60.667 41.167 86 66.5c1.33301 32 -0.166992 64.667 -4.5 98s-10.333 66 -18 98s-16 62.833 -25 92.5s-17.833 56.667 -26.5 81
l-23 63.5c-6.66699 18 -11 31.333 -13 40c-0.666992 3.33301 -0.666992 7.33301 0 12s2.5 12 5.5 22s7.5 24 13.5 42l24 71c1.33301 4 2.66602 7.5 3.99902 10.5s2.83301 5 4.5 6s3.33398 0.5 5.00098 -1.5s3.5 -6.33301 5.5 -13c11.333 -25.333 24.333 -50.666 39 -75.999
s31.5 -48.166 50.5 -68.499s40.333 -36.666 64 -48.999s50.5 -18.166 80.5 -17.499c17.333 15.333 37.666 34.833 60.999 58.5l75.5 75.5c27 26.667 55.333 53 85 79s59.834 49.333 90.501 70c35.333 24.667 71.666 46.334 108.999 65.001s74.5 32.5 111.5 41.5
s73.667 12.167 110 9.5s70.833 -12.834 103.5 -30.501s63.167 -44 91.5 -79s53.5 -80.5 75.5 -136.5c2.66699 -7.33301 4.5 -15.166 5.5 -23.499s-1.5 -17.833 -7.5 -28.5c-6 -13.333 -13.667 -28.666 -23 -45.999l-28 -52l-25.5 -48.5
c-7.66699 -15 -13.167 -26.833 -16.5 -35.5c-16 -27.333 -45.167 -50.666 -87.5 -69.999s-92.166 -35.166 -149.499 -47.499s-119.166 -21.166 -185.499 -26.499s-131.166 -7.66602 -194.499 -6.99902s-122.166 4.33398 -176.499 11.001s-98.5 15.667 -132.5 27l-7 -102
c-2 -29.333 -4.66699 -56.5 -8 -81.5s-8.33301 -49 -15 -72s-16 -47.833 -28 -74.5c-29.333 -46 -65.166 -85.5 -107.499 -118.5s-87.833 -59.667 -136.5 -80s-99.334 -33.833 -152.001 -40.5s-104 -6.66699 -154 0s-97.5 20.167 -142.5 40.5s-84 47.666 -117 81.999
s-58.833 75.5 -77.5 123.5s-27 103.333 -25 166z" />
    <glyph glyph-name="u0637" unicode="&#x637;" horiz-adv-x="1442" arabic-form="isolated" 
d="M1026 381c-48.667 -1.33301 -96.9971 -12.167 -144.997 -32.5s-94.333 -45.5 -139 -75.5s-87 -62.5 -127 -97.5l-109 -97.5c104.667 2 199.5 7.33301 284.5 16s159.667 18.667 224 30s118.166 22.833 161.499 34.5s75.666 21.5 96.999 29.5
c-8.66699 22.667 -20.834 45.5 -36.501 68.5s-34 43.833 -55 62.5s-44.667 33.667 -71 45s-54.5 17 -84.5 17zM393.003 -99.001c-12.667 -2 -27.665 -0.34082 -44.998 4.99219s-35.833 13 -55.5 23s-39.834 21.5 -60.501 34.5l-60 39l-54.5 37.5
c-17 12 -31.167 21.667 -42.5 29c-12 8 -22.167 15.833 -30.5 23.5s-13.333 14.167 -15 19.5s0.666016 9 6.99902 11s18.166 1.33301 35.499 -2c14.667 -3.33301 32.834 -7.83301 54.501 -13.5s47.667 -11.167 78 -16.5s65.333 -9.83301 105 -13.5
s85.167 -4.83398 136.5 -3.50098c13.333 15.333 26 31 38 47l36.5 48c12.333 16 25.166 31.333 38.499 46s28.333 28.334 45 41.001c4.66699 36 6.16699 74.167 4.5 114.5s-5.66699 86.333 -12 138s-14.333 110.5 -24 176.5s-19.834 143 -30.501 231
c0 22.667 0.333008 44.334 1 65.001s1 42.334 1 65.001l-34.5 31.5c-11.667 11 -21.834 22.833 -30.501 35.5s-14.667 26.167 -18 40.5s-2.66602 30.166 2.00098 47.499l23.5 40.5l21 36.5c7 12 14.5 24.167 22.5 36.5s17 25.5 27 39.5l14 14
c4.66699 4.66699 8.5 7.83398 11.5 9.50098s4.66699 0.833984 5 -2.49902s-1.5 -10.333 -5.5 -21c-6.66699 -18.667 -8 -35.167 -4 -49.5s10.833 -27.166 20.5 -38.499s21 -21.666 34 -30.999l38 -27.5c12.333 -9 22.833 -18.167 31.5 -27.5s13.334 -19.333 14.001 -30
c-12.667 -25.333 -25.5 -49.666 -38.5 -72.999l-39.5 -73c2 -42.667 6 -86.167 12 -130.5l18 -133.5c6 -44.667 11.333 -89.167 16 -133.5s6.66699 -87.833 6 -130.5c0 -58 -8 -112.333 -24 -163c74 66.667 147.833 120.334 221.5 161.001s143.667 63.667 210 69
s127.833 -9.5 184.5 -44.5s105 -94.5 145 -178.5c4 -18.667 3.66699 -35.834 -1 -51.501s-13.334 -33 -26.001 -52s-29.167 -41.333 -49.5 -67s-44.166 -58.167 -71.499 -97.5c-18 -15.333 -54.167 -31.666 -108.5 -48.999s-121.166 -33.666 -200.499 -48.999
s-168.333 -28 -267 -38s-202 -15 -310 -15z" />
    <glyph glyph-name="u0638" unicode="&#x638;" horiz-adv-x="1500" arabic-form="isolated" 
d="M919 881c3.33301 4.66699 9.33301 12.501 18 23.501l28 35l29 34.5c9.33301 10.667 16 18 20 22c5.33301 6.66699 10 9.83398 14 9.50098s8 -2.16602 12 -5.49902c24 -20.667 48.167 -40.334 72.5 -59.001s44.5 -36.334 60.5 -53.001
c3.33301 -3.33301 4.66602 -6.5 3.99902 -9.5s-2.66699 -6.5 -6 -10.5c-14.667 -21.333 -30 -41.666 -46 -60.999s-31.667 -39.333 -47 -60c-6.66699 -12 -15.667 -14.333 -27 -7c-8.66699 4.66699 -19.5 12 -32.5 22s-26 20.667 -39 32s-25.167 22.5 -36.5 33.5
s-19.666 20.167 -24.999 27.5c-4 5.33301 -5.66699 9.66602 -5 12.999s2.66699 7.66602 6 12.999zM1074 381.001c-48.667 -1.33301 -96.9971 -12.167 -144.997 -32.5s-94.333 -45.5 -139 -75.5s-87 -62.5 -127 -97.5l-109 -97.5c104.667 2 199.5 7.33301 284.5 16
s159.667 18.667 224 30s118.166 22.833 161.499 34.5s75.666 21.5 96.999 29.5c-8.66699 22.667 -20.834 45.5 -36.501 68.5s-34 43.833 -55 62.5s-44.667 33.667 -71 45s-54.5 17 -84.5 17zM441.003 -99c-12.667 -2 -27.665 -0.34082 -44.998 4.99219s-35.833 13 -55.5 23
s-39.834 21.5 -60.501 34.5l-60 39l-54.5 37.5c-17 12 -31.167 21.667 -42.5 29c-12 8 -22.167 15.833 -30.5 23.5s-13.333 14.167 -15 19.5s0.666016 9 6.99902 11s18.166 1.33301 35.499 -2c14.667 -3.33301 32.834 -7.83301 54.501 -13.5s47.667 -11.167 78 -16.5
s65.333 -9.83301 105 -13.5s85.167 -4.83398 136.5 -3.50098c13.333 15.333 26 31 38 47l36.5 48c12.333 16 25.166 31.333 38.499 46s28.333 28.334 45 41.001c4.66699 36 6.16699 74.167 4.5 114.5s-5.66699 86.333 -12 138s-14.333 110.5 -24 176.5
s-19.834 143 -30.501 231c0 22.667 0.333008 44.334 1 65.001s1 42.334 1 65.001l-34.5 31.5c-11.667 11 -21.834 22.833 -30.501 35.5s-14.667 26.167 -18 40.5s-2.66602 30.166 2.00098 47.499l23.5 40.5l21 36.5c7 12 14.5 24.167 22.5 36.5s17 25.5 27 39.5l14 14
c4.66699 4.66699 8.5 7.83398 11.5 9.50098s4.66699 0.833984 5 -2.49902s-1.5 -10.333 -5.5 -21c-6.66699 -18.667 -8 -35.167 -4 -49.5s10.833 -27.166 20.5 -38.499s21 -21.666 34 -30.999l38 -27.5c12.333 -9 22.833 -18.167 31.5 -27.5s13.334 -19.333 14.001 -30
c-12.667 -25.333 -25.5 -49.666 -38.5 -72.999l-39.5 -73c2 -42.667 6 -86.167 12 -130.5l18 -133.5c6 -44.667 11.333 -89.167 16 -133.5s6.66699 -87.833 6 -130.5c0 -58 -8 -112.333 -24 -163c74 66.667 147.833 120.334 221.5 161.001s143.667 63.667 210 69
s127.833 -9.5 184.5 -44.5s105 -94.5 145 -178.5c4 -18.667 3.66699 -35.834 -1 -51.501s-13.334 -33 -26.001 -52s-29.167 -41.333 -49.5 -67s-44.166 -58.167 -71.499 -97.5c-18 -15.333 -54.167 -31.666 -108.5 -48.999s-121.166 -33.666 -200.499 -48.999
s-168.333 -28 -267 -38s-202 -15 -310 -15z" />
    <glyph glyph-name="u0639" unicode="&#x639;" horiz-adv-x="1037" arabic-form="isolated" 
d="M160 -267c0 110 20.0029 212.495 60.0029 307.495s94.333 184.5 163 268.5v3c-2.66699 1.33301 -10 5.33301 -22 12s-26.333 15.667 -43 27s-34.5 24.833 -53.5 40.5s-36.5 33.334 -52.5 53.001s-29.167 40.834 -39.5 63.501s-15.5 46.667 -15.5 72
c0 24.667 2.33301 48.5 7 71.5s11 46.167 19 69.5c12.667 36.667 27 68.667 43 96s35.167 50 57.5 68s48.166 31.333 77.499 40s64 13 104 13c18 0 37 -1 57 -3s41.333 -6.16699 64 -12.5s46.5 -15.166 71.5 -26.499s51.167 -26.333 78.5 -45
c6.66699 -4 14.834 -10.667 24.501 -20s16.834 -18.833 21.501 -28.5s4.83398 -17.667 0.500977 -24s-17.166 -8.5 -38.499 -6.5l-120 21.5c-40 7 -80 10.5 -120 10.5c-50 0 -98.333 -9.83301 -145 -29.5s-85 -51.167 -115 -94.5c14 -29.333 34 -56.166 60 -80.499
s55.833 -45.166 89.5 -62.499s69.667 -30.833 108 -40.5s76.5 -14.5 114.5 -14.5c32 0 63 4.16699 93 12.5s59.5 18.833 88.5 31.5s57.667 26.5 86 41.5s56.5 28.833 84.5 41.5c8.66699 4.66699 14.5 6.16699 17.5 4.5s4.33301 -5 4 -10s-1.83301 -10.5 -4.5 -16.5
s-5.33398 -11 -8.00098 -15l-20.5 -37.5l-24 -41.5l-24 -41l-20.5 -35c-28 -7.33301 -63.5 -18.5 -106.5 -33.5s-88.333 -34 -136 -57s-95.334 -50.167 -143.001 -81.5s-90.667 -67.333 -129 -108s-69.5 -85.834 -93.5 -135.501s-36 -104.167 -36 -163.5
c0 -61.333 12.167 -117.333 36.5 -168s56.666 -95.667 96.999 -135s86.5 -72.666 138.5 -99.999s105.667 -48 161 -62c19.333 -7.33301 43.666 -13.166 72.999 -17.499s62.166 -7.5 98.499 -9.5s75.5 -3.33301 117.5 -4s85.333 -1 130 -1c46 0 92.167 0.166992 138.5 0.5
s92.5 0.5 138.5 0.5h5c6 0 9 -1.33301 9 -4c0 -1.33301 -1.33301 -3 -4 -5c-7.33301 -4.66699 -20.333 -10.834 -39 -18.501s-44.5 -16.667 -77.5 -27s-73.833 -21.833 -122.5 -34.5s-106.334 -26.334 -173.001 -41.001c-42 -9.33301 -85 -17.166 -129 -23.499
s-87 -9.5 -129 -9.5c-74.667 0 -146.167 13.5 -214.5 40.5s-128.333 65 -180 114s-92 107.333 -121 175s-41.5 142.5 -37.5 224.5z" />
    <glyph glyph-name="u063A" unicode="&#x63a;" horiz-adv-x="1050" arabic-form="isolated" 
d="M281 1241c3.33301 4.66699 9.33301 12.501 18 23.501l28 35l29 34.5c9.33301 10.667 16 18 20 22c5.33301 6.66699 10 9.83398 14 9.50098s8 -2.16602 12 -5.49902c24 -20.667 48.167 -40.334 72.5 -59.001s44.5 -36.334 60.5 -53.001
c3.33301 -3.33301 4.66602 -6.5 3.99902 -9.5s-2.66699 -6.5 -6 -10.5c-14.667 -21.333 -30 -41.666 -46 -60.999s-31.667 -39.333 -47 -60c-6.66699 -12 -15.667 -14.333 -27 -7c-8.66699 4.66699 -19.5 12 -32.5 22s-26 20.667 -39 32s-25.167 22.5 -36.5 33.5
s-19.666 20.167 -24.999 27.5c-4 5.33301 -5.66699 9.66602 -5 12.999s2.66699 7.66602 6 12.999zM160 -266.999c0 110 20.0029 212.495 60.0029 307.495s94.333 184.5 163 268.5v3c-2.66699 1.33301 -10 5.33301 -22 12s-26.333 15.667 -43 27s-34.5 24.833 -53.5 40.5
s-36.5 33.334 -52.5 53.001s-29.167 40.834 -39.5 63.501s-15.5 46.667 -15.5 72c0 24.667 2.33301 48.5 7 71.5s11 46.167 19 69.5c12.667 36.667 27 68.667 43 96s35.167 50 57.5 68s48.166 31.333 77.499 40s64 13 104 13c18 0 37 -1 57 -3s41.333 -6.16699 64 -12.5
s46.5 -15.166 71.5 -26.499s51.167 -26.333 78.5 -45c6.66699 -4 14.834 -10.667 24.501 -20s16.834 -18.833 21.501 -28.5s4.83398 -17.667 0.500977 -24s-17.166 -8.5 -38.499 -6.5l-120 21.5c-40 7 -80 10.5 -120 10.5c-50 0 -98.333 -9.83301 -145 -29.5
s-85 -51.167 -115 -94.5c14 -29.333 34 -56.166 60 -80.499s55.833 -45.166 89.5 -62.499s69.667 -30.833 108 -40.5s76.5 -14.5 114.5 -14.5c32 0 63 4.16699 93 12.5s59.5 18.833 88.5 31.5s57.667 26.5 86 41.5s56.5 28.833 84.5 41.5
c8.66699 4.66699 14.5 6.16699 17.5 4.5s4.33301 -5 4 -10s-1.83301 -10.5 -4.5 -16.5s-5.33398 -11 -8.00098 -15l-20.5 -37.5l-24 -41.5l-24 -41l-20.5 -35c-28 -7.33301 -63.5 -18.5 -106.5 -33.5s-88.333 -34 -136 -57s-95.334 -50.167 -143.001 -81.5
s-90.667 -67.333 -129 -108s-69.5 -85.834 -93.5 -135.501s-36 -104.167 -36 -163.5c0 -61.333 12.167 -117.333 36.5 -168s56.666 -95.667 96.999 -135s86.5 -72.666 138.5 -99.999s105.667 -48 161 -62c19.333 -7.33301 43.666 -13.166 72.999 -17.499
s62.166 -7.5 98.499 -9.5s75.5 -3.33301 117.5 -4s85.333 -1 130 -1c46 0 92.167 0.166992 138.5 0.5s92.5 0.5 138.5 0.5h5c6 0 9 -1.33301 9 -4c0 -1.33301 -1.33301 -3 -4 -5c-7.33301 -4.66699 -20.333 -10.834 -39 -18.501s-44.5 -16.667 -77.5 -27
s-73.833 -21.833 -122.5 -34.5s-106.334 -26.334 -173.001 -41.001c-42 -9.33301 -85 -17.166 -129 -23.499s-87 -9.5 -129 -9.5c-74.667 0 -146.167 13.5 -214.5 40.5s-128.333 65 -180 114s-92 107.333 -121 175s-41.5 142.5 -37.5 224.5z" />
    <glyph glyph-name="u0641" unicode="&#x641;" horiz-adv-x="1702" arabic-form="isolated" 
d="M1183 1170c3.33301 4.66699 9.33301 12.501 18 23.501l28 35l29 34.5c9.33301 10.667 16 18 20 22c5.33301 6.66699 10 9.83398 14 9.50098s8 -2.16602 12 -5.49902c24 -20.667 48.167 -40.334 72.5 -59.001s44.5 -36.334 60.5 -53.001
c3.33301 -3.33301 4.66602 -6.5 3.99902 -9.5s-2.66699 -6.5 -6 -10.5c-14.667 -21.333 -30 -41.666 -46 -60.999s-31.667 -39.333 -47 -60c-6.66699 -12 -15.667 -14.333 -27 -7c-8.66699 4.66699 -19.5 12 -32.5 22s-26 20.667 -39 32s-25.167 22.5 -36.5 33.5
s-19.666 20.167 -24.999 27.5c-4 5.33301 -5.66699 9.66602 -5 12.999s2.66699 7.66602 6 12.999zM1325 686.001c-9.33301 0 -18.666 -1.83008 -27.999 -5.49707s-17.833 -8 -25.5 -13s-14 -9.83301 -19 -14.5s-8.16699 -8 -9.5 -10
c-4 -4.66699 -2.16699 -11.334 5.5 -20.001s17.5 -17 29.5 -25s24 -14.833 36 -20.5s20.333 -7.83398 25 -6.50098c12 0 26.167 3.16699 42.5 9.5s30.166 12.166 41.499 17.499c-0.666992 9.33301 -4.33398 19.166 -11.001 29.499s-14.667 19.833 -24 28.5
s-19.666 15.834 -30.999 21.501s-22 8.5 -32 8.5zM151 274.004c-0.666992 36 2.66504 72.334 9.99805 109.001s18.333 72 33 106c10.667 24 20.5 44.5 29.5 61.5s15.667 27 20 30s5.66602 -2.66699 3.99902 -17s-7.5 -40.833 -17.5 -79.5
c-11.333 -53.333 -11.666 -99.166 -0.999023 -137.499s28.834 -71 54.501 -98s57.334 -48.667 95.001 -65s77.667 -29.166 120 -38.499s85.5 -15.5 129.5 -18.5s85 -4.5 123 -4.5c44 0 90.5 1.66699 139.5 5s98.333 8.16602 148 14.499s98.667 14.166 147 23.499
s93.833 20 136.5 32s81.667 25.5 117 40.5s64.666 31.167 87.999 48.5c0 10 -1.5 25.333 -4.5 46s-7 42 -12 64s-11.167 42.5 -18.5 61.5s-15 31.5 -23 37.5c-12 -19.333 -24 -36.333 -36 -51s-24.5 -26.834 -37.5 -36.501s-27.167 -16.834 -42.5 -21.501s-33 -7 -53 -7
c-22 0 -43 4.33301 -63 13s-37.667 20.5 -53 35.5s-27.5 32.5 -36.5 52.5s-13.5 41.333 -13.5 64c0 30.667 6 60 18 88l35 85c8 18.667 18.5 37.667 31.5 57s28 36.666 45 51.999s35.5 27.833 55.5 37.5s40.667 13.834 62 12.501c27.333 -1.33301 53 -10.833 77 -28.5
s45.833 -40 65.5 -67s36.834 -57.333 51.501 -91s26.834 -67.167 36.501 -100.5s16.5 -65.166 20.5 -95.499s5 -55.5 3 -75.5c0.666992 -20 -2 -46.167 -8 -78.5s-14.833 -65 -26.5 -98s-25.667 -63.167 -42 -90.5s-33.833 -46 -52.5 -56
c-104.667 -52.667 -210.667 -92.667 -318 -120s-219.666 -44.666 -336.999 -51.999c-45.333 -2 -93.666 -3 -144.999 -3c-42.667 0 -85.834 1.66699 -129.501 5s-85.834 9.66602 -126.501 18.999s-78.834 22.333 -114.501 39s-67 38 -94 64s-48.5 57.667 -64.5 95
s-24.667 81.333 -26 132z" />
    <glyph glyph-name="u0642" unicode="&#x642;" horiz-adv-x="1341" arabic-form="isolated" 
d="M655 851c-13.333 10 -16.668 21.3311 -10.001 33.998l49 67.5l49 67.5c5.33301 6 9.83301 8.66699 13.5 8s7.83398 -2.66699 12.501 -6l35.5 -29l36.5 -28.5c12 -9 23.5 -17 34.5 -24s20.5 -11.833 28.5 -14.5c7.33301 -2 11.666 -2.33301 12.999 -1s5 5.66602 11 12.999
c6.66699 7.33301 16.5 19 29.5 35l55.5 67c5.33301 5.33301 9.83301 7.16602 13.5 5.49902s6.83398 -3.5 9.50098 -5.5l74.5 -60l39 -31l15 -12c1.66699 -1.33301 2.83398 -2.33301 3.50098 -3c4 -2.66699 6.5 -6 7.5 -10s-0.166992 -8 -3.5 -12l-49.5 -63.5l-48.5 -63.5
c-6 -7.33301 -11 -10.666 -15 -9.99902s-8 2.33398 -12 5.00098c-23.333 14.667 -45 30.834 -65 48.501s-40.667 37.167 -62 58.5l-50 -64l-49 -63c-6.66699 -8 -15.167 -10 -25.5 -6s-18.833 8.33301 -25.5 13c-12 6.66699 -22.333 12.834 -31 18.501
s-17.334 11.667 -26.001 18s-17.5 13.333 -26.5 21zM800.998 361.998c14 -26 30.832 -45.999 50.499 -59.999s40.334 -23.167 62.001 -27.5s43.167 -4.66602 64.5 -0.999023s40.666 10.167 57.999 19.5c-15.333 40 -35 69.333 -59 88s-49.333 28 -76 28
c-6.66699 0.666992 -15 -0.333008 -25 -3s-20 -6.33398 -30 -11.001s-19.167 -9.83398 -27.5 -15.501s-14.166 -11.5 -17.499 -17.5zM593.997 -307.001c48.667 0.666992 97.001 6.83984 145.001 18.5068s94.667 26.834 140 45.501s89 40.167 131 64.5s81 49.833 117 76.5
c-1.33301 24 -4 49.167 -8 75.5s-8.66699 52.5 -14 78.5s-11 50.667 -17 74l-16 61c-14.667 -34 -37.834 -60.667 -69.501 -80s-65.834 -29 -102.501 -29c-30.667 0 -59.334 7.16699 -86.001 21.5s-49 33.166 -67 56.499s-30.333 49.666 -37 78.999
s-5.33398 59.333 3.99902 90l31.5 99c11 33.333 25.167 63.5 42.5 90.5s39.333 49 66 66s60.667 25.5 102 25.5c38 0 70 -10.333 96 -31s47.833 -47.834 65.5 -81.501s31.5 -71.334 41.5 -113.001s18 -83.667 24 -126s10.333 -82.666 13 -120.999
s5.33398 -70.5 8.00098 -96.5c0.666992 -88 -13.166 -162.167 -41.499 -222.5s-71.5 -112.833 -129.5 -157.5c-58 -40.667 -121.167 -74.334 -189.5 -101.001s-136.666 -43.834 -204.999 -51.501s-133.5 -4.83398 -195.5 8.49902s-115.333 39.833 -160 79.5
s-78 93.5 -100 161.5s-26.667 152.667 -14 254c10 103.333 32.333 182 67 236c5.33301 11.333 11 21.666 17 30.999s11.667 16.5 17 21.5s9.83301 7.16699 13.5 6.5s5.5 -5.33398 5.5 -14.001c0 -19.333 -5.33301 -39.333 -16 -60
c-15.333 -42 -25.666 -84.833 -30.999 -128.5s-5.33301 -86 0 -127s16.333 -79.5 33 -115.5s39.5 -66.833 68.5 -92.5s64.167 -45.167 105.5 -58.5s89.666 -18 144.999 -14z" />
    <glyph glyph-name="u0643" unicode="&#x643;" horiz-adv-x="1637" arabic-form="isolated" 
d="M1266 689c-9.33301 16 -19.3369 32.1641 -30.0039 48.4971l-31.5 49.5c-10.333 16.667 -19.833 33.334 -28.5 50.001s-15.334 33 -20.001 49c-0.666992 4.66699 -0.5 9.33398 0.5 14.001s2.16699 9.66699 3.5 15c11.333 19.333 19.5 38 24.5 56s12.333 35.5 22 52.5
s23.834 33.5 42.501 49.5s47.667 31.667 87 47l191.5 69l178.5 66l178 66l190 69c8 3.33301 14 4 18 2s3.33301 -7 -2 -15l-66 -68.5l-66 -68.5c-9.33301 -5.33301 -19.666 -10.333 -30.999 -15s-25.666 -10 -42.999 -16l-143 -52l-148.5 -57l-142.5 -57.5l-125 -53.5
c-6 -2.66699 -9.83301 -5.16699 -11.5 -7.5s-2.33398 -4.5 -2.00098 -6.5s1.33301 -4 3 -6s3.5 -4 5.5 -6c52.667 -67.333 97.334 -129.5 134.001 -186.5s66 -110.667 88 -161s37 -98.166 45 -143.499s9.66699 -90 5 -134c-2.66699 -26 -6 -49.333 -10 -70
s-11 -39.5 -21 -56.5s-23.833 -33 -41.5 -48s-41.5 -29.833 -71.5 -44.5c-115.333 -58 -236.5 -99.833 -363.5 -125.5s-254.5 -38.5 -382.5 -38.5c-43.333 0 -87 1.33301 -131 4s-86.5 8.33398 -127.5 17.001s-79.333 21.167 -115 37.5s-66.667 37.833 -93 64.5
s-47.166 59.334 -62.499 98.001s-23 85 -23 139c0 42 5 83.333 15 124s23.333 80 40 118c10 22 17.5 36.333 22.5 43s8.16699 8 9.5 4s1.16602 -11.667 -0.500977 -23s-4.16699 -24 -7.5 -38c-12.667 -54 -15.667 -101 -9 -141s20.334 -74.333 41.001 -103
s47.334 -52.167 80.001 -70.5s68.834 -32.666 108.501 -42.999s81.5 -17.5 125.5 -21.5s87.667 -6 131 -6c70 0 142.333 3.83301 217 11.5s148 19.167 220 34.5s140.667 34.666 206 57.999s123.666 50.666 174.999 81.999c-6 33.333 -16.167 68.833 -30.5 106.5
s-31.5 74.667 -51.5 111s-42.333 70.5 -67 102.5s-50 58.667 -76 80c0 -2 -0.5 -5.5 -1.5 -10.5s-2 -10.333 -3 -16s-2 -10.834 -3 -15.501s-1.83301 -8 -2.5 -10c-5.33301 -15.333 -13 -16.333 -23 -3z" />
    <glyph glyph-name="u0644" unicode="&#x644;" horiz-adv-x="1103" arabic-form="isolated" 
d="M79 -140c-1.33301 26.667 1.00098 58.6611 7.00098 95.9941s15.333 76.5 28 117.5s28.334 82 47.001 123s40.334 78.5 65.001 112.5c8 11.333 15.333 19.333 22 24s11.5 6.33398 14.5 5.00098s4.16699 -5.5 3.5 -12.5s-4 -16.167 -10 -27.5
c-12 -20.667 -23.333 -43.667 -34 -69s-19.834 -51.5 -27.501 -78.5s-13.834 -54.5 -18.501 -82.5s-7 -55 -7 -81c0 -52 8.5 -97.167 25.5 -135.5s40 -70.333 69 -96s62.5 -45.167 100.5 -58.5s78.333 -21 121 -23s86 1.16699 130 9.5s86.5 21.5 127.5 39.5
s78.833 40.333 113.5 67s64 57.334 88 92.001c2 34.667 2 74 0 118s-5.33301 90.167 -10 138.5s-10.334 97.833 -17.001 148.5l-20 149l-20 140c-6.66699 44.667 -12.334 85 -17.001 121c-1.33301 14 -1.83301 31.5 -1.5 52.5s0.833008 42.667 1.5 65s1.5 44.333 2.5 66
s1.5 40.5 1.5 56.5l-31.5 27c-11.667 10 -22.167 21.167 -31.5 33.5s-16.333 26.166 -21 41.499s-4.33398 32 0.999023 50l24.5 46.5c8.33301 16.333 17 32.333 26 48s18.5 30.5 28.5 44.5s20.333 26.333 31 37c14 14 16.333 6.66699 7 -22
c-7.33301 -22.667 -6.83301 -42.334 1.5 -59.001s19.833 -31.5 34.5 -44.5s30.5 -24.5 47.5 -34.5s30.833 -20 41.5 -30c5.33301 -7.33301 9 -12.5 11 -15.5s2.83301 -5.5 2.5 -7.5s-1.66602 -4.5 -3.99902 -7.5s-4.83301 -7.83301 -7.5 -14.5
c-4.66699 -10 -12.5 -25.333 -23.5 -46l-47.5 -88c5.33301 -67.333 12 -134.666 20 -201.999l23.5 -202c7.66699 -67.333 14.334 -134.666 20.001 -201.999s8.5 -134.666 8.5 -201.999c3.33301 -52.667 0.5 -104.334 -8.5 -155.001s-23.833 -99 -44.5 -145
s-46.834 -88.667 -78.501 -128s-68.5 -73.5 -110.5 -102.5s-89 -52.167 -141 -69.5s-108.333 -27 -169 -29c-59.333 -1.33301 -113.166 7.83398 -161.499 27.501s-89.833 47.334 -124.5 83.001s-61.5 78.334 -80.5 128.001s-28.5 103.834 -28.5 162.501z" />
    <glyph glyph-name="u0645" unicode="&#x645;" horiz-adv-x="807" arabic-form="isolated" 
d="M208 -48c4.66699 -52.667 9.32617 -101.333 13.9932 -146l13 -129.5c4 -41.667 7.16699 -83.334 9.5 -125.001s3.5 -85.834 3.5 -132.501c0 -48 -1.66699 -99 -5 -153s-8.66602 -115.333 -15.999 -184c-1.33301 -6.66699 -3.16602 -14 -5.49902 -22
s-4.83301 -13.333 -7.5 -16s-5.16699 -1.33398 -7.5 3.99902s-3.83301 17.666 -4.5 36.999l-27.5 343.5c-7.66699 98.333 -18.167 183.166 -31.5 254.499c-10.667 53.333 -18.167 106.333 -22.5 159s-4.16602 103.334 0.500977 152.001s14.334 94.334 29.001 137.001
s35.667 81 63 115s61.5 62.833 102.5 86.5s90.167 40.5 147.5 50.5c-12 8 -24.167 13.5 -36.5 16.5s-24.5 4.66699 -36.5 5s-23.167 0 -33.5 -1s-18.833 -1.5 -25.5 -1.5c-7.33301 0 -13 1 -17 3s-6.33301 6.33301 -7 13c2 9.33301 5.5 21.5 10.5 36.5s10.5 30.667 16.5 47
s12.333 32.5 19 48.5s12.667 29.667 18 41c18 14 37.833 21.5 59.5 22.5s44.334 -2.5 68.001 -10.5s47.667 -19.833 72 -35.5s47.833 -33.167 70.5 -52.5s44.167 -39.666 64.5 -60.999s38.166 -42 53.499 -62c-9.33301 -38.667 -19.833 -74.5 -31.5 -107.5
s-28.5 -59.167 -50.5 -78.5c-17.333 0.666992 -35.166 1.16699 -53.499 1.5s-37.166 0.5 -56.499 0.5c-31.333 0 -62.5 -1.33301 -93.5 -4s-60.667 -7.66699 -89 -15s-54.333 -17.166 -78 -29.499s-43.5 -28 -59.5 -47s-27.667 -41.667 -35 -68
s-8.66602 -57.166 -3.99902 -92.499z" />
    <glyph glyph-name="u0646" unicode="&#x646;" horiz-adv-x="1071" arabic-form="isolated" 
d="M511 876c3.33301 4.66699 9.33301 12.501 18 23.501l28 35l29 34.5c9.33301 10.667 16 18 20 22c5.33301 6.66699 10 9.83398 14 9.50098s8 -2.16602 12 -5.49902c24 -20.667 48.167 -40.334 72.5 -59.001s44.5 -36.334 60.5 -53.001
c3.33301 -3.33301 4.66602 -6.5 3.99902 -9.5s-2.66699 -6.5 -6 -10.5c-14.667 -21.333 -30 -41.666 -46 -60.999s-31.667 -39.333 -47 -60c-6.66699 -12 -15.667 -14.333 -27 -7c-8.66699 4.66699 -19.5 12 -32.5 22s-26 20.667 -39 32s-25.167 22.5 -36.5 33.5
s-19.666 20.167 -24.999 27.5c-4 5.33301 -5.66699 9.66602 -5 12.999s2.66699 7.66602 6 12.999zM141 30.001c0 -52.667 8.33105 -98.5029 24.998 -137.503s39.334 -72 68.001 -99s62 -48.167 100 -63.5s78.667 -25.166 122 -29.499s87.833 -3.66602 133.5 2.00098
s90.334 16 134.001 31s85.167 34.333 124.5 58s74 51.167 104 82.5c-1.33301 39.333 -6.66602 80.333 -15.999 123s-20.833 85.167 -34.5 127.5s-29 84 -46 125l-49.5 115.5c0 4 1.66699 12.667 5 26l11.5 44l13 47.5l10.5 37.5c4.66699 15.333 8.16699 22.5 10.5 21.5
s6.16602 -6.16699 11.499 -15.5c22.667 -42.667 43 -86.167 61 -130.5s33.333 -88.666 46 -132.999s22 -88 28 -131s8.33301 -84.5 7 -124.5l-4 -96c-1.33301 -30.667 -5 -59.834 -11 -87.501s-15 -54 -27 -79s-29 -48.167 -51 -69.5
c-64.667 -62.667 -134.5 -109.167 -209.5 -139.5s-150.833 -45.5 -227.5 -45.5c-62.667 0 -121.667 10.5 -177 31.5s-102.666 52.167 -141.999 93.5s-68.833 92.666 -88.5 153.999s-24.834 132.333 -15.501 213c9.33301 74.667 28.5 146.834 57.5 216.501
s64.833 134.834 107.5 195.501c7.33301 10 13.833 14.833 19.5 14.5s6.16699 -7.5 1.5 -21.5l-37 -85c-12 -28.667 -22.833 -58 -32.5 -88s-17.5 -60.333 -23.5 -91s-9 -61.667 -9 -93z" />
    <glyph glyph-name="u0647" unicode="&#x647;" horiz-adv-x="605" arabic-form="isolated" 
d="M129 333c0 -28 5.66602 -51.001 16.999 -69.001s26.166 -32 44.499 -42s38.833 -17 61.5 -21s45.334 -6 68.001 -6c6 0 17.667 1.33301 35 4s34.833 6 52.5 10s33.334 8.5 47.001 13.5s20.167 10.167 19.5 15.5c-3.33301 24 -12 50.333 -26 79s-31 55.667 -51 81
s-42.167 46.5 -66.5 63.5s-48.5 25.5 -72.5 25.5c-16 0 -31.833 -5.16699 -47.5 -15.5s-29.5 -23.166 -41.5 -38.499s-21.667 -32 -29 -50s-11 -34.667 -11 -50zM26.999 198.999c2.66699 18.667 7.83203 43.5068 15.499 74.5068s17.667 64.5 30 100.5s27 72.333 44 109
s35.833 69.667 56.5 99s43.167 53.166 67.5 71.499s50.166 27.166 77.499 26.499c21.333 1.33301 42.833 -3.33398 64.5 -14.001s42.167 -25.334 61.5 -44.001s37.333 -40.167 54 -64.5s31 -49.5 43 -75.5s21.333 -51.833 28 -77.5s9.66699 -49.167 9 -70.5
c-0.666992 -2.66699 -2.16699 -7.5 -4.5 -14.5s-6.66602 -18.833 -12.999 -35.5s-15.666 -39.334 -27.999 -68.001l-49.5 -111c-14 -17.333 -31 -32.5 -51 -45.5s-40.667 -23.833 -62 -32.5s-42.333 -15.167 -63 -19.5s-38.667 -6.5 -54 -6.5c-30 0 -58.5 4 -85.5 12
s-51 20.167 -72 36.5s-37.667 36.666 -50 60.999s-18.5 53.166 -18.5 86.499v2z" />
    <glyph glyph-name="u0648" unicode="&#x648;" horiz-adv-x="593" arabic-form="isolated" 
d="M226 298c22 -28 41.502 -49.667 58.502 -65s33.833 -25.5 50.5 -30.5s34 -5.5 52 -1.5s39 11 63 21c-12.667 22.667 -27.334 43.5 -44.001 62.5s-34.834 33.167 -54.501 42.5s-40 12.333 -61 9s-42.5 -16 -64.5 -38zM127.002 193
c3.33301 27.333 9.66406 57.3301 18.9971 89.9971s21.666 64.5 36.999 95.5s33.333 59.333 54 85s43.834 44.5 69.501 56.5s54 15.5 85 10.5s64.167 -22.167 99.5 -51.5c28 -28 49 -61.667 63 -101s22.5 -80.666 25.5 -123.999s1.16699 -87 -5.5 -131s-17 -84.667 -31 -122
c-9.33301 -24 -20.666 -50.667 -33.999 -80s-28.166 -59 -44.499 -89s-34.166 -59.5 -53.499 -88.5s-39.666 -55.167 -60.999 -78.5s-43.833 -42.833 -67.5 -58.5s-47.834 -25.5 -72.501 -29.5c-30 -1.33301 -60.5 -3.83301 -91.5 -7.5s-62 -6.5 -93 -8.5
s-61.833 -2.16699 -92.5 -0.5s-61 7.5 -91 17.5c-20.667 6.66699 -29.834 12.5 -27.501 17.5s12.5 8.5 30.5 10.5c63.333 8.66699 122.166 22.167 176.499 40.5s103.666 39.333 147.999 63s84 48.834 119 75.501s65.167 52.5 90.5 77.5s45.833 48.333 61.5 70
s26.5 39.5 32.5 53.5c6.66699 13.333 11.167 29.5 13.5 48.5s3 37.667 2 56s-3.66699 34.5 -8 48.5s-9.5 22.667 -15.5 26c-4 -9.33301 -8.83301 -22.666 -14.5 -39.999s-14 -34.666 -25 -51.999s-25.5 -32.5 -43.5 -45.5s-41.333 -19.833 -70 -20.5
c-23.333 0 -46.166 5.5 -68.499 16.5s-42.166 25.167 -59.499 42.5s-31.166 37.166 -41.499 59.499s-15.5 44.833 -15.5 67.5z" />
    <glyph glyph-name="u0649" unicode="&#x649;" horiz-adv-x="1193" arabic-form="isolated" 
d="M29 -30c0.666992 40 4.34082 78.4961 11.0078 115.496s15.834 73 27.501 108s25.667 69.5 42 103.5s34.5 68.333 54.5 103c5.33301 8 10.5 14.5 15.5 19.5s9.16699 7.66699 12.5 8s5.16602 -2.33398 5.49902 -8.00098s-1.5 -15.167 -5.5 -28.5l-25 -72.5
c-8.66699 -24.333 -16.5 -48.833 -23.5 -73.5s-12.667 -49.667 -17 -75s-6.5 -51 -6.5 -77c0 -53.333 8.33301 -99.5 25 -138.5s40.167 -71 70.5 -96s66.5 -43.5 108.5 -55.5s88.667 -18 140 -18c50.667 0 100.667 5.83301 150 17.5s97.5 27.334 144.5 47.001
s92.667 42.334 137 68.001s86.833 52.834 127.5 81.501c-14 10 -31.167 18 -51.5 24s-42 11.167 -65 15.5s-45.833 8 -68.5 11s-43.334 6.5 -62.001 10.5c-23.333 4 -48.166 10.667 -74.499 20s-50.833 21.5 -73.5 36.5s-41.167 33 -55.5 54s-20.833 45.5 -19.5 73.5
c0 32.667 6.83301 68.334 20.5 107.001s32.167 77.334 55.5 116.001s50.5 76.334 81.5 113.001s64 69 99 97s71 50.5 108 67.5s73.167 25.5 108.5 25.5c24.667 -0.666992 47 -6.33398 67 -17.001s36.667 -24.5 50 -41.5s23.166 -36.667 29.499 -59
s8.16602 -45.5 5.49902 -69.5l-41 -93c-10 -22 -17.5 -38 -22.5 -48s-8.33301 -16 -10 -18s-2.83398 -3 -3.50098 -3s-2.5 4.33301 -5.5 13s-6.83301 19 -11.5 31s-10 24.333 -16 37s-12 23 -18 31c-20.667 26 -43.834 41.833 -69.501 47.5s-52.5 4.5 -80.5 -3.5
s-55.833 -21.333 -83.5 -40s-53.834 -39.167 -78.501 -61.5s-46.667 -45.333 -66 -69s-34.333 -44.5 -45 -62.5c-2 -25.333 4.16699 -48.5 18.5 -69.5s32.666 -39.667 54.999 -56s46.5 -30 72.5 -41s49.667 -18.833 71 -23.5c36 -9.33301 69.667 -16.333 101 -21
s58.333 -11 81 -19s40.167 -19.5 52.5 -34.5s17.5 -37.5 15.5 -67.5c-5.33301 -10.667 -11 -23.334 -17 -38.001l-18.5 -45l-18.5 -44c-6 -14 -11.667 -25.667 -17 -35l-3.5 -3.5c-1.66699 -1.66699 -2.83398 -2.5 -3.50098 -2.5
c-44.667 -30.667 -91.667 -61.167 -141 -91.5s-100.333 -57.666 -153 -81.999s-106.667 -44 -162 -59s-111 -22.5 -167 -22.5c-54.667 0 -104.334 9.66699 -149.001 29s-83 46 -115 80s-56.667 74.333 -74 121s-26 97 -26 151z" />
    <glyph glyph-name="u064A" unicode="&#x64a;" horiz-adv-x="1227" arabic-form="isolated" 
d="M61 -30c0.666992 40 4.34082 78.4961 11.0078 115.496s15.834 73 27.501 108s25.667 69.5 42 103.5s34.5 68.333 54.5 103c5.33301 8 10.5 14.5 15.5 19.5s9.16699 7.66699 12.5 8s5.16602 -2.33398 5.49902 -8.00098s-1.5 -15.167 -5.5 -28.5l-25 -72.5
c-8.66699 -24.333 -16.5 -48.833 -23.5 -73.5s-12.667 -49.667 -17 -75s-6.5 -51 -6.5 -77c0 -53.333 8.33301 -99.5 25 -138.5s40.167 -71 70.5 -96s66.5 -43.5 108.5 -55.5s88.667 -18 140 -18c50.667 0 100.667 5.83301 150 17.5s97.5 27.334 144.5 47.001
s92.667 42.334 137 68.001s86.833 52.834 127.5 81.501c-14 10 -31.167 18 -51.5 24s-42 11.167 -65 15.5s-45.833 8 -68.5 11s-43.334 6.5 -62.001 10.5c-23.333 4 -48.166 10.667 -74.499 20s-50.833 21.5 -73.5 36.5s-41.167 33 -55.5 54s-20.833 45.5 -19.5 73.5
c0 32.667 6.83301 68.334 20.5 107.001s32.167 77.334 55.5 116.001s50.5 76.334 81.5 113.001s64 69 99 97s71 50.5 108 67.5s73.167 25.5 108.5 25.5c24.667 -0.666992 47 -6.33398 67 -17.001s36.667 -24.5 50 -41.5s23.166 -36.667 29.499 -59
s8.16602 -45.5 5.49902 -69.5l-41 -93c-10 -22 -17.5 -38 -22.5 -48s-8.33301 -16 -10 -18s-2.83398 -3 -3.50098 -3s-2.5 4.33301 -5.5 13s-6.83301 19 -11.5 31s-10 24.333 -16 37s-12 23 -18 31c-20.667 26 -43.834 41.833 -69.501 47.5s-52.5 4.5 -80.5 -3.5
s-55.833 -21.333 -83.5 -40s-53.834 -39.167 -78.501 -61.5s-46.667 -45.333 -66 -69s-34.333 -44.5 -45 -62.5c-2 -25.333 4.16699 -48.5 18.5 -69.5s32.666 -39.667 54.999 -56s46.5 -30 72.5 -41s49.667 -18.833 71 -23.5c36 -9.33301 69.667 -16.333 101 -21
s58.333 -11 81 -19s40.167 -19.5 52.5 -34.5s17.5 -37.5 15.5 -67.5c-5.33301 -10.667 -11 -23.334 -17 -38.001l-18.5 -45l-18.5 -44c-6 -14 -11.667 -25.667 -17 -35l-3.5 -3.5c-1.66699 -1.66699 -2.83398 -2.5 -3.50098 -2.5
c-44.667 -30.667 -91.667 -61.167 -141 -91.5s-100.333 -57.666 -153 -81.999s-106.667 -44 -162 -59s-111 -22.5 -167 -22.5c-54.667 0 -104.334 9.66699 -149.001 29s-83 46 -115 80s-56.667 74.333 -74 121s-26 97 -26 151z" />
    <glyph glyph-name="u067E" unicode="&#x67e;" horiz-adv-x="1623" arabic-form="isolated" 
d="M606 -448c-13.333 10 -16.667 21.3311 -10 33.998l49 68l49 67c5.33301 6 9.83301 8.83301 13.5 8.5s7.83398 -2.16602 12.501 -5.49902l35.5 -29l36.5 -28.5c12 -9 23.5 -17 34.5 -24s20.5 -11.833 28.5 -14.5c7.33301 -2.66699 11.666 -3.33398 12.999 -2.00098
s5 6 11 14c6.66699 7.33301 16.5 18.833 29.5 34.5l55.5 66.5c5.33301 6 9.83301 8.16699 13.5 6.5s6.83398 -3.83398 9.50098 -6.50098l59.5 -48l38 -30.5l21.5 -17c4.66699 -3.66699 8 -6.16699 10 -7.5c1.33301 0 3.5 -1.66699 6.5 -5s4.5 -6.66602 4.5 -9.99902
c0 -4 -1.33301 -7.33301 -4 -10l-49.5 -63.5l-49.5 -63.5c-5.33301 -6.66699 -10 -9.66699 -14 -9s-8 2 -12 4c-23.333 14.667 -45 30.834 -65 48.501s-40.667 37.167 -62 58.5c-17.333 -20.667 -34 -41.667 -50 -63l-49 -64c-6.66699 -8 -15.167 -9.83301 -25.5 -5.5
s-18.833 8.5 -25.5 12.5c-12 6.66699 -22.333 12.834 -31 18.501s-17.334 11.667 -26.001 18s-17.5 13.333 -26.5 21zM774.999 -654.002c3.33301 4.66699 9.49902 12.502 18.499 23.502l28.5 34.5l28.5 34.5l18.5 22.5c5.33301 6.66699 10.166 9.83398 14.499 9.50098
s8.16602 -2.16602 11.499 -5.49902c24 -20.667 48.333 -40.334 73 -59.001s44.667 -36.334 60 -53.001c4 -3.33301 5.66699 -6.5 5 -9.5s-2.66699 -6.5 -6 -10.5c-14.667 -22 -30 -42.5 -46 -61.5s-31.667 -39.167 -47 -60.5c-7.33301 -11.333 -16.333 -13.333 -27 -6
c-8.66699 4.66699 -19.5 12 -32.5 22s-26.167 20.667 -39.5 32s-25.666 22.5 -36.999 33.5s-19.666 20.167 -24.999 27.5c-3.33301 5.33301 -4.66602 9.66602 -3.99902 12.999s2.66699 7.66602 6 12.999zM78.998 314c-0.666992 14 0.333008 30.666 3 49.999
s6.5 39.5 11.5 60.5s10.667 42 17 63s13.166 40.333 20.499 58s14.833 32.834 22.5 45.501s14.834 21.334 21.501 26.001c-0.666992 -17.333 -2.5 -33.5 -5.5 -48.5l-9 -44l-8.5 -42.5c-2.66699 -14 -4 -28.667 -4 -44c0 -44 8.66699 -81.5 26 -112.5s40.166 -57 68.499 -78
s60.833 -37.833 97.5 -50.5s74.334 -22.334 113.001 -29.001s76.667 -11 114 -13s71.333 -3 102 -3c33.333 0 68.333 1.33301 105 4s73.667 6 111 10s74.5 8.83301 111.5 14.5s72.5 11.5 106.5 17.5c38.667 6.66699 78 16.334 118 29.001s76.333 25.5 109 38.5
s59.5 24.833 80.5 35.5s31.5 17.667 31.5 21c0 17.333 -3 36.333 -9 57s-13 42 -21 64l-24.5 67c-8.33301 22.667 -15.166 44.667 -20.499 66l46 90l24 47c5.33301 10 8.5 16 9.5 18s2.16699 3 3.5 3c4.66699 0 8.33398 -3.16699 11.001 -9.5s4.66699 -10.833 6 -13.5
l29.5 -84c9.66699 -28 17.667 -56.333 24 -85s10.833 -57.5 13.5 -86.5s2 -58.5 -2 -88.5c-0.666992 -5.33301 -2.5 -14.333 -5.5 -27l-10 -40.5l-10.5 -41c-3.33301 -13 -5.66602 -21.833 -6.99902 -26.5c-6.66699 -21.333 -14.834 -41.5 -24.501 -60.5
s-25.167 -33.833 -46.5 -44.5c-124.667 -62.667 -251.334 -107.834 -380.001 -135.501s-262.667 -41.5 -402 -41.5c-43.333 0 -87.5 1.5 -132.5 4.5s-88.5 9 -130.5 18s-81.333 21.667 -118 38s-68.834 38 -96.501 65s-49.5 60 -65.5 99s-24 85.5 -24 139.5z" />
    </font>
</defs>
</svg>
