<?xml version="1.0" standalone="no"?>
<!DOCTYPE svg PUBLIC "-//W3C//DTD SVG 1.1//EN" "http://www.w3.org/Graphics/SVG/1.1/DTD/svg11.dtd" >
<svg>
<metadata>
Created by FontForge 20090914 at Wed Oct 19 01:43:29 2011
 By www-data
(c) by Abolfazl Seilsepour - +98 912 591 3420  -  seilsepor@yahoo.com
</metadata>
<defs>
<font id="FarNiloo" horiz-adv-x="0" >
  <font-face 
    font-family="Far.Niloo"
    font-weight="400"
    font-stretch="normal"
    units-per-em="2048"
    panose-1="0 0 4 0 0 0 0 0 0 0"
    ascent="1638"
    descent="-410"
    bbox="-270 -1395 4064 2383.03"
    underline-thickness="100"
    underline-position="-950"
    unicode-range="U+0020-U+FEFC"
  />
<missing-glyph horiz-adv-x="1024" 
d="M128 0v1292h768v-1292h-768zM256 128h512v1036h-512v-1036z" />
    <glyph glyph-name="uE818" unicode="&#x651;&#x64b;" 
d="M528 1954c39.333 -46.667 59.001 -97.3291 59.001 -151.996c0 -38 -10.333 -69.333 -31 -94c-22.667 -26.667 -53 -40 -91 -40c-18.667 0 -35.334 5.66699 -50.001 17c-10 -48.667 -45.333 -73 -106 -73c-48 0 -86.667 23.333 -116 70
c-25.333 39.333 -38 84.666 -38 135.999c0 24 15 36 45 36c22 0 35.667 -25.333 41 -76s25 -76 59 -76c33.333 0 50 17.333 50 52c0 11.333 -4.16699 25.166 -12.5 41.499s-12.5 28.166 -12.5 35.499c0 23.333 11.667 35 35 35c17.333 0 33 -17.333 47 -52s34 -52 60 -52
c28 0 42 14 42 42c0 21.333 -7.33301 43.333 -22 66c-18.667 29.333 -29.667 48.666 -33 57.999c0 25.333 15.333 38 46 38zM66.001 2099c-24.667 0 -37 14 -37 42c0 24 58.333 56.667 175 98c104.667 36.667 166.667 55 186 55c24 0 36 -13.333 36 -40
c0 -24 -58.667 -57 -176 -99c-104.667 -37.333 -166 -56 -184 -56zM94.001 1970c-25.333 0 -38 14.001 -38 42.001c0 23.333 58.333 55.666 175 96.999c104.667 36.667 166.667 55 186 55c25.333 0 38 -14 38 -42c0 -24 -58 -56.333 -174 -97
c-104 -36.667 -166.333 -55 -187 -55z" />
    <glyph glyph-name="uFC5E" unicode="&#x651;&#x64c;" arabic-form="isolated" 
d="M564 1946c39.333 -47.333 59.001 -98.3291 59.001 -152.996c0 -38 -10.667 -69.333 -32 -94c-22.667 -26.667 -52.667 -40 -90 -40c-18.667 0 -35.667 5.66699 -51 17c-10 -48.667 -45 -73 -105 -73c-48.667 0 -87.334 23.333 -116.001 70
c-25.333 39.333 -38 84.666 -38 135.999c0 24 15 36 45 36c22 0 35.5 -25.333 40.5 -76s24.833 -76 59.5 -76c32.667 0 49 17.333 49 52c0 11.333 -4 25.166 -12 41.499s-12 28.166 -12 35.499c0 23.333 11.333 35 34 35c18 0 33.833 -17.333 47.5 -52
s33.834 -52 60.501 -52c28 0 42 14 42 42c0 21.333 -7.33301 43.333 -22 66c-19.333 29.333 -30.333 48.666 -33 57.999c-0.666992 25.333 14.666 38 45.999 38zM201.001 1959c-26 0 -38.999 14.333 -38.999 43c0 14 10.667 25.333 32 34c6.66699 21.333 10 39.666 10 55
c0 32.667 -15.833 51.334 -47.5 56c-31.667 4.66699 -47.5 16.667 -47.5 36c0 20.667 15 31 45 31c34 0 61.333 -17.667 82 -53c17.333 -30.667 25.666 -64 24.999 -100l69 26c-31.333 30 -47 61.333 -47 94c0 46 16.833 84.167 50.5 114.5s73.167 45.5 118.5 45.5
c82 0 123 -38.667 123 -116c0 -86.667 -50.667 -148.667 -152 -186c-145.333 -53.333 -219.333 -80 -222 -80zM346.002 2188c0 -19.333 7.16895 -35.833 21.502 -49.5s31.166 -20.5 50.499 -20.5s38.5 10 57.5 30s28.5 39.667 28.5 59c0 44 -24.667 66 -74 66
c-22.667 0 -42.334 -8.33301 -59.001 -25s-25 -36.667 -25 -60z" />
    <glyph glyph-name="uFC5F" unicode="&#x651;&#x64d;" arabic-form="isolated" 
d="M543 2372c40 -47.333 59.999 -98 59.999 -152c0 -38 -11 -69.833 -33 -95.5s-51.667 -38.5 -89 -38.5c-18.667 0 -35.667 5.33301 -51 16c-10 -48 -45.333 -72 -106 -72c-48 0 -86.667 23 -116 69c-24.667 40 -37 85.667 -37 137c0 24 14.667 36 44 36
c22.667 0 36.5 -25.333 41.5 -76s24.833 -76 59.5 -76c32.667 0 49 17.333 49 52c0 10.667 -4.16699 24.334 -12.5 41c-8.33301 16.667 -12.5 28.667 -12.5 36c0 22.667 11.667 34 35 34c18 0 33.833 -17.333 47.5 -52s33.5 -52 59.5 -52c28 0 42 14 42 42
c0 21.333 -7 43.333 -21 66c-19.333 30 -30.666 49.667 -33.999 59c0 25.333 15.667 37.666 47 37zM301.999 1540c-24.667 0 -37 14 -37 42c0 24.667 58.333 57.667 175 99c104.667 36.667 166.667 55 186 55c24 0 36 -13.333 36 -40c0 -24.667 -58.667 -57.667 -176 -99
c-104.667 -38 -166 -57 -184 -57zM329.999 1411c-25.333 0 -38 14 -38 42c0 24 58.333 56.333 175 97c104.667 37.333 166.667 56 186 56c25.333 0 38 -14 38 -42c0 -24 -58 -56.667 -174 -98c-104 -36.667 -166.333 -55 -187 -55z" />
    <glyph glyph-name="uFC60" unicode="&#x651;&#x64e;" arabic-form="isolated" 
d="M552 1950c39.333 -47.333 59.001 -98.335 59.001 -153.002c0 -37.333 -10.833 -69 -32.5 -95s-51.5 -39 -89.5 -39c-18.667 0 -35.334 5.66699 -50.001 17c-10.667 -48 -46 -72 -106 -72c-48.667 0 -87.334 23 -116.001 69c-25.333 40 -38 85.333 -38 136
c0 24.667 15 37 45 37c22 0 35.5 -25.5 40.5 -76.5s24.833 -76.5 59.5 -76.5c32.667 0 49 17.667 49 53c0 10.667 -4 24.334 -12 41.001s-12 28.334 -12 35.001c0 23.333 11.667 35 35 35c17.333 0 32.833 -17.333 46.5 -52s33.834 -52 60.501 -52c28 0 42 14 42 42
c0 21.333 -7.33301 43.333 -22 66c-18.667 30 -29.667 49.667 -33 59c0 24.667 15.333 37 46 37zM180.001 1973c-25.333 0 -38 14.334 -38 43.001c0 23.333 58 55.333 174 95.999c104.667 37.333 167 56 187 56c25.333 0 38 -14 38 -42c0 -24 -58 -56.333 -174 -97
c-104 -37.333 -166.333 -56 -187 -56z" />
    <glyph glyph-name="uFC61" unicode="&#x651;&#x64f;" arabic-form="isolated" 
d="M575 1970c40 -46.667 60 -97.3311 60 -151.998c0 -38 -10.667 -69.333 -32 -94c-22.667 -26.667 -52.667 -40 -90 -40c-18.667 0 -35.667 5.33301 -51 16c-10 -48 -45 -72 -105 -72c-48.667 0 -87.667 23 -117 69c-24.667 40 -37 85.667 -37 137c0 24 15 36 45 36
c22 0 35.5 -25.333 40.5 -76s24.833 -76 59.5 -76c32.667 0 49 17.333 49 52c0 11.333 -4.16699 25.166 -12.5 41.499s-12.5 28.166 -12.5 35.499c0 23.333 11.667 35 35 35c18 0 33.833 -17.5 47.5 -52.5s33.834 -52.5 60.501 -52.5c28 0 42 14 42 42
c0 22 -7.33301 44 -22 66c-19.333 30 -30.333 49.667 -33 59c-0.666992 25.333 14.666 38 45.999 38zM163 1940c-26 0 -39 13.999 -39 41.999c0 17.333 20.333 33.333 61 48l84 26c-19.333 28.667 -29 57.667 -29 87c0 46.667 18.167 90.334 54.5 131.001
s77.833 61 124.5 61c69.333 0 104 -38.667 104 -116c0 -99.333 -46 -166 -138 -200c-145.333 -52.667 -219.333 -79 -222 -79zM390 2244c-20.667 0 -38 -10.5 -52 -31.5s-21 -42.5 -21 -64.5c0 -33.333 21.667 -50 65 -50c45.333 0 68 32 68 96c0 33.333 -20 50 -60 50z" />
    <glyph glyph-name="uFC62" unicode="&#x651;&#x650;" arabic-form="isolated" 
d="M531 2195c40 -47.333 59.999 -98.001 59.999 -152.001c0 -38 -11 -70 -33 -96s-51.667 -39 -89 -39c-18.667 0 -35.667 5.66699 -51 17c-10 -48 -45.333 -72 -106 -72c-48 0 -86.667 23 -116 69c-24.667 40 -37 85.333 -37 136c0 24.667 15 37 45 37
c22 0 35.5 -25.333 40.5 -76s24.833 -76 59.5 -76c32.667 0 49 17.333 49 52c0 10.667 -4.16699 24.334 -12.5 41.001s-12.5 28.667 -12.5 36c0 22.667 11.667 34 35 34c18 0 33.833 -17.333 47.5 -52s33.5 -52 59.5 -52c28 0 42 14 42 42c0 21.333 -7 43.333 -21 66
c-19.333 30 -30.666 49.667 -33.999 59c0 24.667 15.667 37 47 37zM306.999 1654c-25.333 0 -38 14.001 -38 42.001c0 23.333 58.333 55.666 175 96.999c104.667 36.667 166.667 55 186 55c25.333 0 38 -14 38 -42c0 -24 -58 -56.333 -174 -97
c-104 -36.667 -166.333 -55 -187 -55z" />
    <glyph glyph-name="uFDF2" unicode="&#xfedf;&#xfee0;&#xfeea;" horiz-adv-x="3334" arabic-form="isolated" 
d="M2652 983c0 -57.333 -20.999 -103.999 -62.999 -139.999c-53.333 -46 -135.333 -69 -246 -69c-56 0 -108 12.333 -156 37c-34 -21.333 -95 -32 -183 -32c-132.667 0 -199 47.667 -199 143c0 72.667 66.667 143.667 200 213c5.33301 2.66699 10.666 4 15.999 4
c14.667 0 22 -6 22 -18c0 -9.33301 -6.33301 -18 -19 -26c-64 -41.333 -100.333 -65.333 -109 -72c-42 -36 -63 -74.333 -63 -115c0 -56 51 -84 153 -84c50.667 0 96.667 4.33301 138 13c-24 36 -36 74 -36 114c0 32.667 8 62 24 88c18 28.667 40 43 66 43
c52 0 78 -37.667 78 -113c0 -34 -15 -74.667 -45 -122c43.333 -17.333 86 -26 128 -26c76 0 136.333 15.333 181 46c42.667 29.333 64 65.666 64 108.999c0 55.333 -70.667 94 -212 116c-18.667 2.66699 -28 10.667 -28 24c0 18 11.333 25 34 21
c170 -30 255 -81.333 255 -154zM3347 457.001c0 -150 -97.999 -267.663 -293.999 -352.996c-160.667 -70 -342.334 -105 -545 -105c-76 0 -152 12.333 -228 37c-57.333 18.667 -101.666 39 -133 61c-69.333 -69.333 -174.666 -104 -315.999 -104
c-178 0 -286 97.667 -324 293c-44.667 -44.667 -110.667 -83.334 -198 -116.001c-126 -47.333 -273.333 -71 -442 -71c-180.667 0 -332.667 26 -456 78c-152 64 -228 157.667 -228 281c0 112.667 69.167 203.5 207.5 272.5s319.833 103.5 544.5 103.5
c207.333 0 366.333 -34 477 -102c13.333 -8 20 -19.333 20 -34c0 -27.333 -17.333 -41 -52 -41c-4.66699 0 -9.33398 0.333008 -14.001 1c-19.333 2.66699 -47.666 12.667 -84.999 30c-40.667 18 -82 31.333 -124 40c-68 13.333 -156 20 -264 20
c-157.333 0 -298 -27.333 -422 -82c-126.667 -55.333 -190 -120.333 -190 -195c0 -87.333 55.333 -156 166 -206c106 -48 248 -72 426 -72c154 0 284.667 19.333 392 58c124 44.667 199.667 110.667 227 198c22 70 25 170.667 9 302c-6 50.667 8.33301 76 43 76
c26.667 0 42.667 -21.333 48 -64c8 -64.667 12 -130.667 12 -198c0 -23.333 -0.5 -54 -1.5 -92s-1.5 -64.667 -1.5 -80c0 -42.667 2.66699 -79 8 -109c26.667 -131.333 99 -197 217 -197c41.333 0 88.666 7.5 141.999 22.5s86 31.167 98 48.5
c-34.667 51.333 -52 120 -52 206c0 59.333 11.667 118.333 35 177c32.667 80 78.667 120 138 120c97.333 0 146 -66 146 -198c0 -54.667 -11.667 -111.667 -35 -171c-22 -56.667 -47.667 -97 -77 -121c62 -30.667 109 -50.334 141 -59.001c42 -10.667 101 -16 177 -16
c160.667 0 312 27.667 454 83c176.667 68.667 265 161.667 265 279c0 85.333 -90 194.666 -270 327.999c-17.333 13.333 -26 29.666 -26 48.999c0 26 12.333 39 37 39c13.333 0 28.333 -5.33301 45 -16c65.333 -41.333 123.666 -89 174.999 -143
c85.333 -88.667 128 -174.667 128 -258zM2223 964.005c0 47.333 -6.66699 70.999 -20 70.999c-12 0.666992 -23 -7.16602 -33 -23.499s-15 -36.833 -15 -61.5c0 -32 9.66699 -59 29 -81c26 29.333 39 61 39 95zM2237 463.004c0 72 -19.333 105.667 -58 101
c-22 -2.66699 -40.333 -33 -55 -91c-10.667 -41.333 -16 -72.333 -16 -93c0 -60 9.66699 -110.667 29 -152c29.333 17.333 53.666 51 73 101c18 46 27 90.667 27 134z" />
    <glyph glyph-name="uFEF5" unicode="&#xfedf;&#xfe82;" horiz-adv-x="1189" arabic-form="isolated" 
d="M1192 228c0 -80.667 -47.998 -141.664 -143.998 -182.997c-71.333 -30.667 -151 -46 -239 -46c-96 0 -210.333 26.333 -343 79c-135.333 54 -204 102 -206 144c-1.33301 24.667 9.66699 37.667 33 39c7.33301 0.666992 26.666 -8.33301 57.999 -27
c36.667 -21.333 61 -34 73 -38c25.333 10.667 75.666 66.667 150.999 168c73.333 100 127.666 185 162.999 255c-107.333 48 -255.666 107 -444.999 177c-35.333 13.333 -53 30.666 -53 51.999c0 19.333 14.333 29 43 29c10.667 0 22.667 -2 36 -6
c72 -20.667 225.667 -80.334 461 -179.001c39.333 60 91.333 198 156 414c9.33301 32 25 48 47 48c20 0 30 -12.667 30 -38c0 -8.66699 -1.66699 -18.334 -5 -29.001l-61 -196c-36.667 -110 -70 -186 -100 -228c74 -29.333 138.333 -68 193 -116
c101.333 -88.667 152 -195 152 -319zM1108 222.003c0 105.333 -42.333 194.667 -127 268c-48.667 42 -104.334 74.333 -167.001 97c-17.333 -46 -61.333 -118 -132 -216c-74.667 -104 -136.667 -176 -186 -216c112.667 -48 216.334 -72 311.001 -72c92 0 166.667 15 224 45
c51.333 26.667 77 58 77 94zM767.002 1175c-17.333 -21.333 -44.335 -42 -81.002 -62c-63.333 -34.667 -135.666 -52 -216.999 -52c-58 0 -113.333 3.33301 -166 10c-58.667 8 -101.334 12.333 -128.001 13c-76 2 -152 -11.833 -228 -41.5s-113 -44.5 -111 -44.5
c-24.667 0 -37 10.333 -37 31c0 24.667 33.667 50.5 101 77.5s140.666 43.833 219.999 50.5c18.667 1.33301 68.834 -3.16699 150.501 -13.5s138.834 -14.833 171.501 -13.5c65.333 3.33301 121.333 13 168 29c28.667 10 57.334 24 86.001 42c22.667 14.667 38 22 46 22
c20.667 0 31 -10.333 31 -31c0 -5.33301 -2 -11 -6 -17z" />
    <glyph glyph-name="uFEF6" unicode="&#xfee0;&#xfe82;" horiz-adv-x="1558" arabic-form="final" 
d="M1576 0h-42.9971c-128.667 0 -239.334 39.667 -332.001 119c-66.667 56.667 -113.667 121.334 -141 194.001c-40.667 -78.667 -89.334 -135.334 -146.001 -170.001c-71.333 -44 -171.333 -66 -300 -66c-80.667 0 -155.667 7 -225 21c-82 16 -123 37 -123 63
c0 24 11 36 33 36c10 0 51 -6.66699 123 -20s147.333 -20 226 -20c58 0 116.667 10.667 176 32c83.333 30.667 125 73.667 125 129c0 110 -68 215.333 -204 316c-70.667 52 -214.334 133 -431.001 243c-28.667 14.667 -43 32.334 -43 53.001c0 16 8 26.667 24 32
c17.333 6.66699 38 3.66699 62 -9c243.333 -129.333 403 -225.333 479 -288c86 -70.667 143 -159 171 -265c10.667 14.667 16.667 41.667 18 81c12 272 18 469.667 18 593c0 36.667 13 55 39 55s39 -17.333 39 -52c0 -124.667 -4.33301 -316.334 -13 -575.001
c-2 -80.667 23 -161 75 -241c76 -116.667 190.667 -175 344 -175h49v-86zM963.003 1240c-17.333 -21.333 -44.335 -42 -81.002 -62c-63.333 -34.667 -135.666 -52 -216.999 -52c-58 0 -113.333 3.33301 -166 10c-58.667 8 -101.334 12.333 -128.001 13
c-76 2 -152 -11.667 -228 -41s-113 -44 -111 -44c-24.667 0 -37 10 -37 30c0 24.667 33.667 50.5 101 77.5s140.666 43.833 219.999 50.5c18.667 1.33301 68.834 -3.16699 150.501 -13.5s138.834 -14.833 171.501 -13.5c65.333 3.33301 121.333 13 168 29
c28.667 10 57.334 24 86.001 42c22.667 14.667 38 22 46 22c20.667 0 31 -10.333 31 -31c0 -5.33301 -2 -11 -6 -17z" />
    <glyph glyph-name="uFEF7" unicode="&#xfedf;&#xfe84;" horiz-adv-x="1151" arabic-form="isolated" 
d="M1154 228c0 -80.667 -47.999 -141.665 -143.999 -182.998c-71.333 -30.667 -151 -46 -239 -46c-96 0 -210.333 26.333 -343 79c-135.333 54 -204 102 -206 144c-1.33301 24.667 9.66699 37.667 33 39c7.33301 0.666992 26.666 -8.33301 57.999 -27
c36 -21.333 60.333 -34 73 -38c25.333 10.667 75.166 66.334 149.499 167.001s129.166 186 164.499 256c-107.333 48 -255.666 107 -444.999 177c-35.333 13.333 -53 30.666 -53 51.999c0 19.333 14.333 29 43 29c10.667 0 22.667 -2 36 -6
c72 -20.667 225.667 -80.334 461 -179.001c39.333 60 91 198 155 414c10 32 26 48 48 48c20 0 30 -12.667 30 -38c0 -8.66699 -1.66699 -18.334 -5 -29.001l-61 -196c-37.333 -110 -70.666 -186 -99.999 -228c74 -29.333 138.333 -68 193 -116
c101.333 -88.667 152 -195 152 -319zM1070 222.002c0 105.333 -42.667 194.667 -128 268c-48 42 -103.333 74.333 -166 97c-17.333 -46 -61.333 -118 -132 -216c-74.667 -104 -136.667 -176 -186 -216c112.667 -48 216 -72 310 -72c92.667 0 167.667 15 225 45
c51.333 26.667 77 58 77 94zM512.001 1173c-61.333 -5.33301 -109.334 -12.333 -144.001 -21c-68 -16.667 -122.167 -43 -162.5 -79s-70.166 -70.333 -89.499 -103c-6.66699 -10 -14.667 -15 -24 -15c-15.333 0 -23 7.66699 -23 23c0 4.66699 1 9 3 13
c40.667 73.333 104 131.333 190 174c-116 2.66699 -174 41.667 -174 117c0 55.333 29 97.333 87 126c46 22.667 99.667 34 161 34c26.667 0 40 -7.66699 40 -23c0 -14.667 -13.333 -22 -40 -22c-42.667 0 -82.667 -7.66699 -120 -23c-51.333 -21.333 -77 -52 -77 -92
c0 -47.333 61.667 -71 185 -71c70 0 131.667 4.33301 185 13c20.667 3.33301 31 -4 31 -22c0 -17.333 -9.33301 -27 -28 -29z" />
    <glyph glyph-name="uFEF8" unicode="&#xfee0;&#xfe84;" horiz-adv-x="1530" arabic-form="final" 
d="M1549 0h-42.998c-128.667 0 -239.334 39.667 -332.001 119c-66.667 56.667 -113.667 121.334 -141 194.001c-41.333 -78.667 -90 -135.334 -146 -170.001c-71.333 -44 -171.666 -66 -300.999 -66c-80 0 -155 7 -225 21c-82 16 -123 37 -123 63c0 24 11.333 36 34 36
c10 0 50.833 -6.66699 122.5 -20s147.167 -20 226.5 -20c57.333 0 116 10.667 176 32c82.667 30.667 124 73.667 124 129c0 110 -67.667 215.333 -203 316c-70.667 52 -214.667 133 -432 243c-28 14.667 -42 32.334 -42 53.001c0 16 8 26.667 24 32
c17.333 6.66699 38 3.66699 62 -9c243.333 -129.333 402.666 -225.333 477.999 -288c86 -70.667 143 -159 171 -265c11.333 14.667 17.666 41.667 18.999 81c12 272 18 469.667 18 593c0 36.667 13 55 39 55s39 -17.333 39 -52c0 -124.667 -4.33301 -316.334 -13 -575.001
c-2 -80.667 23 -161 75 -241c76 -116.667 190.667 -175 344 -175h49v-86zM553.002 1225c-60.667 -6 -108.332 -12.9971 -142.999 -20.9971c-68 -17.333 -122.333 -43.833 -163 -79.5s-70.334 -69.834 -89.001 -102.501c-6.66699 -10.667 -14.667 -16 -24 -16
c-15.333 0 -23 8 -23 24c0 4 1 8 3 12c40.667 74 104 132 190 174c-116 3.33301 -174 42.666 -174 117.999c0 55.333 29 97.333 87 126c45.333 22 99 33 161 33c26.667 0 40 -7.66699 40 -23c0 -14.667 -13.333 -22 -40 -22c-42.667 0 -82.667 -7.66699 -120 -23
c-51.333 -20.667 -77 -51 -77 -91c0 -47.333 61.667 -71 185 -71c70 0 131.333 4.33301 184 13c21.333 3.33301 32 -4.33398 32 -23.001c0 -16.667 -9.66699 -26 -29 -28z" />
    <glyph glyph-name="uFEF9" unicode="&#xfedf;&#xfe88;" horiz-adv-x="1119" arabic-form="isolated" 
d="M1122 228c0 -80.667 -48.333 -141.664 -145 -182.997c-70.667 -30.667 -150 -46 -238 -46c-96 0 -211 26.667 -345 80s-202.333 101 -205 143c-1.33301 24.667 10 37.667 34 39c6.66699 0.666992 25.667 -8.33301 57 -27c36.667 -21.333 61 -34 73 -38
c25.333 10.667 75.666 66.667 150.999 168c73.333 100 128 185 164 255c-107.333 48 -255.666 107 -444.999 177c-36 13.333 -54 30.666 -54 51.999c0 19.333 14.333 29 43 29c11.333 0 23.666 -2 36.999 -6c71.333 -20.667 225 -80.334 461 -179.001
c38.667 60 90.334 198 155.001 414c9.33301 32 25.333 48 48 48c20 0 30 -12.667 30 -38c0 -8.66699 -2 -18.334 -6 -29.001l-61 -196c-36.667 -110 -70 -186 -100 -228c74 -29.333 138.667 -68 194 -116c101.333 -88.667 152 -195 152 -319zM1037 222.003
c0 105.333 -42.332 194.667 -126.999 268c-48.667 42 -104.334 74.333 -167.001 97c-17.333 -46 -61 -118 -131 -216c-74.667 -104 -136.667 -176 -186 -216c112 -48 215.333 -72 310 -72c92.667 0 167.667 15 225 45c50.667 26.667 76 58 76 94zM561.001 -303.996
c-60.667 -6 -108.334 -13.3291 -143.001 -21.9961c-68.667 -16.667 -123.167 -42.834 -163.5 -78.501s-70.166 -69.834 -89.499 -102.501c-6 -10.667 -13.667 -16 -23 -16c-16 0 -24 8 -24 24c0 4 1.33301 8 4 12c40.667 74 104 132 190 174
c-116 3.33301 -174 42.666 -174 117.999c0 55.333 29 97.333 87 126c45.333 22 99 33 161 33c26.667 0 40 -7.66699 40 -23c0 -14.667 -13.333 -22 -40 -22c-43.333 0 -83.666 -7.66699 -120.999 -23c-51.333 -20.667 -77 -51 -77 -91c0 -47.333 62 -71 186 -71
c69.333 0 130.666 4.33301 183.999 13c20.667 3.33301 31 -4.33398 31 -23.001c0 -16.667 -9.33301 -26 -28 -28z" />
    <glyph glyph-name="uFEFA" unicode="&#xfee0;&#xfe88;" horiz-adv-x="1498" arabic-form="final" 
d="M1517 0h-43.9971c-128.667 0 -239.334 39.667 -332.001 119c-66.667 56.667 -113.667 121.334 -141 194.001c-40.667 -78.667 -89.334 -135.334 -146.001 -170.001c-71.333 -44 -171.333 -66 -300 -66c-80.667 0 -155.667 7 -225 21c-82 16 -123 37 -123 63
c0 24 11 36 33 36c10.667 0 51.834 -6.66699 123.501 -20s147.167 -20 226.5 -20c57.333 0 115.666 10.667 174.999 32c83.333 30.667 125 73.667 125 129c0 110 -68 215.333 -204 316c-70.667 52 -214.334 133 -431.001 243c-28.667 14.667 -43 32.334 -43 53.001
c0 16 8 26.667 24 32c17.333 6.66699 38 3.66699 62 -9c243.333 -129.333 403 -225.333 479 -288c86 -70.667 143 -159 171 -265c10.667 14.667 17 41.667 19 81c11.333 272 17 469.667 17 593c0 36.667 13 55 39 55s39 -17.333 39 -52
c0 -124.667 -4.33301 -316.334 -13 -575.001c-1.33301 -80.667 23.667 -161 75 -241c76 -116.667 190.667 -175 344 -175h50v-86zM563.003 -268c-60.667 -5.33301 -108.331 -12.333 -142.998 -21c-68.667 -16.667 -123.167 -43 -163.5 -79s-70.166 -70.333 -89.499 -103
c-6 -10 -14 -15 -24 -15c-15.333 0 -23 7.66699 -23 23c0 4 1 8.33301 3 13c41.333 73.333 104.666 131.333 189.999 174c-116 2.66699 -174 41.667 -174 117c0 55.333 29.333 97.333 88 126c45.333 22.667 98.666 34 159.999 34c27.333 0 41 -7.66699 41 -23
c0 -14.667 -13.667 -22 -41 -22c-42.667 0 -82.667 -7.66699 -120 -23c-51.333 -21.333 -77 -52 -77 -92c0 -47.333 62 -71 186 -71c69.333 0 130.666 4.33301 183.999 13c20.667 3.33301 31 -4 31 -22c0 -17.333 -9.33301 -27 -28 -29z" />
    <glyph glyph-name="uFEFB" unicode="&#xfedf;&#xfe8e;" horiz-adv-x="1108" arabic-form="isolated" 
d="M1111 228c0 -80.667 -47.999 -141.664 -143.999 -182.997c-71.333 -30.667 -151 -46 -239 -46c-96 0 -211 26.667 -345 80s-202.333 101 -205 143c-1.33301 24.667 10 37.667 34 39c7.33301 0.666992 26.333 -8.33301 57 -27c36.667 -21.333 61 -34 73 -38
c25.333 10.667 75.666 66.667 150.999 168c73.333 100 128 185 164 255c-107.333 48 -255.666 107 -444.999 177c-35.333 13.333 -53 30.666 -53 51.999c0 19.333 14 29 42 29c11.333 0 23.666 -2 36.999 -6c71.333 -20.667 225 -80.334 461 -179.001
c38.667 60 90.334 198 155.001 414c9.33301 32 25.333 48 48 48c20 0 30 -12.667 30 -38c0 -8.66699 -1.66699 -18.334 -5 -29.001l-62 -196c-36.667 -110 -69.667 -186 -99 -228c73.333 -29.333 137.666 -68 192.999 -116c101.333 -88.667 152 -195 152 -319zM1027 222.003
c0 105.333 -42.666 194.667 -127.999 268c-48.667 42 -104.334 74.333 -167.001 97c-17.333 -46 -61 -118 -131 -216c-74.667 -104 -136.667 -176 -186 -216c112.667 -48 216 -72 310 -72c92.667 0 167.667 15 225 45c51.333 26.667 77 58 77 94z" />
    <glyph glyph-name="uFEFC" unicode="&#xfee0;&#xfe8e;" horiz-adv-x="1476" arabic-form="final" 
d="M1495 0h-43.999c-128.667 0 -239.334 39.667 -332.001 119c-66 56.667 -112.667 121.334 -140 194.001c-41.333 -78.667 -90 -135.334 -146 -170.001c-72 -44 -172.333 -66 -301 -66c-80 0 -155 7 -225 21c-82 16 -123 37 -123 63c0 24 11 36 33 36
c10.667 0 51.834 -6.66699 123.501 -20s147.167 -20 226.5 -20c57.333 0 116 10.667 176 32c82.667 30.667 124 73.667 124 129c0 110 -67.667 215.333 -203 316c-71.333 52 -215.333 133 -432 243c-28 14.667 -42 32.334 -42 53.001c0 16 8 26.667 24 32
c17.333 6.66699 37.666 3.66699 60.999 -9c244 -129.333 403.667 -225.333 479 -288c86 -70.667 143 -159 171 -265c10.667 14.667 17 41.667 19 81c11.333 272 17 469.667 17 593c0 36.667 13 55 39 55c26.667 0 40 -17.333 40 -52
c0 -124.667 -4.33301 -316.334 -13 -575.001c-2 -80.667 23 -161 75 -241c75.333 -116.667 190 -175 344 -175h49v-86z" />
    <glyph glyph-name="u0652_u064E.liga" unicode="&#x652;&#x64e;" horiz-adv-x="1" 
d="M179 940c0.666992 -9.33301 -6.00098 -14 -20.001 -14s-21.333 4.33301 -22 13c-5.33301 80 -11.333 164.667 -18 254c-0.666992 9.33301 6.33301 14.333 21 15c14.667 0 22.334 -4.33301 23.001 -13c4.66699 -80 10 -165 16 -255z" />
    <glyph glyph-name="u0652_u064B.liga" unicode="&#x652;&#x64b;" horiz-adv-x="1" 
d="M1111 971c0 -38.667 -31.667 -58 -95 -58c-64 0 -96 19.333 -96 58c0 38 32 57 96 57c63.333 0 95 -19 95 -57zM798 973c0 -38 -31.333 -57 -94 -57s-94 19 -94 57c0 37.333 31.333 56 94 56s94 -18.667 94 -56z" />
    <glyph glyph-name="u0652_u064D.liga" unicode="&#x652;&#x64d;" horiz-adv-x="1" 
d="M1343 -597c0 -38.667 -31.667 -58 -95 -58c-64 0 -96 19.333 -96 58c0 38 32 57 96 57c63.333 0 95 -19 95 -57zM1030 -595c0 -38 -31.333 -57 -94 -57s-94 19 -94 57c0 37.333 31.333 56 94 56s94 -18.667 94 -56z" />
    <glyph glyph-name="u0622" unicode="&#x622;" horiz-adv-x="867" arabic-form="isolated" 
d="M499 54c1.33301 -36.667 -12.333 -55 -41 -55c-27.333 0 -41.666 16.667 -42.999 50c-4 66.667 -16.333 406 -37 1018c-0.666992 38.667 14 58 44 58c27.333 0 41.666 -17 42.999 -51zM898.001 1420c-17.333 -22 -44.335 -43 -81.002 -63
c-63.333 -34.667 -135.666 -52 -216.999 -52c-58 0 -113.333 3.33301 -166 10c-58.667 8 -101.334 12.333 -128.001 13c-76 2.66699 -152 -10.833 -228 -40.5s-113 -44.5 -111 -44.5c-24.667 0 -37 10 -37 30c0 24.667 33.667 50.5 101 77.5s140.666 43.833 219.999 50.5
c18.667 1.33301 68.834 -3.16699 150.501 -13.5s138.834 -14.5 171.501 -12.5c65.333 2.66699 121.333 12 168 28c28.667 10 57.334 24.333 86.001 43c22.667 14 38 21 46 21c20.667 0 31 -10 31 -30c0 -6 -2 -11.667 -6 -17z" />
    <glyph glyph-name="u0623" unicode="&#x623;" horiz-adv-x="477" arabic-form="isolated" 
d="M386 55c2 -37.333 -11.668 -56 -41.001 -56c-27.333 0 -41.666 17.333 -42.999 52l-37 1016c-1.33301 39.333 13.667 59 45 59c27.333 0 42 -17.333 44 -52c9.33301 -319.333 20 -659 32 -1019zM502.999 1440c-61.333 -6 -109.332 -13.333 -143.999 -22
c-68 -16.667 -122.167 -42.5 -162.5 -77.5s-70.166 -69.5 -89.499 -103.5c-6 -10.667 -14 -16 -24 -16c-16 0 -24 8 -24 24c0 4 1 8 3 12c41.333 74 104.666 132 189.999 174c-116 3.33301 -174 42 -174 116c0 56 29 98.333 87 127c46 22.667 99.667 34 161 34
c26.667 0 40 -7.66699 40 -23c0 -14.667 -13.333 -22 -40 -22c-42 0 -82 -7.66699 -120 -23c-51.333 -20.667 -77 -51 -77 -91c0 -48.667 62 -73 186 -73c63.333 0 124.666 5 183.999 15c20.667 3.33301 31 -4.33398 31 -23.001c0 -17.333 -9 -26.666 -27 -27.999z" />
    <glyph glyph-name="u0624" unicode="&#x624;" horiz-adv-x="1264" arabic-form="isolated" 
d="M1270 197c0 -135.333 -105.331 -249.666 -315.998 -342.999c-198 -88.667 -427 -134.334 -687 -137.001c-56 -0.666992 -84 14.333 -84 45c0 27.333 26 41 78 41c253.333 0 471.666 41.333 654.999 124c177.333 80.667 266 173 266 277c0 74 -42 138 -126 192
c-92 58.667 -211.667 88 -359 88c-94 0 -179.333 -12 -256 -36c-109.333 -34.667 -164 -87.667 -164 -159c0 -57.333 48.667 -103.333 146 -138c78 -28 157.333 -42 238 -42c104 0 194.333 14 271 42c5.33301 1.33301 10.333 2 15 2c30 0 45 -13.667 45 -41
c0 -16.667 -11.667 -29 -35 -37c-92.667 -30.667 -191.667 -46 -297 -46c-110.667 0 -213.334 21.667 -308.001 65c-110 51.333 -165 117 -165 197c0 76 45.667 140.667 137 194c96 55.333 217.667 83 365 83c152.667 0 283.667 -29.333 393 -88
c125.333 -68.667 188 -163 188 -283zM925.002 1009c-62.667 -6 -110.667 -12.999 -144 -20.999c-68 -16 -122.167 -41.833 -162.5 -77.5s-70.166 -69.834 -89.499 -102.501c-6 -11.333 -14 -17 -24 -17c-14.667 0 -22 7.66699 -22 23c0 4.66699 1 8.66699 3 12
c41.333 75.333 104.666 134 189.999 176c-116 2.66699 -174 41.334 -174 116.001c0 56 29 98.333 87 127c45.333 22.667 99 34 161 34c26.667 0 40 -8 40 -24c0 -15.333 -13.333 -23 -40 -23c-45.333 0 -86.666 -7.66699 -123.999 -23c-49.333 -20.667 -74 -50.667 -74 -90
c0 -48 62 -72 186 -72c69.333 0 130.666 4.33301 183.999 13c21.333 3.33301 32 -4.33398 32 -23.001c0 -16.667 -9.66699 -26 -29 -28z" />
    <glyph glyph-name="u0625" unicode="&#x625;" horiz-adv-x="602" arabic-form="isolated" 
d="M386 55c2 -37.333 -11.668 -56 -41.001 -56c-27.333 0 -41.666 17.333 -42.999 52l-37 1016c-1.33301 39.333 13.667 59 45 59c27.333 0 42 -17.333 44 -52c9.33301 -319.333 20 -659 32 -1019zM622.999 -352c-60.667 -6 -108.332 -13.332 -142.999 -21.999
c-68 -16.667 -122.333 -42.834 -163 -78.501s-70.334 -69.834 -89.001 -102.501c-6.66699 -10.667 -14.667 -16 -24 -16c-15.333 0 -23 7.66699 -23 23c0 4.66699 1 9 3 13c40.667 73.333 104 131.333 190 174c-116 2.66699 -174 41.667 -174 117c0 56 29 98 87 126
c46 22.667 99.667 34 161 34c26.667 0 40 -7.66699 40 -23c0 -14.667 -13.333 -22 -40 -22c-42.667 0 -82.667 -7.66699 -120 -23c-51.333 -21.333 -77 -52 -77 -92c0 -47.333 61.667 -71 185 -71c70 0 131.667 4.33301 185 13c20.667 4 31 -3.33301 31 -22
c0 -17.333 -9.66699 -26.666 -29 -27.999z" />
    <glyph glyph-name="u0626" unicode="&#x626;" horiz-adv-x="1943" arabic-form="isolated" 
d="M1985 383c0 -22.667 -15.999 -34.001 -47.999 -34.001c5.33301 0 -24.167 7 -88.5 21s-127.5 21 -189.5 21c-107.333 0 -213.333 -29 -318 -87c-112 -62.667 -168 -131.667 -168 -207c0 -45.333 45 -68 135 -68c54.667 0 139.667 14 255 42s184.333 42 207 42
c42.667 0 80 -10 112 -30c38.667 -24.667 58 -59.667 58 -105c0 -104.667 -83.667 -197.667 -251 -279c-164.667 -79.333 -348.334 -119 -551.001 -119c-273.333 0 -503.333 64.667 -690 194c-178.667 124 -268 270.333 -268 439c0 130 77.667 242.333 233 337
c150.667 90.667 323 136 517 136c41.333 0 82.333 -2.33301 123 -7c48 -6 72 -22.333 72 -49s-25 -37.667 -75 -33c-32.667 3.33301 -65.667 5 -99 5c-176.667 0 -332.334 -36.333 -467.001 -109c-144.667 -78.667 -217 -176.667 -217 -294
c0 -65.333 29.333 -136.666 88 -213.999c68.667 -90 161.667 -162.667 279 -218c142.667 -68 306.334 -102 491.001 -102c179.333 0 345 31.667 497 95c156 64.667 234 136 234 214c0 36 -23.667 54.333 -71 55c-26.667 0 -99.5 -13.833 -218.5 -41.5
s-211.167 -41.5 -276.5 -41.5c-136.667 0 -205 51.333 -205 154c0 86 58 169.333 174 250c122 84 255.667 126 401 126c45.333 0 104.333 -7 177 -21c98.667 -19.333 148 -43.333 148 -72zM618.001 731.999c-60.667 -6 -108.331 -13.3291 -142.998 -21.9961
c-68.667 -16.667 -123.167 -42.834 -163.5 -78.501s-70.166 -69.834 -89.499 -102.501c-6 -10.667 -14 -16 -24 -16c-15.333 0 -23 8 -23 24c0 4 1 8 3 12c41.333 74 104.666 132 189.999 174c-116 3.33301 -174 42.666 -174 117.999c0 55.333 29.333 97.333 88 126
c45.333 22 98.666 33 159.999 33c27.333 0 41 -7.66699 41 -23c0 -14.667 -13.667 -22 -41 -22c-42.667 0 -82.667 -7.66699 -120 -23c-51.333 -20.667 -77 -51 -77 -91c0 -47.333 62 -71 186 -71c69.333 0 130.666 4.33301 183.999 13
c20.667 3.33301 31 -4.33398 31 -23.001c0 -16.667 -9.33301 -26 -28 -28z" />
    <glyph glyph-name="u0627" unicode="&#x627;" horiz-adv-x="568" arabic-form="isolated" 
d="M386 55c2 -37.333 -11.668 -56 -41.001 -56c-27.333 0 -41.666 17.333 -42.999 52l-37 1016c-1.33301 39.333 13.667 59 45 59c27.333 0 42 -17.333 44 -52c9.33301 -319.333 20 -659 32 -1019z" />
    <glyph glyph-name="u0628" unicode="&#x628;" horiz-adv-x="2253" arabic-form="isolated" 
d="M2252 410c0 -161.333 -150 -276.998 -450 -346.998c-184 -42.667 -388.333 -64 -613 -64c-222.667 0 -420 21.333 -592 64c-278 69.333 -417 185 -417 347c0 66.667 52.333 134.667 157 204c110 73.333 225.667 110.666 347 111.999c31.333 0.666992 47 -10.333 47 -33
c0 -30 -16 -45 -48 -45c-56.667 0 -132 -20.667 -226 -62c-122.667 -54 -184 -119 -184 -195c0 -96.667 97.333 -173.667 292 -231c174 -51.333 381 -76 621 -74c272 2 501 30.333 687 85c200.667 58.667 301 135.667 301 231c0 68 -55 129 -165 183c-90 44 -166 66 -228 66
c-40 0 -60 11.333 -60 34c0 23.333 19 35.666 57 36.999c85.333 4 180.333 -21 285 -75c126 -64 189 -143 189 -237zM1337 -282.998c0 -37.333 -32 -56 -96 -56c-62.667 0 -94 18.667 -94 56c0 38.667 31.333 58 94 58c64 0 96 -19.333 96 -58z" />
    <glyph glyph-name="u0629" unicode="&#x629;" horiz-adv-x="1608" arabic-form="isolated" 
d="M1620 309c0 -206.667 -274.334 -310 -823.001 -310c-124 0 -242.667 15.333 -356 46c-175.333 47.333 -263 121.666 -263 222.999c0 100.667 123.333 198.334 370 293.001c192.667 74 352.334 116.667 479.001 128c-56.667 23.333 -85 50.333 -85 81
c0 20 14.667 30 44 30c14 0 80.667 -27.333 200 -82c14.667 2.66699 60.667 9.66699 138 21c39.333 0 59 -11.333 59 -34c0 -20.667 -10.333 -34.667 -31 -42c-14 -3.33301 -28.333 -6.33301 -43 -9c207.333 -102.667 311 -217.667 311 -345zM1533 306
c0 106 -121.998 216.333 -365.998 331c-232 -32.667 -444 -90.667 -636 -174c-176.667 -76.667 -265.334 -140 -266.001 -190c0 -52.667 51.667 -97 155 -133s228.666 -54 375.999 -54c175.333 0 328 13.333 458 40c186 38 279 98 279 180zM1319 1140
c-64 -7.33301 -111.668 -14.665 -143.001 -21.998c-68 -16.667 -122 -42.667 -162 -78c-30 -26.667 -49.167 -44.667 -57.5 -54s-19.166 -25.333 -32.499 -48c-6.66699 -10.667 -15 -16 -25 -16c-14.667 0 -22 7.66699 -22 23c0 4 1 8 3 12
c43.333 74.667 106.666 132.667 189.999 174c-116.667 6 -175 45 -175 117c0 56 29 98.667 87 128c46 22 100 33 162 33c26.667 0 40 -7.66699 40 -23s-13.667 -23 -41 -23c-45.333 0 -86.666 -8 -123.999 -24c-49.333 -20.667 -74 -50.334 -74 -89.001
c0 -48.667 62 -73 186 -73c64 0 125.333 4.33301 184 13c21.333 3.33301 32 -4.33398 32 -23.001c0 -16 -9.33301 -25 -28 -27z" />
    <glyph glyph-name="u062A" unicode="&#x62a;" horiz-adv-x="2252" arabic-form="isolated" 
d="M2252 410c0 -161.333 -150 -276.998 -450 -346.998c-184 -42.667 -388.333 -64 -613 -64c-222.667 0 -420 21.333 -592 64c-278 69.333 -417 185 -417 347c0 66.667 52.333 134.667 157 204c110 73.333 225.667 110.666 347 111.999c31.333 0.666992 47 -10.333 47 -33
c0 -30 -16 -45 -48 -45c-56.667 0 -132 -20.667 -226 -62c-122.667 -54 -184 -119 -184 -195c0 -96.667 97.333 -173.667 292 -231c174 -51.333 381 -76 621 -74c272 2 501 30.333 687 85c200.667 58.667 301 135.667 301 231c0 68 -55 129 -165 183c-90 44 -166 66 -228 66
c-40 0 -60 11.333 -60 34c0 23.333 19 35.666 57 36.999c85.333 4 180.333 -21 285 -75c126 -64 189 -143 189 -237zM1525 1000c0 -38.667 -31.667 -58 -95 -58c-64 0 -96 19.333 -96 58c0 38 32 57 96 57c63.333 0 95 -19 95 -57zM1212 1002c0 -38 -31.333 -57 -94 -57
s-94 19 -94 57c0 37.333 31.333 56 94 56s94 -18.667 94 -56z" />
    <glyph glyph-name="u062B" unicode="&#x62b;" horiz-adv-x="2252" arabic-form="isolated" 
d="M2252 410c0 -161.333 -150 -276.998 -450 -346.998c-184 -42.667 -388.333 -64 -613 -64c-222.667 0 -420 21.333 -592 64c-278 69.333 -417 185 -417 347c0 66.667 52.333 134.667 157 204c110 73.333 225.667 110.666 347 111.999c31.333 0.666992 47 -10.333 47 -33
c0 -30 -16 -45 -48 -45c-56.667 0 -132 -20.667 -226 -62c-122.667 -54 -184 -119 -184 -195c0 -96.667 97.333 -173.667 292 -231c174 -51.333 381 -76 621 -74c272 2 501 30.333 687 85c200.667 58.667 301 135.667 301 231c0 68 -55 129 -165 183c-90 44 -166 66 -228 66
c-40 0 -60 11.333 -60 34c0 23.333 19 35.666 57 36.999c85.333 4 180.333 -21 285 -75c126 -64 189 -143 189 -237zM1350 1176c0 -38.667 -32 -58 -96 -58c-63.333 0 -95 19.333 -95 58c0 37.333 31.667 56 95 56c64 0 96 -18.667 96 -56zM1507 999.002
c0 -38.667 -32 -58 -96 -58c-62.667 0 -94 19.333 -94 58c0 36.667 31.333 55 94 55c64 0 96 -18.333 96 -55zM1193 999.002c0 -38 -31.333 -57 -94 -57c-64 0 -96 19 -96 57c0 38.667 32 58 96 58c62.667 0 94 -19.333 94 -58z" />
    <glyph glyph-name="u062C" unicode="&#x62c;" horiz-adv-x="1498" arabic-form="isolated" 
d="M1663 -748c0 -23.333 -55.665 -50.001 -166.998 -80.001c-130 -36 -276.667 -54 -440 -54c-227.333 0 -425 48.333 -593 145c-190.667 110 -286 257 -286 441c0 138.667 86 257.334 258 356.001c169.333 96 369 144 599 144c30.667 0 61.667 -1.66699 93 -5
s56.333 -5 75 -5c15.333 24.667 23 55.334 23 92.001c0 75.333 -43.333 136.166 -130 182.499s-197 69.5 -331 69.5c-88 0 -166.333 -11.667 -235 -35l-106 -39c-24 -2.66699 -36 9 -36 35c0 22 33.667 46 101 72c81.333 32 180.666 48 297.999 48
c142.667 0 261.667 -26.667 357 -80c107.333 -60.667 161 -145.667 161 -255c0 -20 -5.33301 -56.667 -16 -110l119 -35c56.667 -18 85 -34.333 85 -49c0 -30 -12.667 -45 -38 -45c-14.667 0 -38 6.66699 -70 20c-40 16 -79.667 28 -119 36c-64 12.667 -144.333 19 -241 19
c-235.333 0 -426.333 -48 -573 -144c-126 -82 -189 -173.667 -189 -275c0 -114.667 63.667 -223 191 -325c152 -121.333 349.333 -182 592 -182c115.333 0 218 9 308 27c57.333 11.333 114.666 28 171.999 50c47.333 18 76.333 27 87 27c34 0 51 -15.333 51 -46z
M996.002 -361.001c0 -38 -31.333 -57 -94 -57c-64 0 -96 19 -96 57s32 57 96 57c62.667 0 94 -19 94 -57z" />
    <glyph glyph-name="u062D" unicode="&#x62d;" horiz-adv-x="1498" arabic-form="isolated" 
d="M1663 -748c0 -23.333 -55.665 -50.001 -166.998 -80.001c-130 -36 -276.667 -54 -440 -54c-227.333 0 -425 48.333 -593 145c-190.667 110 -286 257 -286 441c0 138.667 86 257.334 258 356.001c169.333 96 369 144 599 144c30.667 0 61.667 -1.66699 93 -5
s56.333 -5 75 -5c15.333 24.667 23 55.334 23 92.001c0 75.333 -43.333 136.166 -130 182.499s-197 69.5 -331 69.5c-88 0 -166.333 -11.667 -235 -35l-106 -39c-24 -2.66699 -36 9 -36 35c0 22 33.667 46 101 72c81.333 32 180.666 48 297.999 48
c142.667 0 261.667 -26.667 357 -80c107.333 -60.667 161 -145.667 161 -255c0 -20 -5.33301 -56.667 -16 -110l119 -35c56.667 -18 85 -34.333 85 -49c0 -30 -12.667 -45 -38 -45c-14.667 0 -38 6.66699 -70 20c-40 16 -79.667 28 -119 36c-64 12.667 -144.333 19 -241 19
c-235.333 0 -426.333 -48 -573 -144c-126 -82 -189 -173.667 -189 -275c0 -114.667 63.667 -223 191 -325c152 -121.333 349.333 -182 592 -182c115.333 0 218 9 308 27c57.333 11.333 114.666 28 171.999 50c47.333 18 76.333 27 87 27c34 0 51 -15.333 51 -46z" />
    <glyph glyph-name="u062E" unicode="&#x62e;" horiz-adv-x="1498" arabic-form="isolated" 
d="M1663 -748c0 -23.333 -55.665 -50.001 -166.998 -80.001c-130 -36 -276.667 -54 -440 -54c-227.333 0 -425 48.333 -593 145c-190.667 110 -286 257 -286 441c0 138.667 86 257.334 258 356.001c169.333 96 369 144 599 144c30.667 0 61.667 -1.66699 93 -5
s56.333 -5 75 -5c15.333 24.667 23 55.334 23 92.001c0 75.333 -43.333 136.166 -130 182.499s-197 69.5 -331 69.5c-88 0 -166.333 -11.667 -235 -35l-106 -39c-24 -2.66699 -36 9 -36 35c0 22 33.667 46 101 72c81.333 32 180.666 48 297.999 48
c142.667 0 261.667 -26.667 357 -80c107.333 -60.667 161 -145.667 161 -255c0 -20 -5.33301 -56.667 -16 -110l119 -35c56.667 -18 85 -34.333 85 -49c0 -30 -12.667 -45 -38 -45c-14.667 0 -38 6.66699 -70 20c-40 16 -79.667 28 -119 36c-64 12.667 -144.333 19 -241 19
c-235.333 0 -426.333 -48 -573 -144c-126 -82 -189 -173.667 -189 -275c0 -114.667 63.667 -223 191 -325c152 -121.333 349.333 -182 592 -182c115.333 0 218 9 308 27c57.333 11.333 114.666 28 171.999 50c47.333 18 76.333 27 87 27c34 0 51 -15.333 51 -46z
M934.002 918.999c0 -37.333 -32 -56 -96 -56c-62.667 0 -94 18.667 -94 56c0 38 31.333 57 94 57c64 0 96 -19 96 -57z" />
    <glyph glyph-name="u062F" unicode="&#x62f;" horiz-adv-x="1009" arabic-form="isolated" 
d="M1009 329c0 -84 -106.667 -162.665 -320 -235.998c-182 -62.667 -332 -94 -450 -94c-38 0 -57 13.333 -57 40c0 29.333 27.333 45 82 47c98.667 3.33301 225 29.333 379 78c186 59.333 279 121 279 185c0 89.333 -57.333 188.666 -172 297.999
c-79.333 75.333 -163 137.666 -251 186.999c-28.667 16 -43 34 -43 54c0 20.667 12.333 31 37 31c11.333 0 24 -3.33301 38 -10c96 -46.667 192.333 -119 289 -217c126 -128.667 189 -249.667 189 -363z" />
    <glyph glyph-name="u0630" unicode="&#x630;" horiz-adv-x="1009" arabic-form="isolated" 
d="M1009 329c0 -84 -106.667 -162.665 -320 -235.998c-182 -62.667 -332 -94 -450 -94c-38 0 -57 13.333 -57 40c0 29.333 27.333 45 82 47c98.667 3.33301 225 29.333 379 78c186 59.333 279 121 279 185c0 89.333 -57.333 188.666 -172 297.999
c-79.333 75.333 -163 137.666 -251 186.999c-28.667 16 -43 34 -43 54c0 20.667 12.333 31 37 31c11.333 0 24 -3.33301 38 -10c96 -46.667 192.333 -119 289 -217c126 -128.667 189 -249.667 189 -363zM415 1135c0 -38.667 -32 -58 -96 -58c-62.667 0 -94 19.333 -94 58
c0 38 31.333 57 94 57c64 0 96 -19 96 -57z" />
    <glyph glyph-name="u0631" unicode="&#x631;" horiz-adv-x="1193" arabic-form="isolated" 
d="M1145 139c0 -124.667 -105.666 -234.331 -316.999 -328.998c-207.333 -92.667 -442.666 -139 -705.999 -139c-43.333 0 -65 14.667 -65 44c0 28.667 23.667 43 71 43c213.333 0 418.666 37.333 615.999 112c204.667 78 307 164 307 258c0 56 -13.667 110.167 -41 162.5
s-41 80.166 -41 83.499c-0.666992 29.333 13.666 44 42.999 44c26 0 54.667 -34.833 86 -104.5s47 -127.834 47 -174.501z" />
    <glyph glyph-name="u0632" unicode="&#x632;" horiz-adv-x="1147" arabic-form="isolated" 
d="M1000 603c0 -37.333 -31.667 -56 -95 -56c-62.667 0 -94 18.667 -94 56c0 38 31.333 57 94 57c63.333 0 95 -19 95 -57zM1145 139c0 -124.667 -105.666 -234.331 -316.999 -328.998c-207.333 -92.667 -442.666 -139 -705.999 -139c-43.333 0 -65 14.667 -65 44
c0 28.667 23.667 43 71 43c213.333 0 418.666 37.333 615.999 112c204.667 78 307 164 307 258c0 56 -13.667 110.167 -41 162.5s-41 80.166 -41 83.499c-0.666992 29.333 13.666 44 42.999 44c26 0 54.667 -34.833 86 -104.5s47 -127.834 47 -174.501z" />
    <glyph glyph-name="u0633" unicode="&#x633;" horiz-adv-x="3682" arabic-form="isolated" 
d="M3682 294c0 -69.333 -30.333 -130.334 -91 -183.001c-84.667 -74.667 -216 -112 -394 -112c-192 0 -334 59.333 -426 178c-31.333 -36 -75.333 -68.667 -132 -98c-88.667 -44.667 -188.334 -67 -299 -67c-64.667 0 -133.667 13 -207 39
c-75.333 26 -126.666 56 -153.999 90c18.667 -343.333 -279.333 -515 -894 -515c-232 0 -436 48.667 -612 146c-205.333 113.333 -308 267 -308 461c0 74.667 31 147.334 93 218.001c52 58.667 112 103.667 180 135c86 38.667 168.667 66.667 248 84
c68.667 14.667 165.667 26.667 291 36c146 11.333 219 -3 219 -43c0 -21.333 -46.333 -32 -139 -32c-258.667 0 -463.334 -44.667 -614.001 -134c-130 -76.667 -195 -167.334 -195 -272.001c0 -119.333 66 -229.333 198 -330c164.667 -125.333 391 -188 679 -188
c256 0 452 38.667 588 116c126 72 189 169.667 189 293c0 65.333 -7 123.333 -21 174c-18 64 -28.333 106.667 -31 128c-4 40 7 60 33 60c14.667 0 24.667 -4.33301 30 -13c20 -33.333 36.333 -86.333 49 -159c12 -66.667 52.5 -118.667 121.5 -156s156.167 -56 261.5 -56
c104.667 0 191.667 17.667 261 53c86.667 44 130 110.667 130 200c0 55.333 14.667 83 44 83c27.333 0 41.333 -31.667 42 -95c0.666992 -81.333 39.334 -145 116 -191c66 -39.333 149 -60.333 249 -63c103.333 -2.66699 198 17.333 284 60
c80.667 39.333 121 80.333 121 123c0 37.333 -23 69.333 -69 96c-26.667 15.333 -89.334 41.333 -188 78c-24 8.66699 -37.333 14 -40 16c-12 8 -18 20.667 -18 38c0 8.66699 6.66699 16.334 20 23.001s29 8.66699 47 6c72 -11.333 143.333 -37.333 214 -78
c82.667 -48 124 -97.667 124 -149z" />
    <glyph glyph-name="u0634" unicode="&#x634;" horiz-adv-x="3680" arabic-form="isolated" 
d="M3682 294c0 -69.333 -30.333 -130.334 -91 -183.001c-84.667 -74.667 -216 -112 -394 -112c-192 0 -334 59.333 -426 178c-31.333 -36 -75.333 -68.667 -132 -98c-88.667 -44.667 -188.334 -67 -299 -67c-64.667 0 -133.667 13 -207 39
c-75.333 26 -126.666 56 -153.999 90c18.667 -343.333 -279.333 -515 -894 -515c-232 0 -436 48.667 -612 146c-205.333 113.333 -308 267 -308 461c0 74.667 31 147.334 93 218.001c52 58.667 112 103.667 180 135c86 38.667 168.667 66.667 248 84
c68.667 14.667 165.667 26.667 291 36c146 11.333 219 -3 219 -43c0 -21.333 -46.333 -32 -139 -32c-258.667 0 -463.334 -44.667 -614.001 -134c-130 -76.667 -195 -167.334 -195 -272.001c0 -119.333 66 -229.333 198 -330c164.667 -125.333 391 -188 679 -188
c256 0 452 38.667 588 116c126 72 189 169.667 189 293c0 65.333 -7 123.333 -21 174c-18 64 -28.333 106.667 -31 128c-4 40 7 60 33 60c14.667 0 24.667 -4.33301 30 -13c20 -33.333 36.333 -86.333 49 -159c12 -66.667 52.5 -118.667 121.5 -156s156.167 -56 261.5 -56
c104.667 0 191.667 17.667 261 53c86.667 44 130 110.667 130 200c0 55.333 14.667 83 44 83c27.333 0 41.333 -31.667 42 -95c0.666992 -81.333 39.334 -145 116 -191c66 -39.333 149 -60.333 249 -63c103.333 -2.66699 198 17.333 284 60
c80.667 39.333 121 80.333 121 123c0 37.333 -23 69.333 -69 96c-26.667 15.333 -89.334 41.333 -188 78c-24 8.66699 -37.333 14 -40 16c-12 8 -18 20.667 -18 38c0 8.66699 6.66699 16.334 20 23.001s29 8.66699 47 6c72 -11.333 143.333 -37.333 214 -78
c82.667 -48 124 -97.667 124 -149zM2942 1005c0 -38 -32 -57 -96 -57c-63.333 0 -95 19 -95 57c0 37.333 31.667 56 95 56c64 0 96 -18.667 96 -56zM3099 827.999c0 -38.667 -32 -58 -96 -58s-96 19.333 -96 58c0 37.333 32 56 96 56s96 -18.667 96 -56zM2785 828.999
c0 -37.333 -31.333 -56 -94 -56c-64 0 -96 18.667 -96 56c0 38 32 57 96 57c62.667 0 94 -19 94 -57z" />
    <glyph glyph-name="u0635" unicode="&#x635;" horiz-adv-x="3406" arabic-form="isolated" 
d="M3407 441c0 -125.333 -114.001 -233.332 -342.001 -323.999c-213.333 -84.667 -449 -127 -707 -127c-176 0 -301.667 42 -377 126c9.33301 -175.333 -63.667 -308.333 -219 -399c-150.667 -88 -372 -132 -664 -132c-231.333 0 -435 49 -611 147
c-204.667 114 -307 268 -307 462c0 74 31 146.333 93 217c51.333 59.333 111 104.666 179 135.999c84.667 38.667 167.334 66.334 248.001 83.001c68 14.667 165.333 27 292 37c144.667 12 217 -2.66699 217 -44c0 -24 -45.667 -36 -137 -36
c-259.333 0 -464.333 -44 -615 -132c-130 -75.333 -195 -165.666 -195 -270.999c0 -118 66 -227 198 -327c164.667 -124 390.667 -186 678 -186c246 0 437 38.667 573 116c127.333 72.667 191 168.667 191 288c0 70 -5.66699 128.333 -17 175l-35 127
c-2 9.33301 -3 17.666 -3 24.999c0 27.333 11.667 41 35 41c20 0 32.667 -7 38 -21c12 -37.333 31.333 -88 58 -152c36 -68 78.333 -116.667 127 -146c62 -37.333 149 -56 261 -56c180.667 0 374.334 32 581 96c245.333 75.333 368 164.666 368 267.999
c0 54.667 -42.333 105 -127 151c-86.667 46.667 -183.667 69.334 -291 68.001c-163.333 -2 -288.666 -40.333 -376 -115c-87.333 -74.667 -154.666 -148.334 -202 -221.001l-70 -118c-18.667 -23.333 -36.667 -35 -54 -35c-22.667 0 -34 12.667 -34 38
c0 8.66699 2.33301 17 7 25c80 144 162.333 253.333 247 328c137.333 121.333 300 182 488 182c138 0 259.667 -36 365 -108c92.667 -63.333 139 -125.333 139 -186z" />
    <glyph glyph-name="u0636" unicode="&#x636;" horiz-adv-x="3400" arabic-form="isolated" 
d="M3407 441c0 -125.333 -114.001 -233.332 -342.001 -323.999c-213.333 -84.667 -449 -127 -707 -127c-176 0 -301.667 42 -377 126c9.33301 -175.333 -63.667 -308.333 -219 -399c-150.667 -88 -372 -132 -664 -132c-231.333 0 -435 49 -611 147
c-204.667 114 -307 268 -307 462c0 74 31 146.333 93 217c51.333 59.333 111 104.666 179 135.999c84.667 38.667 167.334 66.334 248.001 83.001c68 14.667 165.333 27 292 37c144.667 12 217 -2.66699 217 -44c0 -24 -45.667 -36 -137 -36
c-259.333 0 -464.333 -44 -615 -132c-130 -75.333 -195 -165.666 -195 -270.999c0 -118 66 -227 198 -327c164.667 -124 390.667 -186 678 -186c246 0 437 38.667 573 116c127.333 72.667 191 168.667 191 288c0 70 -5.66699 128.333 -17 175l-35 127
c-2 9.33301 -3 17.666 -3 24.999c0 27.333 11.667 41 35 41c20 0 32.667 -7 38 -21c12 -37.333 31.333 -88 58 -152c36 -68 78.333 -116.667 127 -146c62 -37.333 149 -56 261 -56c180.667 0 374.334 32 581 96c245.333 75.333 368 164.666 368 267.999
c0 54.667 -42.333 105 -127 151c-86.667 46.667 -183.667 69.334 -291 68.001c-163.333 -2 -288.666 -40.333 -376 -115c-87.333 -74.667 -154.666 -148.334 -202 -221.001l-70 -118c-18.667 -23.333 -36.667 -35 -54 -35c-22.667 0 -34 12.667 -34 38
c0 8.66699 2.33301 17 7 25c80 144 162.333 253.333 247 328c137.333 121.333 300 182 488 182c138 0 259.667 -36 365 -108c92.667 -63.333 139 -125.333 139 -186zM2751 1034c0 -38.667 -32 -58 -96 -58c-62.667 0 -94 19.333 -94 58c0 37.333 31.333 56 94 56
c64 0 96 -18.667 96 -56z" />
    <glyph glyph-name="u0637" unicode="&#x637;" horiz-adv-x="1507" arabic-form="isolated" 
d="M1507 442c0 -112.667 -111.664 -213.999 -334.997 -303.999c-228 -92 -494 -138 -798 -138c-120 0 -167.333 -0.666992 -142 -2c-43.333 2.66699 -65 16 -65 40c0 20.667 16 35 48 43c24 5.33301 56.667 7 98 5c24 -1.33301 48.333 -3 73 -5
c207.333 -1.33301 420.333 30 639 94c262 76.667 393 172 393 286c0 49.333 -42.333 96 -127 140c-88 44.667 -186.667 67 -296 67c-229.333 0 -439.333 -143.333 -630 -430c-20.667 -32 -43.667 -48 -69 -48c-17.333 0 -26 11.333 -26 34c0 12 3.66699 24.667 11 38
l50.5 78.5c17 26.333 29.833 64.5 38.5 114.5c1.33301 8 2 21.333 2 40c0 46.667 -5.66699 144.667 -17 294c-12 164.667 -18.667 265 -20 301c-0.666992 25.333 11.666 38 36.999 38c23.333 0 36.666 -12.667 39.999 -38c10 -71.333 25.333 -268.333 46 -591
c95.333 86 164.666 142 207.999 168c96 58 202.667 87 320 87c147.333 0 271 -30.333 371 -91s150 -134.334 150 -221.001z" />
    <glyph glyph-name="u0638" unicode="&#x638;" horiz-adv-x="1502" arabic-form="isolated" 
d="M1507 442c0 -112.667 -111.664 -213.999 -334.997 -303.999c-228 -92 -494 -138 -798 -138c-120 0 -167.333 -0.666992 -142 -2c-43.333 2.66699 -65 16 -65 40c0 20.667 16 35 48 43c24 5.33301 56.667 7 98 5c24 -1.33301 48.333 -3 73 -5
c207.333 -1.33301 420.333 30 639 94c262 76.667 393 172 393 286c0 49.333 -42.333 96 -127 140c-88 44.667 -186.667 67 -296 67c-229.333 0 -439.333 -143.333 -630 -430c-20.667 -32 -43.667 -48 -69 -48c-17.333 0 -26 11.333 -26 34c0 12 3.66699 24.667 11 38
l50.5 78.5c17 26.333 29.833 64.5 38.5 114.5c1.33301 8 2 21.333 2 40c0 46.667 -5.66699 144.667 -17 294c-12 164.667 -18.667 265 -20 301c-0.666992 25.333 11.666 38 36.999 38c23.333 0 36.666 -12.667 39.999 -38c10 -71.333 25.333 -268.333 46 -591
c95.333 86 164.666 142 207.999 168c96 58 202.667 87 320 87c147.333 0 271 -30.333 371 -91s150 -134.334 150 -221.001zM1029 1044c0 -38.667 -31.667 -58 -95 -58c-62.667 0 -94 19.333 -94 58c0 38 31.333 57 94 57c63.333 0 95 -19 95 -57z" />
    <glyph glyph-name="u0639" unicode="&#x639;" horiz-adv-x="1466" arabic-form="isolated" 
d="M1566 -806c-160.667 -42.667 -303.333 -64 -428 -64c-276 0 -505.667 60.667 -689 182c-180.667 120 -271 268 -271 444c0 122 63.333 226 190 312c103.333 71.333 224.333 117.666 363 138.999c-116.667 54 -186.667 88.667 -210 104c-76.667 52 -115 113 -115 183
c0 95.333 51.667 179.666 155 252.999c110 78 246 117 408 117c173.333 0 258.333 -17 255 -51c-2.66699 -24 -21.667 -36 -57 -36c-9.33301 0 -36.333 1.5 -81 4.5s-85.667 4.5 -123 4.5c-118 0 -224 -26.667 -318 -80c-101.333 -57.333 -152 -127.333 -152 -210
c0 -71.333 75.333 -135.666 226 -192.999c141.333 -54 289.333 -81 444 -81c114.667 0 189 -1.66699 223 -5c56 -5.33301 84 -17.333 84 -36c0 -19.333 -5.83301 -32.166 -17.5 -38.499s-36.167 -9.5 -73.5 -9.5c-11.333 0 -62.5 1.5 -153.5 4.5s-179.5 4.5 -265.5 4.5
c-209.333 0 -377.5 -35.833 -504.5 -107.5s-190.5 -164.5 -190.5 -278.5c0 -138.667 75 -260.667 225 -366c165.333 -117.333 377.666 -176 636.999 -176c134.667 0 271.334 18 410.001 54c7.33301 2 14.333 3 21 3c28.667 0 43 -12.333 43 -37
c0 -20.667 -11.667 -34 -35 -40z" />
    <glyph glyph-name="u063A" unicode="&#x63a;" horiz-adv-x="1466" arabic-form="isolated" 
d="M1566 -806c-160.667 -42.667 -303.333 -64 -428 -64c-276 0 -505.667 60.667 -689 182c-180.667 120 -271 268 -271 444c0 122 63.333 226 190 312c103.333 71.333 224.333 117.666 363 138.999c-116.667 54 -186.667 88.667 -210 104c-76.667 52 -115 113 -115 183
c0 95.333 51.667 179.666 155 252.999c110 78 246 117 408 117c173.333 0 258.333 -17 255 -51c-2.66699 -24 -21.667 -36 -57 -36c-9.33301 0 -36.333 1.5 -81 4.5s-85.667 4.5 -123 4.5c-118 0 -224 -26.667 -318 -80c-101.333 -57.333 -152 -127.333 -152 -210
c0 -71.333 75.333 -135.666 226 -192.999c141.333 -54 289.333 -81 444 -81c114.667 0 189 -1.66699 223 -5c56 -5.33301 84 -17.333 84 -36c0 -19.333 -5.83301 -32.166 -17.5 -38.499s-36.167 -9.5 -73.5 -9.5c-11.333 0 -62.5 1.5 -153.5 4.5s-179.5 4.5 -265.5 4.5
c-209.333 0 -377.5 -35.833 -504.5 -107.5s-190.5 -164.5 -190.5 -278.5c0 -138.667 75 -260.667 225 -366c165.333 -117.333 377.666 -176 636.999 -176c134.667 0 271.334 18 410.001 54c7.33301 2 14.333 3 21 3c28.667 0 43 -12.333 43 -37
c0 -20.667 -11.667 -34 -35 -40zM1029 1085c0 -38.667 -31.667 -58 -95 -58c-62.667 0 -94 19.333 -94 58c0 37.333 31.333 56 94 56c63.333 0 95 -18.667 95 -56z" />
    <glyph glyph-name="u0641" unicode="&#x641;" horiz-adv-x="2269" arabic-form="isolated" 
d="M2259 465c0 -146.667 -118.33 -263 -354.997 -349c-215.333 -78 -483 -117 -803 -117c-346.667 0 -598.667 45.333 -756 136c-116.667 67.333 -175 153.666 -175 258.999c0 100.667 73 183.667 219 249c86.667 38.667 176 64.667 268 78
c13.333 2 26.166 -1.33301 38.499 -10s18.5 -18.667 18.5 -30c0 -18.667 -17.667 -31 -53 -37c-270.667 -50 -406 -134.333 -406 -253c0 -86 65.333 -157 196 -213c150 -63.333 364.667 -95 644 -95c278 0 517 28 717 84c242.667 68.667 364 166.667 364 294
c0 58 -35 112.333 -105 163c-90.667 64.667 -216 97 -376 97c-84.667 0 -173.667 -19 -267 -57c-105.333 -42 -158 -90.333 -158 -145c0 -48 29 -88.333 87 -121c68 -39.333 165.667 -59 293 -59c96 0 191.667 17 287 51c5.33301 2 10.666 3 15.999 3
c29.333 0 44 -13.667 44 -41c0 -16 -9.66699 -28 -29 -36c-100.667 -40.667 -216.334 -61 -347.001 -61c-98 0 -190 19 -276 57c-110.667 48.667 -166 116.334 -166 203.001c0 66.667 49 130 147 190c107.333 64.667 234.333 97 381 97c126 0 244.667 -28.333 356 -85
c130.667 -65.333 196 -149.333 196 -252zM1788 1077c0 -37.333 -32 -56 -96 -56c-62.667 0 -94 18.667 -94 56c0 38.667 31.333 58 94 58c64 0 96 -19.333 96 -58z" />
    <glyph glyph-name="u0642" unicode="&#x642;" horiz-adv-x="2055" arabic-form="isolated" 
d="M2055 194c0 -71.333 -34.999 -150.668 -104.999 -238.001c-84 -105.333 -198 -190.333 -342 -255c-177.333 -79.333 -384.666 -119 -621.999 -119c-256 0 -458 56.333 -606 169c-134.667 102.667 -202 232.667 -202 390c0 137.333 92 261.666 276 372.999
c163.333 98.667 317.666 148 462.999 148c41.333 0 62 -11.333 62 -34c0 -24 -21.333 -39 -64 -45c-166.667 -23.333 -311 -71.666 -433 -144.999c-146.667 -88 -220 -193 -220 -315c0 -92.667 50.667 -183.667 152 -273c135.333 -120.667 324 -181 566 -181
c224.667 0 420 36 586 108c131.333 56.667 235.333 131.667 312 225c62 74.667 93 139.667 93 195c0 82.667 -52.333 162 -157 238c-111.333 81.333 -238.333 122 -381 122c-118 0 -230 -27.667 -336 -83c-102 -54 -153 -107.667 -153 -161
c0 -40.667 31.333 -76.167 94 -106.5s137.667 -45.5 225 -45.5c68 0 146.5 12.833 235.5 38.5s139.167 38.5 150.5 38.5c30.667 0 46 -13.333 46 -40c0 -17.333 -12 -31 -36 -41c-117.333 -48.667 -249.333 -73 -396 -73c-111.333 0 -205.333 19.667 -282 59
c-82 42 -123 97.333 -123 166c0 78.667 52 151.334 156 218.001c117.333 74.667 262.666 112 435.999 112c156 0 295.333 -44 418 -132c124.667 -90 187 -194.333 187 -313zM1704 934.998c0 -38.667 -32.333 -58 -97 -58c-63.333 0 -95 19.333 -95 58c0 38 31.667 57 95 57
c64.667 0 97 -19 97 -57zM1391 936.998c0 -38 -32 -57 -96 -57c-62.667 0 -94 19 -94 57c0 37.333 31.333 56 94 56c64 0 96 -18.667 96 -56z" />
    <glyph glyph-name="u0643" unicode="&#x643;" horiz-adv-x="2262" arabic-form="isolated" 
d="M2262 426c0 -158.667 -135.998 -274.331 -407.998 -346.998c-196 -52.667 -440 -79 -732 -79c-336 0 -585.667 37 -749 111c-133.333 60.667 -200 140 -200 238c0 91.333 55.333 173 166 245c100 64.667 197.667 97 293 97c32.667 0 49 -12.333 49 -37
c0 -18.667 -13.333 -31.334 -40 -38.001c-254 -63.333 -381 -150.333 -381 -261c0 -71.333 62.333 -131 187 -179c151.333 -58 376 -88 674 -90c296.667 -2.66699 545.334 27 746.001 89c209.333 64.667 314 149 314 253c0 101.333 -63 176.666 -189 225.999
c-94.667 37.333 -207.334 56 -338.001 56c-30 0 -56 -1.66699 -78 -5c-12.667 -2.66699 -24 -4 -34 -4c-34 0 -51 10.667 -51 32c0 23.333 15.667 42 47 56l598 264c17.333 7.33301 32.666 11 45.999 11c22.667 0 34 -9.33301 34 -28c0 -22 -15 -39.667 -45 -53l-448 -200
c99.333 5.33301 202.666 -14.667 309.999 -60c152.667 -64.667 229 -163.667 229 -297z" />
    <glyph glyph-name="u0644" unicode="&#x644;" horiz-adv-x="2116" arabic-form="isolated" 
d="M2121 1090l-19 -965c-4 -207.333 -106.667 -358.333 -308 -453c-158.667 -75.333 -371.334 -113 -638.001 -113c-264 0 -488 48.667 -672 146c-200 106 -300 245.333 -300 418c0 150 75 274.333 225 373c178.667 117.333 436.334 173.333 773.001 168
c72 -1.33301 108 -15.333 108 -42c0 -2.66699 -0.333008 -5.66699 -1 -9c-4 -18 -17.333 -29 -40 -33c-6.66699 -1.33301 -37.667 -2.33301 -93 -3c-302 -4 -530.667 -54.667 -686 -152c-131.333 -83.333 -197 -188.333 -197 -315c0 -132.667 86.333 -243.667 259 -333
c170 -88 376.333 -132 619 -132c238 0 430 31 576 93c186.667 80 282.334 207 287.001 381l26 963c1.33301 42 16.333 63 44.999 63c24.667 0 36.667 -18.333 36 -55z" />
    <glyph glyph-name="u0645" unicode="&#x645;" horiz-adv-x="1389" arabic-form="isolated" 
d="M1402 -73c0 -58.667 -34.332 -105.004 -102.999 -139.004c-61.333 -30.667 -137.666 -46 -228.999 -46c-140.667 0 -284.334 47 -431.001 141c-142.667 91.333 -214 177.333 -214 258c0 28.667 18.667 68.334 56 119.001
c-77.333 -9.33301 -131.666 -27.666 -162.999 -54.999c-35.333 -31.333 -53 -83.666 -53 -156.999c0 -47.333 6.33301 -99.333 19 -156l26 -107c3.33301 -13.333 0.666016 -25.5 -8.00098 -36.5s-19 -16.5 -31 -16.5c-25.333 0 -42.666 21.667 -51.999 65
c-11.333 46 -24 126.667 -38 242c-3.33301 108.667 23 187 79 235c61.333 53.333 174.666 80 339.999 80c143.333 0 285.666 -28.667 426.999 -86c107.333 -43.333 196 -95.666 266 -156.999c72.667 -64.667 109 -126 109 -184zM1306 -64.0039
c0 56 -61.998 121.667 -185.998 197c-131.333 79.333 -256.333 119 -375 119c-150.667 0 -226 -36 -226 -108c0 -64 61.667 -133 185 -207c126.667 -76 249.667 -114 369 -114c77.333 0 137.666 13 180.999 39c35.333 21.333 52.666 46 51.999 74z" />
    <glyph glyph-name="u0646" unicode="&#x646;" horiz-adv-x="1968" arabic-form="isolated" 
d="M1971 187c-2 -137.333 -52.002 -251.666 -150.002 -342.999c-152 -141.333 -407.667 -212 -767 -212c-277.333 0 -498.666 64 -663.999 192c-140 109.333 -210 233.666 -210 372.999c0 182 106 317.333 318 406c156 65.333 359.667 102.666 611 111.999
c56 2 84 -12 84 -42c0 -27.333 -23.667 -42 -71 -44c-568 -23.333 -852 -166.666 -852 -429.999c0 -94 50.333 -187 151 -279c144.667 -131.333 356.334 -197 635.001 -197c236 0 426.333 33.333 571 100c172.667 79.333 259 199.666 259 360.999c0 98.667 -7 182 -21 250
c-12 56.667 -36.667 134.667 -74 234c-4 10.667 -6 20.334 -6 29.001c0 26 12 39 36 39c24.667 0 43 -15.667 55 -47c39.333 -103.333 65 -186 77 -248c12.667 -66 18.667 -150.667 18 -254zM1569 638c0 -38.667 -32 -58 -96 -58c-62.667 0 -94 19.333 -94 58
c0 38 31.333 57 94 57c64 0 96 -19 96 -57z" />
    <glyph glyph-name="u0647" unicode="&#x647;" horiz-adv-x="1592" arabic-form="isolated" 
d="M1620 309c0 -206.667 -274.334 -310 -823.001 -310c-124 0 -242.667 15.333 -356 46c-175.333 47.333 -263 121.666 -263 222.999c0 100.667 123.333 198.334 370 293.001c192.667 74 352.334 116.667 479.001 128c-56.667 23.333 -85 50.333 -85 81
c0 20 14.667 30 44 30c14 0 80.667 -27.333 200 -82c14.667 2.66699 60.667 9.66699 138 21c39.333 0 59 -11.333 59 -34c0 -20.667 -10.333 -34.667 -31 -42c-14 -3.33301 -28.333 -6.33301 -43 -9c207.333 -102.667 311 -217.667 311 -345zM1533 306
c0 106 -121.998 216.333 -365.998 331c-232 -32.667 -444 -90.667 -636 -174c-176.667 -76.667 -265.334 -140 -266.001 -190c0 -52.667 51.667 -97 155 -133s228.666 -54 375.999 -54c175.333 0 328 13.333 458 40c186 38 279 98 279 180z" />
    <glyph glyph-name="u0648" unicode="&#x648;" horiz-adv-x="1264" arabic-form="isolated" 
d="M1280 217c0 -134.667 -105.003 -249.001 -315.003 -343.001c-197.333 -88.667 -426.333 -134 -687 -136c-56 -0.666992 -84 14.333 -84 45c0 26.667 26.333 40 79 40c252.667 0 470.334 41.667 653.001 125c177.333 80 266 172.333 266 277
c0 74 -41.667 137.667 -125 191c-91.333 59.333 -210.666 89 -357.999 89c-94.667 0 -180 -12.333 -256 -37c-109.333 -34.667 -164 -87.667 -164 -159c0 -56.667 48.333 -102.667 145 -138c78 -28 157 -42 237 -42c104.667 0 195.667 14 273 42c4.66699 2 9.66699 3 15 3
c29.333 0 44 -13.667 44 -41c0 -17.333 -11.333 -29.666 -34 -36.999c-93.333 -31.333 -192.666 -47 -297.999 -47c-110.667 0 -213 22 -307 66c-110 50.667 -165 116.334 -165 197.001c0 75.333 45.667 139.666 137 192.999c95.333 56 216.333 84 363 84
c153.333 0 284.333 -29.667 393 -89c125.333 -68.667 188 -163 188 -283z" />
    <glyph glyph-name="u0649" unicode="&#x649;" horiz-adv-x="1943" arabic-form="isolated" 
d="M1985 383c0 -22.667 -15.999 -34.001 -47.999 -34.001c5.33301 0 -24.167 7 -88.5 21s-127.5 21 -189.5 21c-107.333 0 -213.333 -29 -318 -87c-112 -62.667 -168 -131.667 -168 -207c0 -45.333 45 -68 135 -68c54.667 0 139.667 14 255 42s184.333 42 207 42
c42.667 0 80 -10 112 -30c38.667 -24.667 58 -59.667 58 -105c0 -104.667 -83.667 -197.667 -251 -279c-164.667 -79.333 -348.334 -119 -551.001 -119c-273.333 0 -503.333 64.667 -690 194c-178.667 124 -268 270.333 -268 439c0 130 77.667 242.333 233 337
c150.667 90.667 323 136 517 136c41.333 0 82.333 -2.33301 123 -7c48 -6 72 -22.333 72 -49s-25 -37.667 -75 -33c-32.667 3.33301 -65.667 5 -99 5c-176.667 0 -332.334 -36.333 -467.001 -109c-144.667 -78.667 -217 -176.667 -217 -294
c0 -65.333 29.333 -136.666 88 -213.999c68.667 -90 161.667 -162.667 279 -218c142.667 -68 306.334 -102 491.001 -102c179.333 0 345 31.667 497 95c156 64.667 234 136 234 214c0 36 -23.667 54.333 -71 55c-26.667 0 -99.5 -13.833 -218.5 -41.5
s-211.167 -41.5 -276.5 -41.5c-136.667 0 -205 51.333 -205 154c0 86 58 169.333 174 250c122 84 255.667 126 401 126c45.333 0 104.333 -7 177 -21c98.667 -19.333 148 -43.333 148 -72z" />
    <glyph glyph-name="u064A" unicode="&#x64a;" horiz-adv-x="1943" arabic-form="isolated" 
d="M1985 383c0 -22.667 -15.999 -34.001 -47.999 -34.001c5.33301 0 -24.167 7 -88.5 21s-127.5 21 -189.5 21c-107.333 0 -213.333 -29 -318 -87c-112 -62.667 -168 -131.667 -168 -207c0 -45.333 45 -68 135 -68c54.667 0 139.667 14 255 42s184.333 42 207 42
c42.667 0 80 -10 112 -30c38.667 -24.667 58 -59.667 58 -105c0 -104.667 -83.667 -197.667 -251 -279c-164.667 -79.333 -348.334 -119 -551.001 -119c-273.333 0 -503.333 64.667 -690 194c-178.667 124 -268 270.333 -268 439c0 130 77.667 242.333 233 337
c150.667 90.667 323 136 517 136c41.333 0 82.333 -2.33301 123 -7c48 -6 72 -22.333 72 -49s-25 -37.667 -75 -33c-32.667 3.33301 -65.667 5 -99 5c-176.667 0 -332.334 -36.333 -467.001 -109c-144.667 -78.667 -217 -176.667 -217 -294
c0 -65.333 29.333 -136.666 88 -213.999c68.667 -90 161.667 -162.667 279 -218c142.667 -68 306.334 -102 491.001 -102c179.333 0 345 31.667 497 95c156 64.667 234 136 234 214c0 36 -23.667 54.333 -71 55c-26.667 0 -99.5 -13.833 -218.5 -41.5
s-211.167 -41.5 -276.5 -41.5c-136.667 0 -205 51.333 -205 154c0 86 58 169.333 174 250c122 84 255.667 126 401 126c45.333 0 104.333 -7 177 -21c98.667 -19.333 148 -43.333 148 -72z" />
    <glyph glyph-name="u067E" unicode="&#x67e;" horiz-adv-x="2252" arabic-form="isolated" 
d="M2252 410c0 -161.333 -150 -276.998 -450 -346.998c-184 -42.667 -388.333 -64 -613 -64c-222.667 0 -420 21.333 -592 64c-278 69.333 -417 185 -417 347c0 66.667 52.333 134.667 157 204c110 73.333 225.667 110.666 347 111.999c31.333 0.666992 47 -10.333 47 -33
c0 -30 -16 -45 -48 -45c-56.667 0 -132 -20.667 -226 -62c-122.667 -54 -184 -119 -184 -195c0 -96.667 97.333 -173.667 292 -231c174 -51.333 381 -76 621 -74c272 2 501 30.333 687 85c200.667 58.667 301 135.667 301 231c0 68 -55 129 -165 183c-90 44 -166 66 -228 66
c-40 0 -60 11.333 -60 34c0 23.333 19 35.666 57 36.999c85.333 4 180.333 -21 285 -75c126 -64 189 -143 189 -237zM1341 -438.998c0 37.333 -31.333 56 -94 56c-64 0 -96 -18.667 -96 -56c0 -38 32 -57 96 -57c62.667 0 94 19 94 57zM1499 -261.998
c0 38.667 -32.333 58 -97 58c-62.667 0 -94 -19.333 -94 -58c0 -38 31.333 -57 94 -57c64.667 0 97 19 97 57zM1186 -263.998c0 38 -32 57 -96 57c-62.667 0 -94 -19 -94 -57c0 -37.333 31.333 -56 94 -56c64 0 96 18.667 96 56z" />
    <glyph glyph-name="u0686" unicode="&#x686;" horiz-adv-x="1498" arabic-form="isolated" 
d="M1663 -748c0 -23.333 -55.665 -50.001 -166.998 -80.001c-130 -36 -276.667 -54 -440 -54c-227.333 0 -425 48.333 -593 145c-190.667 110 -286 257 -286 441c0 138.667 86 257.334 258 356.001c169.333 96 369 144 599 144c30.667 0 61.667 -1.66699 93 -5
s56.333 -5 75 -5c15.333 24.667 23 55.334 23 92.001c0 75.333 -43.333 136.166 -130 182.499s-197 69.5 -331 69.5c-88 0 -166.333 -11.667 -235 -35l-106 -39c-24 -2.66699 -36 9 -36 35c0 22 33.667 46 101 72c81.333 32 180.666 48 297.999 48
c142.667 0 261.667 -26.667 357 -80c107.333 -60.667 161 -145.667 161 -255c0 -20 -5.33301 -56.667 -16 -110l119 -35c56.667 -18 85 -34.333 85 -49c0 -30 -12.667 -45 -38 -45c-14.667 0 -38 6.66699 -70 20c-40 16 -79.667 28 -119 36c-64 12.667 -144.333 19 -241 19
c-235.333 0 -426.333 -48 -573 -144c-126 -82 -189 -173.667 -189 -275c0 -114.667 63.667 -223 191 -325c152 -121.333 349.333 -182 592 -182c115.333 0 218 9 308 27c57.333 11.333 114.666 28 171.999 50c47.333 18 76.333 27 87 27c34 0 51 -15.333 51 -46z
M1054 -486.001c0 38.667 -32 58 -96 58c-63.333 0 -95 -19.333 -95 -58c0 -37.333 31.667 -56 95 -56c64 0 96 18.667 96 56zM1211 -309.001c0 38.667 -32 58 -96 58s-96 -19.333 -96 -58c0 -36.667 32 -55 96 -55s96 18.333 96 55zM898.002 -309.001
c0 38 -31.667 57 -95 57s-95 -19 -95 -57c0 -38.667 31.667 -58 95 -58s95 19.333 95 58z" />
    <glyph glyph-name="u0698" unicode="&#x698;" horiz-adv-x="1147" arabic-form="isolated" 
d="M1145 139c0 -124.667 -105.666 -234.331 -316.999 -328.998c-207.333 -92.667 -442.666 -139 -705.999 -139c-43.333 0 -65 14.667 -65 44c0 28.667 23.667 43 71 43c213.333 0 418.666 37.333 615.999 112c204.667 78 307 164 307 258c0 56 -13.667 110.167 -41 162.5
s-41 80.166 -41 83.499c-0.666992 29.333 13.666 44 42.999 44c26 0 54.667 -34.833 86 -104.5s47 -127.834 47 -174.501zM973.001 776.003c0 -38 -32 -57 -96 -57c-63.333 0 -95 19 -95 57c0 37.333 31.667 56 95 56c64 0 96 -18.667 96 -56zM1130 599.003
c0 -38.667 -32 -58 -96 -58s-96 19.333 -96 58c0 36.667 32 55 96 55s96 -18.333 96 -55zM816.001 600.003c0 -38.667 -31.333 -58 -94 -58c-64 0 -96 19.333 -96 58c0 38 32 57 96 57c62.667 0 94 -19 94 -57z" />
    <glyph glyph-name="u06AF" unicode="&#x6af;" horiz-adv-x="2262" arabic-form="isolated" 
d="M2133 1131l-635 -281c-12 -5.33301 -22.333 -8 -31 -8c-16 0 -24 7 -24 21c0 16 10 28.333 30 37l632 282c8.66699 4 17 6 25 6c20.667 0 31 -8.33301 31 -25c0 -13.333 -9.33301 -24 -28 -32zM2262 426c0 -158.667 -135.998 -274.331 -407.998 -346.998
c-196 -52.667 -440 -79 -732 -79c-336 0 -585.667 37 -749 111c-133.333 60.667 -200 140 -200 238c0 91.333 55.333 173 166 245c100 64.667 197.667 97 293 97c32.667 0 49 -12.333 49 -37c0 -18.667 -13.333 -31.334 -40 -38.001c-254 -63.333 -381 -150.333 -381 -261
c0 -71.333 62.333 -131 187 -179c151.333 -58 376 -88 674 -90c296.667 -2.66699 545.334 27 746.001 89c209.333 64.667 314 149 314 253c0 101.333 -63 176.666 -189 225.999c-94.667 37.333 -207.334 56 -338.001 56c-30 0 -56 -1.66699 -78 -5
c-12.667 -2.66699 -24 -4 -34 -4c-34 0 -51 10.667 -51 32c0 23.333 15.667 42 47 56l598 264c17.333 7.33301 32.666 11 45.999 11c22.667 0 34 -9.33301 34 -28c0 -22 -15 -39.667 -45 -53l-448 -200c99.333 5.33301 202.666 -14.667 309.999 -60
c152.667 -64.667 229 -163.667 229 -297z" />
    <glyph glyph-name="uFB57" unicode="&#x67e;" horiz-adv-x="2755" arabic-form="final" 
d="M2785 0h-63.002c-109.333 0 -217.333 30 -324 90c-112.667 62.667 -181.667 137 -207 223c-58 -86 -189.333 -160.333 -394 -223c-198 -60 -399.667 -90 -605 -90c-237.333 0 -435.666 18 -594.999 54c-280 62.667 -420 174.667 -420 336
c0 66.667 52.333 134.667 157 204c110 73.333 226.333 110.666 349 111.999c30.667 0.666992 46 -10.333 46 -33c0 -30 -16 -45 -48 -45c-57.333 0 -133.666 -20.333 -228.999 -61c-124.667 -53.333 -187 -117.666 -187 -192.999c0 -97.333 100.333 -172 301 -224
c172 -44.667 384 -67 636 -67c220.667 0 427 32.667 619 98c214.667 73.333 325 163.333 331 270c0.666992 12 0.333984 32 -1 60c-2 33.333 -3 56.666 -3 69.999c0 72 15.333 108 46 108c26.667 0 42 -30 46 -90c-0.666992 -46.667 -1 -93.667 -1 -141
c2.66699 -99.333 54.334 -186.666 155 -261.999c98.667 -73.333 209 -110 331 -110h60v-86zM1343 -438c0 38.667 -32 58 -96 58s-96 -19.333 -96 -58c0 -37.333 32 -56 96 -56s96 18.667 96 56zM1501 -261c0 38.667 -32.333 58 -97 58c-63.333 0 -95 -19.333 -95 -58
c0 -36.667 31.667 -55 95 -55c64.667 0 97 18.333 97 55zM1186 -262c0 38.667 -31.333 58 -94 58c-64 0 -96 -19.333 -96 -58c0 -38 32 -57 96 -57c62.667 0 94 19 94 57z" />
    <glyph glyph-name="uFB58" unicode="&#x67e;" horiz-adv-x="832" arabic-form="initial" 
d="M824 396c0 -120 -91.3311 -218.334 -273.998 -295.001c-158.667 -67.333 -331.334 -101 -518.001 -101h-62v86h62c156 0 308.667 27.333 458 82c164.667 60 247 129.667 247 209c0 57.333 -49.667 111.333 -149 162c-68.667 34.667 -142.334 61 -221.001 79
c-38.667 8.66699 -58 24.334 -58 47.001s17 34 51 34c8 0 16.667 -1 26 -3c108 -22.667 201 -55.667 279 -99c106 -58.667 159 -125.667 159 -201zM448.002 -457.001c0 38 -31.333 57 -94 57c-64 0 -96 -19 -96 -57c0 -37.333 32 -56 96 -56c62.667 0 94 18.667 94 56z
M606.002 -280.001c0 38.667 -32.333 58 -97 58c-62.667 0 -94 -19.333 -94 -58c0 -37.333 31.333 -56 94 -56c64.667 0 97 18.667 97 56zM293.002 -281.001c0 37.333 -32 56 -96 56c-62.667 0 -94 -18.667 -94 -56c0 -38 31.333 -57 94 -57c64 0 96 19 96 57z" />
    <glyph glyph-name="uFB59" unicode="&#x67e;" horiz-adv-x="1096" arabic-form="medial" 
d="M1125 0l-49.002 0.00195312c-81.333 0 -160.666 17 -237.999 51c-115.333 50 -197.333 129.333 -246 238c-58.667 -108 -150 -186.667 -274 -236c-89.333 -35.333 -185.333 -53 -288 -53h-59v86h57c150 0 272.5 32.833 367.5 98.5s145.833 154.5 152.5 266.5
c0.666992 11.333 0.333984 30.666 -0.999023 57.999c-1.33301 32.667 -2 55.667 -2 69c0 68.667 15 103 45 103c23.333 0 37.333 -18 42 -54c1.33301 -8.66699 2 -54.667 2 -138c0 -146.667 59.667 -256.334 179 -329.001c82 -49.333 170 -74 264 -74h48v-86z
M389.998 -454.998c0 38.667 -32.333 58 -97 58c-64 0 -96 -19.333 -96 -58c0 -38 32 -57 96 -57c64.667 0 97 19 97 57zM548.998 -274.998c0 38.667 -32.333 58 -97 58c-63.333 0 -95 -19.333 -95 -58s31.667 -58 95 -58c64.667 0 97 19.333 97 58zM231.998 -276.998
c0 38 -32 57 -96 57c-64.667 0 -97 -19 -97 -57c0 -38.667 32.333 -58 97 -58c64 0 96 19.333 96 58z" />
    <glyph glyph-name="uFB7B" unicode="&#x686;" horiz-adv-x="1614" arabic-form="final" 
d="M1663 -748c0 -23.333 -55.668 -50 -167.001 -80c-130 -36 -276.667 -54 -440 -54c-256.667 0 -466 51.667 -628 155c-167.333 106 -251 246.333 -251 421c0 159.333 79.333 283 238 371c144 79.333 331 119 561 119c92.667 0 168 -7.66699 226 -23
c13.333 17.333 20 59.333 20 126c0 76 -42.667 137 -128 183s-195.333 69 -330 69c-88 0 -166.333 -11.667 -235 -35l-106 -39c-24 -1.33301 -36 10 -36 34c0 22.667 33.667 47.334 101 74.001c81.333 32 180.666 48 297.999 48c142.667 0 261.667 -27 357 -81
c107.333 -60.667 161 -145.334 161 -254.001c0 -70.667 -5.33301 -120 -16 -148c110.667 -34.667 216.334 -52 317.001 -52h39v-86h-39c-64 0 -166.833 16.667 -308.5 50s-248.5 50 -320.5 50c-235.333 0 -416 -40.333 -542 -121c-114.667 -72.667 -172 -168.667 -172 -288
c0 -125.333 63 -235.333 189 -330c144 -108.667 335.333 -163 574 -163c114.667 0 219 8.66699 313 26c59.333 11.333 120 27.333 182 48c50.667 17.333 81.334 26 92.001 26c34 0 51 -15.333 51 -46zM1061 -489c0 38 -31.667 57 -95 57s-95 -19 -95 -57
c0 -38.667 31.667 -58 95 -58s95 19.333 95 58zM1219 -313c0 38.667 -32.333 58 -97 58c-62.667 0 -94 -19.333 -94 -58c0 -36.667 31.333 -55 94 -55c64.667 0 97 18.333 97 55zM904.999 -313c0 37.333 -31.333 56 -94 56c-64 0 -96 -18.667 -96 -56c0 -38 32 -57 96 -57
c62.667 0 94 19 94 57z" />
    <glyph glyph-name="uFB7C" unicode="&#x686;" horiz-adv-x="1024" arabic-form="initial" 
d="M1024 209c-64 -38 -181.999 -78.667 -353.999 -122c-229.333 -58 -452.333 -87 -669 -87h-31v86h30c130.667 0 272 12.667 424 38c120 20.667 217 43 291 67c22 52 33 98 33 138c0 72 -44.333 131.667 -133 179s-197.334 71 -326.001 71
c-85.333 0 -164.833 -13.833 -238.5 -41.5s-111.834 -41.5 -114.501 -41.5c-28 0 -42 11 -42 33c0 28.667 43.667 58 131 88c90.667 31.333 182.334 47 275.001 47c142.667 0 263.334 -26.333 362.001 -79c112.667 -60.667 169 -144 169 -250c0 -40 -6 -77.333 -18 -112
c11.333 0 40.666 8 87.999 24c54.667 17.333 83.5 26.333 86.5 27s6.5 1 10.5 1c28 0 42 -13 42 -39c0 -12 -5.33301 -21 -16 -27zM552.001 -468c0 37.333 -31.667 56 -95 56c-64 0 -96 -18.667 -96 -56c0 -38.667 32 -58 96 -58c63.333 0 95 19.333 95 58zM709.001 -293
c0 38.667 -32 58 -96 58c-62.667 0 -94 -19.333 -94 -58c0 -36.667 31.333 -55 94 -55c64 0 96 18.333 96 55zM396.001 -293c0 38 -31.333 57 -94 57c-64 0 -96 -19 -96 -57c0 -37.333 32 -56 96 -56c62.667 0 94 18.667 94 56z" />
    <glyph glyph-name="uFB7D" unicode="&#x686;" horiz-adv-x="1079" arabic-form="medial" 
d="M1127 0l-35.998 -0.000976562c-148 0 -271.667 34.333 -371 103c-230 -68.667 -473.333 -103 -730 -103h-21v86h20c99.333 0 225.333 10.667 378 32c158.667 22.667 270 46.667 334 72c14.667 26.667 22 73 22 139c0 72.667 -42.833 132.5 -128.5 179.5
s-192.834 70.5 -321.501 70.5c-84.667 0 -163.834 -13.833 -237.501 -41.5s-111.834 -41.5 -114.501 -41.5c-28 0 -42 11 -42 33c0 28.667 43.667 58 131 88c90 31.333 181.667 47 275 47c140 0 260.333 -28.333 361 -85c112.667 -64 169 -149.333 169 -256
c0 -26.667 -3 -50.667 -9 -72c-4 -11.333 -7.66699 -23 -11 -35c12.667 0.666992 41.167 8.33398 85.5 23.001s69.833 22 76.5 22c29.333 0 46.333 -14.667 51 -44c2.66699 -15.333 -24 -33.333 -80 -54c-49.333 -18 -83 -27 -101 -27
c50.667 -33.333 137.334 -50 260.001 -50h40v-86zM609.002 -452.001c0 37.333 -31.333 56 -94 56c-63.333 0 -95 -18.667 -95 -56c0 -38 31.667 -57 95 -57c62.667 0 94 19 94 57zM768.002 -275.001c0 38.667 -32.667 58 -98 58c-62.667 0 -94 -19.333 -94 -58
c0 -38 31.333 -57 94 -57c65.333 0 98 19 98 57zM454.002 -277.001c0 38 -31.667 57 -95 57s-95 -19 -95 -57c0 -37.333 31.667 -56 95 -56s95 18.667 95 56z" />
    <glyph glyph-name="uFB8B" unicode="&#x698;" horiz-adv-x="1537" arabic-form="final" 
d="M1567 0l-57.998 -0.00195312c-82 0 -145 5.33301 -189 16c-62 14.667 -127 46 -195 94c-4.66699 -125.333 -109.334 -246.333 -314.001 -363c-214.667 -121.333 -447.334 -182 -698.001 -182c-29.333 0 -44 12 -44 36c0 30 19 45 57 45c142 0 286.667 26.667 434 80
c131.333 48 242.333 107.667 333 179c88 70.667 132.667 133.334 134 188.001c0.666992 50 -14.5 102.5 -45.5 157.5s-46.5 86.5 -46.5 94.5c0 32.667 18.333 46.334 55 41.001l129 -153c101.333 -98 231.333 -147 390 -147h58v-86zM953.002 766.998c0 -38 -32 -57 -96 -57
s-96 19 -96 57s32 57 96 57s96 -19 96 -57zM1109 589.998c0 -38.667 -31.667 -58 -95 -58c-64 0 -96 19.333 -96 58c0 38 32 57 96 57c63.333 0 95 -19 95 -57zM796.002 591.998c0 -38 -31.333 -57 -94 -57c-64 0 -96 19 -96 57c0 37.333 32 56 96 56
c62.667 0 94 -18.667 94 -56z" />
    <glyph glyph-name="uFEDA" unicode="&#x6a9;" horiz-adv-x="2471" arabic-form="final" 
d="M2500 0l-69.999 0.00195312c-216.667 0 -379 35.667 -487 107c-190 -74 -462.667 -111 -818 -111c-335.333 0 -585.333 37.667 -750 113c-134.667 62 -202 142 -202 240c0 91.333 55.333 173 166 245c100 64.667 197.667 97 293 97c32.667 0 49 -12.333 49 -37
c0 -18.667 -13.333 -31.334 -40 -38.001c-254 -63.333 -381 -150.333 -381 -261c0 -71.333 62.333 -131 187 -179c151.333 -58 376 -88 674 -90c296.667 -2.66699 545.334 27 746.001 89c209.333 64.667 314 149 314 253c0 101.333 -63 176.666 -189 225.999
c-94.667 37.333 -207.334 56 -338.001 56c-30 0 -56 -1.66699 -78 -5c-12 -2.66699 -23 -4 -33 -4c-36 0 -54 11.667 -54 35s15.667 42 47 56l597 264c16.667 7.33301 31.667 11 45 11c24.667 0 37 -10 37 -30c0 -22.667 -14.667 -40.667 -44 -54l-448 -200
c99.333 5.33301 202.666 -14.667 309.999 -60c152.667 -64.667 229 -163.667 229 -297c0 -73.333 -33 -139 -99 -197c-42 -37.333 -82.333 -62.333 -121 -75c97.333 -45.333 227.333 -68 390 -68h68v-86z" />
    <glyph glyph-name="uFEDB" unicode="&#x6a9;" horiz-adv-x="934" arabic-form="initial" 
d="M931 420c0 -119.333 -90.999 -219.667 -272.999 -301c-178 -79.333 -391 -119 -639 -119h-48v86h54c212.667 0 402 32 568 96c169.333 65.333 254 141.333 254 228c0 102 -62.667 179.667 -188 233c-96.667 41.333 -208.667 62 -336 62c-30 0 -56 -2 -78 -6
c-12 -2 -23 -3 -33 -3c-36 0 -54 11.667 -54 35c0 24 15.333 42.667 46 56l598 264c16.667 7.33301 31.667 11 45 11c25.333 0 38 -10.333 38 -31c0 -22 -14.667 -39.333 -44 -52l-471 -208c13.333 3.33301 30.666 5 51.999 5c110 0 214.667 -25.333 314 -76
c130 -66 195 -159.333 195 -280z" />
    <glyph glyph-name="uFEDC" unicode="&#x6a9;" horiz-adv-x="1138" arabic-form="medial" 
d="M1169 0l-55.002 0.00195312c-84 0 -181 11.667 -291 35c-102.667 22 -175.334 44.667 -218.001 68c-177.333 -68.667 -374.666 -103 -591.999 -103h-43v86h55c190.667 0 373.334 33 548.001 99c183.333 70 275 147.667 275 233c0 101.333 -62.667 177.666 -188 228.999
c-95.333 38.667 -207.666 58 -336.999 58c-30 0 -56 -2 -78 -6c-12 -2 -23 -3 -33 -3c-36.667 0 -55 11.667 -55 35s15 41.666 45 54.999l598 264c17.333 7.33301 32.333 11 45 11c26 0 39 -10.333 39 -31c0 -21.333 -14.333 -38.333 -43 -51l-450 -200
c101.333 4 205 -16.667 311 -62c152.667 -64.667 229 -163.667 229 -297c0 -72.667 -34.333 -137 -103 -193c-41.333 -34 -83.333 -58 -126 -72c150.667 -46 287 -69 409 -69h58v-86z" />
    <glyph glyph-name="uFB93" unicode="&#x6af;" horiz-adv-x="2471" arabic-form="final" 
d="M2134 1125l-633 -282.999c-12 -5.33301 -22.667 -8 -32 -8c-16 0 -24 7 -24 21c0 16 10.333 28.667 31 38l631 281c8.66699 4.66699 17.334 7 26 7c19.333 0 29 -8 29 -24c0 -12.667 -9.33301 -23.334 -28 -32.001zM2500 0.000976562l-69.998 0.00195312
c-208.667 0 -371 35.667 -487 107c-190 -74 -462.667 -111 -818 -111c-335.333 0 -585.333 37.667 -750 113c-134.667 62 -202 142 -202 240c0 91.333 55.333 173 166 245c100 64.667 197.667 97 293 97c32.667 0 49 -12.333 49 -37c0 -18.667 -13.333 -31.334 -40 -38.001
c-254 -63.333 -381 -150.333 -381 -261c0 -71.333 62.333 -131 187 -179c151.333 -58 376 -88 674 -90c296.667 -2.66699 545.334 27 746.001 89c209.333 64.667 314 149 314 253c0 101.333 -63 176.666 -189 225.999c-94.667 37.333 -207.334 56 -338.001 56
c-30 0 -56 -1.66699 -78 -5c-12.667 -2.66699 -24 -4 -34 -4c-34 0 -51 10.667 -51 32c0 23.333 15.667 42 47 56l598 264c17.333 7.33301 32.666 11 45.999 11c22.667 0 34 -9.33301 34 -28c0 -22 -15 -39.667 -45 -53l-448 -200
c99.333 5.33301 202.666 -14.667 309.999 -60c152.667 -64.667 229 -163.667 229 -297c0 -73.333 -33 -139 -99 -197c-42 -37.333 -82.333 -62.333 -121 -75c97.333 -45.333 227.333 -68 390 -68h68v-86z" />
    <glyph glyph-name="uFB94" unicode="&#x6af;" horiz-adv-x="924" arabic-form="initial" 
d="M796 1121l-629.001 -279.999c-13.333 -6 -24.666 -9 -33.999 -9c-15.333 0 -23 6.33301 -23 19c0 18 11.667 32 35 42l625 277c14.667 6.66699 27.667 8 39 4c10.667 -4 16 -11 16 -21c0 -12.667 -9.66699 -23.334 -29 -32.001zM930.999 420.001
c0 -116 -92.999 -215.669 -278.999 -299.002c-181.333 -80.667 -392.333 -121 -633 -121h-48v86h54c208.667 0 397 32.333 565 97c172 66.667 258 144 258 232c0 100.667 -62.667 177.334 -188 230.001c-96.667 40 -209 60 -337 60c-30 0 -56 -2 -78 -6
c-12.667 -2 -24 -3 -34 -3c-34 0 -51 10.333 -51 31c0 23.333 15.667 42 47 56l599 264c17.333 7.33301 32.666 11 45.999 11c22.667 0 34 -9 34 -27c0 -21.333 -15 -38.666 -45 -51.999l-450 -200c101.333 4 205 -16.667 311 -62c152.667 -64.667 229 -163.667 229 -297z
" />
    <glyph glyph-name="uFB95" unicode="&#x6af;" horiz-adv-x="1147" arabic-form="medial" 
d="M799 1125l-631 -280.999c-12.667 -6 -23.667 -9 -33 -9c-15.333 0 -23 6.66699 -23 20c0 18 11.333 32.333 34 43l625 276c9.33301 4.66699 18 7 26 7c20 0 30 -8 30 -24c0 -12.667 -9.33301 -23.334 -28 -32.001zM1169 0.000976562l-54 -0.000976562
c-84 0 -181.333 11.667 -292 35c-102.667 22 -175.334 44.667 -218.001 68c-177.333 -68.667 -374.666 -103 -591.999 -103h-42v86h54c204 0 391.333 33 562 99c174 68 261 145.667 261 233c0 101.333 -62.667 177.666 -188 228.999c-95.333 38.667 -207.666 58 -336.999 58
c-30 0 -56 -2 -78 -6c-12.667 -2 -24 -3 -34 -3c-34 0 -51 10.333 -51 31c0 22.667 15.667 41.334 47 56.001l605 277c17.333 8 32.666 12 45.999 12c22 0 33 -9 33 -27c0 -22.667 -14.667 -41 -44 -55l-451 -210c100 4 202.667 -16.667 308 -62
c151.333 -65.333 227 -164.666 227 -297.999c0 -72.667 -34.333 -137 -103 -193c-41.333 -34 -83.333 -58 -126 -72c150.667 -46 287 -69 409 -69h58v-86z" />
    <glyph glyph-name="uFE94" unicode="&#x6c0;" horiz-adv-x="1955" arabic-form="final" 
d="M1995 0l-62.002 -0.000976562c-117.333 0 -233 34.333 -347 103c-110.667 67.333 -172 137.333 -184 210c-12 -50 -55.333 -100 -130 -150c-112.667 -76 -264.667 -114 -456 -114c-156 0 -291.667 23 -407 69c-152 60.667 -228 151.334 -228 272.001
c0 98 60.333 179.333 181 244c118.667 63.333 265.667 95 441 95c180.667 0 333 -36 457 -108c18 -10.667 27 -23.334 27 -38.001c0 -24.667 -14 -37 -42 -37c-7.33301 0 -15 1.66699 -23 5c-59.333 26 -105.333 44 -138 54c-91.333 27.333 -189.333 42.333 -294 45
c-134.667 2.66699 -255.667 -22.833 -363 -76.5s-160.666 -114.5 -159.999 -182.5c0.666992 -70.667 48.667 -130 144 -178c102.667 -52 239.334 -78 410.001 -78c176 0 317 40.333 423 121c82 62.667 122 122.334 120 179.001l-5 206c-1.33301 36.667 11.667 55 39 55
c26.667 0 41 -18 43 -54l4 -139c2.66699 -60 9.66699 -105.333 21 -136c28.667 -81.333 90.667 -149.333 186 -204c88.667 -51.333 178 -77 268 -77h75v-86zM1035 1125c-65.333 -6.66699 -112.999 -13.667 -142.999 -21c-68.667 -16.667 -123 -42.5 -163 -77.5
s-70 -69.167 -90 -102.5c-6 -11.333 -14 -17 -24 -17c-15.333 0 -23 7.66699 -23 23c0 4 1.33301 8 4 12c43.333 75.333 106.666 134 189.999 176c-117.333 2.66699 -176 41.334 -176 116.001c0 56 29.333 98.333 88 127c46 22.667 100 34 162 34c26.667 0 40 -8 40 -24
c0 -15.333 -14 -23 -42 -23c-44.667 0 -85.667 -7.66699 -123 -23c-49.333 -21.333 -74 -51.333 -74 -90c0 -48 62 -72 186 -72c64 0 125.333 4.33301 184 13c21.333 3.33301 32 -4.33398 32 -23.001c0 -16.667 -9.33301 -26 -28 -28z" />
    <glyph glyph-name="uFEF2" unicode="&#x6cc;" horiz-adv-x="2172" arabic-form="final" 
d="M2207 0l-883.003 0.00195312c-94.667 0 -142 -10.667 -142 -32c0 -12.667 26 -23.334 78 -32.001l235 -33c120.667 -18 183.334 -27.667 188.001 -29c72.667 -18 109 -47 109 -87c0 -58 -53.333 -110 -160 -156c-118.667 -50.667 -268.667 -76 -450 -76
c-281.333 0 -514.666 53.667 -699.999 161c-195.333 113.333 -295.666 264 -300.999 452c-4 151.333 79.333 273.333 250 366c152 82.667 331.333 124 538 124c118.667 0 188.334 -1.33301 209.001 -4c50 -6 73.333 -24 70 -54c-2 -22 -34.667 -33 -98 -33
c-16.667 0 -42 1 -76 3s-57.667 3 -71 3c-212.667 0 -387 -37.667 -523 -113c-139.333 -76.667 -209 -177.334 -209 -302.001c0 -115.333 68.667 -224 206 -326c171.333 -128 404.333 -192 699 -192c120.667 0 240 16 358 48c112 30 167 58 165 84
c-0.666992 11.333 -35 22.333 -103 33l-224 31l-186 28c-66.667 19.333 -100 55 -100 107c0 36 18.333 65 55 87c31.333 18.667 67.666 28 108.999 28h955z" />
    <glyph glyph-name="uFEF3" unicode="&#x6cc;" horiz-adv-x="813" arabic-form="initial" 
d="M813 396c0 -120 -91.333 -218.334 -274 -295.001c-158.667 -67.333 -331 -101 -517 -101h-63v86h63c155.333 0 308 27.333 458 82c164 60 246 129.667 246 209c0 57.333 -49.667 111.333 -149 162c-68 34.667 -141.333 61 -220 79c-38.667 8.66699 -58 24.334 -58 47.001
s17 34 51 34c8 0 16.667 -1 26 -3c108 -22.667 201 -55.667 279 -99c105.333 -58.667 158 -125.667 158 -201zM592 -289.001c0 -38.667 -32 -58 -96 -58s-96 19.333 -96 58c0 38 32 57 96 57s96 -19 96 -57zM278 -287.001c0 -38 -31.333 -57 -94 -57s-94 19 -94 57
c0 37.333 31.333 56 94 56s94 -18.667 94 -56z" />
    <glyph glyph-name="uFEF4" unicode="&#x6cc;" horiz-adv-x="1096" arabic-form="medial" 
d="M1125 0l-49.002 0.00195312c-81.333 0 -160.666 17 -237.999 51c-115.333 50 -197.333 129.333 -246 238c-58.667 -108 -150 -186.667 -274 -236c-89.333 -35.333 -185.333 -53 -288 -53h-59v86h57c150 0 272.5 32.833 367.5 98.5s145.833 154.5 152.5 266.5
c0.666992 11.333 0.333984 30.666 -0.999023 57.999c-1.33301 32.667 -2 55.667 -2 69c0 68.667 15 103 45 103c23.333 0 37.333 -18 42 -54c1.33301 -8.66699 2 -54.667 2 -138c0 -146.667 59.667 -256.334 179 -329.001c82 -49.333 170 -74 264 -74h48v-86z
M550.998 -282.998c0 -38.667 -32 -58 -96 -58c-62.667 0 -94 19.333 -94 58c0 38 31.333 57 94 57c64 0 96 -19 96 -57zM238.998 -280.998c0 -38 -32 -57 -96 -57c-62.667 0 -94 19 -94 57c0 37.333 31.333 56 94 56c64 0 96 -18.667 96 -56z" />
    <glyph glyph-name="Hcircumflex" unicode="&#x622;" horiz-adv-x="850" arabic-form="final" 
d="M880 0l-63.999 -0.000976562c-142 0 -262.667 43 -362 129c-104.667 90 -159 206 -163 348l-16 595c-0.666992 36.667 13.333 55 42 55c25.333 0 38.666 -17 39.999 -51l19 -615c2.66699 -105.333 47.667 -194.666 135 -267.999c85.333 -71.333 186 -107 302 -107h67v-86
zM790.001 1420c-16.667 -21.333 -43.333 -42.334 -80 -63.001c-64 -34.667 -136.333 -52 -217 -52c-58 0 -113.333 3.33301 -166 10c-59.333 8 -102.666 12.333 -129.999 13c-75.333 2.66699 -150.333 -10.666 -225 -39.999c-76.667 -30 -114.334 -45 -113.001 -45
c-24 0 -36 10 -36 30c0 24.667 33.667 50.5 101 77.5s140.666 43.833 219.999 50.5c18.667 1.33301 68.834 -3.16699 150.501 -13.5s138.5 -14.5 170.5 -12.5c65.333 2.66699 121.666 12 168.999 28c28.667 10 57.334 24.333 86.001 43c22.667 14 38 21 46 21
c20.667 0 31 -10 31 -30c0 -6 -2.33301 -11.667 -7 -17z" />
    <glyph glyph-name="uFE84" unicode="&#x623;" horiz-adv-x="837" arabic-form="final" 
d="M867 0l-62.001 -0.000976562c-142.667 0 -264 43 -364 129c-104.667 90 -159 206 -163 348l-16 595c-0.666992 36.667 13.333 55 42 55c26.667 0 40.334 -17 41.001 -51l19 -615c3.33301 -105.333 48 -194.166 134 -266.499s186.667 -108.5 302 -108.5h67v-86z
M517.999 1434c-66 -7.33301 -113.998 -14.666 -143.998 -21.999c-68.667 -16.667 -123.334 -42.667 -164.001 -78s-70 -69.333 -88 -102c-6.66699 -10.667 -14.667 -16 -24 -16c-16 0 -24 8 -24 24c0 4 1 7.66699 3 11c41.333 74 104.666 132 189.999 174
c-116 6 -174 45.333 -174 118c0 55.333 29 97.666 87 126.999c45.333 22.667 99 34 161 34c26.667 0 40 -8 40 -24c0 -15.333 -13.333 -23 -40 -23c-45.333 0 -86.666 -7.66699 -123.999 -23c-48.667 -21.333 -73 -51.333 -73 -90c0 -48 61.667 -72 185 -72
c63.333 0 124.666 4.33301 183.999 13c21.333 2.66699 32 -5 32 -23c0 -16.667 -9 -26 -27 -28z" />
    <glyph glyph-name="uFE86" unicode="&#x624;" horiz-adv-x="1435" arabic-form="final" 
d="M1466 0l-187 0.000976562c-190.667 -240 -498 -360 -922 -360c-59.333 0 -89 13.667 -89 41c0 30 29.667 45 89 45c124 0 253 16 387 48c200 48.667 344 124 432 226h-332c-203.333 0 -350.333 11 -441 33c-146.667 35.333 -220 105 -220 209
c0 69.333 45.333 133.333 136 192c104 66.667 236 100 396 100c174 0 323.333 -42 448 -126c114.667 -76.667 172 -160.334 172 -251.001c0 -25.333 -5.66699 -49 -17 -71h148v-86zM1230 86.001c9.33301 17.333 13.999 36.333 13.999 57c0 74 -49 141.667 -147 203
c-107.333 68 -239.666 102 -396.999 102c-111.333 0 -212 -22.333 -302 -67c-86.667 -43.333 -130 -89 -130 -137c0 -105.333 184.667 -158 554 -158h408zM959.999 977.001c-64.667 -6.66699 -112.667 -13.999 -144 -21.999c-68 -16.667 -122 -42.667 -162 -78
c-30 -26 -48.667 -43.333 -56 -52c-9.33301 -10 -20.666 -26.333 -33.999 -49c-6.66699 -11.333 -14.667 -17 -24 -17c-15.333 0 -23 8 -23 24c0 4 1.33301 8 4 12c41.333 74 104.333 132 189 174c-116 6 -174 45 -174 117c0 56 29.333 98.333 88 127
c45.333 22.667 98.666 34 159.999 34c27.333 0 41 -7.66699 41 -23s-14 -23 -42 -23c-44.667 0 -85.667 -8 -123 -24c-48.667 -20.667 -73 -50.667 -73 -90c0 -48 62 -72 186 -72c62.667 0 123.667 4.33301 183 13c21.333 3.33301 32 -4.33398 32 -23.001
c0 -16.667 -9.33301 -26 -28 -28z" />
    <glyph glyph-name="uFE88" unicode="&#x625;" horiz-adv-x="837" arabic-form="final" 
d="M867 0l-62.001 -0.000976562c-142.667 0 -264 43 -364 129c-104.667 90 -159 206 -163 348l-16 595c-0.666992 36.667 13.333 55 42 55c26.667 0 40.334 -17 41.001 -51l19 -615c3.33301 -105.333 48 -194.166 134 -266.499s186.667 -108.5 302 -108.5h67v-86z
M622.999 -352.001c-60.667 -6 -108.332 -13.332 -142.999 -21.999c-68 -16.667 -122.333 -42.834 -163 -78.501s-70.334 -69.834 -89.001 -102.501c-6.66699 -10.667 -14.667 -16 -24 -16c-15.333 0 -23 7.66699 -23 23c0 4.66699 1 9 3 13
c40.667 73.333 104 131.333 190 174c-116 2.66699 -174 41.667 -174 117c0 56 29 98 87 126c46 22.667 99.667 34 161 34c26.667 0 40 -7.66699 40 -23c0 -14.667 -13.333 -22 -40 -22c-42.667 0 -82.667 -7.66699 -120 -23c-51.333 -21.333 -77 -52 -77 -92
c0 -47.333 61.667 -71 185 -71c70 0 131.667 4.33301 185 13c20.667 4 31 -3.33301 31 -22c0 -17.333 -9.66699 -26.666 -29 -27.999z" />
    <glyph glyph-name="uFE8A" unicode="&#x626;" horiz-adv-x="2172" arabic-form="final" 
d="M2207 0l-883.003 0.00195312c-94.667 0 -142 -10.667 -142 -32c0 -12.667 26 -23.334 78 -32.001l235 -33c120.667 -18 183.334 -27.667 188.001 -29c72.667 -18 109 -47 109 -87c0 -58 -53.333 -110 -160 -156c-118.667 -50.667 -268.667 -76 -450 -76
c-281.333 0 -514.666 53.667 -699.999 161c-195.333 113.333 -295.666 264 -300.999 452c-4 151.333 79.333 273.333 250 366c152 82.667 331.333 124 538 124c118.667 0 188.334 -1.33301 209.001 -4c50 -6 73.333 -24 70 -54c-2 -22 -34.667 -33 -98 -33
c-16.667 0 -42 1 -76 3s-57.667 3 -71 3c-212.667 0 -387 -37.667 -523 -113c-139.333 -76.667 -209 -177.334 -209 -302.001c0 -115.333 68.667 -224 206 -326c171.333 -128 404.333 -192 699 -192c120.667 0 240 16 358 48c112 30 167 58 165 84
c-0.666992 11.333 -35 22.333 -103 33l-224 31l-186 28c-66.667 19.333 -100 55 -100 107c0 36 18.333 65 55 87c31.333 18.667 67.666 28 108.999 28h955zM617.997 732.002c-60.667 -6 -108.331 -13.3291 -142.998 -21.9961
c-68.667 -16.667 -123.167 -42.834 -163.5 -78.501s-70.166 -69.834 -89.499 -102.501c-6 -10.667 -14 -16 -24 -16c-15.333 0 -23 8 -23 24c0 4 1 8 3 12c41.333 74 104.666 132 189.999 174c-116 3.33301 -174 42.666 -174 117.999c0 55.333 29.333 97.333 88 126
c45.333 22 98.666 33 159.999 33c27.333 0 41 -7.66699 41 -23c0 -14.667 -13.667 -22 -41 -22c-42.667 0 -82.667 -7.66699 -120 -23c-51.333 -20.667 -77 -51 -77 -91c0 -47.333 62 -71 186 -71c69.333 0 130.666 4.33301 183.999 13
c20.667 3.33301 31 -4.33398 31 -23.001c0 -16.667 -9.33301 -26 -28 -28z" />
    <glyph glyph-name="uFE8B" unicode="&#x626;" horiz-adv-x="816" arabic-form="initial" 
d="M824 396c0 -120 -91.3311 -218.334 -273.998 -295.001c-158.667 -67.333 -331.334 -101 -518.001 -101h-62v86h62c156 0 308.667 27.333 458 82c164.667 60 247 129.667 247 209c0 57.333 -49.667 111.333 -149 162c-68.667 34.667 -142.334 61 -221.001 79
c-38.667 8.66699 -58 24.334 -58 47.001s17 34 51 34c8 0 16.667 -1 26 -3c108 -22.667 201 -55.667 279 -99c106 -58.667 159 -125.667 159 -201zM481.002 1077c-61.333 -6 -109.332 -13 -143.999 -21c-68 -16.667 -122.333 -43 -163 -79
c-38 -33.333 -67.333 -67.666 -88 -102.999c-6.66699 -10 -14.667 -15 -24 -15c-16 0 -24 7.66699 -24 23c0 4 1.33301 8.33301 4 13c42.667 74.667 106 132.667 190 174c-116.667 2.66699 -175 41.667 -175 117c0 55.333 29.333 97.333 88 126c45.333 22.667 99 34 161 34
c26 0 39 -7.66699 39 -23c0 -14.667 -13.667 -22 -41 -22c-42 0 -81.667 -7.66699 -119 -23c-52 -21.333 -78 -52 -78 -92c0 -47.333 62 -71 186 -71c69.333 0 130.666 4.33301 183.999 13c21.333 3.33301 32 -4.33398 32 -23.001c0 -16.667 -9.33301 -26 -28 -28z" />
    <glyph glyph-name="uFE8C" unicode="&#x626;" horiz-adv-x="1096" arabic-form="medial" 
d="M1125 0l-49.002 0.00195312c-81.333 0 -160.666 17 -237.999 51c-115.333 50 -197.333 129.333 -246 238c-58.667 -108 -150 -186.667 -274 -236c-89.333 -35.333 -185.333 -53 -288 -53h-59v86h57c150 0 272.5 32.833 367.5 98.5s145.833 154.5 152.5 266.5
c0.666992 11.333 0.333984 30.666 -0.999023 57.999c-1.33301 32.667 -2 55.667 -2 69c0 68.667 15 103 45 103c23.333 0 37.333 -18 42 -54c1.33301 -8.66699 2 -54.667 2 -138c0 -146.667 59.667 -256.334 179 -329.001c82 -49.333 170 -74 264 -74h48v-86zM779.998 1090
c-63.333 -6 -111.333 -12.665 -144 -19.998c-68 -16.667 -122.167 -42.5 -162.5 -77.5s-70.166 -69.5 -89.499 -103.5c-6 -11.333 -14 -17 -24 -17c-16 0 -24 8 -24 24c0 4 1 8 3 12c42 74.667 105.333 133 190 175c-116 3.33301 -174 42 -174 116c0 56 29 98.333 87 127
c46 22.667 99.667 34 161 34c26.667 0 40 -8 40 -24c0 -14.667 -13.333 -22 -40 -22c-44.667 0 -85.667 -8 -123 -24c-49.333 -20.667 -74 -50.334 -74 -89.001c0 -48.667 62 -73 186 -73c69.333 0 130.666 4.33301 183.999 13c20.667 3.33301 31 -4.33398 31 -23.001
c0 -16.667 -9 -26 -27 -28z" />
    <glyph glyph-name="uFE8E" unicode="&#x627;" horiz-adv-x="838" arabic-form="final" 
d="M867 0l-62.001 -0.000976562c-142.667 0 -264 43 -364 129c-104.667 90 -159 206 -163 348l-16 595c-0.666992 36.667 13.333 55 42 55c26.667 0 40.334 -17 41.001 -51l19 -615c3.33301 -105.333 48 -194.166 134 -266.499s186.667 -108.5 302 -108.5h67v-86z" />
    <glyph glyph-name="uFE90" unicode="&#x628;" horiz-adv-x="2755" arabic-form="final" 
d="M1353 -287c0 -38 -32 -57 -96 -57c-62.667 0 -94 19 -94 57c0 37.333 31.333 56 94 56c64 0 96 -18.667 96 -56zM2785 0h-63.002c-109.333 0 -217.333 30 -324 90c-112.667 62.667 -181.667 137 -207 223c-58 -86 -189.333 -160.333 -394 -223
c-198 -60 -399.667 -90 -605 -90c-237.333 0 -435.666 18 -594.999 54c-280 62.667 -420 174.667 -420 336c0 66.667 52.333 134.667 157 204c110 73.333 226.333 110.666 349 111.999c30.667 0.666992 46 -10.333 46 -33c0 -30 -16 -45 -48 -45
c-57.333 0 -133.666 -20.333 -228.999 -61c-124.667 -53.333 -187 -117.666 -187 -192.999c0 -97.333 100.333 -172 301 -224c172 -44.667 384 -67 636 -67c220.667 0 427 32.667 619 98c214.667 73.333 325 163.333 331 270c0.666992 12 0.333984 32 -1 60
c-2 33.333 -3 56.666 -3 69.999c0 72 15.333 108 46 108c26.667 0 42 -30 46 -90c-0.666992 -46.667 -1 -93.667 -1 -141c2.66699 -99.333 54.334 -186.666 155 -261.999c98.667 -73.333 209 -110 331 -110h60v-86z" />
    <glyph glyph-name="uFE91" unicode="&#x628;" horiz-adv-x="819" arabic-form="initial" 
d="M824 396c0 -120 -91.3311 -218.334 -273.998 -295.001c-158.667 -67.333 -331.334 -101 -518.001 -101h-62v86h62c156 0 308.667 27.333 458 82c164.667 60 247 129.667 247 209c0 57.333 -49.667 111.333 -149 162c-68.667 34.667 -142.334 61 -221.001 79
c-38.667 8.66699 -58 24.334 -58 47.001s17 34 51 34c8 0 16.667 -1 26 -3c108 -22.667 201 -55.667 279 -99c106 -58.667 159 -125.667 159 -201zM380.002 -290.001c0 -38 -32 -57 -96 -57c-62.667 0 -94 19 -94 57s31.333 57 94 57c64 0 96 -19 96 -57z" />
    <glyph glyph-name="uFE92" unicode="&#x628;" horiz-adv-x="1096" arabic-form="medial" 
d="M1125 0l-49.002 0.00195312c-81.333 0 -160.666 17 -237.999 51c-115.333 50 -197.333 129.333 -246 238c-58.667 -108 -150 -186.667 -274 -236c-89.333 -35.333 -185.333 -53 -288 -53h-59v86h57c150 0 272.5 32.833 367.5 98.5s145.833 154.5 152.5 266.5
c0.666992 11.333 0.333984 30.666 -0.999023 57.999c-1.33301 32.667 -2 55.667 -2 69c0 68.667 15 103 45 103c23.333 0 37.333 -18 42 -54c1.33301 -8.66699 2 -54.667 2 -138c0 -146.667 59.667 -256.334 179 -329.001c82 -49.333 170 -74 264 -74h48v-86z
M342.998 -292.998c0 -37.333 -32 -56 -96 -56c-62.667 0 -94 18.667 -94 56c0 38.667 31.333 58 94 58c64 0 96 -19.333 96 -58z" />
    <glyph glyph-name="uFE96" unicode="&#x62a;" horiz-adv-x="2755" arabic-form="final" 
d="M2785 0h-63.002c-109.333 0 -217.333 30 -324 90c-112.667 62.667 -181.667 137 -207 223c-58 -86 -189.333 -160.333 -394 -223c-198 -60 -399.667 -90 -605 -90c-237.333 0 -435.666 18 -594.999 54c-280 62.667 -420 174.667 -420 336
c0 66.667 52.333 134.667 157 204c110 73.333 226.333 110.666 349 111.999c30.667 0.666992 46 -10.333 46 -33c0 -30 -16 -45 -48 -45c-57.333 0 -133.666 -20.333 -228.999 -61c-124.667 -53.333 -187 -117.666 -187 -192.999c0 -97.333 100.333 -172 301 -224
c172 -44.667 384 -67 636 -67c220.667 0 427 32.667 619 98c214.667 73.333 325 163.333 331 270c0.666992 12 0.333984 32 -1 60c-2 33.333 -3 56.666 -3 69.999c0 72 15.333 108 46 108c26.667 0 42 -30 46 -90c-0.666992 -46.667 -1 -93.667 -1 -141
c2.66699 -99.333 54.334 -186.666 155 -261.999c98.667 -73.333 209 -110 331 -110h60v-86zM1595 1009c0 -39.333 -32.333 -59 -97 -59c-62.667 0 -94 19.667 -94 59c0 36.667 31.333 55 94 55c64.667 0 97 -18.333 97 -55zM1282 1009c0 -37.333 -32 -56 -96 -56
c-62.667 0 -94 18.667 -94 56c0 38.667 31.333 58 94 58c64 0 96 -19.333 96 -58z" />
    <glyph glyph-name="uFE97" unicode="&#x62a;" horiz-adv-x="816" arabic-form="initial" 
d="M824 396c0 -120 -91.3311 -218.334 -273.998 -295.001c-158.667 -67.333 -331.334 -101 -518.001 -101h-62v86h62c156 0 308.667 27.333 458 82c164.667 60 247 129.667 247 209c0 57.333 -49.667 111.333 -149 162c-68.667 34.667 -142.334 61 -221.001 79
c-38.667 8.66699 -58 24.334 -58 47.001s17 34 51 34c8 0 16.667 -1 26 -3c108 -22.667 201 -55.667 279 -99c106 -58.667 159 -125.667 159 -201zM577.002 999.999c0 -38.667 -32 -58 -96 -58c-62.667 0 -94 19.333 -94 58c0 38 31.333 57 94 57c64 0 96 -19 96 -57z
M265.002 1002c0 -38 -31.667 -57 -95 -57s-95 19 -95 57c0 37.333 31.667 56 95 56s95 -18.667 95 -56z" />
    <glyph glyph-name="uFE98" unicode="&#x62a;" horiz-adv-x="1096" arabic-form="medial" 
d="M1125 0l-49.002 0.00195312c-81.333 0 -160.666 17 -237.999 51c-115.333 50 -197.333 129.333 -246 238c-58.667 -108 -150 -186.667 -274 -236c-89.333 -35.333 -185.333 -53 -288 -53h-59v86h57c150 0 272.5 32.833 367.5 98.5s145.833 154.5 152.5 266.5
c0.666992 11.333 0.333984 30.666 -0.999023 57.999c-1.33301 32.667 -2 55.667 -2 69c0 68.667 15 103 45 103c23.333 0 37.333 -18 42 -54c1.33301 -8.66699 2 -54.667 2 -138c0 -146.667 59.667 -256.334 179 -329.001c82 -49.333 170 -74 264 -74h48v-86zM814.998 1009
c0 -39.333 -32 -59 -96 -59s-96 19.667 -96 59c0 36.667 32 55 96 55s96 -18.333 96 -55zM501.998 1009c0 -37.333 -31.667 -56 -95 -56c-62.667 0 -94 18.667 -94 56c0 38.667 31.333 58 94 58c63.333 0 95 -19.333 95 -58z" />
    <glyph glyph-name="uFE9A" unicode="&#x62b;" horiz-adv-x="2755" arabic-form="final" 
d="M2785 0h-63.002c-109.333 0 -217.333 30 -324 90c-112.667 62.667 -181.667 137 -207 223c-58 -86 -189.333 -160.333 -394 -223c-198 -60 -399.667 -90 -605 -90c-237.333 0 -435.666 18 -594.999 54c-280 62.667 -420 174.667 -420 336
c0 66.667 52.333 134.667 157 204c110 73.333 226.333 110.666 349 111.999c30.667 0.666992 46 -10.333 46 -33c0 -30 -16 -45 -48 -45c-57.333 0 -133.666 -20.333 -228.999 -61c-124.667 -53.333 -187 -117.666 -187 -192.999c0 -97.333 100.333 -172 301 -224
c172 -44.667 384 -67 636 -67c220.667 0 427 32.667 619 98c214.667 73.333 325 163.333 331 270c0.666992 12 0.333984 32 -1 60c-2 33.333 -3 56.666 -3 69.999c0 72 15.333 108 46 108c26.667 0 42 -30 46 -90c-0.666992 -46.667 -1 -93.667 -1 -141
c2.66699 -99.333 54.334 -186.666 155 -261.999c98.667 -73.333 209 -110 331 -110h60v-86zM1415 1176c0 -38.667 -32 -58 -96 -58c-63.333 0 -95 19.333 -95 58c0 37.333 31.667 56 95 56c64 0 96 -18.667 96 -56zM1572 999c0 -38.667 -32 -58 -96 -58
c-62.667 0 -94 19.333 -94 58c0 36.667 31.333 55 94 55c64 0 96 -18.333 96 -55zM1259 999c0 -38 -31.667 -57 -95 -57s-95 19 -95 57c0 38.667 31.667 58 95 58s95 -19.333 95 -58z" />
    <glyph glyph-name="uFE9B" unicode="&#x62b;" horiz-adv-x="822" arabic-form="initial" 
d="M824 396c0 -120 -91.3311 -218.334 -273.998 -295.001c-158.667 -67.333 -331.334 -101 -518.001 -101h-62v86h62c156 0 308.667 27.333 458 82c164.667 60 247 129.667 247 209c0 57.333 -49.667 111.333 -149 162c-68.667 34.667 -142.334 61 -221.001 79
c-38.667 8.66699 -58 24.334 -58 47.001s17 34 51 34c8 0 16.667 -1 26 -3c108 -22.667 201 -55.667 279 -99c106 -58.667 159 -125.667 159 -201zM435.002 1161c0 -37.333 -32 -56 -96 -56c-63.333 0 -95 18.667 -95 56c0 38 31.667 57 95 57c64 0 96 -19 96 -57z
M592.002 984.999c0 -38.667 -32 -58 -96 -58s-96 19.333 -96 58c0 36.667 32 55 96 55s96 -18.333 96 -55zM278.002 985.999c0 -38.667 -31.333 -58 -94 -58c-64 0 -96 19.333 -96 58c0 38 32 57 96 57c62.667 0 94 -19 94 -57z" />
    <glyph glyph-name="uFE9C" unicode="&#x62b;" horiz-adv-x="1096" arabic-form="medial" 
d="M1125 0l-49.002 0.00195312c-81.333 0 -160.666 17 -237.999 51c-115.333 50 -197.333 129.333 -246 238c-58.667 -108 -150 -186.667 -274 -236c-89.333 -35.333 -185.333 -53 -288 -53h-59v86h57c150 0 272.5 32.833 367.5 98.5s145.833 154.5 152.5 266.5
c0.666992 11.333 0.333984 30.666 -0.999023 57.999c-1.33301 32.667 -2 55.667 -2 69c0 68.667 15 103 45 103c23.333 0 37.333 -18 42 -54c1.33301 -8.66699 2 -54.667 2 -138c0 -146.667 59.667 -256.334 179 -329.001c82 -49.333 170 -74 264 -74h48v-86zM673.998 1176
c0 -38.667 -31.667 -58 -95 -58c-64 0 -96 19.333 -96 58c0 37.333 32 56 96 56c63.333 0 95 -18.667 95 -56zM830.998 999.002c0 -38.667 -32 -58 -96 -58c-62.667 0 -94 19.333 -94 58c0 36.667 31.333 55 94 55c64 0 96 -18.333 96 -55zM517.998 999.002
c0 -38 -31.667 -57 -95 -57s-95 19 -95 57c0 38.667 31.667 58 95 58s95 -19.333 95 -58z" />
    <glyph glyph-name="uFE9E" unicode="&#x62c;" horiz-adv-x="1614" arabic-form="final" 
d="M990 -364c0 -37.333 -31.667 -56 -95 -56s-95 18.667 -95 56c0 38.667 31.667 58 95 58s95 -19.333 95 -58zM1663 -748c0 -23.333 -55.668 -50 -167.001 -80c-130 -36 -276.667 -54 -440 -54c-256.667 0 -466 51.667 -628 155c-167.333 106 -251 246.333 -251 421
c0 159.333 79.333 283 238 371c144 79.333 331 119 561 119c92.667 0 168 -7.66699 226 -23c13.333 17.333 20 59.333 20 126c0 76 -42.667 137 -128 183s-195.333 69 -330 69c-88 0 -166.333 -11.667 -235 -35l-106 -39c-24 -1.33301 -36 10 -36 34
c0 22.667 33.667 47.334 101 74.001c81.333 32 180.666 48 297.999 48c142.667 0 261.667 -27 357 -81c107.333 -60.667 161 -145.334 161 -254.001c0 -70.667 -5.33301 -120 -16 -148c110.667 -34.667 216.334 -52 317.001 -52h39v-86h-39c-64 0 -166.833 16.667 -308.5 50
s-248.5 50 -320.5 50c-235.333 0 -416 -40.333 -542 -121c-114.667 -72.667 -172 -168.667 -172 -288c0 -125.333 63 -235.333 189 -330c144 -108.667 335.333 -163 574 -163c114.667 0 219 8.66699 313 26c59.333 11.333 120 27.333 182 48
c50.667 17.333 81.334 26 92.001 26c34 0 51 -15.333 51 -46z" />
    <glyph glyph-name="uFE9F" unicode="&#x62c;" horiz-adv-x="1040" arabic-form="initial" 
d="M1024 209c-64 -38 -181.999 -78.667 -353.999 -122c-229.333 -58 -452.333 -87 -669 -87h-31v86h30c130.667 0 272 12.667 424 38c120 20.667 217 43 291 67c22 52 33 98 33 138c0 72 -44.333 131.667 -133 179s-197.334 71 -326.001 71
c-85.333 0 -164.833 -13.833 -238.5 -41.5s-111.834 -41.5 -114.501 -41.5c-28 0 -42 11 -42 33c0 28.667 43.667 58 131 88c90.667 31.333 182.334 47 275.001 47c142.667 0 263.334 -26.333 362.001 -79c112.667 -60.667 169 -144 169 -250c0 -40 -6 -77.333 -18 -112
c11.333 0 40.666 8 87.999 24c54.667 17.333 83.5 26.333 86.5 27s6.5 1 10.5 1c28 0 42 -13 42 -39c0 -12 -5.33301 -21 -16 -27zM544.001 -270c0 -37.333 -32 -56 -96 -56c-62.667 0 -94 18.667 -94 56c0 38 31.333 57 94 57c64 0 96 -19 96 -57z" />
    <glyph glyph-name="uFEA0" unicode="&#x62c;" horiz-adv-x="1083" arabic-form="medial" 
d="M614 -289c0 -37.333 -32 -56 -96 -56c-62.667 0 -94 18.667 -94 56c0 38 31.333 57 94 57c64 0 96 -19 96 -57zM1127 0l-35.9971 -0.000976562c-148 0 -271.667 34.333 -371 103c-230 -68.667 -473 -103 -729 -103h-22v86h20c99.333 0 225.333 10.667 378 32
c158.667 22.667 270 46.667 334 72c14.667 26.667 22 73 22 139c0 72.667 -42.833 132.5 -128.5 179.5s-192.834 70.5 -321.501 70.5c-84.667 0 -163.834 -13.833 -237.501 -41.5s-111.834 -41.5 -114.501 -41.5c-28 0 -42 11 -42 33c0 28.667 43.667 58 131 88
c90 31.333 181.667 47 275 47c140 0 260.667 -28.333 362 -85c112.667 -64 169 -149.333 169 -256c0 -26.667 -3.33301 -50.667 -10 -72c-3.33301 -11.333 -7 -23 -11 -35c12.667 0.666992 41.167 8.33398 85.5 23.001s70.166 22 77.499 22c28.667 0 45.667 -14.667 51 -44
c2.66699 -15.333 -24.333 -33.333 -81 -54c-49.333 -18 -83 -27 -101 -27c50.667 -33.333 137.334 -50 260.001 -50h40v-86z" />
    <glyph glyph-name="uFEA2" unicode="&#x62d;" horiz-adv-x="1609" arabic-form="final" 
d="M1663 -748c0 -23.333 -55.668 -50 -167.001 -80c-130 -36 -276.667 -54 -440 -54c-256.667 0 -466 51.667 -628 155c-167.333 106 -251 246.333 -251 421c0 159.333 79.333 283 238 371c144 79.333 331 119 561 119c92.667 0 168 -7.66699 226 -23
c13.333 17.333 20 59.333 20 126c0 76 -42.667 137 -128 183s-195.333 69 -330 69c-88 0 -166.333 -11.667 -235 -35l-106 -39c-24 -1.33301 -36 10 -36 34c0 22.667 33.667 47.334 101 74.001c81.333 32 180.666 48 297.999 48c142.667 0 261.667 -27 357 -81
c107.333 -60.667 161 -145.334 161 -254.001c0 -70.667 -5.33301 -120 -16 -148c110.667 -34.667 216.334 -52 317.001 -52h39v-86h-39c-64 0 -166.833 16.667 -308.5 50s-248.5 50 -320.5 50c-235.333 0 -416 -40.333 -542 -121c-114.667 -72.667 -172 -168.667 -172 -288
c0 -125.333 63 -235.333 189 -330c144 -108.667 335.333 -163 574 -163c114.667 0 219 8.66699 313 26c59.333 11.333 120 27.333 182 48c50.667 17.333 81.334 26 92.001 26c34 0 51 -15.333 51 -46z" />
    <glyph glyph-name="uFEA3" unicode="&#x62d;" horiz-adv-x="1025" arabic-form="initial" 
d="M1024 209c-64 -38 -181.999 -78.667 -353.999 -122c-229.333 -58 -452.333 -87 -669 -87h-31v86h30c130.667 0 272 12.667 424 38c120 20.667 217 43 291 67c22 52 33 98 33 138c0 72 -44.333 131.667 -133 179s-197.334 71 -326.001 71
c-85.333 0 -164.833 -13.833 -238.5 -41.5s-111.834 -41.5 -114.501 -41.5c-28 0 -42 11 -42 33c0 28.667 43.667 58 131 88c90.667 31.333 182.334 47 275.001 47c142.667 0 263.334 -26.333 362.001 -79c112.667 -60.667 169 -144 169 -250c0 -40 -6 -77.333 -18 -112
c11.333 0 40.666 8 87.999 24c54.667 17.333 83.5 26.333 86.5 27s6.5 1 10.5 1c28 0 42 -13 42 -39c0 -12 -5.33301 -21 -16 -27z" />
    </font>
</defs>
</svg>
