<?xml version="1.0" standalone="no"?>
<!DOCTYPE svg PUBLIC "-//W3C//DTD SVG 1.1//EN" "http://www.w3.org/Graphics/SVG/1.1/DTD/svg11.dtd" >
<svg>
<metadata>
Created by FontForge 20090914 at Wed Oct 19 01:44:49 2011
 By www-data
(c) by Abolfazl Seilsepour - +98 912 591 3420  -  seilsepor@yahoo.com
</metadata>
<defs>
<font id="FarSahra" horiz-adv-x="765" >
  <font-face 
    font-family="Far.Sahra"
    font-weight="400"
    font-stretch="normal"
    units-per-em="2048"
    panose-1="0 0 4 0 0 0 0 0 0 0"
    ascent="1638"
    descent="-410"
    bbox="-190 -981 1926 2211"
    underline-thickness="60"
    underline-position="-650"
    unicode-range="U+0020-U+FEFC"
  />
<missing-glyph horiz-adv-x="1024" 
d="M128 0v1392h768v-1392h-768zM256 128h512v1136h-512v-1136z" />
    <glyph glyph-name="uE818" unicode="&#x651;&#x64b;" horiz-adv-x="0" 
d="M761 1663l-3 45l-11 54l-24 -10c0 -101.333 -23 -152 -69 -152c-25.333 0 -45.333 33.667 -60 101l-18 -6c-19.333 -111.333 -50.333 -167 -93 -167c-26.667 0 -40 38.333 -40 115l-24 -4l-11 -37c-7.33301 -24 -11 -46.333 -11 -67c0 -74.667 28 -112 84 -112
c23.333 0 46 9 68 27s35 38.667 39 62c22 -14.667 44 -22 66 -22c34 0 60.333 15.667 79 47c22 36 31.333 78 28 126zM787 2083l-280 -162c-45.333 -26 -68 -60.667 -68 -104l312 177c24 14 36 43.667 36 89zM787 1932l-280 -160.999c-45.333 -26 -68 -60.667 -68 -104
l312 177c24 13.333 36 42.666 36 87.999z" />
    <glyph glyph-name="uFC5E" unicode="&#x651;&#x64c;" horiz-adv-x="0" arabic-form="isolated" 
d="M745 1724l-4.00098 44l-11 55l-24 -11c0 -100.667 -23 -151 -69 -151c-24.667 0 -44.334 33.667 -59.001 101l-19 -6c-19.333 -111.333 -50.333 -167 -93 -167c-26.667 0 -40 38 -40 114l-23 -4l-12 -36c-7.33301 -24 -11 -46.667 -11 -68c0 -74 28 -111 84 -111
c24 0 46.833 9 68.5 27s34.834 38.333 39.501 61c21.333 -14 43 -21 65 -21c34 0 60.333 15.333 79 46c22.667 36.667 32.334 79 29.001 127zM778.999 1905c0.666992 27.333 -13.001 51.333 -41.001 72l23 57c7.33301 18.667 11 38.667 11 60c0 18 -7.33301 36.333 -22 55
s-30.667 28 -48 28c-32.667 0 -61.667 -16.833 -87 -50.5s-38 -67.5 -38 -101.5c0 -16.667 4.83301 -32.667 14.5 -48s27.5 -31.333 53.5 -48c-26.667 -27.333 -46 -45.666 -58 -54.999c-19.333 -14.667 -42.666 -27.334 -69.999 -38.001l5 66l1 29
c2.66699 68.667 -20.333 103 -69 103c-26.667 0 -48.334 -12.667 -65.001 -38c-14 -22 -21 -47.333 -21 -76l2 -22l8 -31c4.66699 52 21.334 78 50.001 78c14 0 26 -6 36 -18s15 -25 15 -39c0 -28 -14.667 -72.333 -44 -133c82 13.333 164.333 63.333 247 150l49 -35l46 -26
zM699.998 2053l-1 -20l-3 -20l-38 27c-18 14.667 -27 29.334 -27 44c3.33301 16 12.333 24 27 24c30 0 44 -18.333 42 -55z" />
    <glyph glyph-name="uFC5F" unicode="&#x651;&#x64d;" horiz-adv-x="0" arabic-form="isolated" 
d="M745 2112l-4.00098 44l-11 55l-24 -11c0 -100.667 -23 -151 -69 -151c-24.667 0 -44.334 33.667 -59.001 101l-19 -6c-19.333 -111.333 -50.333 -167 -93 -167c-26.667 0 -40 38 -40 114l-23 -4l-12 -36c-7.33301 -24 -11 -46.667 -11 -68c0 -74 28 -111 84 -111
c24 0 46.833 9 68.5 27s34.834 38.667 39.501 62c21.333 -14.667 43 -22 65 -22c34 0 60.333 15.333 79 46c22.667 36.667 32.334 79 29.001 127zM757.999 1885l-280 -160.998c-45.333 -26.667 -68 -61.334 -68 -104.001l312 177c24 13.333 36 42.666 36 87.999z
M757.999 1734l-280 -162c-45.333 -26 -68 -60.667 -68 -104l312 177c24 14 36 43.667 36 89z" />
    <glyph glyph-name="uFC60" unicode="&#x651;&#x64e;" horiz-adv-x="0" arabic-form="isolated" 
d="M761 1696l-3 44l-11 54l-24 -10c0 -100.667 -23 -151 -69 -151c-25.333 0 -45.333 33.667 -60 101l-18 -6c-19.333 -111.333 -50.333 -167 -93 -167c-26.667 0 -40 38 -40 114l-24 -4l-11 -36c-7.33301 -24 -11 -46.667 -11 -68c0 -74 28 -111 84 -111
c23.333 0 46 9 68 27s35 38.333 39 61c22 -14 44 -21 66 -21c34 0 60.333 15.333 79 46c22 36.667 31.333 79 28 127zM783 1965l-280 -162c-45.333 -26 -68 -60.667 -68 -104l312 177c24 14 36 43.667 36 89z" />
    <glyph glyph-name="uFC61" unicode="&#x651;&#x64f;" horiz-adv-x="0" arabic-form="isolated" 
d="M753 1680l-2.99805 44l-12 55l-23 -10c0 -101.333 -23 -152 -69 -152c-25.333 0 -45.333 33.667 -60 101l-19 -6c-18.667 -111.333 -49.334 -167 -92.001 -167c-26.667 0 -40 38 -40 114l-24 -4l-11 -36c-8 -24 -12 -46.667 -12 -68c0 -74 28.333 -111 85 -111
c23.333 0 46 9 68 27s35 38.667 39 62c21.333 -14.667 43.333 -22 66 -22c33.333 0 59.666 15.333 78.999 46c22 36.667 31.333 79 28 127zM747.002 1889l-41.001 31.002c21.333 47.333 32 87.666 32 120.999c0 60 -23.333 90 -70 90c-32.667 0 -60 -19.333 -82 -58
c-24.667 -44 -37 -82.333 -37 -115c0 -29.333 21 -60.333 63 -93c-55.333 -49.333 -93 -81 -113 -95c-32 -22.667 -67.667 -44.334 -107 -65.001l25 -7c12.667 -4 24.667 -6 36 -6c52.667 0 120.334 49.667 203.001 149l44 -30l38 -24zM674.001 1980
c0 -10 -2.00098 -21.6689 -6.00098 -35.002c-44.667 30.667 -67 56.334 -67 77.001c1.33301 7.33301 3 12 5 14c6 4.66699 10.667 7 14 7c14.667 0 27.334 -6.66699 38.001 -20s16 -27.666 16 -42.999z" />
    <glyph glyph-name="uFC62" unicode="&#x651;&#x650;" horiz-adv-x="0" arabic-form="isolated" 
d="M761 1925l-3 44l-11 55l-24 -10c0 -101.333 -23 -152 -69 -152c-25.333 0 -45.333 33.667 -60 101l-18 -6c-19.333 -111.333 -50.333 -167 -93 -167c-26.667 0 -40 38 -40 114l-24 -4l-11 -36c-7.33301 -24 -11 -46.667 -11 -68c0 -74 28 -111 84 -111
c23.333 0 46 9 68 27s35 38.667 39 62c22 -14.667 44 -22 66 -22c34 0 60.333 15.333 79 46c22 36.667 31.333 79 28 127zM759 1701l-280 -160.998c-45.333 -26.667 -68 -61.334 -68 -104.001l312 177c24 13.333 36 42.666 36 87.999z" />
    <glyph glyph-name="uFDF2" unicode="&#xfedf;&#xfee0;&#xfeea;" horiz-adv-x="1569" arabic-form="isolated" 
d="M1115 1469l-48.999 -44.002c-34 -36.667 -51 -69.334 -51 -98.001c0 -44.667 -28 -80 -84 -106c-45.333 -20.667 -93.333 -31 -144 -31c-78 0 -117 20.333 -117 61v107c0 18 12 40.667 36 68l36 40l20 -13l-12 -45c-9.33301 -32 -14 -59 -14 -81
c0 -19.333 12.333 -30.666 37 -33.999c18 0 27 11.5 27 34.5s11.667 50.833 35 83.5c8.66699 12.667 25.667 29.334 51 50.001l36 30l-15 -55c-10.667 -38.667 -16 -64.667 -16 -78c0 -33.333 6.66699 -50 20 -50c5.33301 0 12 3 20 9l14 14
c0 54.667 9.66699 91.334 29 110.001c15.333 14.667 42.666 23 81.999 25zM1857 1416c-110 -94 -184.672 -165.667 -224.005 -215c-43.333 -54.667 -70.333 -115.667 -81 -183c-9.33301 -56.667 -15 -160.334 -17 -311.001c-2 -130.667 -14 -236.667 -36 -318
c-32.667 -120 -85.667 -214 -159 -282l-94 -66c-34.667 -16.667 -72 -29.667 -112 -39c-37.333 -9.33301 -81.333 -14 -132 -14c-58.667 0 -122 16.667 -190 50c-29.333 -15.333 -60.666 -28 -93.999 -38c-39.333 -11.333 -73.333 -16 -102 -14l-44 2
c-9.33301 0.666992 -25.666 3.66699 -48.999 9c-15.333 4 -29.333 9 -42 15l-59 30c-27.333 -14.667 -61.333 -24.667 -102 -30l-125 -17l-71 -3c-26 -1.33301 -58.667 0.333984 -98 5.00098l-39 11l49 59c45.333 21.333 77 69.333 95 144c6 22.667 11 54.667 15 96
c4 46.667 5.66699 89 5 127l-2 83c-0.666992 54.667 -1 89 -1 103c0 108.667 76 189.667 228 243c108 38.667 228 58 360 58h24l12 -20c-83.333 -86.667 -130.666 -180.667 -141.999 -282c-4.66699 -47.333 -7 -105.333 -7 -174c0 -129.333 -35 -236.333 -105 -321
c11.333 -36 29 -54 53 -54c8 0 15 2.33301 21 7l18 15c60 31.333 110.333 68 151 110c84 86 137.333 203.333 160 352c8 55.333 12 116.666 12 183.999c0 128 10.667 233.333 32 316c61.333 241.333 215.666 362 462.999 362c-109.333 -94 -183.666 -165.667 -222.999 -215
c-43.333 -54.667 -70.666 -115.667 -81.999 -183c-9.33301 -56.667 -15 -160.334 -17 -311.001c-1.33301 -130.667 -12.666 -235.334 -33.999 -314.001c-32.667 -119.333 -83.667 -212.666 -153 -279.999c12.667 -24.667 34 -39 64 -43h16
c68.667 34.667 123.667 70.334 165 107.001c60 54.667 106.333 122.334 139 203.001c39.333 96 59 215.333 59 358c0 128 10.333 233.333 31 316c61.333 241.333 216 362 464 362zM625.996 851.998c-116 -20.667 -198.668 -57.332 -248.001 -109.999
c-35.333 -38.667 -52.666 -83 -51.999 -133l1 -57v-26c0 -7.33301 0.333008 -16.333 1 -27c0 -124.667 -16 -223.334 -48 -296.001c-22.667 -50.667 -54.334 -90 -95.001 -118l43 14c82 28 140 73.333 174 136c28.667 53.333 43 127 43 221c0 61.333 10.667 123.333 32 186
c30.667 88.667 80.334 158.667 149.001 210z" />
    <glyph glyph-name="uFEF5" unicode="&#xfedf;&#xfe82;" horiz-adv-x="929" arabic-form="isolated" 
d="M859 1452c0 -5.33301 -1.66699 -11.332 -5 -17.999l-20 -44c-7.33301 -16 -22.666 -29 -45.999 -39l-32 -8l-33 -3c-12.667 -0.666992 -35 2.66602 -67 9.99902l-95 22c-21.333 0 -42 -6 -62 -18c-4.66699 -2.66699 -10.334 -4.66699 -17.001 -6
c-10.667 2 -17 8.66699 -19 20c0 8 0.333008 12.667 1 14l4 8l13 32c13.333 34 47 51 101 51c18 0 36.667 -3.33301 56 -10c45.333 -15.333 77 -23 95 -23c24 0 40.667 2.33301 50 7l45 24h10c14 0 21 -6.33301 21 -19zM1258 1416
c-110 -94 -184.334 -165.669 -223.001 -215.002c-43.333 -54.667 -70.666 -115.667 -81.999 -183c-8 -47.333 -12 -140.666 -12 -279.999c0 -108 -2.33301 -184.667 -7 -230c-18 -172 -82 -305.667 -192 -401c-9.33301 -8.66699 -24.666 -21 -45.999 -37l-48 -30
c-33.333 -20 -75.333 -35.667 -126 -47c-41.333 -9.33301 -82 -13.333 -122 -12l-216 7c-58.667 2 -107 8.66699 -145 20c-18 5.33301 -35.667 12.333 -53 21l128 59c142 65.333 229.333 144.333 262 237c18.667 52 28 176 28 372c0 114.667 9.66699 210 29 286
c54.667 217.333 195 326 421 326c-100.667 -87.333 -168 -152.333 -202 -195c-38.667 -48 -63.334 -103 -74.001 -165c-7.33301 -41.333 -11 -125.333 -11 -252c0 -138 -24.333 -261 -73 -369c-55.333 -123.333 -137.666 -210.333 -246.999 -261c34.667 0 76 7 124 21
c42 12.667 84 31.667 126 57c87.333 52.667 142.333 89.667 165 111c48 44 78.667 120 92 228c6 48.667 9 133.334 9 254.001c0 128 10.667 233.333 32 316c61.333 241.333 215.666 362 462.999 362z" />
    <glyph glyph-name="uFEF6" unicode="&#xfee0;&#xfe82;" horiz-adv-x="929" arabic-form="final" 
d="M859 1452c0 -5.33301 -1.66699 -11.332 -5 -17.999l-20 -44c-7.33301 -16 -22.666 -29 -45.999 -39l-32 -8l-33 -3c-12.667 -0.666992 -35 2.66602 -67 9.99902l-95 22c-21.333 0 -42 -6 -62 -18c-4.66699 -2.66699 -10.334 -4.66699 -17.001 -6
c-10.667 2 -17 8.66699 -19 20c0 8 0.333008 12.667 1 14l4 8l13 32c13.333 34 47 51 101 51c18 0 36.667 -3.33301 56 -10c45.333 -15.333 77 -23 95 -23c24 0 40.667 2.33301 50 7l45 24h10c14 0 21 -6.33301 21 -19zM952 -12.999l-33 -0.00195312
c-113.333 0 -205.666 17 -276.999 51c-79.333 -33.333 -232 -50 -458 -50c-52 0 -100.333 6.66699 -145 20c-18 5.33301 -35.667 12.333 -53 21l128 59c142 65.333 229.333 144.333 262 237c18.667 52 28 176 28 372c0 114.667 9.66699 210 29 286
c54.667 217.333 195 326 421 326c-100.667 -87.333 -168 -152.333 -202 -195c-38.667 -48 -63.334 -103 -74.001 -165c-7.33301 -41.333 -11 -125.333 -11 -252c0 -138 -24.333 -261 -73 -369c-55.333 -123.333 -137.666 -210.333 -246.999 -261c34.667 0 76 7 124 21
c42 12.667 84 31.667 126 57c87.333 52.667 142.333 89.667 165 111c48 44 78.667 120 92 228c6 48.667 9 133.334 9 254.001c0 128 10.667 233.333 32 316c61.333 241.333 215.666 362 462.999 362c-110 -94 -184.333 -165.667 -223 -215
c-43.333 -54.667 -70.666 -115.667 -81.999 -183c-9.33301 -57.333 -15 -159.666 -17 -306.999c-1.33301 -130.667 -12 -235 -32 -313c-30.667 -118.667 -80.334 -211.667 -149.001 -279c44 -21.333 82.333 -35 115 -41l49 -8h33v-83z" />
    <glyph glyph-name="uFEF7" unicode="&#xfedf;&#xfe84;" horiz-adv-x="929" arabic-form="isolated" 
d="M477 1323l-121.999 -76v131h-58v-135h134v-87h-318v87h63v105c5.33301 31.333 18.666 57.333 39.999 78c27.333 27.333 64 41 110 41c89.333 0 139 -31.667 149 -95zM1258 1416c-110 -94 -184.334 -165.669 -223.001 -215.002
c-43.333 -54.667 -70.666 -115.667 -81.999 -183c-8 -47.333 -12 -140.666 -12 -279.999c0 -108 -2.33301 -184.667 -7 -230c-18 -172 -82 -305.667 -192 -401c-9.33301 -8.66699 -24.666 -21 -45.999 -37l-48 -30c-33.333 -20 -75.333 -35.667 -126 -47
c-41.333 -9.33301 -82 -13.333 -122 -12l-216 7c-58.667 2 -107 8.66699 -145 20c-18 5.33301 -35.667 12.333 -53 21l128 59c142 65.333 229.333 144.333 262 237c18.667 52 28 176 28 372c0 114.667 9.66699 210 29 286c54.667 217.333 195 326 421 326
c-100.667 -87.333 -168 -152.333 -202 -195c-38.667 -48 -63.334 -103 -74.001 -165c-7.33301 -41.333 -11 -125.333 -11 -252c0 -138 -24.333 -261 -73 -369c-55.333 -123.333 -137.666 -210.333 -246.999 -261c34.667 0 76 7 124 21c42 12.667 84 31.667 126 57
c87.333 52.667 142.333 89.667 165 111c48 44 78.667 120 92 228c6 48.667 9 133.334 9 254.001c0 128 10.667 233.333 32 316c61.333 241.333 215.666 362 462.999 362z" />
    <glyph glyph-name="uFEF8" unicode="&#xfee0;&#xfe84;" horiz-adv-x="929" arabic-form="final" 
d="M477 1323l-121.999 -76v131h-58v-135h134v-87h-318v87h63v105c5.33301 31.333 18.666 57.333 39.999 78c27.333 27.333 64 41 110 41c89.333 0 139 -31.667 149 -95zM952.001 -13l-33 -0.00195312c-113.333 0 -205.666 17 -276.999 51c-79.333 -33.333 -232 -50 -458 -50
c-52 0 -100.333 6.66699 -145 20c-18 5.33301 -35.667 12.333 -53 21l128 59c142 65.333 229.333 144.333 262 237c18.667 52 28 176 28 372c0 114.667 9.66699 210 29 286c54.667 217.333 195 326 421 326c-100.667 -87.333 -168 -152.333 -202 -195
c-38.667 -48 -63.334 -103 -74.001 -165c-7.33301 -41.333 -11 -125.333 -11 -252c0 -138 -24.333 -261 -73 -369c-55.333 -123.333 -137.666 -210.333 -246.999 -261c34.667 0 76 7 124 21c42 12.667 84 31.667 126 57c87.333 52.667 142.333 89.667 165 111
c48 44 78.667 120 92 228c6 48.667 9 133.334 9 254.001c0 128 10.667 233.333 32 316c61.333 241.333 215.666 362 462.999 362c-110 -94 -184.333 -165.667 -223 -215c-43.333 -54.667 -70.666 -115.667 -81.999 -183c-9.33301 -57.333 -15 -159.666 -17 -306.999
c-1.33301 -130.667 -12 -235 -32 -313c-30.667 -118.667 -80.334 -211.667 -149.001 -279c44 -21.333 82.333 -35 115 -41l49 -8h33v-83z" />
    <glyph glyph-name="uFEF9" unicode="&#xfedf;&#xfe88;" horiz-adv-x="929" arabic-form="isolated" 
d="M1258 1416c-110 -94 -184.334 -165.667 -223.001 -215c-43.333 -54.667 -70.666 -115.667 -81.999 -183c-9.33301 -56.667 -15 -160.334 -17 -311.001c-1.33301 -130.667 -13 -236.667 -35 -318c-32.667 -120 -85.667 -214 -159 -282l-94 -66
c-31.333 -15.333 -92.666 -28 -183.999 -38c-86.667 -10 -180 -15 -280 -15c-52 0 -100.333 6.66699 -145 20c-18 5.33301 -35.667 12.333 -53 21l128 59c142 65.333 229.333 144.333 262 237c18.667 52 28 176 28 372c0 114.667 9.66699 210 29 286
c54.667 217.333 195 326 421 326c-100.667 -87.333 -168 -152.333 -202 -195c-38.667 -48 -63.334 -103 -74.001 -165c-7.33301 -41.333 -11 -125.333 -11 -252c0 -138 -24.333 -261 -73 -369c-55.333 -123.333 -137.666 -210.333 -246.999 -261c34.667 0 76 7 124 21
c42 12.667 84 31.667 126 57c87.333 52.667 142.333 89.667 165 111c48 44 78.667 120 92 228c6 48.667 9 133.334 9 254.001c0 128 10.667 233.333 32 316c61.333 241.333 215.666 362 462.999 362zM485.999 -253l-121.999 -74.999v131h-58v-135h134v-86h-318v86h63v105
c5.33301 31.333 18.666 57.666 39.999 78.999c27.333 26.667 64 40 110 40c89.333 0 139 -31.667 149 -95z" />
    <glyph glyph-name="uFEFA" unicode="&#xfee0;&#xfe88;" horiz-adv-x="929" arabic-form="final" 
d="M952 -13l-33 -0.00195312c-113.333 0 -205.666 17 -276.999 51c-79.333 -33.333 -232 -50 -458 -50c-52 0 -100.333 6.66699 -145 20c-18 5.33301 -35.667 12.333 -53 21l128 59c142 65.333 229.333 144.333 262 237c18.667 52 28 176 28 372
c0 114.667 9.66699 210 29 286c54.667 217.333 195 326 421 326c-100.667 -87.333 -168 -152.333 -202 -195c-38.667 -48 -63.334 -103 -74.001 -165c-7.33301 -41.333 -11 -125.333 -11 -252c0 -138 -24.333 -261 -73 -369
c-55.333 -123.333 -137.666 -210.333 -246.999 -261c34.667 0 76 7 124 21c42 12.667 84 31.667 126 57c87.333 52.667 142.333 89.667 165 111c48 44 78.667 120 92 228c6 48.667 9 133.334 9 254.001c0 128 10.667 233.333 32 316c61.333 241.333 215.666 362 462.999 362
c-110 -94 -184.333 -165.667 -223 -215c-43.333 -54.667 -70.666 -115.667 -81.999 -183c-9.33301 -57.333 -15 -159.666 -17 -306.999c-1.33301 -130.667 -12 -235 -32 -313c-30.667 -118.667 -80.334 -211.667 -149.001 -279c44 -21.333 82.333 -35 115 -41l49 -8h33v-83z
M486 -253.002l-121.999 -74.999v131h-58v-135h134v-86h-318v86h63v105c5.33301 31.333 18.666 57.666 39.999 78.999c27.333 26.667 64 40 110 40c89.333 0 139 -31.667 149 -95z" />
    <glyph glyph-name="uFEFB" unicode="&#xfedf;&#xfe8e;" horiz-adv-x="929" arabic-form="isolated" 
d="M1258 1416c-110 -94 -184.334 -165.669 -223.001 -215.002c-43.333 -54.667 -70.666 -115.667 -81.999 -183c-8 -47.333 -12 -140.666 -12 -279.999c0 -108 -2.33301 -184.667 -7 -230c-18 -172 -82 -305.667 -192 -401c-9.33301 -8.66699 -24.666 -21 -45.999 -37
l-48 -30c-33.333 -20 -75.333 -35.667 -126 -47c-41.333 -9.33301 -82 -13.333 -122 -12l-216 7c-58.667 2 -107 8.66699 -145 20c-18 5.33301 -35.667 12.333 -53 21l128 59c142 65.333 229.333 144.333 262 237c18.667 52 28 176 28 372c0 114.667 9.66699 210 29 286
c54.667 217.333 195 326 421 326c-100.667 -87.333 -168 -152.333 -202 -195c-38.667 -48 -63.334 -103 -74.001 -165c-7.33301 -41.333 -11 -125.333 -11 -252c0 -138 -24.333 -261 -73 -369c-55.333 -123.333 -137.666 -210.333 -246.999 -261c34.667 0 76 7 124 21
c42 12.667 84 31.667 126 57c87.333 52.667 142.333 89.667 165 111c48 44 78.667 120 92 228c6 48.667 9 133.334 9 254.001c0 128 10.667 233.333 32 316c61.333 241.333 215.666 362 462.999 362z" />
    <glyph glyph-name="uFEFC" unicode="&#xfee0;&#xfe8e;" horiz-adv-x="929" arabic-form="final" 
d="M952 -13l-33 -0.00195312c-113.333 0 -205.666 17 -276.999 51c-79.333 -33.333 -232 -50 -458 -50c-52 0 -100.333 6.66699 -145 20c-18 5.33301 -35.667 12.333 -53 21l128 59c142 65.333 229.333 144.333 262 237c18.667 52 28 176 28 372
c0 114.667 9.66699 210 29 286c54.667 217.333 195 326 421 326c-100.667 -87.333 -168 -152.333 -202 -195c-38.667 -48 -63.334 -103 -74.001 -165c-7.33301 -41.333 -11 -125.333 -11 -252c0 -138 -24.333 -261 -73 -369
c-55.333 -123.333 -137.666 -210.333 -246.999 -261c34.667 0 76 7 124 21c42 12.667 84 31.667 126 57c87.333 52.667 142.333 89.667 165 111c48 44 78.667 120 92 228c6 48.667 9 133.334 9 254.001c0 128 10.667 233.333 32 316c61.333 241.333 215.666 362 462.999 362
c-110 -94 -184.333 -165.667 -223 -215c-43.333 -54.667 -70.666 -115.667 -81.999 -183c-9.33301 -57.333 -15 -159.666 -17 -306.999c-1.33301 -130.667 -12 -235 -32 -313c-30.667 -118.667 -80.334 -211.667 -149.001 -279c44 -21.333 82.333 -35 115 -41l49 -8h33v-83z
" />
    <glyph glyph-name="u0652_u064E.liga" unicode="&#x652;&#x64e;" horiz-adv-x="1" 
d="M262 1105l1 -294l-66 28l1 292z" />
    <glyph glyph-name="u0652_u064B.liga" unicode="&#x652;&#x64b;" horiz-adv-x="1" 
d="M796 1129c0 -29.333 -14.332 -52.334 -42.999 -69.001c-24 -14 -51.667 -21 -83 -21c-32.667 0 -61.834 8.16699 -87.501 24.5s-38.5 37.833 -38.5 64.5c0 25.333 12.333 46.333 37 63s54.334 25 89.001 25c33.333 0 62.666 -8.66699 87.999 -26s38 -37.666 38 -60.999z
M535.001 1130c0 -28.667 -14.332 -51.333 -42.999 -68c-24 -14.667 -51.667 -22 -83 -22c-32.667 0 -61.834 8.33301 -87.501 25s-38.5 38 -38.5 64c0 25.333 12.333 46.5 37 63.5s54.334 25.5 89.001 25.5c33.333 0 62.666 -8.66699 87.999 -26s38 -38 38 -62z" />
    <glyph glyph-name="u0652_u064D.liga" unicode="&#x652;&#x64d;" horiz-adv-x="1" 
d="M833 -562c0 -29.333 -13.999 -52.334 -41.999 -69.001c-24 -14 -51.667 -21 -83 -21c-32.667 0 -61.834 8.16699 -87.501 24.5s-38.5 37.833 -38.5 64.5c0 24.667 12.333 45.5 37 62.5s54 25.5 88 25.5s63.5 -8.66699 88.5 -26s37.5 -37.666 37.5 -60.999z
M572.001 -561.001c0 -28.667 -13.999 -51.667 -41.999 -69c-24 -14 -51.667 -21 -83 -21c-32.667 0 -61.834 8.33301 -87.501 25s-38.5 38 -38.5 64c0 25.333 12.333 46.5 37 63.5s54 25.5 88 25.5s63.5 -8.66699 88.5 -26s37.5 -38 37.5 -62z" />
    <glyph glyph-name="u0622" unicode="&#x622;" horiz-adv-x="454" arabic-form="isolated" 
d="M571 1452c0 -5.33301 -1.66699 -11.332 -5 -17.999l-20 -44c-7.33301 -16 -22.666 -29 -45.999 -39l-32 -8l-33 -3c-12.667 -0.666992 -35 2.66602 -67 9.99902l-95 22c-21.333 0 -42 -6 -62 -18c-4.66699 -2.66699 -10.334 -4.66699 -17.001 -6
c-10.667 2 -17 8.66699 -19 20c0 8 0.333008 12.667 1 14l4 8l13 32c13.333 34 47 51 101 51c18 0 36.667 -3.33301 56 -10c45.333 -15.333 77 -23 95 -23c24 0 40.667 2.33301 50 7l45 24h10c14 0 21 -6.33301 21 -19zM836 1416c-110 -94 -184.333 -165.668 -223 -215.001
c-43.333 -54.667 -70.666 -115.667 -81.999 -183c-7.33301 -45.333 -13 -149.666 -17 -312.999c-2.66699 -124.667 -20.334 -231 -53.001 -319c-98.667 -266 -291.667 -399 -579 -399l230 163c74 52 129.333 119.667 166 203c42 94.667 63 223 63 385
c0 128 10.667 233.333 32 316c60.667 241.333 215 362 463 362z" />
    <glyph glyph-name="u0623" unicode="&#x623;" horiz-adv-x="497" arabic-form="isolated" 
d="M503 1332l-121.999 -76v131h-58v-135h134v-87h-318v87h63v105c5.33301 31.333 18.666 57.333 39.999 78c27.333 27.333 64 41 110 41c89.333 0 139 -31.667 149 -95zM890.001 1416c-110 -94 -184.333 -165.668 -223 -215.001
c-43.333 -54.667 -70.666 -115.667 -81.999 -183c-7.33301 -45.333 -13 -149.666 -17 -312.999c-2.66699 -124.667 -20.334 -231 -53.001 -319c-98.667 -266 -291.667 -399 -579 -399l230 163c74 52 129.333 119.667 166 203c42 94.667 63 223 63 385
c0 128 10.667 233.333 32 316c60.667 241.333 215 362 463 362z" />
    <glyph glyph-name="u0624" unicode="&#x624;" arabic-form="isolated" 
d="M498 1117l-122.998 -76v131h-57v-135h134v-87h-318v87h63v105c5.33301 31.333 18.666 57.333 39.999 78c27.333 27.333 63.666 41 108.999 41c89.333 0 139.333 -32 150 -96zM818.002 901c-83.333 -86.667 -130.666 -180.667 -141.999 -282
c-1.33301 -14.667 -3.66602 -71 -6.99902 -169c-2.66699 -68 -10.334 -123.667 -23.001 -167c-18.667 -64 -46.667 -118 -84 -162l-18 -93c-29.333 -151.333 -87.333 -267.666 -174 -348.999c-110.667 -104 -262.334 -156 -455.001 -156l214 126
c73.333 43.333 127.666 87.666 162.999 132.999c44.667 58.667 72.334 135.667 83.001 231l-55 -9l-71 -8c-26 -2.66699 -52.333 -4 -79 -4c-36.667 0 -69.334 1.66699 -98.001 5l-39 11l49 59c44.667 21.333 76.334 69.333 95.001 144c6 22.667 11 54.667 15 96
c4 46.667 5.66699 89 5 127l-2 83c-1.33301 54.667 -2 89 -2 103c0 108.667 76.333 189.667 229 243c108 38.667 228 58 360 58h23zM672.002 852c-116 -20.667 -198.668 -57.332 -248.001 -109.999c-35.333 -38.667 -52.666 -83 -51.999 -133l1 -57v-26
c0 -7.33301 0.333008 -16.333 1 -27c0 -124.667 -16 -223.334 -48 -296.001c-22.667 -50.667 -54.334 -90 -95.001 -118l43 14c82 28 140 73.333 174 136c28 53.333 42 127 42 221c0 61.333 11 123.333 33 186c30.667 88.667 80.334 158.667 149.001 210z" />
    <glyph glyph-name="u0625" unicode="&#x625;" horiz-adv-x="485" arabic-form="isolated" 
d="M863 1416c-110 -94 -184.333 -165.668 -223 -215.001c-43.333 -54.667 -70.666 -115.667 -81.999 -183c-7.33301 -45.333 -13 -149.666 -17 -312.999c-2.66699 -124.667 -20.334 -231 -53.001 -319c-98.667 -266 -291.667 -399 -579 -399l230 163
c74 52 129.333 119.667 166 203c42 94.667 63 223 63 385c0 128 10.667 233.333 32 316c60.667 241.333 215 362 463 362zM388 -253.001l-122.999 -74.999v131h-57v-135h134v-86h-318v86h63v105c5.33301 31.333 18.666 57.666 39.999 78.999c27.333 26.667 64 40 110 40
c89.333 0 139 -31.667 149 -95z" />
    <glyph glyph-name="u0626" unicode="&#x626;" horiz-adv-x="1575" arabic-form="isolated" 
d="M818 928l-121.999 -76v131h-58v-135h134v-87h-318v87h63v105c5.33301 31.333 18.666 57.333 39.999 78c27.333 27.333 64 41 110 41c89.333 0 139 -32 149 -96zM1737 689l-254.999 -127.998c-80.667 -41.333 -138.334 -77.666 -173.001 -108.999
c-42 -38 -63 -83 -63 -135c0 -33.333 8 -70.666 24 -111.999c38.667 -103.333 58 -185 58 -245c0 -114.667 -60.333 -203.334 -181 -266.001c-16.667 -8.66699 -52.334 -17.334 -107.001 -26.001c-20.667 -2 -48.334 -6.33301 -83.001 -13c-48 -7.33301 -80 -12 -96 -14
c-37.333 -4.66699 -70.333 -7 -99 -7c-21.333 0 -53.5 -1.16699 -96.5 -3.5s-75.167 -3.5 -96.5 -3.5c-56 0 -105.667 0.333008 -149 1l-227 7c-69.333 2 -128 7.33301 -176 16c-22 4 -45 9.66699 -69 17l165 49c92 26.667 161.667 59 209 97c60 47.333 99 112 117 194
c14 61.333 21 154.333 21 279c0 188 58.667 317.667 176 389c80 48 187.667 72 323 72l6 -23c-109.333 -58.667 -183 -103 -221 -133c-43.333 -34.667 -70.666 -74 -81.999 -118c-7.33301 -31.333 -11 -93.666 -11 -186.999c0 -163.333 -53 -308 -159 -434
c-59.333 -70.667 -133 -122.334 -221 -155.001c285.333 0 481 20 587 60l145 55c46.667 18 78.334 35.667 95.001 53c20.667 22 31 50.667 31 86c0 51.333 -22.333 132.666 -67 243.999c-10.667 27.333 -16 55.666 -16 84.999c0 110 61.333 207.333 184 292
c134 92.667 301.333 139 502 139z" />
    <glyph glyph-name="u0627" unicode="&#x627;" horiz-adv-x="630" arabic-form="isolated" 
d="M903 1416c-110 -94 -184.666 -165.668 -223.999 -215.001c-43.333 -54.667 -70.333 -115.667 -81 -183c-8 -45.333 -13.667 -149.666 -17 -312.999c-3.33301 -124.667 -21.333 -231 -54 -319c-98 -266 -290.667 -399 -578 -399l230 163
c73.333 52 128.666 119.667 165.999 203c42 94.667 63 223 63 385c0 128 10.333 233.333 31 316c61.333 241.333 216 362 464 362z" />
    <glyph glyph-name="u0628" unicode="&#x628;" horiz-adv-x="1026" arabic-form="isolated" 
d="M1097 901c-83.333 -86.667 -130.665 -180.667 -141.998 -282c-4.66699 -47.333 -7 -105.333 -7 -174c0 -130.667 -36.667 -239.334 -110 -326.001l-85 -72c-64 -40 -142.333 -60 -235 -60h-20c-116.667 0 -212.334 18.333 -287.001 55
c-33.333 -19.333 -62.5 -33.166 -87.5 -41.499s-56.833 -12.5 -95.5 -12.5h-28l-34 4l71 37c131.333 48 197 190.333 197 427c0 45.333 7.33301 94.333 22 147c48 166 145.667 272 293 318l13 -20c-84 -86.667 -131.333 -180.667 -142 -282
c-5.33301 -47.333 -8 -105.333 -8 -174c0 -56 -7 -108.333 -21 -157c-16.667 -59.333 -42.667 -112 -78 -158c37.333 -20 80 -36.667 128 -50l57 -10h26l12 3l25 8c66 22 117.667 66 155 132c35.333 62.667 53 143.667 53 243c0 45.333 7.66699 94.333 23 147
c47.333 166 144.666 272 291.999 318zM662.001 -255c0 -28.667 -13.999 -51.667 -41.999 -69c-24 -14 -51.667 -21 -83 -21c-32.667 0 -61.834 8.33301 -87.501 25s-38.5 38 -38.5 64c0 25.333 12.333 46.5 37 63.5s54 25.5 88 25.5s63.5 -8.66699 88.5 -26
s37.5 -38 37.5 -62z" />
    <glyph glyph-name="u0629" unicode="&#x629;" arabic-form="isolated" 
d="M818 901c-83.333 -86.667 -130.668 -180.668 -142.001 -282.001c-4.66699 -47.333 -7 -105.333 -7 -174c0 -130.667 -36.667 -239.334 -110 -326.001l-85 -72c-28.667 -17.333 -63 -28.666 -103 -33.999l-130 -18l-71 -3c-26 -1.33301 -58.667 0.333984 -98 5.00098
l-39 11l49 59c44.667 21.333 76.334 69.333 95.001 144c6 22.667 11 54.667 15 96c4 46.667 5.66699 89 5 127l-2 83c-1.33301 54.667 -2 89 -2 103c0 108.667 76.333 189.667 229 243c108 38.667 228 58 360 58h23zM671.998 851.999
c-116 -20.667 -198.668 -57.332 -248.001 -109.999c-35.333 -38.667 -52.666 -83 -51.999 -133l1 -57v-26c0 -7.33301 0.333008 -16.333 1 -27c0 -124.667 -16 -223.334 -48 -296.001c-22.667 -50.667 -54.334 -90 -95.001 -118l43 14c82 28 140 73.333 174 136
c28 53.333 42 127 42 221c0 61.333 11 123.333 33 186c30.667 88.667 80.334 158.667 149.001 210zM574.997 1207l-121.999 -76v131h-58v-135h134v-87h-318v87h63v105c5.33301 31.333 18.666 57.333 39.999 78c27.333 27.333 64 41 110 41c89.333 0 139 -32 149 -96z" />
    <glyph glyph-name="u062A" unicode="&#x62a;" horiz-adv-x="1026" arabic-form="isolated" 
d="M1049 1021c0 -28.667 -14 -51.334 -42 -68.001c-24 -14.667 -51.667 -22 -83 -22c-32.667 0 -61.834 8.33301 -87.501 25s-38.5 38.334 -38.5 65.001c0 27.333 14.667 49.333 44 66c24.667 14.667 51.667 22 81 22c18 0 35 -2.33301 51 -7
c18.667 -5.33301 35.834 -15.333 51.501 -30s23.5 -31.667 23.5 -51zM788 1023c0 -28.667 -14 -51.667 -42 -69c-24 -14 -51.667 -21 -83 -21c-32.667 0 -61.834 8.33301 -87.501 25s-38.5 38 -38.5 64c0 28 14.667 50.333 44 67c24.667 14.667 51.667 22 81 22
c18 0 35 -2.33301 51 -7c18.667 -5.33301 35.834 -15.333 51.501 -30s23.5 -31.667 23.5 -51zM1097 901c-83.333 -86.667 -130.665 -180.667 -141.998 -282c-4.66699 -47.333 -7 -105.333 -7 -174c0 -130.667 -36.667 -239.334 -110 -326.001l-85 -72
c-64 -40 -142.333 -60 -235 -60h-20c-116.667 0 -212.334 18.333 -287.001 55c-33.333 -19.333 -62.5 -33.166 -87.5 -41.499s-56.833 -12.5 -95.5 -12.5h-28l-34 4l71 37c131.333 48 197 190.333 197 427c0 45.333 7.33301 94.333 22 147c48 166 145.667 272 293 318
l13 -20c-84 -86.667 -131.333 -180.667 -142 -282c-5.33301 -47.333 -8 -105.333 -8 -174c0 -56 -7 -108.333 -21 -157c-16.667 -59.333 -42.667 -112 -78 -158c37.333 -20 80 -36.667 128 -50l57 -10h26l12 3l25 8c66 22 117.667 66 155 132
c35.333 62.667 53 143.667 53 243c0 45.333 7.66699 94.333 23 147c47.333 166 144.666 272 291.999 318z" />
    <glyph glyph-name="u062B" unicode="&#x62b;" horiz-adv-x="1026" arabic-form="isolated" 
d="M911 1159c0 -28.667 -14.334 -51.666 -43.001 -68.999c-24 -14 -51.333 -21 -82 -21c-33.333 0 -62.666 8.33301 -87.999 25s-38 38 -38 64c0 27.333 14.667 49.666 44 66.999c24.667 14 51.667 21 81 21c18 0 34.667 -2 50 -6c22 -6.66699 41 -18.334 57 -35.001
c12.667 -13.333 19 -28.666 19 -45.999zM1058 1003c0 -28.667 -13.999 -51.334 -41.999 -68.001c-24 -14.667 -51.667 -22 -83 -22c-32.667 0 -61.834 8.33301 -87.501 25s-38.5 38.334 -38.5 65.001c0 27.333 14.667 49.333 44 66c24.667 14.667 51.667 22 81 22
c18 0 35 -2.33301 51 -7c22.667 -6.66699 41.667 -18.667 57 -36c12 -13.333 18 -28.333 18 -45zM797 1005c0 -28.667 -13.999 -51.667 -41.999 -69c-24 -14 -51.667 -21 -83 -21c-32.667 0 -61.834 8.33301 -87.501 25s-38.5 38 -38.5 64c0 28 14.667 50.333 44 67
c24.667 14.667 51.667 22 81 22c18 0 35 -2.33301 51 -7c22.667 -6.66699 41.667 -18.667 57 -36c12 -13.333 18 -28.333 18 -45zM1097 901.001c-83.333 -86.667 -130.665 -180.667 -141.998 -282c-4.66699 -47.333 -7 -105.333 -7 -174
c0 -130.667 -36.667 -239.334 -110 -326.001l-85 -72c-64 -40 -142.333 -60 -235 -60h-20c-116.667 0 -212.334 18.333 -287.001 55c-33.333 -19.333 -62.5 -33.166 -87.5 -41.499s-56.833 -12.5 -95.5 -12.5h-28l-34 4l71 37c131.333 48 197 190.333 197 427
c0 45.333 7.33301 94.333 22 147c48 166 145.667 272 293 318l13 -20c-84 -86.667 -131.333 -180.667 -142 -282c-5.33301 -47.333 -8 -105.333 -8 -174c0 -56 -7 -108.333 -21 -157c-16.667 -59.333 -42.667 -112 -78 -158c37.333 -20 80 -36.667 128 -50l57 -10h26l12 3
l25 8c66 22 117.667 66 155 132c35.333 62.667 53 143.667 53 243c0 45.333 7.66699 94.333 23 147c47.333 166 144.666 272 291.999 318z" />
    <glyph glyph-name="u062C" unicode="&#x62c;" arabic-form="isolated" 
d="M818 901c-83.333 -86.667 -130.666 -180.667 -141.999 -282c-4.66699 -47.333 -7 -105.333 -7 -174c0 -143.333 -36.333 -252 -109 -326c-17.333 -17.333 -40.333 -29.333 -69 -36l-76 -7c-34.667 -3.33301 -64.334 -10 -89.001 -20
c-58.667 -23.333 -100.667 -70.666 -126 -141.999c-10.667 -28.667 -16 -60.334 -16 -95.001c0 -28.667 17.667 -53 53 -73s79 -34.667 131 -44l159 -29c89.333 -16 145.333 -33 168 -51c9.33301 -7.33301 14 -15.333 14 -24c0 -20 -7.33301 -39.333 -22 -58
c-20.667 -25.333 -54.334 -50.666 -101.001 -75.999h-27l-15 19c19.333 22.667 29 42.334 29 59.001c0 28.667 -26.333 46 -79 52l-137 16c-131.333 16 -225.666 43.667 -282.999 83c-45.333 31.333 -68 77 -68 137c0 71.333 28.667 131.333 86 180
c32.667 27.333 73.667 50 123 68l58 21c80 28.667 136.167 70.167 168.5 124.5s48.5 131.833 48.5 232.5c0 34.667 4.33301 72.667 13 114c24.667 120.667 81.334 215 170.001 283c-44.667 -8 -79 -15.667 -103 -23c-84.667 -26.667 -142.334 -66.334 -173.001 -119.001
c-16.667 -29.333 -25 -63.333 -25 -102c0 -106 -28.333 -196 -85 -270c-49.333 -64.667 -126.333 -114.334 -231 -149.001l-13 20c84 86.667 132 173.667 144 261c4 29.333 6 79 6 149c0 112 72 195.667 216 251c86.667 33.333 211 50 373 50h23zM562 -135
c0 -29.333 -13.999 -52.334 -41.999 -69.001c-24 -14 -51.667 -21 -83 -21c-32.667 0 -61.834 8.16699 -87.501 24.5s-38.5 37.833 -38.5 64.5c0 25.333 12.333 46.333 37 63s54 25 88 25s63.5 -8.66699 88.5 -26s37.5 -37.666 37.5 -60.999z" />
    <glyph glyph-name="u062D" unicode="&#x62d;" arabic-form="isolated" 
d="M818 901c-83.333 -86.667 -130.667 -180.668 -142 -282.001c-4.66699 -47.333 -7 -105.333 -7 -174c0 -143.333 -36.333 -252 -109 -326c-17.333 -17.333 -40.333 -29.333 -69 -36l-76 -7c-34.667 -3.33301 -64.334 -10 -89.001 -20
c-58.667 -23.333 -100.667 -70.666 -126 -141.999c-10.667 -28.667 -16 -60.334 -16 -95.001c0 -28.667 17.667 -53 53 -73s79 -34.667 131 -44l159 -29c89.333 -16 145.333 -33 168 -51c9.33301 -7.33301 14 -15.333 14 -24c0 -20 -7.33301 -39.333 -22 -58
c-20.667 -25.333 -54.334 -50.666 -101.001 -75.999h-27l-15 19c19.333 22.667 29 42.334 29 59.001c0 28.667 -26.333 46 -79 52l-137 16c-131.333 16 -225.666 43.667 -282.999 83c-45.333 31.333 -68 77 -68 137c0 71.333 28.667 131.333 86 180
c32.667 27.333 73.667 50 123 68l58 21c80 28.667 136.167 70.167 168.5 124.5s48.5 131.833 48.5 232.5c0 34.667 4.33301 72.667 13 114c24.667 120.667 81.334 215 170.001 283c-44.667 -8 -79 -15.667 -103 -23c-84.667 -26.667 -142.334 -66.334 -173.001 -119.001
c-16.667 -29.333 -25 -63.333 -25 -102c0 -69.333 -14.667 -136 -44 -200s-74.666 -116 -135.999 -156c-38.667 -24.667 -84 -45.667 -136 -63l-13 20c84 86.667 132 173.667 144 261c4 29.333 6 79 6 149c0 112 72 195.667 216 251c86.667 33.333 211 50 373 50h23z" />
    <glyph glyph-name="u062E" unicode="&#x62e;" arabic-form="isolated" 
d="M530 1116c0 -29.333 -14.334 -52.3311 -43.001 -68.998c-24 -14 -51.333 -21 -82 -21c-33.333 0 -62.666 8.16699 -87.999 24.5s-38 37.833 -38 64.5c0 27.333 14.667 49.666 44 66.999c24.667 14 51.667 21 81 21c18 0 34.667 -2 50 -6
c19.333 -6 36.833 -16.333 52.5 -31s23.5 -31.334 23.5 -50.001zM817.999 901.002c-83.333 -86.667 -130.666 -180.667 -141.999 -282c-4.66699 -47.333 -7 -105.333 -7 -174c0 -143.333 -36.333 -252 -109 -326c-17.333 -17.333 -40.333 -29.333 -69 -36l-76 -7
c-34.667 -3.33301 -64.334 -10 -89.001 -20c-58.667 -23.333 -100.667 -70.666 -126 -141.999c-10.667 -28.667 -16 -60.334 -16 -95.001c0 -28.667 17.667 -53 53 -73s79 -34.667 131 -44l159 -29c89.333 -16 145.333 -33 168 -51c9.33301 -7.33301 14 -15.333 14 -24
c0 -20 -7.33301 -39.333 -22 -58c-20.667 -25.333 -54.334 -50.666 -101.001 -75.999h-27l-15 19c19.333 22.667 29 42.334 29 59.001c0 28.667 -26.333 46 -79 52l-137 16c-131.333 16 -225.666 43.667 -282.999 83c-45.333 31.333 -68 77 -68 137
c0 71.333 28.667 131.333 86 180c32.667 27.333 73.667 50 123 68l58 21c80 28.667 136.167 70.167 168.5 124.5s48.5 131.833 48.5 232.5c0 34.667 4.33301 72.667 13 114c24.667 120.667 81.334 215 170.001 283c-44.667 -8 -79 -15.667 -103 -23
c-84.667 -26.667 -142.334 -66.334 -173.001 -119.001c-16.667 -29.333 -25 -63.333 -25 -102c0 -106 -28.333 -196 -85 -270c-49.333 -64.667 -126.333 -114.334 -231 -149.001l-13 20c84 86.667 132 173.667 144 261c4 29.333 6 79 6 149c0 112 72 195.667 216 251
c86.667 33.333 211 50 373 50h23z" />
    <glyph glyph-name="u062F" unicode="&#x62f;" horiz-adv-x="762" arabic-form="isolated" 
d="M860 901c-83.333 -86.667 -130.333 -180.67 -141 -282.003c-2 -17.333 -4.33301 -74 -7 -170c-2.66699 -68.667 -10 -124.334 -22 -167.001c-17.333 -63.333 -46.666 -117.666 -87.999 -162.999c-22.667 -25.333 -51.334 -49.333 -86.001 -72
c-112 -72.667 -214 -109 -306 -109c-77.333 0 -125.666 29.667 -144.999 89c-10 30.667 -15 61.334 -15 92.001c0 110.667 44.667 179 134 205c-32 -39.333 -48 -80.333 -48 -123c0 -33.333 8 -61.666 24 -84.999c8 -12 27.667 -22.833 59 -32.5s64.666 -14.5 99.999 -14.5
c76 0 127 21.333 153 64c21.333 36.667 35.333 66.334 42 89.001c12.667 46 19 124 19 234c0 45.333 7.33301 94.333 22 147c47.333 166 145 272 293 318z" />
    <glyph glyph-name="u0630" unicode="&#x630;" horiz-adv-x="762" arabic-form="isolated" 
d="M810 1003c0 -28.667 -14.334 -51.334 -43.001 -68.001c-24 -14.667 -51.333 -22 -82 -22c-33.333 0 -62.666 8.33301 -87.999 25s-38 38.334 -38 65.001c0 27.333 14.667 49.333 44 66c24.667 14.667 51.667 22 81 22c18 0 34.667 -2.33301 50 -7
c20.667 -6 39 -17 55 -33c14 -14 21 -30 21 -48zM859.999 901c-83.333 -86.667 -130.333 -180.67 -141 -282.003c-2 -17.333 -4.33301 -74 -7 -170c-2.66699 -68.667 -10 -124.334 -22 -167.001c-17.333 -63.333 -46.666 -117.666 -87.999 -162.999
c-22.667 -25.333 -51.334 -49.333 -86.001 -72c-112 -72.667 -214 -109 -306 -109c-77.333 0 -125.666 29.667 -144.999 89c-10 30.667 -15 61.334 -15 92.001c0 110.667 44.667 179 134 205c-32 -39.333 -48 -80.333 -48 -123c0 -33.333 8 -61.666 24 -84.999
c8 -12 27.667 -22.833 59 -32.5s64.666 -14.5 99.999 -14.5c76 0 127 21.333 153 64c21.333 36.667 35.333 66.334 42 89.001c12.667 46 19 124 19 234c0 45.333 7.33301 94.333 22 147c47.333 166 145 272 293 318z" />
    <glyph glyph-name="u0631" unicode="&#x631;" horiz-adv-x="698" arabic-form="isolated" 
d="M868 741c-112.667 -82.667 -188.001 -144.333 -226.001 -185c-44.667 -46.667 -72.667 -98.667 -84 -156c-7.33301 -38.667 -12.666 -127 -15.999 -265c-2.66699 -105.333 -20.667 -196 -54 -272c-100 -226.667 -294 -340 -582 -340l233 141
c74 45.333 129.333 102.666 166 171.999c42 79.333 63 188.333 63 327c0 108.667 10.667 198.334 32 269.001c60.667 206 216.667 309 468 309z" />
    <glyph glyph-name="u0632" unicode="&#x632;" horiz-adv-x="698" arabic-form="isolated" 
d="M693 868c0 -28.667 -14.334 -51.334 -43.001 -68.001c-24 -14.667 -51.333 -22 -82 -22c-33.333 0 -62.666 8.33301 -87.999 25s-38 38.334 -38 65.001c0 27.333 14.667 49.333 44 66c24.667 14.667 51.667 22 81 22c18 0 34.667 -2.33301 50 -7
c19.333 -5.33301 36.833 -15.333 52.5 -30s23.5 -31.667 23.5 -51zM867.999 741c-112.667 -82.667 -188.001 -144.333 -226.001 -185c-44.667 -46.667 -72.667 -98.667 -84 -156c-7.33301 -38.667 -12.666 -127 -15.999 -265c-2.66699 -105.333 -20.667 -196 -54 -272
c-100 -226.667 -294 -340 -582 -340l233 141c74 45.333 129.333 102.666 166 171.999c42 79.333 63 188.333 63 327c0 108.667 10.667 198.334 32 269.001c60.667 206 216.667 309 468 309z" />
    <glyph glyph-name="u0633" unicode="&#x633;" horiz-adv-x="1872" arabic-form="isolated" 
d="M1926 901c-83.333 -86.667 -130.667 -180.67 -142 -282.003c-2 -17.333 -4.33301 -74 -7 -170c-2 -68.667 -9 -124.334 -21 -167.001c-18 -63.333 -47.333 -117.666 -88 -162.999c-18 -20 -31.667 -33.333 -41 -40l-47 -33l-58 -41c-21.333 -11.333 -47.333 -17 -78 -17
c-60 0 -125.667 18 -197 54c-60 -36.667 -113.667 -55 -161 -55h-14l-9 1c-34 3.33301 -61 11 -81 23l-55 31c-32.667 -57.333 -85.667 -112.333 -159 -165c-67.333 -48.667 -135.666 -83.667 -204.999 -105c-54 -16.667 -117.667 -24 -191 -22l-89 2
c-74.667 -35.333 -170.667 -53 -288 -53c34.667 27.333 111.667 71 231 131c79.333 40 134.333 87.333 165 142c42 74.667 63 192 63 352c0 270.667 63 463.667 189 579c79.333 72 181.333 108 306 108c-88.667 -76 -152.667 -139 -192 -189
c-82.667 -106 -124 -272 -124 -498c0 -106.667 -16.167 -196.167 -48.5 -268.5s-88.5 -143.166 -168.5 -212.499l29 1l32 1h31c5.33301 0 10.333 0.333008 15 1s16 3.33398 34 8.00098c160.667 43.333 276 167 346 371c27.333 80.667 41 157.667 41 231
c0 48 7.66699 97 23 147c49.333 166.667 147.333 272.667 294 318l12 -20c-83.333 -86.667 -130.333 -180.667 -141 -282c-5.33301 -47.333 -8 -105.333 -8 -174c0 -135.333 -34.333 -241.666 -103 -318.999l20 -26l2 -2c10 -8.66699 23.667 -14.667 41 -18
c4 -0.666992 10 -1 18 -1c62.667 0 108.667 50.333 138 151c20 68 30 143.333 30 226c0 45.333 7.33301 94.333 22 147c47.333 166 145 272 293 318l12 -20c-83.333 -86.667 -130.333 -180.667 -141 -282c-5.33301 -47.333 -8 -105.333 -8 -174
c0 -130.667 -35 -238 -105 -322c0 -28.667 13 -43 39 -43l10 1c74.667 6.66699 129.667 47.667 165 123c27.333 59.333 41 143.333 41 252c0 45.333 7.66699 94.333 23 147c47.333 166 144.666 272 291.999 318z" />
    <glyph glyph-name="u0634" unicode="&#x634;" horiz-adv-x="1872" arabic-form="isolated" 
d="M1678 1264c0 -29.333 -14.332 -52.333 -42.999 -69c-24 -14 -51.667 -21 -83 -21c-32.667 0 -61.834 8.16699 -87.501 24.5s-38.5 37.833 -38.5 64.5c0 27.333 14.667 49.333 44 66c24.667 14.667 52 22 82 22c18 0 34.667 -2.33301 50 -7c20 -6 37.667 -16.333 53 -31
s23 -31 23 -49zM1825 1093c0 -29.333 -14.334 -52.332 -43.001 -68.999c-23.333 -14 -50.666 -21 -81.999 -21c-33.333 0 -62.666 8.16699 -87.999 24.5s-38 37.833 -38 64.5c0 27.333 14.667 49.333 44 66c24.667 14.667 51.667 22 81 22c18 0 35 -2.33301 51 -7
c19.333 -5.33301 36.666 -15.333 51.999 -30s23 -31.334 23 -50.001zM1564 1095c0 -28.667 -14.334 -51.666 -43.001 -68.999c-23.333 -14 -50.666 -21 -81.999 -21c-33.333 0 -62.666 8.33301 -87.999 25s-38 38 -38 64c0 28 14.667 50.333 44 67
c24.667 14.667 51.667 22 81 22c18 0 35 -2.33301 51 -7c19.333 -6 36.666 -16.333 51.999 -31s23 -31.334 23 -50.001zM1926 901.002c-83.333 -86.667 -130.667 -180.671 -142 -282.004c-2 -17.333 -4.33301 -74 -7 -170c-2 -68.667 -9 -124.334 -21 -167.001
c-18 -63.333 -47.333 -117.666 -88 -162.999c-18 -20 -31.667 -33.333 -41 -40l-47 -33l-58 -41c-21.333 -11.333 -47.333 -17 -78 -17c-60 0 -125.667 18 -197 54c-60 -36.667 -113.667 -55 -161 -55h-14l-9 1c-34 3.33301 -61 11 -81 23l-55 31
c-32.667 -57.333 -85.667 -112.333 -159 -165c-67.333 -48.667 -135.666 -83.667 -204.999 -105c-54 -16.667 -117.667 -24 -191 -22l-89 2c-74.667 -35.333 -170.667 -53 -288 -53c34.667 27.333 111.667 71 231 131c79.333 40 134.333 87.333 165 142
c42 74.667 63 192 63 352c0 270.667 63 463.667 189 579c79.333 72 181.333 108 306 108c-88.667 -76 -152.667 -139 -192 -189c-82.667 -106 -124 -272 -124 -498c0 -106.667 -16.167 -196.167 -48.5 -268.5s-88.5 -143.166 -168.5 -212.499l29 1l32 1h31
c5.33301 0 10.333 0.333008 15 1s16 3.33398 34 8.00098c160.667 43.333 276 167 346 371c27.333 80.667 41 157.667 41 231c0 48 7.66699 97 23 147c49.333 166.667 147.333 272.667 294 318l12 -20c-83.333 -86.667 -130.333 -180.667 -141 -282
c-5.33301 -47.333 -8 -105.333 -8 -174c0 -135.333 -34.333 -241.666 -103 -318.999l20 -26l1 -1c10 -9.33301 24 -15.666 42 -18.999c4 -0.666992 10 -1 18 -1c62.667 0 108.667 50.333 138 151c20 68 30 143.333 30 226c0 45.333 7.33301 94.333 22 147
c47.333 166 145 272 293 318l12 -20c-83.333 -86.667 -130.333 -180.667 -141 -282c-5.33301 -47.333 -8 -105.333 -8 -174c0 -130.667 -35 -238 -105 -322c0 -28.667 13 -43 39 -43l10 1c74.667 6.66699 129.667 47.667 165 123c27.333 59.333 41 143.333 41 252
c0 45.333 7.66699 94.333 23 147c47.333 166 144.666 272 291.999 318z" />
    <glyph glyph-name="u0635" unicode="&#x635;" horiz-adv-x="1691" arabic-form="isolated" 
d="M1755 901c-83.333 -86.667 -130.668 -180.67 -142.001 -282.003c-2 -17.333 -4.33301 -74 -7 -170c-2 -68.667 -9 -124.334 -21 -167.001c-18 -63.333 -47.333 -117.666 -88 -162.999c-18 -20 -31.667 -33.333 -41 -40l-47 -33l-58 -41
c-21.333 -11.333 -47.333 -17 -78 -17h-31c-8 0 -16 -0.666992 -24 -2l-38 -5l-41 1c-23.333 0.666992 -51 3 -83 7c-24 0 -48.667 7.33301 -74 22l-55 31c-32.667 -57.333 -85.667 -112.333 -159 -165c-67.333 -48.667 -135.666 -83.667 -204.999 -105
c-54 -16.667 -117.667 -24 -191 -22l-89 2c-74.667 -35.333 -170.667 -53 -288 -53c29.333 22.667 106.333 65 231 127c79.333 40 134.333 91.333 165 154c42 85.333 63 224 63 416c0 125.333 10.667 227 32 305c58.667 218.667 213 328 463 328
c-92 -80 -153.667 -137.667 -185 -173c-66 -74 -105.667 -147 -119 -219c-8 -46.667 -12 -127 -12 -241c0 -233.333 -72.667 -417.666 -218 -552.999l25 1l36 1h32c5.33301 0 10.333 0.333008 15 1s16 3.33398 34 8.00098c160.667 43.333 276 167 346 371
c27.333 80.667 41 157.667 41 231c0 18 4.33301 38.333 13 61c0 71.333 4 126.333 12 165c38 175.333 156 263 354 263c-82.667 -67.333 -141.667 -131.666 -177 -192.999c150 112.667 341 169 573 169h23zM1558 819.997c-112 -33.333 -205 -75.999 -279 -127.999
c-103.333 -72.667 -155 -155 -155 -247c0 -52 -8 -106.667 -24 -164c-18.667 -66.667 -44.667 -118 -78 -154c38 -38 76.667 -57 116 -57h18c14.667 0 36 3.66699 64 11c82.667 21.333 140 69.333 172 144c23.333 54.667 35 131.667 35 231
c0 77.333 4.33301 134.666 13 171.999c18.667 82 58 146 118 192z" />
    <glyph glyph-name="u0636" unicode="&#x636;" horiz-adv-x="1691" arabic-form="isolated" 
d="M1351 1086c0 -28.667 -14.334 -51.667 -43.001 -69c-24 -14 -51.333 -21 -82 -21c-33.333 0 -62.666 8.33301 -87.999 25s-38 38 -38 64c0 28 14.667 50.333 44 67c24.667 14.667 51.667 22 81 22c18 0 34.667 -2.33301 50 -7c19.333 -5.33301 36.833 -15.333 52.5 -30
s23.5 -31.667 23.5 -51zM1755 901c-83.333 -86.667 -130.668 -180.67 -142.001 -282.003c-2 -17.333 -4.33301 -74 -7 -170c-2 -68.667 -9 -124.334 -21 -167.001c-18 -63.333 -47.333 -117.666 -88 -162.999c-18 -20 -31.667 -33.333 -41 -40l-47 -33l-58 -41
c-21.333 -11.333 -47.333 -17 -78 -17h-31c-8 0 -16 -0.666992 -24 -2l-38 -5l-41 1c-23.333 0.666992 -51 3 -83 7c-24 0 -48.667 7.33301 -74 22l-55 31c-32.667 -57.333 -85.667 -112.333 -159 -165c-67.333 -48.667 -135.666 -83.667 -204.999 -105
c-54 -16.667 -117.667 -24 -191 -22l-89 2c-74.667 -35.333 -170.667 -53 -288 -53c29.333 22.667 106.333 65 231 127c79.333 40 134.333 91.333 165 154c42 85.333 63 224 63 416c0 125.333 10.667 227 32 305c58.667 218.667 213 328 463 328
c-92 -80 -153.667 -137.667 -185 -173c-66 -74 -105.667 -147 -119 -219c-8 -46.667 -12 -127 -12 -241c0 -233.333 -72.667 -417.666 -218 -552.999l25 1l36 1h32c5.33301 0 10.333 0.333008 15 1s16 3.33398 34 8.00098c160.667 43.333 276 167 346 371
c27.333 80.667 41 157.667 41 231c0 18 4.33301 38.333 13 61c0 71.333 4 126.333 12 165c38 175.333 156 263 354 263c-82.667 -67.333 -141.667 -131.666 -177 -192.999c150 112.667 341 169 573 169h23zM1558 819.997c-112 -33.333 -205 -75.999 -279 -127.999
c-103.333 -72.667 -155 -155 -155 -247c0 -52 -8 -106.667 -24 -164c-18.667 -66.667 -44.667 -118 -78 -154c38 -38 76.667 -57 116 -57h18c14.667 0 36 3.66699 64 11c82.667 21.333 140 69.333 172 144c23.333 54.667 35 131.667 35 231
c0 77.333 4.33301 134.666 13 171.999c18.667 82 58 146 118 192z" />
    <glyph glyph-name="u0637" unicode="&#x637;" horiz-adv-x="993" arabic-form="isolated" 
d="M1075 901c-84 -86.667 -131.334 -180.666 -142.001 -281.999c-2 -17.333 -4.33301 -74 -7 -170c-2 -68.667 -9.33301 -124.334 -22 -167.001c-17.333 -63.333 -46.666 -117.666 -87.999 -162.999c-22.667 -26 -52 -50.333 -88 -73
c-23.333 -14.667 -44 -24.334 -62 -29.001l-71 -17c-42.667 -10 -77.667 -15 -105 -15c-26 0 -62.333 5 -109 15l-66 14c-17.333 4 -41.333 14 -72 30c-34 -20 -62.333 -33.667 -85 -41c-30.667 -10.667 -68.667 -16 -114 -16h-21l-5 24l64 31
c90 44.667 146.667 107 170 187c23.333 78 35 247.667 35 509c0 128 10.667 233.333 32 316c60.667 241.333 215 362 463 362c-88.667 -76.667 -153.334 -139 -194.001 -187c-65.333 -78 -106.666 -156.667 -123.999 -236c-12.667 -58 -19 -143.333 -19 -256
c152.667 122.667 350.667 184 594 184h23zM876.999 820.001c-111.333 -33.333 -203.999 -75.999 -277.999 -127.999c-103.333 -72.667 -155 -155 -155 -247c0 -52 -8.33301 -106.667 -25 -164c-18.667 -66.667 -44.334 -118 -77.001 -154c38 -38 76.667 -57 116 -57h10l34 1
c3.33301 0 17 3.33301 41 10c82.667 22.667 139.667 70.667 171 144c22 53.333 33 130.333 33 231c0 77.333 4.33301 134.666 13 171.999c18 82 57 146 117 192z" />
    <glyph glyph-name="u0638" unicode="&#x638;" horiz-adv-x="993" arabic-form="isolated" 
d="M923 1174c0 -24 -12.335 -45.668 -37.002 -65.001l-34 -20c-7.33301 -3.33301 -19.333 -5 -36 -5c-45.333 0 -80.666 8.33301 -105.999 25s-38 38.334 -38 65.001c0 27.333 14.667 49.333 44 66c24.667 14.667 51.667 22 81 22c18 0 35 -2.33301 51 -7
c18.667 -5.33301 35.834 -15.333 51.501 -30s23.5 -31.667 23.5 -51zM1075 900.999c-84 -86.667 -131.334 -180.666 -142.001 -281.999c-2 -17.333 -4.33301 -74 -7 -170c-2 -68.667 -9.33301 -124.334 -22 -167.001c-17.333 -63.333 -46.666 -117.666 -87.999 -162.999
c-22.667 -26 -52 -50.333 -88 -73c-23.333 -14.667 -44 -24.334 -62 -29.001l-71 -17c-42.667 -10 -77.667 -15 -105 -15c-26 0 -62.333 5 -109 15l-66 14c-17.333 4 -41.333 14 -72 30c-34 -20 -62.333 -33.667 -85 -41c-30.667 -10.667 -68.667 -16 -114 -16h-21l-5 24
l64 31c90 44.667 146.667 107 170 187c23.333 78 35 247.667 35 509c0 128 10.667 233.333 32 316c60.667 241.333 215 362 463 362c-88.667 -76.667 -153.334 -139 -194.001 -187c-65.333 -78 -106.666 -156.667 -123.999 -236c-12.667 -58 -19 -143.333 -19 -256
c152.667 122.667 350.667 184 594 184h23zM876.997 820c-111.333 -33.333 -203.999 -75.999 -277.999 -127.999c-103.333 -72.667 -155 -155 -155 -247c0 -52 -8.33301 -106.667 -25 -164c-18.667 -66.667 -44.334 -118 -77.001 -154c38 -38 76.667 -57 116 -57h10l34 1
c3.33301 0 17 3.33301 41 10c82.667 22.667 139.667 70.667 171 144c22 53.333 33 130.333 33 231c0 77.333 4.33301 134.666 13 171.999c18 82 57 146 117 192z" />
    <glyph glyph-name="u0639" unicode="&#x639;" horiz-adv-x="769" arabic-form="isolated" 
d="M852 865c-28 -24.667 -48.334 -49.999 -61.001 -75.999c-10.667 -21.333 -15 -46 -13 -74l5 -108v-112c0 -18.667 -4.66699 -40.667 -14 -66c-10 -30 -21.667 -48.333 -35 -55c-48 -24 -100 -36 -156 -36l-7 24c13.333 7.33301 25.333 18 36 32l21 36
c10 17.333 15.333 36.666 16 57.999l4 83v43c0 47.333 1.66699 79.333 5 96c6 30.667 20.667 59 44 85c-70 0 -132 -25 -186 -75c-26 -24.667 -44.833 -53.834 -56.5 -87.501s-17.834 -79.167 -18.501 -136.5c-2 -81.333 -3.66699 -128.333 -5 -141
c-7.33301 -66.667 -21.666 -116 -42.999 -148c43.333 -74 136.666 -111 279.999 -111h13l9 -11c19.333 -19.333 50.333 -38 93 -56c-36.667 -24 -79 -36 -127 -36c-47.333 0 -98.666 10 -153.999 30l-126 47c-12 -11.333 -23 -24.333 -33 -39l-22 -30
c-43.333 -61.333 -65 -122 -65 -182c0 -28.667 17.667 -53 53 -73s79 -34.667 131 -44l159 -29c89.333 -16 145.333 -33 168 -51c9.33301 -7.33301 14 -15.333 14 -24c0 -20 -7.33301 -39.333 -22 -58c-20.667 -25.333 -54.334 -50.666 -101.001 -75.999h-27l-15 19
c19.333 22.667 29 42.334 29 59.001c0 28.667 -26.333 46 -79 52l-137 16c-131.333 16 -225.666 43.667 -282.999 83c-45.333 31.333 -68 77 -68 137c0 26 7 49.667 21 71l43 67l73 121c18 39.333 30.333 74 37 104c6.66699 28 9.66699 62.667 9 104l-2 159
c-1.33301 108.667 13.667 192 45 250c24.667 46 62.667 83.667 114 113c58.667 33.333 132.334 55.666 221.001 66.999l46 1l97 -1l22 -2l15 -1l22 3z" />
    <glyph glyph-name="u063A" unicode="&#x63a;" horiz-adv-x="769" arabic-form="isolated" 
d="M628 1080c0 -29.333 -14.334 -52.3311 -43.001 -68.998c-23.333 -14 -50.666 -21 -81.999 -21c-33.333 0 -62.666 8.16699 -87.999 24.5s-38 37.833 -38 64.5c0 27.333 14.667 49.666 44 66.999c24.667 14 51.667 21 81 21c18 0 35 -2 51 -6
c19.333 -6 36.666 -16.333 51.999 -31s23 -31.334 23 -50.001zM851.999 865.002c-28 -24.667 -48.334 -49.999 -61.001 -75.999c-10.667 -21.333 -15 -46 -13 -74l5 -108v-112c0 -18.667 -4.66699 -40.667 -14 -66c-10 -30 -21.667 -48.333 -35 -55
c-48 -24 -100 -36 -156 -36l-7 24c13.333 7.33301 25.333 18 36 32l21 36c10 17.333 15.333 36.666 16 57.999l4 83v43c0 47.333 1.66699 79.333 5 96c6 30.667 20.667 59 44 85c-70 0 -132 -25 -186 -75c-26 -24.667 -44.833 -53.834 -56.5 -87.501
s-17.834 -79.167 -18.501 -136.5c-2 -81.333 -3.66699 -128.333 -5 -141c-7.33301 -66.667 -21.666 -116 -42.999 -148c43.333 -74 136.666 -111 279.999 -111h13l9 -11c19.333 -19.333 50.333 -38 93 -56c-36.667 -24 -79 -36 -127 -36c-47.333 0 -98.666 10 -153.999 30
l-126 47c-12 -11.333 -23 -24.333 -33 -39l-22 -30c-43.333 -61.333 -65 -122 -65 -182c0 -28.667 17.667 -53 53 -73s79 -34.667 131 -44l159 -29c89.333 -16 145.333 -33 168 -51c9.33301 -7.33301 14 -15.333 14 -24c0 -20 -7.33301 -39.333 -22 -58
c-20.667 -25.333 -54.334 -50.666 -101.001 -75.999h-27l-15 19c19.333 22.667 29 42.334 29 59.001c0 28.667 -26.333 46 -79 52l-137 16c-131.333 16 -225.666 43.667 -282.999 83c-45.333 31.333 -68 77 -68 137c0 26 7 49.667 21 71l43 67l73 121
c18 39.333 30.333 74 37 104c6.66699 28 9.66699 62.667 9 104l-2 159c-1.33301 108.667 13.667 192 45 250c24.667 46 62.667 83.667 114 113c58.667 33.333 132.334 55.666 221.001 66.999l46 1l97 -1l22 -2l15 -1l22 3z" />
    <glyph glyph-name="u0641" unicode="&#x641;" horiz-adv-x="1435" arabic-form="isolated" 
d="M1219 1167c0 -28.667 -14.332 -51.666 -42.999 -68.999c-24 -14 -51.667 -21 -83 -21c-32.667 0 -61.834 8.33301 -87.501 25s-38.5 38 -38.5 64c0 28 14.667 50.333 44 67c24.667 14.667 52 22 82 22c18 0 34.667 -2.33301 50 -7c19.333 -6 36.833 -16.333 52.5 -31
s23.5 -31.334 23.5 -50.001zM1489 901.001c-83.333 -86.667 -130.334 -180.668 -141.001 -282.001c-2 -17.333 -4.33301 -74 -7 -170c-2 -68.667 -9.33301 -124.334 -22 -167.001c-20 -70.667 -49.333 -125 -88 -163l-42 -42c-8 -7.33301 -22.667 -17.666 -44 -30.999
c-30.667 -19.333 -68 -32.333 -112 -39c-4 0 -44 -4 -120 -12l-124 -12c-11.333 0 -28.333 -0.833008 -51 -2.5s-39.667 -2.5 -51 -2.5c-51.333 0 -107 3.33301 -167 10l-158 18c-56 9.33301 -98.333 21.333 -127 36c-33.333 -19.333 -62.666 -33.166 -87.999 -41.499
s-57.333 -12.5 -96 -12.5h-28l-34 4l71 37c71.333 26 124.333 92.333 159 199c25.333 79.333 38 167.333 38 264c0 48 7.66699 100 23 156c48.667 182 146 297 292 345l13 -20c-82 -86 -129.667 -192.667 -143 -320c-4 -38.667 -6 -96 -6 -172
c0 -144 -33.333 -261 -100 -351c39.333 -22 77 -37 113 -45l113 -15l76 -3h54l66 3c43.333 20 74 65.667 92 137c14.667 60.667 21 132 19 214l-4 199c-2 86.667 53 158.667 165 216c109.333 56.667 250.333 85 423 85h24zM1344 852
c-116.667 -20.667 -199.668 -57.332 -249.001 -109.999c-35.333 -38.667 -52.666 -83 -51.999 -133l1 -57v-26c0 -7.33301 0.666992 -16.333 2 -27c0 -124.667 -16.333 -223.334 -49 -296.001c-22.667 -50.667 -54 -90 -94 -118l42 14c82.667 28 140.667 73.333 174 136
c28.667 53.333 43 127 43 221c0 61.333 10.667 123.333 32 186c30.667 88.667 80.667 158.667 150 210z" />
    <glyph glyph-name="u0642" unicode="&#x642;" horiz-adv-x="1412" arabic-form="isolated" 
d="M1399 1167c0 -28.667 -14.332 -51.666 -42.999 -68.999c-24 -14 -51.667 -21 -83 -21c-32.667 0 -61.834 8.33301 -87.501 25s-38.5 38 -38.5 64c0 28 14.667 50.333 44 67c24.667 14.667 52 22 82 22c18 0 34.667 -2.33301 50 -7c19.333 -6 36.833 -16.333 52.5 -31
s23.5 -31.334 23.5 -50.001zM1156 1167c0 -28.667 -14.332 -51.666 -42.999 -68.999c-24 -14 -51.667 -21 -83 -21c-32.667 0 -61.834 8.33301 -87.501 25s-38.5 38 -38.5 64c0 28 14.667 50.333 44 67c24.667 14.667 52 22 82 22c18 0 34.667 -2.33301 50 -7
c19.333 -6 36.833 -16.333 52.5 -31s23.5 -31.334 23.5 -50.001zM1466 901.002c-83.333 -86.667 -130.666 -180.664 -141.999 -281.997c-4.66699 -47.333 -7 -105.333 -7 -174c0 -31.333 -8.66699 -68 -26 -110c-52 -130.667 -79 -201 -81 -211l-18 -97
c-21.333 -108 -61.333 -203.333 -120 -286c-64 -90.667 -144 -150.334 -240 -179.001l-89 -27c-27.333 -8.66699 -61.666 -13 -102.999 -13h-24l-14 2c-92 11.333 -188 70.333 -288 177l-81 88c-60.667 -35.333 -121.334 -53 -182.001 -53c-2.66699 2.66699 -4 4.66699 -4 6
c0 4 3 12.333 9 25c0.666992 2.66699 2 5.66699 4 9c102.667 30 165.334 115.667 188.001 257c10 60.667 14.333 122.334 13 185.001l-2 85c0 13.333 -0.333008 34.666 -1 63.999l-1 44c0 52.667 7.66699 112.334 23 179.001
c51.333 229.333 148.666 366.666 291.999 411.999l13 -20c-80.667 -84 -128.667 -213 -144 -387c0 -23.333 -0.333008 -42.666 -1 -57.999c-2.66699 -74 -4 -119.667 -4 -137c0 -122 -14 -243 -42 -363c-18 -77.333 -38.333 -131.333 -61 -162l67 -99
c31.333 -46.667 67.666 -86.334 108.999 -119.001c50.667 -38.667 99.334 -58 146.001 -58c60.667 0 115.667 23.333 165 70l76 73c71.333 67.333 113.666 157.666 126.999 270.999l-55 -9l-71 -8c-26 -2.66699 -52.333 -4 -79 -4c-36.667 0 -69.334 1.66699 -98.001 5
l-39 11l49 59c44.667 21.333 76.334 69.333 95.001 144c6 22.667 11 54.667 15 96c4 46.667 5.66699 89 5 127l-2 83c-1.33301 55.333 -2 89.666 -2 102.999c0 108.667 76.333 189.667 229 243c108 38.667 228 58 360 58h23zM1320 852.005
c-116 -20.667 -198.668 -57.332 -248.001 -109.999c-35.333 -38.667 -52.666 -83 -51.999 -133l1 -57v-26c0 -7.33301 0.333008 -16.333 1 -27c0 -124.667 -16 -223.334 -48 -296.001c-22.667 -50.667 -54.334 -90 -95.001 -118l43 14c82 28 140 73.333 174 136
c28 53.333 42 127 42 221c0 61.333 11 123.333 33 186c30.667 88.667 80.334 158.667 149.001 210z" />
    <glyph glyph-name="u0643" unicode="&#x643;" horiz-adv-x="1496" arabic-form="isolated" 
d="M1126 206c15.333 13.333 55.835 44.998 121.502 94.998s116.167 97 151.5 141c50 63.333 75 125.333 75 186c0 76 -23.333 114 -70 114c-12 -1.33301 -55 -11.666 -129 -30.999c-37.333 -9.33301 -68.333 -14 -93 -14c-34 0 -62 8 -84 24c-47.333 34.667 -71 72 -71 112
c0 50 36 106.667 108 170c38 34 90 73 156 117c42 28 101 65.333 177 112l67 42l59 39c88 57.333 149 109.666 183 156.999c-84.667 0 -222.667 -51.333 -414 -154c-137.333 -73.333 -257.333 -153.666 -360 -240.999c-115.333 -98 -183.333 -185 -204 -261
c-2.66699 -11.333 -4 -21.666 -4 -30.999c0 -62 39.333 -117.333 118 -166c20 -11.333 40.833 -19.5 62.5 -24.5s45.834 -7.5 72.501 -7.5c-4.66699 0 53.333 6.66699 174 20c24 2.66699 37.333 3.66699 40 3l22 -1c23.333 -2 35 -19.333 35 -52c0 -22 -15.333 -50 -46 -84
s-67.334 -67.333 -110.001 -100l-142 -109l-171 -126l-90 -60l-31 -9c-10.667 -0.666992 -22.667 -1.66699 -36 -3c-4 -0.666992 -10 -1 -18 -1h-28c-78 0 -175.667 22.667 -293 68c34 44.667 59.667 97.334 77 158.001c12 42 19 96.667 21 164
c3.33301 94 5.66602 149.333 6.99902 166c11.333 101.333 58.666 195.333 141.999 282l-12 20c-148 -46 -245.667 -152 -293 -318c-14.667 -52.667 -22 -101.667 -22 -147c0 -236.667 -66 -379 -198 -427l-70 -37l34 -4h27c63.333 0 125 18.333 185 55
c144.667 -40 272 -60 382 -60c16 0 31 0.666992 45 2c9.33301 -1.33301 24.333 -1.33301 45 0l22 2c56.667 7.33301 104 21 142 41c104.667 55.333 184 114.666 238 177.999z" />
    <glyph glyph-name="u0644" unicode="&#x644;" horiz-adv-x="992" arabic-form="isolated" 
d="M1321 1416c-110 -94 -184.332 -165.669 -222.999 -215.002c-43.333 -54.667 -70.666 -115.667 -81.999 -183c-8 -47.333 -12 -140.666 -12 -279.999c0 -108 -2.33301 -184.667 -7 -230c-8.66699 -84 -26 -156 -52 -216c-33.333 -76 -80 -137.667 -140 -185l-47 -38
l-48 -29c-30.667 -18 -63.334 -31.333 -98.001 -40c-29.333 -8 -63 -12 -101 -12c-46.667 0 -103.334 7.66699 -170.001 23c-49.333 11.333 -88.333 22 -117 32c-60.667 -36.667 -122 -55 -184 -55h-27l-35 4l71 37c132 48 198 190.333 198 427
c0 45.333 7.33301 94.333 22 147c47.333 166 145 272 293 318l12 -20c-83.333 -86.667 -130.666 -180.667 -141.999 -282c-4.66699 -47.333 -7 -105.333 -7 -174c0 -128 -34 -233.667 -102 -317c38.667 -38.667 101 -58 187 -58c24 0 59.333 23.667 106 71
c57.333 58.667 104 132.334 140 221.001c46.667 114 70 239.333 70 376c0 128 10.667 233.333 32 316c61.333 241.333 215.666 362 462.999 362z" />
    <glyph glyph-name="u0645" unicode="&#x645;" horiz-adv-x="961" arabic-form="isolated" 
d="M1025 901c-83.333 -86.667 -130.668 -180.668 -142.001 -282.001c-4.66699 -47.333 -7 -105.333 -7 -174c0 -130.667 -36.667 -239.334 -110 -326.001l-85 -72c-24.667 -14.667 -54.667 -24 -90 -28l-191 -23c-23.333 -37.333 -38.666 -65 -45.999 -83
c-11.333 -26.667 -17 -58 -17 -94c0 -28.667 17.667 -53 53 -73s79 -34.667 131 -44l159 -29c89.333 -16 145.333 -33 168 -51c9.33301 -7.33301 14 -15.333 14 -24c0 -20 -7.33301 -39.333 -22 -58c-20.667 -25.333 -54.334 -50.666 -101.001 -75.999h-27l-15 19
c19.333 22.667 29 42.334 29 59.001c0 28.667 -26.333 46 -79 52l-137 16c-131.333 16 -225.666 43.667 -282.999 83c-45.333 31.333 -68 77 -68 137c0 26 7 49.667 21 71l41 67l12 16l54 81c33.333 50 59.833 111.667 79.5 185s29.5 137 29.5 191
c0 20 0.666992 49.833 2 89.5s2 69.5 2 89.5c0 108.667 76.333 189.667 229 243c108 38.667 228 58 360 58h23zM878.998 851.999c-116 -20.667 -198.668 -57.332 -248.001 -109.999c-35.333 -38.667 -52.666 -83 -51.999 -133l1 -57v-26c0 -7.33301 0.333008 -16.333 1 -27
c0 -124.667 -16 -223.334 -48 -296.001c-22.667 -50.667 -54.334 -90 -95.001 -118l43 14c82 28 140 73.333 174 136c28 53.333 42 127 42 221c0 61.333 11 123.333 33 186c30.667 88.667 80.334 158.667 149.001 210z" />
    <glyph glyph-name="u0646" unicode="&#x646;" horiz-adv-x="1026" arabic-form="isolated" 
d="M896 654c0 -28.667 -14 -51.667 -42 -69c-24 -14 -51.667 -21 -83 -21c-32.667 0 -61.834 8.33301 -87.501 25s-38.5 38 -38.5 64c0 28 14.667 50.333 44 67c24.667 14.667 51.667 22 81 22c18 0 35 -2.33301 51 -7c18.667 -5.33301 35.834 -15.333 51.501 -30
s23.5 -31.667 23.5 -51zM1097 532c-83.333 -86.667 -130.664 -180.667 -141.997 -282c-4.66699 -47.333 -7 -105.333 -7 -174c0 -130.667 -36.667 -239.334 -110 -326.001l-85 -72c-64 -40 -142.333 -60 -235 -60h-20c-116.667 0 -212.334 18.333 -287.001 55
c-62 -36 -123 -54 -183 -54h-28l-34 4l71 37c131.333 48 197 190.333 197 427c0 45.333 7.33301 94.333 22 147c48 166 145.667 272 293 318l13 -20c-84 -86.667 -131.333 -180.667 -142 -282c-5.33301 -47.333 -8 -105.333 -8 -174c0 -56 -7 -108.333 -21 -157
c-16.667 -59.333 -42.667 -111.666 -78 -156.999c37.333 -20.667 80 -37.667 128 -51l57 -10h26l12 3l25 8c65.333 22 116.666 66 153.999 132c36 62.667 54 143.667 54 243c0 45.333 7.66699 94.333 23 147c47.333 166 144.666 272 291.999 318z" />
    <glyph glyph-name="u0647" unicode="&#x647;" arabic-form="isolated" 
d="M813 897c-82 -86.667 -128.668 -183.334 -140.001 -290.001c-2.66699 -28 -4 -82 -4 -162c0 -130.667 -36.667 -239.334 -110 -326.001l-85 -72c-28.667 -17.333 -63 -28.666 -103 -33.999l-130 -18l-71 -3c-26 -1.33301 -58.667 0.333984 -98 5.00098l-39 11l49 59
c44.667 21.333 76.334 69.333 95.001 144c6 22.667 11 54.667 15 96c4 46.667 5.66699 89 5 127l-2 83c-1.33301 54.667 -2 89 -2 103c0 108.667 76.333 189.667 229 243c108 38.667 228 58 360 58h31v-24zM671.999 852c-116 -20.667 -198.668 -57.332 -248.001 -109.999
c-35.333 -38.667 -52.666 -83 -51.999 -133l1 -57v-26c0 -7.33301 0.333008 -16.333 1 -27c0 -124.667 -16 -223.334 -48 -296.001c-22.667 -50.667 -54.334 -90 -95.001 -118l43 14c82 28 140 73.333 174 136c28 53.333 42 127 42 221c0 61.333 11 123.333 33 186
c30.667 88.667 80.334 158.667 149.001 210z" />
    <glyph glyph-name="u0648" unicode="&#x648;" arabic-form="isolated" 
d="M818 901c-83.333 -86.667 -130.666 -180.667 -141.999 -282c-1.33301 -14.667 -3.66602 -71 -6.99902 -169c-2.66699 -68 -10.334 -123.667 -23.001 -167c-18.667 -64 -46.667 -118 -84 -162l-18 -93c-29.333 -151.333 -87.333 -267.666 -174 -348.999
c-110.667 -104 -262.334 -156 -455.001 -156l214 126c73.333 43.333 127.666 87.666 162.999 132.999c44.667 58.667 72.334 135.667 83.001 231l-55 -9l-71 -8c-26 -2.66699 -52.333 -4 -79 -4c-36.667 0 -69.334 1.66699 -98.001 5l-39 11l49 59
c44.667 21.333 76.334 69.333 95.001 144c6 22.667 11 54.667 15 96c4 46.667 5.66699 89 5 127l-2 83c-1.33301 54.667 -2 89 -2 103c0 108.667 76.333 189.667 229 243c108 38.667 228 58 360 58h23zM672 852c-116 -20.667 -198.668 -57.332 -248.001 -109.999
c-35.333 -38.667 -52.666 -83 -51.999 -133l1 -57v-26c0 -7.33301 0.333008 -16.333 1 -27c0 -124.667 -16 -223.334 -48 -296.001c-22.667 -50.667 -54.334 -90 -95.001 -118l43 14c82 28 140 73.333 174 136c28 53.333 42 127 42 221c0 61.333 11 123.333 33 186
c30.667 88.667 80.334 158.667 149.001 210z" />
    <glyph glyph-name="u0649" unicode="&#x649;" horiz-adv-x="1575" arabic-form="isolated" 
d="M1737 689l-254.999 -127.998c-80.667 -41.333 -138.334 -77.666 -173.001 -108.999c-42 -38 -63 -83 -63 -135c0 -33.333 8 -70.666 24 -111.999c38.667 -103.333 58 -185 58 -245c0 -114.667 -60.333 -203.334 -181 -266.001
c-16.667 -8.66699 -52.334 -17.334 -107.001 -26.001c-20.667 -2 -48.334 -6.33301 -83.001 -13c-48 -7.33301 -80 -12 -96 -14c-37.333 -4.66699 -70.333 -7 -99 -7c-21.333 0 -53.5 -1.16699 -96.5 -3.5s-75.167 -3.5 -96.5 -3.5c-56 0 -105.667 0.333008 -149 1l-227 7
c-69.333 2 -128 7.33301 -176 16c-22 4 -45 9.66699 -69 17l165 49c92 26.667 161.667 59 209 97c60 47.333 99 112 117 194c14 61.333 21 154.333 21 279c0 188 58.667 317.667 176 389c80 48 187.667 72 323 72l6 -23c-109.333 -58.667 -183 -103 -221 -133
c-43.333 -34.667 -70.666 -74 -81.999 -118c-7.33301 -31.333 -11 -93.666 -11 -186.999c0 -163.333 -53 -308 -159 -434c-59.333 -70.667 -133 -122.334 -221 -155.001c285.333 0 481 20 587 60l145 55c46.667 18 78.334 35.667 95.001 53c20.667 22 31 50.667 31 86
c0 51.333 -22.333 132.666 -67 243.999c-10.667 27.333 -16 55.666 -16 84.999c0 110 61.333 207.333 184 292c134 92.667 301.333 139 502 139z" />
    <glyph glyph-name="u064A" unicode="&#x64a;" horiz-adv-x="1575" arabic-form="isolated" 
d="M1737 689l-254.999 -127.998c-80.667 -41.333 -138.334 -77.666 -173.001 -108.999c-42 -38 -63 -83 -63 -135c0 -33.333 8 -70.666 24 -111.999c38.667 -103.333 58 -185 58 -245c0 -114.667 -60.333 -203.334 -181 -266.001
c-16.667 -8.66699 -52.334 -17.334 -107.001 -26.001c-20.667 -2 -48.334 -6.33301 -83.001 -13c-48 -7.33301 -80 -12 -96 -14c-37.333 -4.66699 -70.333 -7 -99 -7c-21.333 0 -53.5 -1.16699 -96.5 -3.5s-75.167 -3.5 -96.5 -3.5c-56 0 -105.667 0.333008 -149 1l-227 7
c-69.333 2 -128 7.33301 -176 16c-22 4 -45 9.66699 -69 17l165 49c92 26.667 161.667 59 209 97c60 47.333 99 112 117 194c14 61.333 21 154.333 21 279c0 188 58.667 317.667 176 389c80 48 187.667 72 323 72l6 -23c-109.333 -58.667 -183 -103 -221 -133
c-43.333 -34.667 -70.666 -74 -81.999 -118c-7.33301 -31.333 -11 -93.666 -11 -186.999c0 -163.333 -53 -308 -159 -434c-59.333 -70.667 -133 -122.334 -221 -155.001c285.333 0 481 20 587 60l145 55c46.667 18 78.334 35.667 95.001 53c20.667 22 31 50.667 31 86
c0 51.333 -22.333 132.666 -67 243.999c-10.667 27.333 -16 55.666 -16 84.999c0 110 61.333 207.333 184 292c134 92.667 301.333 139 502 139z" />
    <glyph glyph-name="u067E" unicode="&#x67e;" horiz-adv-x="1026" arabic-form="isolated" 
d="M359 -378c0 29.333 14.334 52.3311 43.001 68.998c24 14 51.333 21 82 21c33.333 0 62.666 -8.16699 87.999 -24.5s38 -37.833 38 -64.5c0 -27.333 -14.667 -49.666 -44 -66.999c-24.667 -14 -51.667 -21 -81 -21c-18 0 -34.667 2 -50 6c-26 8 -46.333 21.333 -61 40
c-10 12.667 -15 26.334 -15 41.001zM211.001 -222.002c0 28.667 14.3311 51.666 42.998 68.999c24 14 51.667 21 83 21c32.667 0 61.834 -8.33301 87.501 -25s38.5 -38 38.5 -64c0 -28 -14.667 -50.333 -44 -67c-24.667 -14.667 -52 -22 -82 -22
c-18 0 -34.667 2.33301 -50 7c-23.333 6.66699 -42.666 19 -57.999 37c-12 12.667 -18 27.334 -18 44.001zM471.999 -224.003c0 29.333 14.3311 52.332 42.998 68.999c24 14 51.667 21 83 21c32.667 0 61.834 -8.16699 87.501 -24.5s38.5 -37.833 38.5 -64.5
c0 -27.333 -14.667 -49.666 -44 -66.999c-24.667 -14 -52 -21 -82 -21c-18 0 -34.667 2 -50 6c-25.333 7.33301 -45.666 20.666 -60.999 39.999c-10 12.667 -15 26.334 -15 41.001zM1097 900.996c-83.333 -86.667 -130.665 -180.667 -141.998 -282
c-4.66699 -47.333 -7 -105.333 -7 -174c0 -130.667 -36.667 -239.334 -110 -326.001l-85 -72c-64 -40 -142.333 -60 -235 -60h-20c-116.667 0 -212.334 18.333 -287.001 55c-33.333 -19.333 -62.5 -33.166 -87.5 -41.499s-56.833 -12.5 -95.5 -12.5h-28l-34 4l71 37
c131.333 48 197 190.333 197 427c0 45.333 7.33301 94.333 22 147c48 166 145.667 272 293 318l13 -20c-84 -86.667 -131.333 -180.667 -142 -282c-5.33301 -47.333 -8 -105.333 -8 -174c0 -56 -7 -108.333 -21 -157c-16.667 -59.333 -42.667 -112 -78 -158
c37.333 -20 80 -36.667 128 -50l57 -10h26l12 3l25 8c66 22 117.667 66 155 132c35.333 62.667 53 143.667 53 243c0 45.333 7.66699 94.333 23 147c47.333 166 144.666 272 291.999 318z" />
    <glyph glyph-name="u0686" unicode="&#x686;" arabic-form="isolated" 
d="M818 901c-83.333 -86.667 -130.666 -180.667 -141.999 -282c-4.66699 -47.333 -7 -105.333 -7 -174c0 -143.333 -36.333 -252 -109 -326c-17.333 -17.333 -40.333 -29.333 -69 -36l-76 -7c-34.667 -3.33301 -64.334 -10 -89.001 -20
c-58.667 -23.333 -100.667 -70.666 -126 -141.999c-10.667 -28.667 -16 -60.334 -16 -95.001c0 -28.667 17.667 -53 53 -73s79 -34.667 131 -44l159 -29c89.333 -16 145.333 -33 168 -51c9.33301 -7.33301 14 -15.333 14 -24c0 -20 -7.33301 -39.333 -22 -58
c-20.667 -25.333 -54.334 -50.666 -101.001 -75.999h-27l-15 19c19.333 22.667 29 42.334 29 59.001c0 28.667 -26.333 46 -79 52l-137 16c-131.333 16 -225.666 43.667 -282.999 83c-45.333 31.333 -68 77 -68 137c0 71.333 28.667 131.333 86 180
c32.667 27.333 73.667 50 123 68l58 21c80 28.667 136.167 70.167 168.5 124.5s48.5 131.833 48.5 232.5c0 34.667 4.33301 72.667 13 114c24.667 120.667 81.334 215 170.001 283c-44.667 -8 -79 -15.667 -103 -23c-84.667 -26.667 -142.334 -66.334 -173.001 -119.001
c-16.667 -29.333 -25 -63.333 -25 -102c0 -106 -28.333 -196 -85 -270c-49.333 -64.667 -126.333 -114.334 -231 -149.001l-13 20c84 86.667 132 173.667 144 261c4 29.333 6 79 6 149c0 112 72 195.667 216 251c86.667 33.333 211 50 373 50h23zM395 -216
c0 29.333 14.333 52.333 43 69c24 14 51.333 21 82 21c33.333 0 62.666 -8.16699 87.999 -24.5s38 -37.833 38 -64.5c0 -27.333 -14.667 -49.666 -44 -66.999c-24.667 -14 -51.667 -21 -81 -21c-18 0 -34.667 2 -50 6c-25.333 7.33301 -45.666 20.666 -60.999 39.999
c-10 12 -15 25.667 -15 41zM257 -60c0 28.667 14.332 51.667 42.999 69c24 14 51.667 21 83 21c32.667 0 61.834 -8.33301 87.501 -25s38.5 -38 38.5 -64c0 -28 -14.667 -50.333 -44 -67c-24.667 -14.667 -52 -22 -82 -22c-18 0 -34.667 2.33301 -50 7
c-24.667 7.33301 -44.667 20.333 -60 39c-10.667 12.667 -16 26.667 -16 42zM507.999 -62c0 29.333 14.332 52.333 42.999 69c24 14 51.667 21 83 21c32.667 0 61.834 -8.16699 87.501 -24.5s38.5 -37.833 38.5 -64.5c0 -27.333 -14.667 -49.666 -44 -66.999
c-24.667 -14 -52 -21 -82 -21c-18 0 -34.667 2 -50 6c-24.667 7.33301 -44.667 20.666 -60 39.999c-10.667 12 -16 25.667 -16 41z" />
    <glyph glyph-name="u0698" unicode="&#x698;" horiz-adv-x="698" arabic-form="isolated" 
d="M868 741c-112.667 -82.667 -188.001 -144.333 -226.001 -185c-44.667 -46.667 -72.667 -98.667 -84 -156c-7.33301 -38.667 -12.666 -127 -15.999 -265c-2.66699 -105.333 -20.667 -196 -54 -272c-99.333 -226.667 -293.333 -340 -582 -340l233 141
c74 45.333 129.333 102.666 166 171.999c42 79.333 63 188.333 63 327c0 108.667 10.667 198.334 32 269.001c60.667 206 216.667 309 468 309zM750.999 1183c0 -29.333 -14.332 -52.333 -42.999 -69c-24 -14 -51.667 -21 -83 -21c-32.667 0 -61.834 8.16699 -87.501 24.5
s-38.5 37.833 -38.5 64.5c0 27.333 14.667 49.333 44 66c24.667 14.667 52 22 82 22c18 0 34.667 -2.33301 50 -7c26 -7.33301 46.667 -21 62 -41c9.33301 -12 14 -25 14 -39zM898 1012c0 -29.333 -14.334 -52.334 -43.001 -69.001c-23.333 -14 -50.666 -21 -81.999 -21
c-33.333 0 -62.666 8.16699 -87.999 24.5s-38 37.833 -38 64.5c0 27.333 14.667 49.333 44 66c24.667 14.667 51.667 22 81 22c18 0 35 -2.33301 51 -7c25.333 -7.33301 45.666 -20.666 60.999 -39.999c9.33301 -12 14 -25.333 14 -40zM636.999 1014
c0 -28.667 -14.334 -51.668 -43.001 -69.001c-23.333 -14 -50.666 -21 -81.999 -21c-33.333 0 -62.666 8.33301 -87.999 25s-38 38 -38 64c0 28 14.667 50.333 44 67c24.667 14.667 51.667 22 81 22c18 0 35 -2.33301 51 -7c25.333 -7.33301 45.666 -20.666 60.999 -39.999
c9.33301 -12 14 -25.667 14 -41z" />
    <glyph glyph-name="u06AF" unicode="&#x6af;" horiz-adv-x="1496" arabic-form="isolated" 
d="M1126 206c15.333 13.333 55.835 44.998 121.502 94.998s116.167 97 151.5 141c50 63.333 75 125.333 75 186c0 76 -23.333 114 -70 114c-12 -1.33301 -55 -11.666 -129 -30.999c-37.333 -9.33301 -68.333 -14 -93 -14c-34 0 -62 8 -84 24c-47.333 34.667 -71 72 -71 112
c0 50 36 106.667 108 170c38 34 90 73 156 117c42 28 101 65.333 177 112l67 42l59 39c88 57.333 149 109.666 183 156.999c-84.667 0 -222.667 -51.333 -414 -154c-137.333 -73.333 -257.333 -153.666 -360 -240.999c-115.333 -98 -183.333 -185 -204 -261
c-2.66699 -11.333 -4 -21.666 -4 -30.999c0 -62 39.333 -117.333 118 -166c20 -11.333 40.833 -19.5 62.5 -24.5s45.834 -7.5 72.501 -7.5c-4.66699 0 53.333 6.66699 174 20c24 2.66699 37.333 3.66699 40 3l22 -1c23.333 -2 35 -19.333 35 -52c0 -22 -15.333 -50 -46 -84
s-67.334 -67.333 -110.001 -100l-142 -109l-171 -126l-90 -60l-31 -9c-10.667 -0.666992 -22.667 -1.66699 -36 -3c-4 -0.666992 -10 -1 -18 -1h-28c-78 0 -175.667 22.667 -293 68c34 44.667 59.667 97.334 77 158.001c12 42 19 96.667 21 164
c3.33301 94 5.66602 149.333 6.99902 166c11.333 101.333 58.666 195.333 141.999 282l-12 20c-148 -46 -245.667 -152 -293 -318c-14.667 -52.667 -22 -101.667 -22 -147c0 -236.667 -66 -379 -198 -427l-70 -37l34 -4h27c63.333 0 125 18.333 185 55
c144.667 -40 272 -60 382 -60c16 0 31 0.666992 45 2c9.33301 -1.33301 24.333 -1.33301 45 0l22 2c56.667 7.33301 104 21 142 41c104.667 55.333 184 114.666 238 177.999zM919.002 1143c-0.666992 -2.66699 -1.66699 -7.33301 -3 -14c-1.33301 -4 -3.33301 -6 -6 -6
c-4.66699 0 -9.5 9 -14.5 27s-6.83301 33 -5.5 45c0 4 1.33301 10.333 4 19c10 32.667 25.333 58.667 46 78c8 8 37 29.667 87 65c70 50 151 94.667 243 134c128 54.667 219 79.667 273 75c-24.667 -28.667 -66.667 -58.667 -126 -90l-85 -45l-119 -61
c-44.667 -24.667 -80 -46.667 -106 -66c-16 -11.333 -40.667 -33.333 -74 -66c-6.66699 -6 -16.667 -16 -30 -30c-4.66699 -6.66699 -13.334 -16.667 -26.001 -30c-35.333 -36 -54 -54 -56 -54c-3.33301 0 -4.66602 3 -3.99902 9c0 4 0.666992 7.33301 2 10z" />
    <glyph glyph-name="uFB57" unicode="&#x67e;" horiz-adv-x="1026" arabic-form="final" 
d="M1066 -13l-32.999 -0.000976562c-116 0 -211.333 18.333 -286 55c-62 -36.667 -138.333 -55 -229 -55h-20c-116.667 0 -212.334 18.333 -287.001 55c-33.333 -19.333 -62.5 -33.166 -87.5 -41.499s-56.833 -12.5 -95.5 -12.5h-28l-34 4l71 37
c131.333 48 197 190.333 197 427c0 45.333 7.33301 94.333 22 147c48 166 145.667 272 293 318l13 -20c-84 -86.667 -131.333 -180.667 -142 -282c-5.33301 -47.333 -8 -105.333 -8 -174c0 -56 -7 -108.333 -21 -157c-16.667 -59.333 -42.667 -112 -78 -158
c37.333 -20 80 -36.667 128 -50l57 -10h26l12 3l25 8c66 22 117.667 66 155 132c35.333 62.667 53 143.667 53 243c0 45.333 7.66699 94.333 23 147c47.333 166 144.666 272 291.999 318l13 -20c-83.333 -86.667 -130.666 -180.667 -141.999 -282
c-4.66699 -47.333 -7 -105.333 -7 -174c0 -56 -7 -108.333 -21 -157c-16.667 -59.333 -42.667 -112 -78 -158c36.667 -20 79 -36.667 127 -50l57 -10h33v-83zM341.001 -378.001c0 29.333 14.335 52.332 43.002 68.999c24 14 51.333 21 82 21
c33.333 0 62.666 -8.16699 87.999 -24.5s38 -37.833 38 -64.5c0 -27.333 -14.667 -49.666 -44 -66.999c-24.667 -14 -51.667 -21 -81 -21c-18 0 -34.667 2 -50 6c-28.667 8.66699 -50.334 23.667 -65.001 45c-7.33301 10.667 -11 22.667 -11 36zM193.003 -222.002
c0 28.667 14.332 51.667 42.999 69c24 14 51.667 21 83 21c32.667 0 61.834 -8.33301 87.501 -25s38.5 -38 38.5 -64c0 -28 -14.667 -50.333 -44 -67c-24.667 -14.667 -52 -22 -82 -22c-18 0 -34.667 2.33301 -50 7c-24 7.33301 -44 20 -60 38c-10.667 12.667 -16 27 -16 43
zM454.002 -224.002c0 29.333 14.332 52.332 42.999 68.999c24 14 51.667 21 83 21c32.667 0 61.834 -8.16699 87.501 -24.5s38.5 -37.833 38.5 -64.5c0 -27.333 -14.667 -49.666 -44 -66.999c-24.667 -14 -52 -21 -82 -21c-18 0 -34.667 2 -50 6
c-28 8.66699 -49.333 23.667 -64 45c-8 10.667 -12 22.667 -12 36z" />
    <glyph glyph-name="uFB58" unicode="&#x67e;" horiz-adv-x="451" arabic-form="initial" 
d="M-24 6l0.000976562 64h37l13 3l24 8c66 22 118 66 156 132c35.333 62.667 53 143.667 53 243c0 45.333 7.66699 94.333 23 147c47.333 166 144.666 272 291.999 318l13 -20c-84 -86.667 -131.333 -180.667 -142 -282c-5.33301 -47.333 -8 -105.5 -8 -174.5
s-11.333 -134.833 -34 -197.5c-63.333 -173.333 -195 -260 -395 -260h-32v25v-6zM170.001 -378c0 29.333 14.333 52.333 43 69c24 14 51.333 21 82 21c33.333 0 62.666 -8.16699 87.999 -24.5s38 -37.833 38 -64.5c0 -27.333 -14.667 -49.666 -44 -66.999
c-24.667 -14 -51.667 -21 -81 -21c-18 0 -34.667 2 -50 6c-25.333 7.33301 -45.666 20.666 -60.999 39.999c-10 12 -15 25.667 -15 41zM22.001 -222c0 28.667 14.332 51.667 42.999 69c24 14 51.667 21 83 21c32.667 0 61.834 -8.33301 87.501 -25s38.5 -38 38.5 -64
c0 -28 -14.667 -50.333 -44 -67c-24.667 -14.667 -52 -22 -82 -22c-18 0 -34.667 2.33301 -50 7c-20.667 6 -39 17.333 -55 34c-14 13.333 -21 29 -21 47zM283 -224c0 29.333 14.332 52.332 42.999 68.999c24 14 51.667 21 83 21c32.667 0 61.834 -8.16699 87.501 -24.5
s38.5 -37.833 38.5 -64.5c0 -27.333 -14.667 -49.666 -44 -66.999c-24.667 -14 -52 -21 -82 -21c-18 0 -34.667 2 -50 6c-24.667 7.33301 -44.667 20.333 -60 39c-10.667 12.667 -16 26.667 -16 42z" />
    <glyph glyph-name="uFB59" unicode="&#x67e;" horiz-adv-x="523" arabic-form="medial" 
d="M-24 70h37l13 3l24 8c66 22 118 66 156 132c35.333 62.667 53 143.667 53 243c0 45.333 7.66699 94.333 23 147c47.333 166 144.666 272 291.999 318l13 -20c-83.333 -86.667 -130.666 -180.667 -141.999 -282c-5.33301 -47.333 -8 -105.333 -8 -174
c0 -56 -6.66699 -108.333 -20 -157c-16.667 -59.333 -43 -112 -79 -158c37.333 -20 80 -36.667 128 -50l57 -10h33v-83h-33c-116.667 0 -212 18.333 -286 55c-62 -36.667 -138.333 -55 -229 -55h-32v83zM179 -378c0 29.333 14.334 52.3311 43.001 68.998
c24 14 51.333 21 82 21c33.333 0 62.666 -8.16699 87.999 -24.5s38 -37.833 38 -64.5c0 -27.333 -14.667 -49.666 -44 -66.999c-24.667 -14 -51.667 -21 -81 -21c-18 0 -34.667 2 -50 6c-29.333 8.66699 -51 24 -65 46c-7.33301 10.667 -11 22.334 -11 35.001z
M31.001 -222.002c0 28.667 14.332 51.667 42.999 69c24 14 51.667 21 83 21c32.667 0 61.834 -8.33301 87.501 -25s38.5 -38 38.5 -64c0 -28 -14.667 -50.333 -44 -67c-24.667 -14.667 -52 -22 -82 -22c-18 0 -34.667 2.33301 -50 7c-26 7.33301 -46.333 21 -61 41
c-10 12 -15 25.333 -15 40zM292 -224.002c0 29.333 14.333 52.3311 43 68.998c24 14 51.667 21 83 21c32.667 0 61.834 -8.16699 87.501 -24.5s38.5 -37.833 38.5 -64.5c0 -27.333 -14.667 -49.666 -44 -66.999c-24.667 -14 -52 -21 -82 -21c-18 0 -34.667 2 -50 6
c-28.667 8.66699 -50.334 24 -65.001 46c-7.33301 10.667 -11 22.334 -11 35.001z" />
    <glyph glyph-name="uFB7B" unicode="&#x686;" arabic-form="final" 
d="M787 -13l-33 -0.00585938c-121.333 0 -218.333 19.333 -291 58h-28l-30 1c-31.333 0.666992 -58.666 -1.66602 -81.999 -6.99902c-64.667 -16 -106.334 -55 -125.001 -117c-9.33301 -28.667 -14 -63 -14 -103c0 -28.667 17.667 -53 53 -73s79 -34.667 131 -44l159 -29
c89.333 -16 145.333 -33 168 -51c9.33301 -7.33301 14 -15.333 14 -24c0 -20 -7.33301 -39.333 -22 -58c-20.667 -25.333 -54.334 -50.666 -101.001 -75.999h-27l-15 19c19.333 22.667 29 42.334 29 59.001c0 28.667 -26.333 46 -79 52l-137 16
c-131.333 16 -225.666 43.667 -282.999 83c-45.333 31.333 -68 77 -68 137c0 71.333 28.667 131.333 86 180c32.667 27.333 73.667 50 123 68l58 21c80 28.667 136.167 70.167 168.5 124.5s48.5 131.833 48.5 232.5c0 60.667 11 122.334 33 185.001
c30.667 88.667 80.334 159 149.001 211c-21.333 -4 -49.333 -11 -84 -21c-28.667 -8.66699 -55.334 -19.334 -80.001 -32.001c-90.667 -45.333 -136 -108.666 -136 -189.999c0 -102 -41.333 -198.333 -124 -289c-58 -63.333 -122 -106.666 -192 -129.999l-13 20
c84 86.667 132 173.667 144 261c4 29.333 6 79 6 149c0 104.667 69 185.334 207 242.001c95.333 39.333 222.666 59 381.999 59h23l13 -20c-83.333 -86.667 -130.666 -180.667 -141.999 -282c-4.66699 -47.333 -7 -105.333 -7 -174c0 -56 -7 -108.333 -21 -157
c-16.667 -59.333 -42.667 -112 -78 -158c36.667 -20 79 -36.667 127 -50l57 -10h33v-83zM368 -243.006c0 29.333 14.334 52.332 43.001 68.999c24 14 51.333 21 82 21c33.333 0 62.666 -8.16699 87.999 -24.5s38 -37.833 38 -64.5c0 -27.333 -14.667 -49.666 -44 -66.999
c-24.667 -14 -51.667 -21 -81 -21c-18 0 -34.667 2 -50 6c-24.667 7.33301 -44.667 20.333 -60 39c-10.667 12.667 -16 26.667 -16 42zM230.001 -87.0068c0 28.667 14.333 51.667 43 69c24 14 51.667 21 83 21c32.667 0 61.834 -8.33301 87.501 -25s38.5 -38 38.5 -64
c0 -28 -14.667 -50.333 -44 -67c-24.667 -14.667 -52 -22 -82 -22c-18 0 -34.667 2.33301 -50 7c-28.667 8.66699 -50.334 23.667 -65.001 45c-7.33301 11.333 -11 23.333 -11 36zM481.001 -89.0068c0 29.333 14.333 52.3311 43 68.998c24 14 51.667 21 83 21
c32.667 0 61.834 -8.16699 87.501 -24.5s38.5 -37.833 38.5 -64.5c0 -27.333 -14.667 -49.666 -44 -66.999c-24.667 -14 -52 -21 -82 -21c-18 0 -34.667 2 -50 6c-28.667 8.66699 -50.334 24 -65.001 46c-7.33301 10.667 -11 22.334 -11 35.001z" />
    <glyph glyph-name="uFB7C" unicode="&#x686;" arabic-form="initial" 
d="M-24 6l-0.00390625 64.001h135c46.667 0 85.334 4.66699 116.001 14c9.33301 2.66699 25 7.66699 47 15c82 28.667 140 74 174 136c28 52.667 42 126.334 42 221.001c0 61.333 11 123.333 33 186c30.667 88.667 80.334 158.667 149.001 210
c-116 -20.667 -198.667 -57.334 -248 -110.001c-27.333 -30 -44.666 -72.667 -51.999 -128c-11.333 -80.667 -19 -127.334 -23 -140.001c-47.333 -143.333 -145 -238 -293 -284l-13 20c84 86.667 132 173.667 144 261c4 29.333 6 79 6 149c0 108.667 76.333 189.667 229 243
c108 38.667 228 58 360 58h23l13 -20c-83.333 -86.667 -130.666 -180.667 -141.999 -282c-4.66699 -47.333 -7 -105.333 -7 -174c0 -130.667 -36.667 -239.334 -110 -326.001l-85 -72c-28.667 -17.333 -63 -28.666 -103 -33.999l-130 -18l-94 -5l-100 -3h-71v25v-6z
M196.996 -377.999c0 29.333 14.333 52.333 43 69c24 14 51.333 21 82 21c33.333 0 62.666 -8.16699 87.999 -24.5s38 -37.833 38 -64.5c0 -27.333 -14.667 -49.666 -44 -66.999c-24.667 -14 -51.667 -21 -81 -21c-18 0 -34.667 2 -50 6
c-25.333 7.33301 -45.666 20.666 -60.999 39.999c-10 12 -15 25.667 -15 41zM48.9961 -221.999c0 28.667 14.332 51.667 42.999 69c24 14 51.667 21 83 21c32.667 0 61.834 -8.33301 87.501 -25s38.5 -38 38.5 -64c0 -28 -14.667 -50.333 -44 -67
c-24.667 -14.667 -52 -22 -82 -22c-18 0 -34.667 2.33301 -50 7c-20.667 6 -39 17.333 -55 34c-14 13.333 -21 29 -21 47zM309.995 -223.999c0 29.333 14.332 52.332 42.999 68.999c24 14 51.667 21 83 21c32.667 0 61.834 -8.16699 87.501 -24.5s38.5 -37.833 38.5 -64.5
c0 -27.333 -14.667 -49.666 -44 -66.999c-24.667 -14 -52 -21 -82 -21c-18 0 -34.667 2 -50 6c-24.667 7.33301 -44.667 20.333 -60 39c-10.667 12.667 -16 26.667 -16 42z" />
    <glyph glyph-name="uFB7D" unicode="&#x686;" arabic-form="medial" 
d="M787 70l-32.9971 -0.00195312l-57 10c-48 13.333 -90.333 30 -127 50c35.333 46 61.333 98.667 78 158c14 48.667 21 101 21 157c0 140.667 15 243.334 45 308.001c23.333 50.667 58 100 104 148l-13 20h-23c-132 0 -252 -19.333 -360 -58
c-152.667 -53.333 -229 -134.333 -229 -243c0 -70 -2 -119.667 -6 -149c-12 -87.333 -60 -174.333 -144 -261l13 -20c148 46 245.667 140.667 293 284c4 12.667 11.667 59.334 23 140.001c7.33301 55.333 24.666 98 51.999 128c49.333 52.667 132 89.334 248 110.001
c-68.667 -51.333 -118.334 -121.333 -149.001 -210c-22 -62.667 -33 -124.667 -33 -186c0 -94.667 -14 -168.334 -42 -221.001c-34 -62 -92 -107.333 -174 -136c-36.667 -12.667 -66.334 -21 -89.001 -25c-15.333 -2.66699 -40 -4 -74 -4h-135v-83h71l100 3l94 5l125 17
c40.667 5.33301 74.667 15.333 102 30c74.667 -36.667 170 -55 286 -55h33v83zM233.003 -378.002c0 29.333 14.334 52.332 43.001 68.999c24 14 51.333 21 82 21c33.333 0 62.666 -8.16699 87.999 -24.5s38 -37.833 38 -64.5c0 -27.333 -14.667 -49.666 -44 -66.999
c-24.667 -14 -51.667 -21 -81 -21c-18 0 -34.667 2 -50 6c-26.667 8 -47.667 22 -63 42c-8.66699 12 -13 25 -13 39zM85.0039 -222.003c0 28.667 14.332 51.667 42.999 69c24 14 51.667 21 83 21c32.667 0 61.834 -8.33301 87.501 -25s38.5 -38 38.5 -64
c0 -28 -14.667 -50.333 -44 -67c-24.667 -14.667 -52 -22 -82 -22c-18 0 -34.667 2.33301 -50 7c-23.333 6.66699 -43 19 -59 37c-11.333 13.333 -17 28 -17 44zM346.003 -224.003c0 29.333 14.333 52.332 43 68.999c24 14 51.667 21 83 21
c32.667 0 61.834 -8.16699 87.501 -24.5s38.5 -37.833 38.5 -64.5c0 -27.333 -14.667 -49.666 -44 -66.999c-24.667 -14 -52 -21 -82 -21c-18 0 -34.667 2 -50 6c-26.667 8 -47.334 22 -62.001 42c-9.33301 12 -14 25 -14 39z" />
    <glyph glyph-name="uFB8B" unicode="&#x698;" horiz-adv-x="734" arabic-form="final" 
d="M754 -13l-33.002 0.000976562c-69.333 0 -132.666 7 -189.999 21c-29.333 -160.667 -100.333 -282.667 -213 -366c-107.333 -79.333 -244.666 -119 -411.999 -119l233 141c74 45.333 129.333 102.666 166 171.999c42 79.333 63 188.333 63 327
c0 108.667 10.667 198.334 32 269.001c60.667 206 216.667 309 468 309c-112.667 -82.667 -188 -144.334 -226 -185.001c-44.667 -46.667 -72.667 -98.667 -84 -156c-4.66699 -23.333 -8.66699 -102.333 -12 -237l-1 -38c47.333 -24.667 88.333 -40 123 -46l53 -9h33v-83z
M741.998 1192c0 -29.333 -14.332 -52.333 -42.999 -69c-24 -14 -51.667 -21 -83 -21c-32.667 0 -61.834 8.16699 -87.501 24.5s-38.5 37.833 -38.5 64.5c0 27.333 14.667 49.333 44 66c24.667 14.667 52 22 82 22c18 0 34.667 -2.33301 50 -7c26 -7.33301 46.667 -21 62 -41
c9.33301 -12 14 -25 14 -39zM888.999 1021c0 -29.333 -14.335 -52.334 -43.002 -69.001c-23.333 -14 -50.666 -21 -81.999 -21c-33.333 0 -62.666 8.16699 -87.999 24.5s-38 37.833 -38 64.5c0 27.333 14.667 49.333 44 66c24.667 14.667 51.667 22 81 22
c18 0 35 -2.33301 51 -7c21.333 -6 40 -17.333 56 -34c12.667 -13.333 19 -28.666 19 -45.999zM627.997 1023c0 -28.667 -14.335 -51.667 -43.002 -69c-23.333 -14 -50.666 -21 -81.999 -21c-33.333 0 -62.666 8.33301 -87.999 25s-38 38 -38 64c0 28 14.667 50.333 44 67
c24.667 14.667 51.667 22 81 22c18 0 35 -2.33301 51 -7c21.333 -6.66699 40 -18 56 -34c12.667 -14 19 -29.667 19 -47z" />
    <glyph glyph-name="uFEDA" unicode="&#x6a9;" horiz-adv-x="1496" arabic-form="final" 
d="M1528 70l-33 -0.00195312l-94 11c-94 10.667 -173.333 39 -238 85c-16 12 -28.333 25.333 -37 40c7.33301 8.66699 47.333 40.334 120 95.001c66.667 50 117.667 97 153 141c50 63.333 75 125.333 75 186c0 76 -23.333 114 -70 114
c-12 -1.33301 -55 -11.666 -129 -30.999c-37.333 -9.33301 -68.333 -14 -93 -14c-34 0 -62 8 -84 24c-47.333 34.667 -71 72 -71 112c0 50 36 106.667 108 170c38 34 90 73 156 117c42 28 101 65.333 177 112l67 42l59 39c88 57.333 149 109.666 183 156.999
c-84.667 0 -222.667 -51.333 -414 -154c-137.333 -73.333 -257.333 -153.666 -360 -240.999c-115.333 -98 -183.333 -185 -204 -261c-2.66699 -11.333 -4 -21.666 -4 -30.999c0 -62 39.333 -117.333 118 -166c20 -11.333 40.833 -19.5 62.5 -24.5s45.834 -7.5 72.501 -7.5
c-4.66699 0 53.333 6.66699 174 20c24 2.66699 37.333 3.66699 40 3l22 -1c23.333 -2 35 -19.333 35 -52c0 -22 -15.333 -50 -46 -84s-67.334 -67.333 -110.001 -100l-142 -109l-171 -126l-90 -60l-31 -9c-10.667 -0.666992 -22.667 -1.66699 -36 -3
c-4 -0.666992 -10 -1 -18 -1h-28c-78 0 -175.667 22.667 -293 68c34 44 59.667 96.667 77 158c12 42 19 96.667 21 164c3.33301 94 5.66602 149.333 6.99902 166c11.333 101.333 58.666 195.333 141.999 282l-12 20c-148 -46 -245.667 -152 -293 -318
c-14.667 -52.667 -22 -101.667 -22 -147c0 -236.667 -66 -379 -198 -427l-70 -37l34 -4h27c63.333 0 125 18.333 185 55c144.667 -40 272 -60 382 -60c16 0 31 0.666992 45 2c9.33301 -1.33301 24.333 -1.33301 45 0l22 2c56.667 7.33301 104.334 21.166 143.001 41.499
s83 50.5 133 90.5c18.667 -32.667 58.334 -60 119.001 -82c91.333 -33.333 209.333 -50 354 -50h33v83z" />
    <glyph glyph-name="uFEDB" unicode="&#x6a9;" horiz-adv-x="769" arabic-form="initial" 
d="M-24 70l35.002 0.00195312c60.667 37.333 125 81 193 131l79 61l142 109c104 80 156 141.333 156 184c0 32.667 -11.667 50 -35 52l-22 1c-10.667 1.33301 -53.334 -3.66699 -128.001 -15c-36 -5.33301 -64.667 -8 -86 -8c-26.667 0 -50.834 2.5 -72.501 7.5
s-42.5 13.167 -62.5 24.5c-78.667 48.667 -118 104 -118 166c0 9.33301 1.33301 19.666 4 30.999c20.667 76 88.667 163 204 261c102.667 87.333 222.667 167.666 360 240.999c191.333 102.667 329.333 154 414 154c-34 -47.333 -95 -99.666 -183 -156.999l-126 -81
c-76 -46.667 -135 -84 -177 -112c-139.333 -92.667 -223.333 -170.667 -252 -234c-8 -17.333 -12 -35 -12 -53c0 -40 23.667 -77.333 71 -112c22 -16 50 -24 84 -24c18.667 0 78.667 12 180 36c21.333 5.33301 35.333 8.33301 42 9c26.667 0 46 -13.333 58 -40
c8 -18 12 -42.667 12 -74c0 -65.333 -18.667 -123.333 -56 -174c-26 -36.667 -71 -79 -135 -127l-106 -81c-24 -18.667 -43 -34.334 -57 -47.001l-42 -36l-43 -35l-98 -70c-30 -21.333 -61.667 -38.5 -95 -51.5s-65.333 -19.5 -96 -19.5h-32v83z" />
    <glyph glyph-name="uFEDC" unicode="&#x6a9;" horiz-adv-x="769" arabic-form="medial" 
d="M-24 70l35.002 0.00292969c60.667 37.333 125 81 193 131l79 61l142 109c42.667 32.667 79.334 66 110.001 100s46 62 46 84c0 32.667 -11.667 50 -35 52l-22 1c-10.667 1.33301 -53.334 -3.66699 -128.001 -15c-36 -5.33301 -64.667 -8 -86 -8
c-26.667 0 -50.834 2.5 -72.501 7.5s-42.5 13.167 -62.5 24.5c-78.667 48.667 -118 104 -118 166c0 9.33301 1.33301 19.666 4 30.999c20.667 76 88.667 163 204 261c102.667 87.333 222.667 167.666 360 240.999c191.333 102.667 329.333 154 414 154
c-34 -47.333 -95 -99.666 -183 -156.999l-126 -81c-76 -46.667 -135 -84 -177 -112c-139.333 -92.667 -223.333 -170.667 -252 -234c-8 -17.333 -12 -35 -12 -53c0 -40 23.667 -77.333 71 -112c22 -16 50 -24 84 -24c18.667 0 78.667 12 180 36
c21.333 5.33301 35.333 8.33301 42 9c26.667 0 46 -13.333 58 -40c8 -18 12 -42.667 12 -74c0 -60.667 -25 -122.667 -75 -186c-35.333 -44 -86.333 -91 -153 -141c-72.667 -54.667 -112.667 -86.334 -120 -95.001c16 -26.667 47.667 -51.334 95 -74.001
c57.333 -26.667 117.333 -43.667 180 -51l94 -11h33v-83h-33c-75.333 0 -144.333 4.66699 -207 14c-54.667 8.66699 -103.667 20.667 -147 36c-60.667 22 -100.334 49.333 -119.001 82c-110 -88 -202 -132 -276 -132h-32v83z" />
    <glyph glyph-name="uFB93" unicode="&#x6af;" horiz-adv-x="1496" arabic-form="final" 
d="M1528 70l-33 -0.00195312l-94 11c-94 10.667 -173.333 39 -238 85c-16 12 -28.333 25.333 -37 40c7.33301 8.66699 47.333 40.334 120 95.001c66.667 50 117.667 97 153 141c50 63.333 75 125.333 75 186c0 76 -23.333 114 -70 114
c-12 -1.33301 -55 -11.666 -129 -30.999c-37.333 -9.33301 -68.333 -14 -93 -14c-34 0 -62 8 -84 24c-47.333 34.667 -71 72 -71 112c0 50 36 106.667 108 170c38 34 90 73 156 117c42 28 101 65.333 177 112l67 42l59 39c88 57.333 149 109.666 183 156.999
c-84.667 0 -222.667 -51.333 -414 -154c-137.333 -73.333 -257.333 -153.666 -360 -240.999c-115.333 -98 -183.333 -185 -204 -261c-2.66699 -11.333 -4 -21.666 -4 -30.999c0 -62 39.333 -117.333 118 -166c20 -11.333 40.833 -19.5 62.5 -24.5s45.834 -7.5 72.501 -7.5
c-4.66699 0 53.333 6.66699 174 20c24 2.66699 37.333 3.66699 40 3l22 -1c23.333 -2 35 -19.333 35 -52c0 -22 -15.333 -50 -46 -84s-67.334 -67.333 -110.001 -100l-142 -109l-171 -126l-90 -60l-31 -9c-10.667 -0.666992 -22.667 -1.66699 -36 -3
c-4 -0.666992 -10 -1 -18 -1h-28c-78 0 -175.667 22.667 -293 68c34 44 59.667 96.667 77 158c12 42 19 96.667 21 164c3.33301 94 5.66602 149.333 6.99902 166c11.333 101.333 58.666 195.333 141.999 282l-12 20c-148 -46 -245.667 -152 -293 -318
c-14.667 -52.667 -22 -101.667 -22 -147c0 -236.667 -66 -379 -198 -427l-70 -37l34 -4h27c63.333 0 125 18.333 185 55c144.667 -40 272 -60 382 -60c16 0 31 0.666992 45 2c9.33301 -1.33301 24.333 -1.33301 45 0l22 2c56.667 7.33301 104.334 21.166 143.001 41.499
s83 50.5 133 90.5c18.667 -32.667 58.334 -60 119.001 -82c91.333 -33.333 209.333 -50 354 -50h33v83zM919 1134c0 -2.66699 -1 -7.33203 -3 -13.999c-1.33301 -4 -3.33301 -6 -6 -6c-4.66699 0 -9.5 9 -14.5 27s-6.83301 33 -5.5 45c0 3.33301 1.33301 9.66602 4 18.999
c10 32.667 25.333 58.667 46 78c8 8 37 29.667 87 65c70 50 151 94.667 243 134c128 54.667 219 79.667 273 75c-24.667 -28.667 -66.667 -58.667 -126 -90l-85 -45l-119 -61c-44.667 -24.667 -80 -46.667 -106 -66c-15.333 -11.333 -40 -33.333 -74 -66
c-6.66699 -6 -16.667 -16 -30 -30c-4.66699 -6.66699 -13.334 -16.667 -26.001 -30c-35.333 -36 -54 -54 -56 -54c-3.33301 0 -4.66602 3 -3.99902 9c0 4 0.666992 7.33301 2 10z" />
    <glyph glyph-name="uFB94" unicode="&#x6af;" horiz-adv-x="769" arabic-form="initial" 
d="M-24 70l35.002 0.00195312c60.667 37.333 125 81 193 131l79 61l142 109c104 80 156 141.333 156 184c0 32.667 -11.667 50 -35 52l-22 1c-10.667 1.33301 -53.334 -3.66699 -128.001 -15c-36 -5.33301 -64.667 -8 -86 -8c-26.667 0 -50.834 2.5 -72.501 7.5
s-42.5 13.167 -62.5 24.5c-78.667 48.667 -118 104 -118 166c0 9.33301 1.33301 19.666 4 30.999c20.667 76 88.667 163 204 261c102.667 87.333 222.667 167.666 360 240.999c191.333 102.667 329.333 154 414 154c-34 -47.333 -95 -99.666 -183 -156.999l-126 -81
c-76 -46.667 -135 -84 -177 -112c-139.333 -92.667 -223.333 -170.667 -252 -234c-8 -17.333 -12 -35 -12 -53c0 -40 23.667 -77.333 71 -112c22 -16 50 -24 84 -24c18.667 0 78.667 12 180 36c21.333 5.33301 35.333 8.33301 42 9c26.667 0 46 -13.333 58 -40
c8 -18 12 -42.667 12 -74c0 -65.333 -18.667 -123.333 -56 -174c-26 -36.667 -71 -79 -135 -127l-106 -81c-24 -18.667 -43 -34.334 -57 -47.001l-42 -36l-43 -35l-98 -70c-30 -21.333 -61.667 -38.5 -95 -51.5s-65.333 -19.5 -96 -19.5h-32v83zM163.002 1116
c0 -2.66699 -1 -7.33203 -3 -13.999c-1.33301 -4 -3.33301 -6 -6 -6c-4.66699 0 -9.5 9 -14.5 27s-6.83301 33 -5.5 45c0 3.33301 1.33301 9.66602 4 18.999c10 32.667 25.333 58.667 46 78c8 8 37 29.667 87 65c70 50 151 94.667 243 134c128 54.667 219 79.667 273 75
c-24.667 -28.667 -66.667 -58.667 -126 -90l-85 -45l-119 -61c-44.667 -24.667 -80 -46.667 -106 -66c-16 -11.333 -40.667 -33.333 -74 -66c-6.66699 -6 -16.667 -16 -30 -30c-4.66699 -6.66699 -13.334 -16.667 -26.001 -30c-35.333 -36 -54 -54 -56 -54
c-3.33301 0 -4.66602 3 -3.99902 9c0 4 0.666992 7.33301 2 10z" />
    <glyph glyph-name="uFB95" unicode="&#x6af;" horiz-adv-x="769" arabic-form="medial" 
d="M-24 70l35.002 0.00292969c60.667 37.333 125 81 193 131l79 61l142 109c42.667 32.667 79.334 66 110.001 100s46 62 46 84c0 32.667 -11.667 50 -35 52l-22 1c-10.667 1.33301 -53.334 -3.66699 -128.001 -15c-36 -5.33301 -64.667 -8 -86 -8
c-26.667 0 -50.834 2.5 -72.501 7.5s-42.5 13.167 -62.5 24.5c-78.667 48.667 -118 104 -118 166c0 9.33301 1.33301 19.666 4 30.999c20.667 76 88.667 163 204 261c102.667 87.333 222.667 167.666 360 240.999c191.333 102.667 329.333 154 414 154
c-34 -47.333 -95 -99.666 -183 -156.999l-126 -81c-76 -46.667 -135 -84 -177 -112c-139.333 -92.667 -223.333 -170.667 -252 -234c-8 -17.333 -12 -35 -12 -53c0 -40 23.667 -77.333 71 -112c22 -16 50 -24 84 -24c18.667 0 78.667 12 180 36
c21.333 5.33301 35.333 8.33301 42 9c26.667 0 46 -13.333 58 -40c8 -18 12 -42.667 12 -74c0 -60.667 -25 -122.667 -75 -186c-35.333 -44 -86.333 -91 -153 -141c-72.667 -54.667 -112.667 -86.334 -120 -95.001c16 -26.667 47.667 -51.334 95 -74.001
c57.333 -26.667 117.333 -43.667 180 -51l94 -11h33v-83h-33c-75.333 0 -144.333 4.66699 -207 14c-54.667 8.66699 -103.667 20.667 -147 36c-60.667 22 -100.334 49.333 -119.001 82c-110 -88 -202 -132 -276 -132h-32v83zM163.002 1116
c0 -2.66699 -1 -7.33203 -3 -13.999c-1.33301 -4 -3.33301 -6 -6 -6c-4.66699 0 -9.5 9 -14.5 27s-6.83301 33 -5.5 45c0 3.33301 1.33301 9.66602 4 18.999c10 32.667 25.333 58.667 46 78c8 8 37 29.667 87 65c70 50 151 94.667 243 134c128 54.667 219 79.667 273 75
c-24.667 -28.667 -66.667 -58.667 -126 -90l-85 -45l-119 -61c-44.667 -24.667 -80 -46.667 -106 -66c-16 -11.333 -40.667 -33.333 -74 -66c-6.66699 -6 -16.667 -16 -30 -30c-4.66699 -6.66699 -13.334 -16.667 -26.001 -30c-35.333 -36 -54 -54 -56 -54
c-3.33301 0 -4.66602 3 -3.99902 9c0 4 0.666992 7.33301 2 10z" />
    <glyph glyph-name="uFE94" unicode="&#x6c0;" arabic-form="final" 
d="M787 -13l-33.002 -0.000976562c-116 0 -211.333 18.333 -286 55c-27.333 -14.667 -61.333 -24.667 -102 -30l-125 -17l-71 -3c-26 -1.33301 -58.667 0.333984 -98 5.00098l-39 11l49 59c44.667 21.333 76.334 69.333 95.001 144c6 22.667 11 54.667 15 96
c4 46.667 5.66699 89 5 127l-2 83c-1.33301 54.667 -2 89 -2 103c0 108.667 76.333 189.667 229 243c108 38.667 228 58 360 58h23l13 -20c-83.333 -86.667 -130.666 -180.667 -141.999 -282c-4.66699 -47.333 -7 -105.333 -7 -174c0 -56 -7 -108.333 -21 -157
c-16.667 -59.333 -42.667 -112 -78 -158c36.667 -20 79 -36.667 127 -50l57 -10h33v-83zM671.998 851.999c-116 -20.667 -198.668 -57.332 -248.001 -109.999c-35.333 -38.667 -52.666 -83 -51.999 -133l1 -57v-26c0 -7.33301 0.333008 -16.333 1 -27
c0 -124.667 -16 -223.334 -48 -296.001c-22.667 -50.667 -54.334 -90 -95.001 -118l43 14c82 28 140 73.333 174 136c28 53.333 42 127 42 221c0 61.333 11 123.333 33 186c30.667 88.667 80.334 158.667 149.001 210zM556.997 1216l-121.999 -76v131h-58v-135h134v-87h-318
v87h63v105c5.33301 31.333 18.666 57.333 39.999 78c27.333 27.333 64 41 110 41c89.333 0 139 -32 149 -96z" />
    <glyph glyph-name="uFEF2" unicode="&#x6cc;" horiz-adv-x="1665" arabic-form="final" 
d="M1705 12v-25.002h-60c-28 0 -63.333 12.333 -106 37l-79 46c-150.667 110.667 -240 164.334 -268 161.001c-8.66699 -1.33301 -13 -7.66602 -13 -18.999c0 -12.667 7.66699 -39.667 23 -81c29.333 -78 44 -141 44 -189c0 -66 -28.667 -120 -86 -162
c-102 -73.333 -235.333 -119 -400 -137c-80 -8.66699 -166.667 -12.667 -260 -12l-307 4c-63.333 0.666992 -122 6 -176 16c-22 4 -45 9.66699 -69 17l165 49c92 26.667 161.667 59 209 97c60 47.333 99 112 117 194c14 61.333 21 154.333 21 279
c0 188 58.667 317.667 176 389c80 48 187.667 72 323 72l6 -23c-109.333 -58.667 -183 -103 -221 -133c-43.333 -34.667 -70.666 -74 -81.999 -118c-7.33301 -31.333 -11 -93.666 -11 -186.999c0 -162.667 -53 -306.667 -159 -432
c-61.333 -73.333 -134.333 -125.333 -219 -156c92.667 0 186 5.33301 280 16c82 9.33301 162.333 25.333 241 48c76 15.333 152 37.666 228 66.999c45.333 17.333 73 35.333 83 54l4 17c0 9.33301 -18 46.333 -54 111c-20.667 36.667 -36.334 73.667 -47.001 111
c-22.667 81.333 -34 147 -34 197c0 80.667 28 121 84 121c64 0 159.333 -48 286 -144c35.333 -27.333 66 -52.333 92 -75l70 -60c26 -22.667 54.667 -42.667 86 -60l57 -32h56v-64v6z" />
    <glyph glyph-name="uFEF3" unicode="&#x6cc;" horiz-adv-x="451" arabic-form="initial" 
d="M-24 6l0.000976562 64h37l13 3l24 8c66 22 118 66 156 132c35.333 62.667 53 143.667 53 243c0 45.333 7.66699 94.333 23 147c47.333 166 144.666 272 291.999 318l13 -20c-84 -86.667 -131.333 -180.667 -142 -282c-5.33301 -47.333 -8 -105.5 -8 -174.5
s-11.333 -134.833 -34 -197.5c-63.333 -173.333 -195 -260 -395 -260h-32v25v-6zM545.001 -427c0 -29.333 -13.999 -52.334 -41.999 -69.001c-24 -14 -51.667 -21 -83 -21c-32.667 0 -61.834 8.16699 -87.501 24.5s-38.5 37.833 -38.5 64.5c0 24.667 12.333 45.5 37 62.5
s54 25.5 88 25.5s63.5 -8.66699 88.5 -26s37.5 -37.666 37.5 -60.999zM284.002 -426.001c0 -28.667 -13.999 -51.667 -41.999 -69c-24 -14 -51.667 -21 -83 -21c-32.667 0 -61.834 8.33301 -87.501 25s-38.5 38 -38.5 64c0 25.333 12.333 46.5 37 63.5s54 25.5 88 25.5
s63.5 -8.66699 88.5 -26s37.5 -38 37.5 -62z" />
    <glyph glyph-name="uFEF4" unicode="&#x6cc;" horiz-adv-x="523" arabic-form="medial" 
d="M-24 70h37l13 3l24 8c66 22 118 66 156 132c35.333 62.667 53 143.667 53 243c0 45.333 7.66699 94.333 23 147c47.333 166 144.666 272 291.999 318l13 -20c-83.333 -86.667 -130.666 -180.667 -141.999 -282c-5.33301 -47.333 -8 -105.333 -8 -174
c0 -56 -6.66699 -108.333 -20 -157c-16.667 -59.333 -43 -112 -79 -158c37.333 -20 80 -36.667 128 -50l57 -10h33v-83h-33c-116.667 0 -212 18.333 -286 55c-62 -36.667 -138.333 -55 -229 -55h-32v83zM545 -427c0 -29.333 -13.999 -52.334 -41.999 -69.001
c-24 -14 -51.667 -21 -83 -21c-32.667 0 -61.834 8.16699 -87.501 24.5s-38.5 37.833 -38.5 64.5c0 24.667 12.333 45.5 37 62.5s54 25.5 88 25.5s63.5 -8.66699 88.5 -26s37.5 -37.666 37.5 -60.999zM284.001 -426.001c0 -28.667 -13.999 -51.667 -41.999 -69
c-24 -14 -51.667 -21 -83 -21c-32.667 0 -61.834 8.33301 -87.501 25s-38.5 38 -38.5 64c0 25.333 12.333 46.5 37 63.5s54 25.5 88 25.5s63.5 -8.66699 88.5 -26s37.5 -38 37.5 -62z" />
    <glyph glyph-name="Hcircumflex" unicode="&#x622;" horiz-adv-x="534" arabic-form="final" 
d="M571 1452c0 -5.33301 -1.66699 -11.332 -5 -17.999l-20 -44c-7.33301 -16 -22.666 -29 -45.999 -39l-32 -8l-33 -3c-12.667 -0.666992 -35 2.66602 -67 9.99902l-95 22c-21.333 0 -42 -6 -62 -18c-4.66699 -2.66699 -10.334 -4.66699 -17.001 -6
c-10.667 2 -17 8.66699 -19 20c0 8 0.333008 12.667 1 14l4 8l13 32c13.333 34 47 51 101 51c18 0 36.667 -3.33301 56 -10c45.333 -15.333 77 -23 95 -23c24 0 40.667 2.33301 50 7l45 24h10c14 0 21 -6.33301 21 -19zM520 -12.999l-33 -0.000976562
c-114.667 0 -207.667 17.333 -279 52c-78.667 -34.667 -173.667 -52 -285 -52l230 163c73.333 52 128.666 119.667 165.999 203c42 94.667 63 223 63 385c0 128 10.333 233.333 31 316c61.333 241.333 216 362 464 362c-110 -94 -184.667 -165.667 -224 -215
c-43.333 -54.667 -70.666 -115.667 -81.999 -183c-7.33301 -47.333 -11 -140.666 -11 -279.999c0 -277.333 -77.667 -484.333 -233 -621c44 -20.667 81.333 -33.667 112 -39l48 -8h33v-83z" />
    <glyph glyph-name="uFE84" unicode="&#x623;" horiz-adv-x="561" arabic-form="final" 
d="M503 1332l-121.999 -76v131h-58v-135h134v-87h-318v87h63v105c5.33301 31.333 18.666 57.333 39.999 78c27.333 27.333 64 41 110 41c89.333 0 139 -31.667 149 -95zM592.001 -13l-33 -0.000976562c-159.333 0 -276.333 17.333 -351 52
c-78.667 -34.667 -173.667 -52 -285 -52l230 163c73.333 52 128.666 119.667 165.999 203c42 94.667 63 223 63 385c0 128 10.333 233.333 31 316c61.333 241.333 216 362 464 362c-110 -94 -184.667 -165.667 -224 -215c-43.333 -54.667 -70.666 -115.667 -81.999 -183
c-7.33301 -47.333 -11 -140.666 -11 -279.999c0 -277.333 -77.667 -484.333 -233 -621c48 -20.667 98.333 -33.667 151 -39l81 -8h33v-83z" />
    <glyph glyph-name="uFE86" unicode="&#x624;" arabic-form="final" 
d="M498 1117l-122.998 -76v131h-57v-135h134v-87h-318v87h63v105c5.33301 31.333 18.666 57.333 39.999 78c27.333 27.333 63.666 41 108.999 41c89.333 0 139.333 -32 150 -96zM787.002 -13l-33 0.000976562c-80.667 0 -151.667 9 -213 27
c-28.667 -162 -99.334 -285.333 -212.001 -370c-106.667 -80.667 -244.667 -121 -414 -121l214 126c73.333 43.333 127.666 87.666 162.999 132.999c44.667 58.667 72.334 135.667 83.001 231l-55 -9l-71 -8c-26 -2.66699 -52.333 -4 -79 -4
c-36.667 0 -69.334 1.66699 -98.001 5l-39 11l49 59c44.667 21.333 76.334 69.333 95.001 144c6 22.667 11 54.667 15 96c4 46.667 5.66699 89 5 127l-2 83c-1.33301 54.667 -2 89 -2 103c0 108.667 76.333 189.667 229 243c108 38.667 228 58 360 58h23l13 -20
c-83.333 -86.667 -130.666 -180.667 -141.999 -282c-4.66699 -47.333 -7 -105.333 -7 -174c0 -56 -7 -108.333 -21 -157c-16.667 -59.333 -42.667 -112 -78 -158c36.667 -20 79 -36.667 127 -50l57 -10h33v-83zM672.002 852.001
c-116 -20.667 -198.668 -57.332 -248.001 -109.999c-35.333 -38.667 -52.666 -83 -51.999 -133l1 -57v-26c0 -7.33301 0.333008 -16.333 1 -27c0 -124.667 -16 -223.334 -48 -296.001c-22.667 -50.667 -54.334 -90 -95.001 -118l43 14c82 28 140 73.333 174 136
c28 53.333 42 127 42 221c0 61.333 11 123.333 33 186c30.667 88.667 80.334 158.667 149.001 210z" />
    <glyph glyph-name="uFE88" unicode="&#x625;" horiz-adv-x="493" arabic-form="final" 
d="M520 -13l-33 -0.000976562c-114.667 0 -207.667 17.333 -279 52c-78.667 -34.667 -173.667 -52 -285 -52l230 163c73.333 52 128.666 119.667 165.999 203c42 94.667 63 223 63 385c0 128 10.333 233.333 31 316c61.333 241.333 216 362 464 362
c-110 -94 -184.667 -165.667 -224 -215c-43.333 -54.667 -70.666 -115.667 -81.999 -183c-7.33301 -47.333 -11 -140.666 -11 -279.999c0 -277.333 -77.667 -484.333 -233 -621c44 -20.667 81.333 -33.667 112 -39l48 -8h33v-83zM388 -253.001l-122.999 -74.999v131h-57
v-135h134v-86h-318v86h63v105c5.33301 31.333 18.666 57.666 39.999 78.999c27.333 26.667 64 40 110 40c89.333 0 139 -31.667 149 -95z" />
    </font>
</defs>
</svg>
