<?xml version="1.0" standalone="no"?>
<!DOCTYPE svg PUBLIC "-//W3C//DTD SVG 1.1//EN" "http://www.w3.org/Graphics/SVG/1.1/DTD/svg11.dtd" >
<svg>
<metadata>
Created by FontForge 20090914 at Wed Oct 19 01:46:24 2011
 By www-data
(c) by Abolfazl Seilsepour - +98 912 591 3420  -  seilsepor@yahoo.com
</metadata>
<defs>
<font id="Far.SinaBold" horiz-adv-x="0" >
  <font-face 
    font-family="Far.Sina"
    font-weight="700"
    font-stretch="normal"
    units-per-em="2048"
    panose-1="0 0 7 0 0 0 0 0 0 0"
    ascent="1638"
    descent="-410"
    bbox="-430 -1196 2878 2321"
    underline-thickness="100"
    underline-position="-550"
    unicode-range="U+0020-U+FEFC"
  />
<missing-glyph horiz-adv-x="1024" 
d="M128 0v1359h768v-1359h-768zM256 128h512v1103h-512v-1103z" />
    <glyph glyph-name="uE818" unicode="&#x651;&#x64b;" 
d="M447 1841c4 -20 6.00098 -39 6.00098 -57c0 -44 -9 -81 -27 -111c-22 -36.667 -54 -55 -96 -55c-40 0 -67 19.667 -81 59c-22 -60 -61.667 -90 -119 -90c-55.333 0 -83 36 -83 108c0 32 6.66699 61.667 20 89c7.33301 16 17.333 24 30 24
c18.667 0 26.334 -13.333 23.001 -40c-6 -50.667 5.33301 -76 34 -76c42 0 68.333 37 79 111c3.33301 24.667 13.666 37 30.999 37c15.333 0 23.666 -11.333 24.999 -34c2 -57.333 20 -86 54 -86c38.667 0 53 36.333 43 109c-0.666992 4 -1 8.33301 -1 13c0 26 9 39 27 39
s29.667 -13.333 35 -40zM382.001 2134l-331 -103c-4 -1.33301 -8.33301 -2 -13 -2c-25.333 0 -38 13.667 -38 41c0 20 12 34 36 42l319 101c6 2 12 3 18 3c28.667 0 43 -14 43 -42c0 -19.333 -11.333 -32.666 -34 -40zM390.001 1960l-330 -103
c-4 -1.33301 -8.33301 -2 -13 -2c-25.333 0 -38 13.667 -38 41c0 20.667 11.667 34.667 35 42l319 101c5.33301 2 11.333 3 18 3c29.333 0 44 -13.667 44 -41c0 -20 -11.667 -33.667 -35 -41z" />
    <glyph glyph-name="uFC5E" unicode="&#x651;&#x64c;" arabic-form="isolated" 
d="M468 1856c4 -20 6.00098 -39 6.00098 -57c0 -44 -9 -81 -27 -111c-22 -36.667 -54 -55 -96 -55c-40 0 -67 19.667 -81 59c-22 -60 -61.667 -90 -119 -90c-55.333 0 -83 36 -83 108c0 32 6.66699 61.667 20 89c7.33301 16 17.333 24 30 24
c18.667 0 26.334 -13.333 23.001 -40c-6 -50.667 5.33301 -76 34 -76c42 0 68.333 37 79 111c3.33301 24.667 13.666 37 30.999 37c15.333 0 23.666 -11.333 24.999 -34c2 -57.333 20 -86 54 -86c38.667 0 53 36.333 43 109c-0.666992 4 -1 8.33301 -1 13c0 26 9 39 27 39
s29.667 -13.333 35 -40zM487.001 2224c0 -60.667 -29 -113.001 -87 -157.001c20.667 -14.667 31 -30 31 -46c0 -19.333 -11.333 -29 -34 -29c-18 0 -37.333 8 -58 24c-126 -66.667 -214.333 -100 -265 -100c-30 0 -45 12.333 -45 37c0 20 12 33 36 39
c38.667 10.667 58 33.334 58 68.001c0 16 -11 24 -33 24c-16 0 -31.333 -4.33301 -46 -13c-8.66699 -5.33301 -16 -8 -22 -8c-14 0 -21 7.33301 -21 22c0 11.333 5.33301 22.666 16 33.999c24 23.333 53.667 35 89 35c52.667 0 79 -24 79 -72c0 -17.333 -5 -36.333 -15 -57
c33.333 12.667 67 29.667 101 51.001c-25.333 26 -38 55.333 -38 88c0 40 14.833 76.167 44.5 108.5s64.167 48.5 103.5 48.5c28 0 52.667 -9.16699 74 -27.5s32 -41.5 32 -69.5zM411.001 2195c0 32.667 -15.667 48.999 -47 48.999c-15.333 0 -29.333 -7.5 -42 -22.5
s-19 -30.5 -19 -46.5c0 -25.333 13.333 -45.333 40 -60c15.333 4.66699 30.5 15.334 45.5 32.001s22.5 32.667 22.5 48z" />
    <glyph glyph-name="uFC5F" unicode="&#x651;&#x64d;" arabic-form="isolated" 
d="M461 2190c4 -20 6.00098 -39 6.00098 -57c0 -44 -9 -81 -27 -111c-22 -36.667 -54 -55 -96 -55c-40 0 -67 19.667 -81 59c-22 -60 -61.667 -90 -119 -90c-55.333 0 -83 36 -83 108c0 32 6.66699 61.667 20 89c7.33301 16 17.333 24 30 24
c18.667 0 26.334 -13.333 23.001 -40c-6 -50.667 5.33301 -76 34 -76c42 0 68.333 37 79 111c3.33301 24.667 13.666 37 30.999 37c15.333 0 23.666 -11.333 24.999 -34c2 -57.333 20 -86 54 -86c38.667 0 53 36.333 43 109c-0.666992 4 -1 8.33301 -1 13c0 26 9 39 27 39
s29.667 -13.333 35 -40zM440.001 1809l-331.001 -104c-3.33301 -0.666992 -7.66602 -1 -12.999 -1c-24.667 0 -37 13.333 -37 40c0 20.667 12 34.667 36 42l319 102c5.33301 1.33301 11.333 2 18 2c28.667 0 43 -13.667 43 -41c0 -20 -11.667 -33.333 -35 -40zM448 1643
l-330 -103c-4 -0.666992 -8.33301 -1 -13 -1c-25.333 0 -38 13 -38 39c0 20.667 11.667 34.667 35 42l320 103c5.33301 1.33301 11.333 2 18 2c28.667 0 43 -13.667 43 -41c0 -20 -11.667 -33.667 -35 -41z" />
    <glyph glyph-name="uFC60" unicode="&#x651;&#x64e;" arabic-form="isolated" 
d="M461 1853c4 -20 6.00098 -39 6.00098 -57c0 -44 -9 -81 -27 -111c-22 -36.667 -54 -55 -96 -55c-40 0 -67 19.667 -81 59c-22 -60 -61.667 -90 -119 -90c-55.333 0 -83 36 -83 108c0 32 6.66699 61.667 20 89c7.33301 16 17.333 24 30 24
c18.667 0 26.334 -13.333 23.001 -40c-6 -50.667 5.33301 -76 34 -76c42 0 68.333 37 79 111c3.33301 24.667 13.666 37 30.999 37c15.333 0 23.666 -11.333 24.999 -34c2 -57.333 20 -86 54 -86c38.667 0 53 36.333 43 109c-0.666992 4 -1 8.33301 -1 13c0 26 9 39 27 39
s29.667 -13.333 35 -40zM419.001 2034l-330 -103c-4 -1.33301 -8.33301 -2 -13 -2c-25.333 0 -38 13.667 -38 41c0 20.667 11.667 34.667 35 42l319 101c5.33301 2 11.333 3 18 3c29.333 0 44 -13.667 44 -41c0 -20 -11.667 -33.667 -35 -41z" />
    <glyph glyph-name="uFC61" unicode="&#x651;&#x64f;" arabic-form="isolated" 
d="M475 1850c4 -20 6.00098 -39 6.00098 -57c0 -44 -9 -81 -27 -111c-22 -36.667 -54 -55 -96 -55c-40 0 -67 19.667 -81 59c-22 -60 -61.667 -90 -119 -90c-55.333 0 -83 36 -83 108c0 32 6.66699 61.667 20 89c7.33301 16 17.333 24 30 24
c18.667 0 26.334 -13.333 23.001 -40c-6 -50.667 5.33301 -76 34 -76c42 0 68.333 37 79 111c3.33301 24.667 13.666 37 30.999 37c15.333 0 23.666 -11.333 24.999 -34c2 -57.333 20 -86 54 -86c38.667 0 53 36.333 43 109c-0.666992 4 -1 8.33301 -1 13c0 26 9 39 27 39
s29.667 -13.333 35 -40zM496.001 2192c0 -60.667 -29.001 -113 -87.001 -157c20.667 -14.667 31 -30 31 -46c0 -19.333 -11.333 -29 -34 -29c-18 0 -37.333 8 -58 24c-126 -66.667 -214.333 -100 -265 -100c-30 0 -45 12.333 -45 37c0 20 12 33 36 39
c84.667 22.667 153.334 50.667 206.001 84c-25.333 26 -38 55.333 -38 88c0 40 14.833 76.167 44.5 108.5s64.167 48.5 103.5 48.5c28 0 52.667 -9.16699 74 -27.5s32 -41.5 32 -69.5zM420 2163c0 32.667 -15.667 49 -47 49c-15.333 0 -29.333 -7.5 -42 -22.5
s-19 -30.5 -19 -46.5c0 -25.333 13.333 -45.333 40 -60c15.333 4.66699 30.5 15.334 45.5 32c15 16.667 22.5 32.667 22.5 48z" />
    <glyph glyph-name="uFC62" unicode="&#x651;&#x650;" arabic-form="isolated" 
d="M454 2064c4 -20 6.00098 -39 6.00098 -57c0 -44 -9 -81 -27 -111c-22 -36.667 -54 -55 -96 -55c-40 0 -67 19.667 -81 59c-22 -60 -61.667 -90 -119 -90c-55.333 0 -83 36 -83 108c0 32 6.66699 61.667 20 89c7.33301 16 17.333 24 30 24
c18.667 0 26.334 -13.333 23.001 -40c-6 -50.667 5.33301 -76 34 -76c42 0 68.333 37 79 111c3.33301 24.667 13.666 37 30.999 37c15.333 0 23.666 -11.333 24.999 -34c2 -57.333 20 -86 54 -86c38.667 0 53 36.333 43 109c-0.666992 4 -1 8.33301 -1 13c0 26 9 39 27 39
s29.667 -13.333 35 -40zM438.001 1679l-330 -103.001c-4 -1.33301 -8.33301 -2 -13 -2c-25.333 0 -38 13.333 -38 40c0 20.667 11.667 34.667 35 42l319 102c5.33301 2 11.333 3 18 3c29.333 0 44 -14 44 -42c0 -19.333 -11.667 -32.666 -35 -39.999z" />
    <glyph glyph-name="uFDF2" unicode="&#xfedf;&#xfee0;&#xfeea;" horiz-adv-x="2437" arabic-form="isolated" 
d="M1904 1413c0 -40.667 -20.667 -61 -62 -61h-450c-41.333 0 -62 20.333 -62 61v225h123v-163h82v163h164v-163h82v163h123v-225zM2437 206c0 -58.667 -19.499 -107.5 -58.499 -146.5s-87.833 -58.5 -146.5 -58.5h-409v207c0 -59.333 -19.5 -108.666 -58.5 -147.999
s-87.833 -59 -146.5 -59h-613c-60.667 0 -110.167 18.5 -148.5 55.5s-57.5 85.5 -57.5 145.5v741h-205v-656h123v-286h-328c-60 0 -109.167 19.167 -147.5 57.5s-57.5 87.166 -57.5 146.499v823c0 60 19.167 108.5 57.5 145.5s87.833 55.5 148.5 55.5h614
c61.333 0 110.666 -19.167 147.999 -57.5s56 -88.5 56 -150.5v-734h205v942h410v-942h205v942h409v-1023z" />
    <glyph glyph-name="uFEF5" unicode="&#xfedf;&#xfe82;" horiz-adv-x="1478" arabic-form="isolated" 
d="M1478 205c0 -58 -19.5 -106.667 -58.5 -146s-87.5 -59 -145.5 -59h-820v287h615v1039h409v-1121zM864 410h-410v894h410v-894zM1348 1407h-614v123h-204v-123h-410v123c0 56.667 20 105 60 145s88.333 60 145 60h613v-123h205v123h205v-328z" />
    <glyph glyph-name="uFEF6" unicode="&#xfee0;&#xfe82;" horiz-adv-x="1478" arabic-form="final" 
d="M1510 1h-32v286h32v-286zM1478 205c0 -58 -19.5 -106.667 -58.5 -146s-87.5 -59 -145.5 -59h-820v287h615v1039h409v-1121zM864 410h-410v894h410v-894zM1348 1407h-614v123h-204v-123h-410v123c0 56.667 20 105 60 145s88.333 60 145 60h613v-123h205v123h205v-328z" />
    <glyph glyph-name="uFEF7" unicode="&#xfedf;&#xfe84;" horiz-adv-x="1218" arabic-form="isolated" 
d="M1218 205c0 -58 -19.5 -106.667 -58.5 -146s-87.5 -59 -145.5 -59h-820v287h615v1259h409v-1341zM604 410h-410v734h410v-734zM611 1234h-412v115h65v113c0 54.667 27.333 82 82 82h216v-114h-134v-81h183v-115z" />
    <glyph glyph-name="uFEF8" unicode="&#xfee0;&#xfe84;" horiz-adv-x="1218" arabic-form="final" 
d="M1218 205c0 -58 -19.5 -106.667 -58.5 -146s-87.5 -59 -145.5 -59h-820v287h615v1259h409v-1341zM604 410h-410v734h410v-734zM611 1234h-412v115h65v113c0 54.667 27.333 82 82 82h216v-114h-134v-81h183v-115zM1250 1h-32v286h32v-286z" />
    <glyph glyph-name="uFEF9" unicode="&#xfedf;&#xfe88;" horiz-adv-x="1218" arabic-form="isolated" 
d="M1218 205c0 -58 -19.5 -106.667 -58.5 -146s-87.5 -59 -145.5 -59h-820v287h615v1259h409v-1341zM604 410h-410v1134h410v-1134zM604 -445h-412v115h65v113c0 54.667 27.333 82 82 82h216v-114h-134v-81h183v-115z" />
    <glyph glyph-name="uFEFA" unicode="&#xfee0;&#xfe88;" horiz-adv-x="1218" arabic-form="final" 
d="M1250 1h-32v286h32v-286zM1218 205c0 -58 -19.5 -106.667 -58.5 -146s-87.5 -59 -145.5 -59h-820v287h615v1259h409v-1341zM604 410h-410v1134h410v-1134zM604 -445h-412v115h65v113c0 54.667 27.333 82 82 82h216v-114h-134v-81h183v-115z" />
    <glyph glyph-name="uFEFB" unicode="&#xfedf;&#xfe8e;" horiz-adv-x="1208" arabic-form="isolated" 
d="M1208 205c0 -58 -19.5 -106.667 -58.5 -146s-87.5 -59 -145.5 -59h-820v287h615v1269h409v-1351zM594 410h-410v1145h410v-1145z" />
    <glyph glyph-name="uFEFC" unicode="&#xfee0;&#xfe8e;" horiz-adv-x="1208" arabic-form="final" 
d="M1208 205c0 -58 -19.5 -106.667 -58.5 -146s-87.5 -59 -145.5 -59h-820v287h615v1269h409v-1351zM594 410h-410v1145h410v-1145zM1240 1h-32v286h32v-286z" />
    <glyph glyph-name="u0652_u064E.liga" unicode="&#x652;&#x64e;" horiz-adv-x="1" 
d="M243 1785l-4 -346.002c0 -3.33301 -0.666992 -7.66602 -2 -12.999c-8 -23.333 -24.667 -31 -50 -23c-19.333 6.66699 -29 22.334 -29 47.001l2 334c0 6 1 12 3 18c9.33301 28 27 37.667 53 29c18.667 -6 27.667 -21.333 27 -46z" />
    <glyph glyph-name="u0652_u064B.liga" unicode="&#x652;&#x64b;" horiz-adv-x="1" 
d="M998 1096c0 -45.333 -15.833 -84 -47.5 -116s-70.167 -48 -115.5 -48s-84 16 -116 48s-48 70.667 -48 116s16 84 48 116s70.667 48 116 48s83.833 -16 115.5 -48s47.5 -70.667 47.5 -116zM670 1096c0 -45.333 -16 -84 -48 -116s-70.667 -48 -116 -48s-84 16 -116 48
s-48 70.667 -48 116c0 44.667 16.167 83.167 48.5 115.5s70.833 48.5 115.5 48.5c45.333 0 84 -16 116 -48s48 -70.667 48 -116z" />
    <glyph glyph-name="u0652_u064D.liga" unicode="&#x652;&#x64d;" horiz-adv-x="1" 
d="M1156 -754c0 -45.333 -15.833 -84 -47.5 -116s-70.167 -48 -115.5 -48s-84 16 -116 48s-48 70.667 -48 116s16 84 48 116s70.667 48 116 48s83.833 -16 115.5 -48s47.5 -70.667 47.5 -116zM828 -754c0 -45.333 -16 -84 -48 -116s-70.667 -48 -116 -48s-84 16 -116 48
s-48 70.667 -48 116c0 44.667 16.167 83.167 48.5 115.5s70.833 48.5 115.5 48.5c45.333 0 84 -16 116 -48s48 -70.667 48 -116z" />
    <glyph glyph-name="u0622" unicode="&#x622;" horiz-adv-x="595" arabic-form="isolated" 
d="M798 1639h-614v123h-204v-123h-410v123c0 56.667 20 105 60 145s88.333 60 145 60h613v-123h205v123h205v-328zM594 1l-205 0.000976562c-57.333 0 -105.833 19.667 -145.5 59s-59.5 87.666 -59.5 144.999v1350h410v-1554z" />
    <glyph glyph-name="u0623" unicode="&#x623;" horiz-adv-x="595" arabic-form="isolated" 
d="M594 1l-205 0.000976562c-57.333 0 -105.833 19.667 -145.5 59s-59.5 87.666 -59.5 144.999v1130h410v-1334zM594 1389h-412v115h65v113c0 54.667 27.333 82 82 82h216v-114h-134v-81h183v-115z" />
    <glyph glyph-name="u0624" unicode="&#x624;" horiz-adv-x="1208" arabic-form="isolated" 
d="M1208 -287c0 -58 -19.499 -106.667 -58.499 -146s-87.5 -59 -145.5 -59h-820v287h615v206h-615v573c0 59.333 19.333 108.166 58 146.499s87.667 57.5 147 57.5h615c59.333 0 108.166 -19.167 146.499 -57.5s57.5 -87.166 57.5 -146.499v-861zM799.001 287v205h-205v-205
h205zM955.001 988h-494v138h78v136c0 65.333 32.667 98 98 98h259v-137h-160v-97h219v-138z" />
    <glyph glyph-name="u0625" unicode="&#x625;" horiz-adv-x="595" arabic-form="isolated" 
d="M594 1l-205 0.000976562c-57.333 0 -105.833 19.667 -145.5 59s-59.5 87.666 -59.5 144.999v1130h410v-1334zM594 -395.999h-412v115h65v113c0 54.667 27.333 82 82 82h216v-114h-134v-81h183v-115z" />
    <glyph glyph-name="u0626" unicode="&#x626;" horiz-adv-x="1618" arabic-form="isolated" 
d="M1618 -287c0 -58 -19.667 -106.667 -59 -146s-88 -59 -146 -59h-1024c-58 0 -106.667 19.667 -146 59s-59 88 -59 146v779h410v-697h614v206h-409v572c0 60 19.167 109.167 57.5 147.5s87.5 57.5 147.5 57.5h614v-286h-410v-205h410v-574zM594 675h-412v115h65v113
c0 54.667 27.333 82 82 82h216v-114h-134v-81h183v-115z" />
    <glyph glyph-name="u0627" unicode="&#x627;" horiz-adv-x="594" arabic-form="isolated" 
d="M594 1l-205 0.000976562c-57.333 0 -105.833 19.667 -145.5 59s-59.5 87.666 -59.5 144.999v1350h410v-1554z" />
    <glyph glyph-name="u0628" unicode="&#x628;" horiz-adv-x="1740" arabic-form="isolated" 
d="M1740 205c0 -57.333 -19.833 -105.666 -59.5 -144.999s-88.167 -59 -145.5 -59h-1146c-57.333 0 -105.833 19.667 -145.5 59s-59.5 87.666 -59.5 144.999v573h410v-491h736v491h410v-573zM1108 -283c0 -45.333 -16 -84 -48 -116s-70.667 -48 -116 -48s-84 16 -116 48
s-48 70.667 -48 116c0 44.667 16.167 83.167 48.5 115.5s70.833 48.5 115.5 48.5c45.333 0 84 -16 116 -48s48 -70.667 48 -116z" />
    <glyph glyph-name="u0629" unicode="&#x629;" horiz-adv-x="1208" arabic-form="isolated" 
d="M1208 207c0 -59.333 -19.332 -108.499 -57.999 -147.499s-87.334 -58.5 -146.001 -58.5h-614c-60.667 0 -110.167 18.5 -148.5 55.5s-57.5 85.5 -57.5 145.5v372c0 59.333 19.333 108.166 58 146.499s87.667 57.5 147 57.5h615c58 0 106.5 -19.5 145.5 -58.5
s58.5 -87.5 58.5 -145.5v-367zM799.001 287.001v205h-205v-205h205zM955.001 988.001h-494v138h78v136c0 65.333 32.667 98 98 98h259v-137h-160v-97h219v-138z" />
    <glyph glyph-name="u062A" unicode="&#x62a;" horiz-adv-x="1740" arabic-form="isolated" 
d="M1740 205c0 -57.333 -19.833 -105.666 -59.5 -144.999s-88.167 -59 -145.5 -59h-1146c-57.333 0 -105.833 19.667 -145.5 59s-59.5 87.666 -59.5 144.999v573h410v-491h736v491h410v-573zM1277 1147c0 -45.333 -15.833 -84 -47.5 -116s-70.167 -48 -115.5 -48
s-84 16 -116 48s-48 70.667 -48 116s16 84 48 116s70.667 48 116 48s83.833 -16 115.5 -48s47.5 -70.667 47.5 -116zM949 1147c0 -45.333 -16 -84 -48 -116s-70.667 -48 -116 -48c-44.667 0 -83.167 16.167 -115.5 48.5s-48.5 70.833 -48.5 115.5c0 45.333 16 84 48 116
s70.667 48 116 48s84 -16 116 -48s48 -70.667 48 -116z" />
    <glyph glyph-name="u062B" unicode="&#x62b;" horiz-adv-x="1740" arabic-form="isolated" 
d="M1740 205c0 -57.333 -19.833 -105.666 -59.5 -144.999s-88.167 -59 -145.5 -59h-1146c-57.333 0 -105.833 19.667 -145.5 59s-59.5 87.666 -59.5 144.999v573h410v-491h736v491h410v-573zM1273 1146c0 45.333 -16 84 -48 116s-70.667 48 -116 48s-84 -16 -116 -48
s-48 -70.667 -48 -116c0 -44.667 16.167 -83.167 48.5 -115.5s70.833 -48.5 115.5 -48.5c45.333 0 84 16 116 48s48 70.667 48 116zM944 1146c0 45.333 -16 84 -48 116s-70.667 48 -116 48s-84 -16 -116 -48s-48 -70.667 -48 -116c0 -44.667 16.167 -83.167 48.5 -115.5
s70.833 -48.5 115.5 -48.5c45.333 0 84 16 116 48s48 70.667 48 116zM1108 1515c0 45.333 -16 84 -48 116s-70.667 48 -116 48s-84 -16 -116 -48s-48 -70.667 -48 -116c0 -44.667 16.167 -83.167 48.5 -115.5s70.833 -48.5 115.5 -48.5c45.333 0 84 16 116 48
s48 70.667 48 116z" />
    <glyph glyph-name="u062C" unicode="&#x62c;" horiz-adv-x="1536" arabic-form="isolated" 
d="M1536 1h-942v-247c0 -53.333 20.833 -100.833 62.5 -142.5s89.167 -62.5 142.5 -62.5v-41h-410c-58 0 -106.667 19.667 -146 59s-59 88 -59 146v369c0 62 18.667 111.667 56 149s87 56 149 56h615v205h-492v286h696c60 0 109.167 -19 147.5 -57s57.5 -87 57.5 -147v-287
h123v-286zM1148 -283c0 -45.333 -16 -84 -48 -116s-70.667 -48 -116 -48s-84 16 -116 48s-48 70.667 -48 116c0 44.667 16.167 83.167 48.5 115.5s70.833 48.5 115.5 48.5c45.333 0 84 -16 116 -48s48 -70.667 48 -116z" />
    <glyph glyph-name="u062D" unicode="&#x62d;" horiz-adv-x="1536" arabic-form="isolated" 
d="M1536 1h-942v-247c0 -53.333 20.833 -100.833 62.5 -142.5s89.167 -62.5 142.5 -62.5v-41h-410c-58 0 -106.667 19.667 -146 59s-59 88 -59 146v369c0 62 18.667 111.667 56 149s87 56 149 56h615v205h-492v286h696c60 0 109.167 -19 147.5 -57s57.5 -87 57.5 -147v-287
h123v-286z" />
    <glyph glyph-name="u062E" unicode="&#x62e;" horiz-adv-x="1536" arabic-form="isolated" 
d="M1536 1h-942v-247c0 -53.333 20.833 -100.833 62.5 -142.5s89.167 -62.5 142.5 -62.5v-41h-410c-58 0 -106.667 19.667 -146 59s-59 88 -59 146v369c0 62 18.667 111.667 56 149s87 56 149 56h615v205h-492v286h696c60 0 109.167 -19 147.5 -57s57.5 -87 57.5 -147v-287
h123v-286zM1148 1148c0 -45.333 -16 -84 -48 -116s-70.667 -48 -116 -48c-44.667 0 -83.167 16.167 -115.5 48.5s-48.5 70.833 -48.5 115.5c0 45.333 16 84 48 116s70.667 48 116 48s84 -16 116 -48s48 -70.667 48 -116z" />
    <glyph glyph-name="u062F" unicode="&#x62f;" horiz-adv-x="1136" arabic-form="isolated" 
d="M1134 206c0 -48.667 -17 -93.333 -51 -134c-40 -47.333 -91.333 -71 -154 -71h-745v286h540v205h-417v286h622c60 0 109.167 -19 147.5 -57s57.5 -87 57.5 -147v-368z" />
    <glyph glyph-name="u0630" unicode="&#x630;" horiz-adv-x="1136" arabic-form="isolated" 
d="M1134 206c0 -48.667 -17 -93.333 -51 -134c-40 -47.333 -91.333 -71 -154 -71h-745v286h540v205h-417v286h622c60 0 109.167 -19 147.5 -57s57.5 -87 57.5 -147v-368zM818 1148c0 -45.333 -16 -84 -48 -116s-70.667 -48 -116 -48c-44.667 0 -83.167 16.167 -115.5 48.5
s-48.5 70.833 -48.5 115.5c0 45.333 16 84 48 116s70.667 48 116 48s84 -16 116 -48s48 -70.667 48 -116z" />
    <glyph glyph-name="u0631" unicode="&#x631;" horiz-adv-x="799" arabic-form="isolated" 
d="M799 -287c0 -58 -19.667 -106.667 -59 -146s-88 -59 -146 -59h-410v287h205v983h410v-1065z" />
    <glyph glyph-name="u0632" unicode="&#x632;" horiz-adv-x="799" arabic-form="isolated" 
d="M799 -287c0 -58 -19.667 -106.667 -59 -146s-88 -59 -146 -59h-410v287h205v983h410v-1065zM758 1148c0 -45.333 -16 -84 -48 -116s-70.667 -48 -116 -48c-44.667 0 -83.167 16.167 -115.5 48.5s-48.5 70.833 -48.5 115.5c0 45.333 16 84 48 116s70.667 48 116 48
s84 -16 116 -48s48 -70.667 48 -116z" />
    <glyph glyph-name="u0633" unicode="&#x633;" horiz-adv-x="2724" arabic-form="isolated" 
d="M2724 206c0 -61.333 -18.833 -110.833 -56.5 -148.5s-87.167 -56.5 -148.5 -56.5h-1024v-288c0 -58 -19.667 -106.667 -59 -146s-88 -59 -146 -59h-901c-58 0 -106.667 19.667 -146 59s-59 88 -59 146v901h410v-819h491v983h410v-491h205v491h409v-491h205v491h410v-572z
" />
    <glyph glyph-name="u0634" unicode="&#x634;" horiz-adv-x="2724" arabic-form="isolated" 
d="M2724 206c0 -61.333 -18.833 -110.833 -56.5 -148.5s-87.167 -56.5 -148.5 -56.5h-1024v-288c0 -58 -19.667 -106.667 -59 -146s-88 -59 -146 -59h-901c-58 0 -106.667 19.667 -146 59s-59 88 -59 146v901h410v-819h491v983h410v-491h205v491h409v-491h205v491h410v-572z
M2235 1147c0 45.333 -16 84 -48 116s-70.667 48 -116 48s-84 -16 -116 -48s-48 -70.667 -48 -116c0 -44.667 16.167 -83.167 48.5 -115.5s70.833 -48.5 115.5 -48.5c45.333 0 84 16 116 48s48 70.667 48 116zM1906 1147c0 45.333 -16 84 -48 116s-70.667 48 -116 48
s-84 -16 -116 -48s-48 -70.667 -48 -116c0 -44.667 16.167 -83.167 48.5 -115.5s70.833 -48.5 115.5 -48.5c45.333 0 84 16 116 48s48 70.667 48 116zM2070 1516c0 45.333 -16 84 -48 116s-70.667 48 -116 48s-84 -16 -116 -48s-48 -70.667 -48 -116
c0 -44.667 16.167 -83.167 48.5 -115.5s70.833 -48.5 115.5 -48.5c45.333 0 84 16 116 48s48 70.667 48 116z" />
    <glyph glyph-name="u0635" unicode="&#x635;" horiz-adv-x="2847" arabic-form="isolated" 
d="M2847 206c0 -60.667 -19 -110 -57 -148s-87.333 -57 -148 -57h-1147v-288c0 -58 -19.667 -106.667 -59 -146s-88 -59 -146 -59h-901c-58 0 -106.667 19.667 -146 59s-59 88 -59 146v901h410v-819h491v983h410v-491l282 352c74 92.667 167 139 279 139h586
c60 0 109.167 -19 147.5 -57s57.5 -87 57.5 -147v-368zM2437 287v205h-328l-163 -205h491z" />
    <glyph glyph-name="u0636" unicode="&#x636;" horiz-adv-x="2847" arabic-form="isolated" 
d="M2847 206c0 -60.667 -19 -110 -57 -148s-87.333 -57 -148 -57h-1147v-288c0 -58 -19.667 -106.667 -59 -146s-88 -59 -146 -59h-901c-58 0 -106.667 19.667 -146 59s-59 88 -59 146v901h410v-819h491v983h410v-491l282 352c74 92.667 167 139 279 139h586
c60 0 109.167 -19 147.5 -57s57.5 -87 57.5 -147v-368zM2437 287v205h-328l-163 -205h491zM2428 1147c0 -45.333 -16 -84 -48 -116s-70.667 -48 -116 -48c-44.667 0 -83.167 16.167 -115.5 48.5s-48.5 70.833 -48.5 115.5c0 45.333 16 84 48 116s70.667 48 116 48
s84 -16 116 -48s48 -70.667 48 -116z" />
    <glyph glyph-name="u0637" unicode="&#x637;" horiz-adv-x="1802" arabic-form="isolated" 
d="M1802 206c0 -59.333 -19.333 -108.334 -58 -147.001s-87.334 -58 -146.001 -58h-1415v286h266l281 352c74 92.667 141.667 139 203 139v778h410v-574c0 -59.333 -19.167 -108.166 -57.5 -146.499s-87.166 -57.5 -146.499 -57.5h459c60 0 109 -19 147 -57s57 -87 57 -147
v-368zM1393 286.999v205h-330l-164 -205h494z" />
    <glyph glyph-name="u0638" unicode="&#x638;" horiz-adv-x="1802" arabic-form="isolated" 
d="M1802 206c0 -59.333 -19.333 -108.334 -58 -147.001s-87.334 -58 -146.001 -58h-1415v286h266l281 352c74 92.667 141.667 139 203 139v778h410v-574c0 -59.333 -19.167 -108.166 -57.5 -146.499s-87.166 -57.5 -146.499 -57.5h459c60 0 109 -19 147 -57s57 -87 57 -147
v-368zM1393 286.999v205h-330l-164 -205h494zM1768 1148c0 -45.333 -16 -84 -48 -116s-70.667 -48 -116 -48c-44.667 0 -83.167 16.167 -115.5 48.5s-48.5 70.833 -48.5 115.5c0 45.333 16 84 48 116s70.667 48 116 48s84 -16 116 -48s48 -70.667 48 -116z" />
    <glyph glyph-name="u0639" unicode="&#x639;" horiz-adv-x="1536" arabic-form="isolated" 
d="M1536 1l-942 0.000976562v-247c0 -53.333 20.833 -100.833 62.5 -142.5s89.167 -62.5 142.5 -62.5v-41h-410c-58 0 -106.667 19.667 -146 59s-59 88 -59 146v369c0 62 18.667 111.667 56 149s87 56 149 56h205v287c0 59.333 19.333 108.166 58 146.499
s87.667 57.5 147 57.5h614v-286h-409v-205h532v-286z" />
    <glyph glyph-name="u063A" unicode="&#x63a;" horiz-adv-x="1536" arabic-form="isolated" 
d="M1536 1l-942 0.000976562v-247c0 -53.333 20.833 -100.833 62.5 -142.5s89.167 -62.5 142.5 -62.5v-41h-410c-58 0 -106.667 19.667 -146 59s-59 88 -59 146v369c0 62 18.667 111.667 56 149s87 56 149 56h205v287c0 59.333 19.333 108.166 58 146.499
s87.667 57.5 147 57.5h614v-286h-409v-205h532v-286zM1178 1147c0 -45.333 -16 -84 -48 -116s-70.667 -48 -116 -48c-44.667 0 -83.167 16.167 -115.5 48.5s-48.5 70.833 -48.5 115.5c0 45.333 16 84 48 116s70.667 48 116 48s84 -16 116 -48s48 -70.667 48 -116z" />
    <glyph glyph-name="u0641" unicode="&#x641;" horiz-adv-x="2111" arabic-form="isolated" 
d="M2111 205c0 -58.667 -19.5 -107.498 -58.5 -146.498s-87.5 -58.5 -145.5 -58.5h-1518c-57.333 0 -105.833 19.667 -145.5 59s-59.5 87.666 -59.5 144.999v410h410v-327h696c-57.333 0 -105.833 19.833 -145.5 59.5s-59.5 88.167 -59.5 145.5v205
c0 59.333 19.333 108.166 58 146.499s87.667 57.5 147 57.5h617c60 0 109 -19 147 -57s57 -87 57 -147v-492zM1701 287.002v327h-206v-122c0 -57.333 20 -105.833 60 -145.5s88.667 -59.5 146 -59.5zM1766 1273c0 -45.333 -16 -84 -48 -116s-70.667 -48 -116 -48
c-44.667 0 -83.167 16.167 -115.5 48.5s-48.5 70.833 -48.5 115.5c0 45.333 16 84 48 116s70.667 48 116 48s84 -16 116 -48s48 -70.667 48 -116z" />
    <glyph glyph-name="u0642" unicode="&#x642;" horiz-adv-x="1906" arabic-form="isolated" 
d="M1906 -287c0 -61.333 -18.834 -110.831 -56.501 -148.498s-87.167 -56.5 -148.5 -56.5h-1312c-57.333 0 -105.833 19.667 -145.5 59s-59.5 87.666 -59.5 144.999v901h410v-818h902v205h-412c-57.333 0 -105.666 19.833 -144.999 59.5s-59 88.167 -59 145.5v489
c0 60 19 109 57 147s87 57 147 57h617c60.667 0 110 -18.833 148 -56.5s57 -86.834 57 -147.501v-981zM1496 287.002v325h-206v-325h206zM1728 1273c0 -45.333 -15.833 -84 -47.5 -116s-70.167 -48 -115.5 -48s-84 16 -116 48s-48 70.667 -48 116s16 84 48 116
s70.667 48 116 48s83.833 -16 115.5 -48s47.5 -70.667 47.5 -116zM1400 1273c0 -45.333 -16 -84 -48 -116s-70.667 -48 -116 -48c-44.667 0 -83.167 16.167 -115.5 48.5s-48.5 70.833 -48.5 115.5c0 45.333 16 84 48 116s70.667 48 116 48s84 -16 116 -48
s48 -70.667 48 -116z" />
    <glyph glyph-name="u0643" unicode="&#x643;" horiz-adv-x="2108" arabic-form="isolated" 
d="M2191 983l-901 0.000976562v-205h614c60 0 109 -19 147 -57s57 -87 57 -147v-370c0 -57.333 -19.667 -105.666 -59 -144.999s-87.666 -59 -144.999 -59h-1515c-57.333 0 -105.833 19.667 -145.5 59s-59.5 87.666 -59.5 144.999v410h410v-327h1105v205h-819v574
c0 57.333 19.667 105.666 59 144.999s87.666 59 144.999 59h1107v-287z" />
    <glyph glyph-name="u0644" unicode="&#x644;" horiz-adv-x="1495" arabic-form="isolated" 
d="M1495 -287c0 -58 -19.667 -106.667 -59 -146s-88 -59 -146 -59h-901c-58 0 -106.667 19.667 -146 59s-59 88 -59 146v901h410v-819h491v1761h410v-1843z" />
    <glyph glyph-name="u0645" unicode="&#x645;" horiz-adv-x="1618" arabic-form="isolated" 
d="M1618 207c0 -56.667 -20 -105.166 -60 -145.499s-88.333 -60.5 -145 -60.5h-819v-493h-410v574c0 58.667 19.5 107.5 58.5 146.5s87.833 58.5 146.5 58.5h205v287c0 59.333 19.333 108.166 58 146.499s87.667 57.5 147 57.5h614c60 0 109.167 -19 147.5 -57
s57.5 -87 57.5 -147v-367zM1208 287.001v205h-204v-205h204z" />
    <glyph glyph-name="u0646" unicode="&#x646;" horiz-adv-x="1495" arabic-form="isolated" 
d="M1495 -287c0 -58 -19.667 -106.667 -59 -146s-88 -59 -146 -59h-901c-58 0 -106.667 19.667 -146 59s-59 88 -59 146v1065h410v-983h491v983h410v-1065zM998 613c0 -45.333 -16 -84 -48 -116s-70.667 -48 -116 -48c-44.667 0 -83.167 16.167 -115.5 48.5
s-48.5 70.833 -48.5 115.5c0 45.333 16 84 48 116s70.667 48 116 48s84 -16 116 -48s48 -70.667 48 -116z" />
    <glyph glyph-name="u0647" unicode="&#x647;" horiz-adv-x="1208" arabic-form="isolated" 
d="M1208 207c0 -59.333 -19.332 -108.499 -57.999 -147.499s-87.334 -58.5 -146.001 -58.5h-614c-60.667 0 -110.167 18.5 -148.5 55.5s-57.5 85.5 -57.5 145.5v372c0 59.333 19.333 108.166 58 146.499s87.667 57.5 147 57.5h615c58 0 106.5 -19.5 145.5 -58.5
s58.5 -87.5 58.5 -145.5v-367zM799.001 287.001v205h-205v-205h205z" />
    <glyph glyph-name="u0648" unicode="&#x648;" horiz-adv-x="1208" arabic-form="isolated" 
d="M1208 -287c0 -58 -19.499 -106.667 -58.499 -146s-87.5 -59 -145.5 -59h-820v287h615v206h-615v573c0 59.333 19.333 108.166 58 146.499s87.667 57.5 147 57.5h615c59.333 0 108.166 -19.167 146.499 -57.5s57.5 -87.166 57.5 -146.499v-861zM799.001 287v205h-205v-205
h205z" />
    <glyph glyph-name="u0649" unicode="&#x649;" horiz-adv-x="1618" arabic-form="isolated" 
d="M1618 -287c0 -58 -19.667 -106.667 -59 -146s-88 -59 -146 -59h-1024c-58 0 -106.667 19.667 -146 59s-59 88 -59 146v779h410v-697h614v206h-409v572c0 60 19.167 109.167 57.5 147.5s87.5 57.5 147.5 57.5h614v-286h-410v-205h410v-574z" />
    <glyph glyph-name="u064A" unicode="&#x64a;" horiz-adv-x="1618" arabic-form="isolated" 
d="M1618 -287c0 -58 -19.667 -106.667 -59 -146s-88 -59 -146 -59h-1024c-58 0 -106.667 19.667 -146 59s-59 88 -59 146v779h410v-697h614v206h-409v572c0 60 19.167 109.167 57.5 147.5s87.5 57.5 147.5 57.5h614v-286h-410v-205h410v-574z" />
    <glyph glyph-name="u067E" unicode="&#x67e;" horiz-adv-x="1740" arabic-form="isolated" 
d="M1740 205c0 -57.333 -19.833 -105.666 -59.5 -144.999s-88.167 -59 -145.5 -59h-1146c-57.333 0 -105.833 19.667 -145.5 59s-59.5 87.666 -59.5 144.999v573h410v-491h736v491h410v-573zM1273 -285c0 -45.333 -16 -84 -48 -116s-70.667 -48 -116 -48s-84 16 -116 48
s-48 70.667 -48 116c0 44.667 16.167 83.167 48.5 115.5s70.833 48.5 115.5 48.5c45.333 0 84 -16 116 -48s48 -70.667 48 -116zM944 -285c0 -45.333 -16 -84 -48 -116s-70.667 -48 -116 -48s-84 16 -116 48s-48 70.667 -48 116c0 44.667 16.167 83.167 48.5 115.5
s70.833 48.5 115.5 48.5c45.333 0 84 -16 116 -48s48 -70.667 48 -116zM1108 -654c0 -45.333 -16 -84 -48 -116s-70.667 -48 -116 -48s-84 16 -116 48s-48 70.667 -48 116c0 44.667 16.167 83.167 48.5 115.5s70.833 48.5 115.5 48.5c45.333 0 84 -16 116 -48
s48 -70.667 48 -116z" />
    <glyph glyph-name="u0686" unicode="&#x686;" horiz-adv-x="1536" arabic-form="isolated" 
d="M1536 1h-942v-247c0 -53.333 20.833 -100.833 62.5 -142.5s89.167 -62.5 142.5 -62.5v-41h-410c-58 0 -106.667 19.667 -146 59s-59 88 -59 146v369c0 62 18.667 111.667 56 149s87 56 149 56h615v205h-492v286h696c60 0 109.167 -19 147.5 -57s57.5 -87 57.5 -147v-287
h123v-286zM1497 -283c0 -45.333 -16 -84 -48 -116s-70.667 -48 -116 -48s-84 16 -116 48s-48 70.667 -48 116c0 44.667 16.167 83.167 48.5 115.5s70.833 48.5 115.5 48.5c45.333 0 84 -16 116 -48s48 -70.667 48 -116zM1168 -283c0 -45.333 -16 -84 -48 -116
s-70.667 -48 -116 -48s-84 16 -116 48s-48 70.667 -48 116c0 44.667 16.167 83.167 48.5 115.5s70.833 48.5 115.5 48.5c45.333 0 84 -16 116 -48s48 -70.667 48 -116zM1332 -652c0 -45.333 -16 -84 -48 -116s-70.667 -48 -116 -48s-84 16 -116 48s-48 70.667 -48 116
c0 44.667 16.167 83.167 48.5 115.5s70.833 48.5 115.5 48.5c45.333 0 84 -16 116 -48s48 -70.667 48 -116z" />
    <glyph glyph-name="u0698" unicode="&#x698;" horiz-adv-x="799" arabic-form="isolated" 
d="M799 -287c0 -58 -19.667 -106.667 -59 -146s-88 -59 -146 -59h-410v287h205v983h410v-1065zM925 1147c0 45.333 -16 84 -48 116s-70.667 48 -116 48s-84 -16 -116 -48s-48 -70.667 -48 -116c0 -44.667 16.167 -83.167 48.5 -115.5s70.833 -48.5 115.5 -48.5
c45.333 0 84 16 116 48s48 70.667 48 116zM596 1147c0 45.333 -16 84 -48 116s-70.667 48 -116 48s-84 -16 -116 -48s-48 -70.667 -48 -116c0 -44.667 16.167 -83.167 48.5 -115.5s70.833 -48.5 115.5 -48.5c45.333 0 84 16 116 48s48 70.667 48 116zM760 1516
c0 45.333 -16 84 -48 116s-70.667 48 -116 48s-84 -16 -116 -48s-48 -70.667 -48 -116c0 -44.667 16.167 -83.167 48.5 -115.5s70.833 -48.5 115.5 -48.5c45.333 0 84 16 116 48s48 70.667 48 116z" />
    <glyph glyph-name="u06AF" unicode="&#x6af;" horiz-adv-x="2108" arabic-form="isolated" 
d="M2108 1290h-1024v144h1024v-144zM2191 942l-901 0.000976562v-164h614c60 0 109 -19 147 -57s57 -87 57 -147v-369c0 -57.333 -19.667 -105.666 -59 -144.999s-87.666 -59 -144.999 -59h-1515c-57.333 0 -105.833 19.667 -145.5 59s-59.5 87.666 -59.5 144.999v409h410
v-327h1105v205h-819v492c0 57.333 19.667 105.666 59 144.999s87.666 59 144.999 59h1107v-246z" />
    <glyph glyph-name="uFB57" unicode="&#x67e;" horiz-adv-x="1740" arabic-form="final" 
d="M1772 1h-32v286h32v-286zM1740 205c0 -57.333 -19.833 -105.666 -59.5 -144.999s-88.167 -59 -145.5 -59h-1146c-57.333 0 -105.833 19.667 -145.5 59s-59.5 87.666 -59.5 144.999v573h410v-491h736v491h410v-573zM1273 -285c0 -45.333 -16 -84 -48 -116
s-70.667 -48 -116 -48s-84 16 -116 48s-48 70.667 -48 116c0 44.667 16.167 83.167 48.5 115.5s70.833 48.5 115.5 48.5c45.333 0 84 -16 116 -48s48 -70.667 48 -116zM944 -285c0 -45.333 -16 -84 -48 -116s-70.667 -48 -116 -48s-84 16 -116 48s-48 70.667 -48 116
c0 44.667 16.167 83.167 48.5 115.5s70.833 48.5 115.5 48.5c45.333 0 84 -16 116 -48s48 -70.667 48 -116zM1108 -654c0 -45.333 -16 -84 -48 -116s-70.667 -48 -116 -48s-84 16 -116 48s-48 70.667 -48 116c0 44.667 16.167 83.167 48.5 115.5s70.833 48.5 115.5 48.5
c45.333 0 84 -16 116 -48s48 -70.667 48 -116z" />
    <glyph glyph-name="uFB58" unicode="&#x67e;" horiz-adv-x="820" arabic-form="initial" 
d="M820 205c0 -57.333 -19.833 -105.667 -59.5 -145s-88.167 -59 -145.5 -59h-647v286h443v491h409v-573zM813 -285.001c0 -45.333 -16 -84 -48 -116s-70.667 -48 -116 -48s-84 16 -116 48s-48 70.667 -48 116c0 44.667 16.167 83.167 48.5 115.5s70.833 48.5 115.5 48.5
c45.333 0 84 -16 116 -48s48 -70.667 48 -116zM484 -285.001c0 -45.333 -16 -84 -48 -116s-70.667 -48 -116 -48s-84 16 -116 48s-48 70.667 -48 116c0 44.667 16.167 83.167 48.5 115.5s70.833 48.5 115.5 48.5c45.333 0 84 -16 116 -48s48 -70.667 48 -116zM648 -654.001
c0 -45.333 -16 -84 -48 -116s-70.667 -48 -116 -48s-84 16 -116 48s-48 70.667 -48 116c0 44.667 16.167 83.167 48.5 115.5s70.833 48.5 115.5 48.5c45.333 0 84 -16 116 -48s48 -70.667 48 -116z" />
    <glyph glyph-name="uFB59" unicode="&#x67e;" horiz-adv-x="820" arabic-form="medial" 
d="M852 1h-32v286h32v-286zM820 205c0 -57.333 -19.833 -105.667 -59.5 -145s-88.167 -59 -145.5 -59h-647v286h443v491h409v-573zM813 -285.001c0 -45.333 -16 -84 -48 -116s-70.667 -48 -116 -48s-84 16 -116 48s-48 70.667 -48 116c0 44.667 16.167 83.167 48.5 115.5
s70.833 48.5 115.5 48.5c45.333 0 84 -16 116 -48s48 -70.667 48 -116zM484 -285.001c0 -45.333 -16 -84 -48 -116s-70.667 -48 -116 -48s-84 16 -116 48s-48 70.667 -48 116c0 44.667 16.167 83.167 48.5 115.5s70.833 48.5 115.5 48.5c45.333 0 84 -16 116 -48
s48 -70.667 48 -116zM648 -654.001c0 -45.333 -16 -84 -48 -116s-70.667 -48 -116 -48s-84 16 -116 48s-48 70.667 -48 116c0 44.667 16.167 83.167 48.5 115.5s70.833 48.5 115.5 48.5c45.333 0 84 -16 116 -48s48 -70.667 48 -116z" />
    <glyph glyph-name="uFB7B" unicode="&#x686;" horiz-adv-x="1536" arabic-form="final" 
d="M1566 1h-972v-247c0 -53.333 20.833 -100.833 62.5 -142.5s89.167 -62.5 142.5 -62.5v-41h-410c-58 0 -106.667 19.667 -146 59s-59 88 -59 146v369c0 62 18.667 111.667 56 149s87 56 149 56h615v205h-492v286h696c60 0 109.167 -19 147.5 -57s57.5 -87 57.5 -147v-287
h153v-286zM1497 -283c0 -45.333 -16 -84 -48 -116s-70.667 -48 -116 -48s-84 16 -116 48s-48 70.667 -48 116c0 44.667 16.167 83.167 48.5 115.5s70.833 48.5 115.5 48.5c45.333 0 84 -16 116 -48s48 -70.667 48 -116zM1168 -283c0 -45.333 -16 -84 -48 -116
s-70.667 -48 -116 -48s-84 16 -116 48s-48 70.667 -48 116c0 44.667 16.167 83.167 48.5 115.5s70.833 48.5 115.5 48.5c45.333 0 84 -16 116 -48s48 -70.667 48 -116zM1332 -652c0 -45.333 -16 -84 -48 -116s-70.667 -48 -116 -48s-84 16 -116 48s-48 70.667 -48 116
c0 44.667 16.167 83.167 48.5 115.5s70.833 48.5 115.5 48.5c45.333 0 84 -16 116 -48s48 -70.667 48 -116z" />
    <glyph glyph-name="uFB7C" unicode="&#x686;" horiz-adv-x="1229" arabic-form="initial" 
d="M1229 1h-1260v286h727v205h-491v286h696c60 0 109.167 -19 147.5 -57s57.5 -87 57.5 -147v-287h123v-286zM985 -283c0 -45.333 -16 -84 -48 -116s-70.667 -48 -116 -48s-84 16 -116 48s-48 70.667 -48 116c0 44.667 16.167 83.167 48.5 115.5s70.833 48.5 115.5 48.5
c45.333 0 84 -16 116 -48s48 -70.667 48 -116zM656 -283c0 -45.333 -16 -84 -48 -116s-70.667 -48 -116 -48s-84 16 -116 48s-48 70.667 -48 116c0 44.667 16.167 83.167 48.5 115.5s70.833 48.5 115.5 48.5c45.333 0 84 -16 116 -48s48 -70.667 48 -116zM820 -652
c0 -45.333 -16 -84 -48 -116s-70.667 -48 -116 -48s-84 16 -116 48s-48 70.667 -48 116c0 44.667 16.167 83.167 48.5 115.5s70.833 48.5 115.5 48.5c45.333 0 84 -16 116 -48s48 -70.667 48 -116z" />
    <glyph glyph-name="uFB7D" unicode="&#x686;" horiz-adv-x="1229" arabic-form="medial" 
d="M1260 1h-1291v286h727v205h-491v286h696c60 0 109.167 -19 147.5 -57s57.5 -87 57.5 -147v-287h154v-286zM985 -283c0 -45.333 -16 -84 -48 -116s-70.667 -48 -116 -48s-84 16 -116 48s-48 70.667 -48 116c0 44.667 16.167 83.167 48.5 115.5s70.833 48.5 115.5 48.5
c45.333 0 84 -16 116 -48s48 -70.667 48 -116zM656 -283c0 -45.333 -16 -84 -48 -116s-70.667 -48 -116 -48s-84 16 -116 48s-48 70.667 -48 116c0 44.667 16.167 83.167 48.5 115.5s70.833 48.5 115.5 48.5c45.333 0 84 -16 116 -48s48 -70.667 48 -116zM820 -652
c0 -45.333 -16 -84 -48 -116s-70.667 -48 -116 -48s-84 16 -116 48s-48 70.667 -48 116c0 44.667 16.167 83.167 48.5 115.5s70.833 48.5 115.5 48.5c45.333 0 84 -16 116 -48s48 -70.667 48 -116z" />
    <glyph glyph-name="uFB8B" unicode="&#x698;" horiz-adv-x="799" arabic-form="final" 
d="M830 1h-31v286h31v-286zM799 -287c0 -58 -19.667 -106.667 -59 -146s-88 -59 -146 -59h-410v287h205v983h410v-1065zM925 1147c0 45.333 -16 84 -48 116s-70.667 48 -116 48s-84 -16 -116 -48s-48 -70.667 -48 -116c0 -44.667 16.167 -83.167 48.5 -115.5
s70.833 -48.5 115.5 -48.5c45.333 0 84 16 116 48s48 70.667 48 116zM596 1147c0 45.333 -16 84 -48 116s-70.667 48 -116 48s-84 -16 -116 -48s-48 -70.667 -48 -116c0 -44.667 16.167 -83.167 48.5 -115.5s70.833 -48.5 115.5 -48.5c45.333 0 84 16 116 48
s48 70.667 48 116zM760 1516c0 45.333 -16 84 -48 116s-70.667 48 -116 48s-84 -16 -116 -48s-48 -70.667 -48 -116c0 -44.667 16.167 -83.167 48.5 -115.5s70.833 -48.5 115.5 -48.5c45.333 0 84 16 116 48s48 70.667 48 116z" />
    <glyph glyph-name="uFEDA" unicode="&#x6a9;" horiz-adv-x="2108" arabic-form="final" 
d="M2140 1h-32v286h32v-286zM2191 983l-901 0.000976562v-205h614c60 0 109 -19 147 -57s57 -87 57 -147v-370c0 -57.333 -19.667 -105.666 -59 -144.999s-87.666 -59 -144.999 -59h-1515c-57.333 0 -105.833 19.667 -145.5 59s-59.5 87.666 -59.5 144.999v410h410v-327
h1105v205h-819v574c0 57.333 19.667 105.666 59 144.999s87.666 59 144.999 59h1107v-287z" />
    <glyph glyph-name="uFEDB" unicode="&#x6a9;" horiz-adv-x="1433" arabic-form="initial" 
d="M1516 983l-902 -0.000976562v-205h614c60 0 109.167 -19.167 147.5 -57.5s57.5 -87.166 57.5 -146.499v-370c0 -57.333 -19.833 -105.666 -59.5 -144.999s-88.167 -59 -145.5 -59h-1259v287h1054v205h-819v574c0 57.333 19.833 105.666 59.5 144.999s88.167 59 145.5 59
h1107v-287z" />
    <glyph glyph-name="uFEDC" unicode="&#x6a9;" horiz-adv-x="1433" arabic-form="medial" 
d="M1465 1h-32v286h32v-286zM1516 983l-902 -0.000976562v-205h614c60 0 109.167 -19.167 147.5 -57.5s57.5 -87.166 57.5 -146.499v-370c0 -57.333 -19.833 -105.666 -59.5 -144.999s-88.167 -59 -145.5 -59h-1259v287h1054v205h-819v574
c0 57.333 19.833 105.666 59.5 144.999s88.167 59 145.5 59h1107v-287z" />
    <glyph glyph-name="uFB93" unicode="&#x6af;" horiz-adv-x="2108" arabic-form="final" 
d="M2108 1290h-1024v144h1024v-144zM2140 1h-32v286h32v-286zM2191 942l-901 0.000976562v-164h614c60 0 109 -19 147 -57s57 -87 57 -147v-369c0 -57.333 -19.667 -105.666 -59 -144.999s-87.666 -59 -144.999 -59h-1515c-57.333 0 -105.833 19.667 -145.5 59
s-59.5 87.666 -59.5 144.999v409h410v-327h1105v205h-819v492c0 57.333 19.667 105.666 59 144.999s87.666 59 144.999 59h1107v-246z" />
    <glyph glyph-name="uFB94" unicode="&#x6af;" horiz-adv-x="1433" arabic-form="initial" 
d="M1433 1290h-1024v144h1024v-144zM1516 942l-902 -0.000976562v-164h614c60 0 109.167 -19.167 147.5 -57.5s57.5 -87.166 57.5 -146.499v-370c0 -57.333 -19.833 -105.666 -59.5 -144.999s-88.167 -59 -145.5 -59h-1259v287h1054v205h-819v492
c0 57.333 19.833 105.666 59.5 144.999s88.167 59 145.5 59h1107v-246z" />
    <glyph glyph-name="uFB95" unicode="&#x6af;" horiz-adv-x="1433" arabic-form="medial" 
d="M1433 1290h-1024v144h1024v-144zM1465 1h-32v286h32v-286zM1516 942l-902 -0.000976562v-164h614c60 0 109.167 -19.167 147.5 -57.5s57.5 -87.166 57.5 -146.499v-370c0 -57.333 -19.833 -105.666 -59.5 -144.999s-88.167 -59 -145.5 -59h-1259v287h1054v205h-819v492
c0 57.333 19.833 105.666 59.5 144.999s88.167 59 145.5 59h1107v-246z" />
    <glyph glyph-name="uFE94" unicode="&#x6c0;" horiz-adv-x="1207" arabic-form="final" 
d="M1239 1h-32v286h32v-286zM1207 1l-205.001 0.000976562c-57.333 0 -105.666 19.833 -144.999 59.5s-59 88.5 -59 146.5v285h-205v-205h123v-286h-328c-56.667 0 -105 20.167 -145 60.5s-60 88.833 -60 145.5v367c0 59.333 19.333 108.166 58 146.499
s87.667 57.5 147 57.5h614c60 0 109.167 -19 147.5 -57s57.5 -87 57.5 -147v-573zM954.999 988.001h-494v138h78v136c0 65.333 32.667 98 98 98h259v-137h-160v-97h219v-138z" />
    <glyph glyph-name="uFEF2" unicode="&#x6cc;" horiz-adv-x="1618" arabic-form="final" 
d="M1650 1h-32v286h32v-286zM1618 -287c0 -58 -19.667 -106.667 -59 -146s-88 -59 -146 -59h-1024c-58 0 -106.667 19.667 -146 59s-59 88 -59 146v779h410v-697h614v206h-409v286h819v-574z" />
    <glyph glyph-name="uFEF3" unicode="&#x6cc;" horiz-adv-x="822" arabic-form="initial" 
d="M820 205c0 -57.333 -19.833 -105.667 -59.5 -145s-88.167 -59 -145.5 -59h-647v286h443v491h409v-573zM816 -284.001c0 -45.333 -15.833 -84 -47.5 -116s-70.167 -48 -115.5 -48s-84 16 -116 48s-48 70.667 -48 116s16 84 48 116s70.667 48 116 48s83.833 -16 115.5 -48
s47.5 -70.667 47.5 -116zM488 -284.001c0 -45.333 -16 -84 -48 -116s-70.667 -48 -116 -48s-84 16 -116 48s-48 70.667 -48 116c0 44.667 16.167 83.167 48.5 115.5s70.833 48.5 115.5 48.5c45.333 0 84 -16 116 -48s48 -70.667 48 -116z" />
    <glyph glyph-name="uFEF4" unicode="&#x6cc;" horiz-adv-x="822" arabic-form="medial" 
d="M852 1h-32v286h32v-286zM820 205c0 -57.333 -19.833 -105.667 -59.5 -145s-88.167 -59 -145.5 -59h-647v286h443v491h409v-573zM816 -284.001c0 -45.333 -15.833 -84 -47.5 -116s-70.167 -48 -115.5 -48s-84 16 -116 48s-48 70.667 -48 116s16 84 48 116
s70.667 48 116 48s83.833 -16 115.5 -48s47.5 -70.667 47.5 -116zM488 -284.001c0 -45.333 -16 -84 -48 -116s-70.667 -48 -116 -48s-84 16 -116 48s-48 70.667 -48 116c0 44.667 16.167 83.167 48.5 115.5s70.833 48.5 115.5 48.5c45.333 0 84 -16 116 -48
s48 -70.667 48 -116z" />
    <glyph glyph-name="Hcircumflex" unicode="&#x622;" horiz-adv-x="595" arabic-form="final" 
d="M798 1639h-614v123h-204v-123h-410v123c0 56.667 20 105 60 145s88.333 60 145 60h613v-123h205v123h205v-328zM594 1l-205 0.000976562c-57.333 0 -105.833 19.667 -145.5 59s-59.5 87.666 -59.5 144.999v1350h410v-1554zM626 1.00098h-32v286h32v-286z" />
    <glyph glyph-name="uFE84" unicode="&#x623;" horiz-adv-x="595" arabic-form="final" 
d="M594 1l-205 0.000976562c-57.333 0 -105.833 19.667 -145.5 59s-59.5 87.666 -59.5 144.999v1130h410v-1334zM626 1.00098h-32v286h32v-286zM594 1389h-412v115h65v113c0 54.667 27.333 82 82 82h216v-114h-134v-81h183v-115z" />
    <glyph glyph-name="uFE86" unicode="&#x624;" horiz-adv-x="1208" arabic-form="final" 
d="M1240 1h-32v286h32v-286zM1208 -287c0 -58 -19.499 -106.667 -58.499 -146s-87.5 -59 -145.5 -59h-820v287h615v206h-615v573c0 59.333 19.333 108.166 58 146.499s87.667 57.5 147 57.5h615c59.333 0 108.166 -19.167 146.499 -57.5s57.5 -87.166 57.5 -146.499v-861z
M799.001 287v205h-205v-205h205zM955.001 988h-494v138h78v136c0 65.333 32.667 98 98 98h259v-137h-160v-97h219v-138z" />
    <glyph glyph-name="uFE88" unicode="&#x625;" horiz-adv-x="595" arabic-form="final" 
d="M594 1l-205 0.000976562c-57.333 0 -105.833 19.667 -145.5 59s-59.5 87.666 -59.5 144.999v1130h410v-1334zM626 1.00098h-32v286h32v-286zM594 -395.999h-412v115h65v113c0 54.667 27.333 82 82 82h216v-114h-134v-81h183v-115z" />
    <glyph glyph-name="uFE8A" unicode="&#x626;" horiz-adv-x="1618" arabic-form="final" 
d="M1650 1h-32v286h32v-286zM1618 -287c0 -58 -19.667 -106.667 -59 -146s-88 -59 -146 -59h-1024c-58 0 -106.667 19.667 -146 59s-59 88 -59 146v779h410v-697h614v206h-409v286h819v-574zM594 675h-412v115h65v113c0 54.667 27.333 82 82 82h216v-114h-134v-81h183v-115z
" />
    <glyph glyph-name="uFE8B" unicode="&#x626;" horiz-adv-x="615" arabic-form="initial" 
d="M615 205c0 -57.333 -19.668 -105.667 -59.001 -145s-87.666 -59 -144.999 -59h-443v286h238v491h409v-573zM613.999 908.999h-412v115h65v113c0 54.667 27.333 82 82 82h216v-114h-134v-81h183v-115z" />
    <glyph glyph-name="uFE8C" unicode="&#x626;" horiz-adv-x="615" arabic-form="medial" 
d="M647 1h-32v286h32v-286zM615 205c0 -57.333 -19.668 -105.667 -59.001 -145s-87.666 -59 -144.999 -59h-443v286h238v491h409v-573zM613.999 908.999h-412v115h65v113c0 54.667 27.333 82 82 82h216v-114h-134v-81h183v-115z" />
    <glyph glyph-name="uFE8E" unicode="&#x627;" horiz-adv-x="594" arabic-form="final" 
d="M594 1l-205 0.000976562c-57.333 0 -105.833 19.667 -145.5 59s-59.5 87.666 -59.5 144.999v1350h410v-1554zM626 1.00098h-32v286h32v-286z" />
    <glyph glyph-name="uFE90" unicode="&#x628;" horiz-adv-x="1740" arabic-form="final" 
d="M1772 1h-32v286h32v-286zM1740 205c0 -57.333 -19.833 -105.666 -59.5 -144.999s-88.167 -59 -145.5 -59h-1146c-57.333 0 -105.833 19.667 -145.5 59s-59.5 87.666 -59.5 144.999v573h410v-491h736v491h410v-573zM1108 -283c0 -45.333 -16 -84 -48 -116
s-70.667 -48 -116 -48s-84 16 -116 48s-48 70.667 -48 116c0 44.667 16.167 83.167 48.5 115.5s70.833 48.5 115.5 48.5c45.333 0 84 -16 116 -48s48 -70.667 48 -116z" />
    <glyph glyph-name="uFE91" unicode="&#x628;" horiz-adv-x="615" arabic-form="initial" 
d="M615 205c0 -57.333 -19.668 -105.667 -59.001 -145s-87.666 -59 -144.999 -59h-443v286h238v491h409v-573zM527.999 -283.001c0 -45.333 -16 -84 -48 -116s-70.667 -48 -116 -48s-84 16 -116 48s-48 70.667 -48 116c0 44.667 16.167 83.167 48.5 115.5
s70.833 48.5 115.5 48.5c45.333 0 84 -16 116 -48s48 -70.667 48 -116z" />
    <glyph glyph-name="uFE92" unicode="&#x628;" horiz-adv-x="615" arabic-form="medial" 
d="M647 1h-32v286h32v-286zM615 205c0 -57.333 -19.668 -105.667 -59.001 -145s-87.666 -59 -144.999 -59h-443v286h238v491h409v-573zM527.999 -283.001c0 -45.333 -16 -84 -48 -116s-70.667 -48 -116 -48s-84 16 -116 48s-48 70.667 -48 116
c0 44.667 16.167 83.167 48.5 115.5s70.833 48.5 115.5 48.5c45.333 0 84 -16 116 -48s48 -70.667 48 -116z" />
    <glyph glyph-name="uFE96" unicode="&#x62a;" horiz-adv-x="1740" arabic-form="final" 
d="M1772 1h-32v286h32v-286zM1740 205c0 -57.333 -19.833 -105.666 -59.5 -144.999s-88.167 -59 -145.5 -59h-1146c-57.333 0 -105.833 19.667 -145.5 59s-59.5 87.666 -59.5 144.999v573h410v-491h736v491h410v-573zM1277 1147c0 -45.333 -15.833 -84 -47.5 -116
s-70.167 -48 -115.5 -48s-84 16 -116 48s-48 70.667 -48 116s16 84 48 116s70.667 48 116 48s83.833 -16 115.5 -48s47.5 -70.667 47.5 -116zM949 1147c0 -45.333 -16 -84 -48 -116s-70.667 -48 -116 -48c-44.667 0 -83.167 16.167 -115.5 48.5s-48.5 70.833 -48.5 115.5
c0 45.333 16 84 48 116s70.667 48 116 48s84 -16 116 -48s48 -70.667 48 -116z" />
    <glyph glyph-name="uFE97" unicode="&#x62a;" horiz-adv-x="820" arabic-form="initial" 
d="M820 205c0 -57.333 -19.833 -105.667 -59.5 -145s-88.167 -59 -145.5 -59h-647v286h443v491h409v-573zM944 1146c0 45.333 -16 84 -48 116s-70.667 48 -116 48s-84 -16 -116 -48s-48 -70.667 -48 -116c0 -44.667 16.167 -83.167 48.5 -115.5s70.833 -48.5 115.5 -48.5
c45.333 0 84 16 116 48s48 70.667 48 116zM615 1146c0 45.333 -16 84 -48 116s-70.667 48 -116 48s-84 -16 -116 -48s-48 -70.667 -48 -116c0 -44.667 16.167 -83.167 48.5 -115.5s70.833 -48.5 115.5 -48.5c45.333 0 84 16 116 48s48 70.667 48 116z" />
    <glyph glyph-name="uFE98" unicode="&#x62a;" horiz-adv-x="820" arabic-form="medial" 
d="M852 1h-32v286h32v-286zM820 205c0 -57.333 -19.833 -105.667 -59.5 -145s-88.167 -59 -145.5 -59h-647v286h443v491h409v-573zM944 1146c0 45.333 -16 84 -48 116s-70.667 48 -116 48s-84 -16 -116 -48s-48 -70.667 -48 -116c0 -44.667 16.167 -83.167 48.5 -115.5
s70.833 -48.5 115.5 -48.5c45.333 0 84 16 116 48s48 70.667 48 116zM615 1146c0 45.333 -16 84 -48 116s-70.667 48 -116 48s-84 -16 -116 -48s-48 -70.667 -48 -116c0 -44.667 16.167 -83.167 48.5 -115.5s70.833 -48.5 115.5 -48.5c45.333 0 84 16 116 48
s48 70.667 48 116z" />
    <glyph glyph-name="uFE9A" unicode="&#x62b;" horiz-adv-x="1740" arabic-form="final" 
d="M1772 1h-32v286h32v-286zM1740 205c0 -57.333 -19.833 -105.666 -59.5 -144.999s-88.167 -59 -145.5 -59h-1146c-57.333 0 -105.833 19.667 -145.5 59s-59.5 87.666 -59.5 144.999v573h410v-491h736v491h410v-573zM1273 1146c0 45.333 -16 84 -48 116s-70.667 48 -116 48
s-84 -16 -116 -48s-48 -70.667 -48 -116c0 -44.667 16.167 -83.167 48.5 -115.5s70.833 -48.5 115.5 -48.5c45.333 0 84 16 116 48s48 70.667 48 116zM944 1146c0 45.333 -16 84 -48 116s-70.667 48 -116 48s-84 -16 -116 -48s-48 -70.667 -48 -116
c0 -44.667 16.167 -83.167 48.5 -115.5s70.833 -48.5 115.5 -48.5c45.333 0 84 16 116 48s48 70.667 48 116zM1108 1515c0 45.333 -16 84 -48 116s-70.667 48 -116 48s-84 -16 -116 -48s-48 -70.667 -48 -116c0 -44.667 16.167 -83.167 48.5 -115.5
s70.833 -48.5 115.5 -48.5c45.333 0 84 16 116 48s48 70.667 48 116z" />
    <glyph glyph-name="uFE9B" unicode="&#x62b;" horiz-adv-x="820" arabic-form="initial" 
d="M820 205c0 -57.333 -19.833 -105.667 -59.5 -145s-88.167 -59 -145.5 -59h-647v286h443v491h409v-573zM944 1146c0 45.333 -16 84 -48 116s-70.667 48 -116 48s-84 -16 -116 -48s-48 -70.667 -48 -116c0 -44.667 16.167 -83.167 48.5 -115.5s70.833 -48.5 115.5 -48.5
c45.333 0 84 16 116 48s48 70.667 48 116zM615 1146c0 45.333 -16 84 -48 116s-70.667 48 -116 48s-84 -16 -116 -48s-48 -70.667 -48 -116c0 -44.667 16.167 -83.167 48.5 -115.5s70.833 -48.5 115.5 -48.5c45.333 0 84 16 116 48s48 70.667 48 116zM779 1515
c0 45.333 -16 84 -48 116s-70.667 48 -116 48s-84 -16 -116 -48s-48 -70.667 -48 -116c0 -44.667 16.167 -83.167 48.5 -115.5s70.833 -48.5 115.5 -48.5c45.333 0 84 16 116 48s48 70.667 48 116z" />
    <glyph glyph-name="uFE9C" unicode="&#x62b;" horiz-adv-x="820" arabic-form="medial" 
d="M852 1h-32v286h32v-286zM820 205c0 -57.333 -19.833 -105.667 -59.5 -145s-88.167 -59 -145.5 -59h-647v286h443v491h409v-573zM944 1146c0 45.333 -16 84 -48 116s-70.667 48 -116 48s-84 -16 -116 -48s-48 -70.667 -48 -116c0 -44.667 16.167 -83.167 48.5 -115.5
s70.833 -48.5 115.5 -48.5c45.333 0 84 16 116 48s48 70.667 48 116zM615 1146c0 45.333 -16 84 -48 116s-70.667 48 -116 48s-84 -16 -116 -48s-48 -70.667 -48 -116c0 -44.667 16.167 -83.167 48.5 -115.5s70.833 -48.5 115.5 -48.5c45.333 0 84 16 116 48
s48 70.667 48 116zM779 1515c0 45.333 -16 84 -48 116s-70.667 48 -116 48s-84 -16 -116 -48s-48 -70.667 -48 -116c0 -44.667 16.167 -83.167 48.5 -115.5s70.833 -48.5 115.5 -48.5c45.333 0 84 16 116 48s48 70.667 48 116z" />
    <glyph glyph-name="uFE9E" unicode="&#x62c;" horiz-adv-x="1536" arabic-form="final" 
d="M1567 1h-973v-247c0 -53.333 20.833 -100.833 62.5 -142.5s89.167 -62.5 142.5 -62.5v-41h-410c-58 0 -106.667 19.667 -146 59s-59 88 -59 146v369c0 62 18.667 111.667 56 149s87 56 149 56h615v205h-492v286h696c60 0 109.167 -19 147.5 -57s57.5 -87 57.5 -147v-287
h154v-286zM1148 -283c0 -45.333 -16 -84 -48 -116s-70.667 -48 -116 -48s-84 16 -116 48s-48 70.667 -48 116c0 44.667 16.167 83.167 48.5 115.5s70.833 48.5 115.5 48.5c45.333 0 84 -16 116 -48s48 -70.667 48 -116z" />
    <glyph glyph-name="uFE9F" unicode="&#x62c;" horiz-adv-x="1229" arabic-form="initial" 
d="M1229 1h-1260v286h727v205h-491v286h696c60 0 109.167 -19 147.5 -57s57.5 -87 57.5 -147v-287h123v-286zM848 -283c0 -45.333 -16 -84 -48 -116s-70.667 -48 -116 -48s-84 16 -116 48s-48 70.667 -48 116c0 44.667 16.167 83.167 48.5 115.5s70.833 48.5 115.5 48.5
c45.333 0 84 -16 116 -48s48 -70.667 48 -116z" />
    <glyph glyph-name="uFEA0" unicode="&#x62c;" horiz-adv-x="1229" arabic-form="medial" 
d="M1260 1h-1291v286h727v205h-491v286h696c60 0 109.167 -19 147.5 -57s57.5 -87 57.5 -147v-287h154v-286zM848 -283c0 -45.333 -16 -84 -48 -116s-70.667 -48 -116 -48s-84 16 -116 48s-48 70.667 -48 116c0 44.667 16.167 83.167 48.5 115.5s70.833 48.5 115.5 48.5
c45.333 0 84 -16 116 -48s48 -70.667 48 -116z" />
    <glyph glyph-name="uFEA2" unicode="&#x62d;" horiz-adv-x="1536" arabic-form="final" 
d="M1567 1h-973v-247c0 -53.333 20.833 -100.833 62.5 -142.5s89.167 -62.5 142.5 -62.5v-41h-410c-58 0 -106.667 19.667 -146 59s-59 88 -59 146v369c0 62 18.667 111.667 56 149s87 56 149 56h615v205h-492v286h696c60 0 109.167 -19 147.5 -57s57.5 -87 57.5 -147v-287
h154v-286z" />
    <glyph glyph-name="uFEA3" unicode="&#x62d;" horiz-adv-x="1229" arabic-form="initial" 
d="M1229 1h-1260v286h727v205h-491v286h696c60 0 109.167 -19 147.5 -57s57.5 -87 57.5 -147v-287h123v-286z" />
    <glyph glyph-name="uFEA4" unicode="&#x62d;" horiz-adv-x="1229" arabic-form="medial" 
d="M1260 1h-1291v286h727v205h-491v286h696c60 0 109.167 -19 147.5 -57s57.5 -87 57.5 -147v-287h154v-286z" />
    <glyph glyph-name="uFEA6" unicode="&#x62e;" horiz-adv-x="1536" arabic-form="final" 
d="M1567 1h-973v-247c0 -53.333 20.833 -100.833 62.5 -142.5s89.167 -62.5 142.5 -62.5v-41h-410c-58 0 -106.667 19.667 -146 59s-59 88 -59 146v369c0 62 18.667 111.667 56 149s87 56 149 56h615v205h-492v286h696c60 0 109.167 -19 147.5 -57s57.5 -87 57.5 -147v-287
h154v-286zM1148 1148c0 -45.333 -16 -84 -48 -116s-70.667 -48 -116 -48c-44.667 0 -83.167 16.167 -115.5 48.5s-48.5 70.833 -48.5 115.5c0 45.333 16 84 48 116s70.667 48 116 48s84 -16 116 -48s48 -70.667 48 -116z" />
    <glyph glyph-name="uFEA7" unicode="&#x62e;" horiz-adv-x="1229" arabic-form="initial" 
d="M1229 1h-1260v286h727v205h-491v286h696c60 0 109.167 -19 147.5 -57s57.5 -87 57.5 -147v-287h123v-286zM848 1148c0 -45.333 -16 -84 -48 -116s-70.667 -48 -116 -48c-44.667 0 -83.167 16.167 -115.5 48.5s-48.5 70.833 -48.5 115.5c0 45.333 16 84 48 116
s70.667 48 116 48s84 -16 116 -48s48 -70.667 48 -116z" />
    <glyph glyph-name="uFEA8" unicode="&#x62e;" horiz-adv-x="1229" arabic-form="medial" 
d="M1260 1h-1291v286h727v205h-491v286h696c60 0 109.167 -19 147.5 -57s57.5 -87 57.5 -147v-287h154v-286zM848 1148c0 -45.333 -16 -84 -48 -116s-70.667 -48 -116 -48c-44.667 0 -83.167 16.167 -115.5 48.5s-48.5 70.833 -48.5 115.5c0 45.333 16 84 48 116
s70.667 48 116 48s84 -16 116 -48s48 -70.667 48 -116z" />
    <glyph glyph-name="uFEAA" unicode="&#x62f;" horiz-adv-x="1136" arabic-form="final" 
d="M1165 1h-31v286h31v-286zM1134 206c0 -48.667 -17 -93.333 -51 -134c-40 -47.333 -91.333 -71 -154 -71h-745v286h540v205h-417v286h622c60 0 109.167 -19 147.5 -57s57.5 -87 57.5 -147v-368z" />
    <glyph glyph-name="uFEAC" unicode="&#x630;" horiz-adv-x="1136" arabic-form="final" 
d="M1165 1h-31v286h31v-286zM1134 206c0 -48.667 -17 -93.333 -51 -134c-40 -47.333 -91.333 -71 -154 -71h-745v286h540v205h-417v286h622c60 0 109.167 -19 147.5 -57s57.5 -87 57.5 -147v-368zM818 1148c0 -45.333 -16 -84 -48 -116s-70.667 -48 -116 -48
c-44.667 0 -83.167 16.167 -115.5 48.5s-48.5 70.833 -48.5 115.5c0 45.333 16 84 48 116s70.667 48 116 48s84 -16 116 -48s48 -70.667 48 -116z" />
    <glyph glyph-name="uFEAE" unicode="&#x631;" horiz-adv-x="799" arabic-form="final" 
d="M830 1h-31v286h31v-286zM799 -287c0 -58 -19.667 -106.667 -59 -146s-88 -59 -146 -59h-410v287h205v983h410v-1065z" />
    <glyph glyph-name="uFEB0" unicode="&#x632;" horiz-adv-x="799" arabic-form="final" 
d="M830 1h-31v286h31v-286zM799 -287c0 -58 -19.667 -106.667 -59 -146s-88 -59 -146 -59h-410v287h205v983h410v-1065zM758 1148c0 -45.333 -16 -84 -48 -116s-70.667 -48 -116 -48c-44.667 0 -83.167 16.167 -115.5 48.5s-48.5 70.833 -48.5 115.5c0 45.333 16 84 48 116
s70.667 48 116 48s84 -16 116 -48s48 -70.667 48 -116z" />
    <glyph glyph-name="uFEB2" unicode="&#x633;" horiz-adv-x="2724" arabic-form="final" 
d="M2756 1h-32v286h32v-286zM2724 206c0 -61.333 -18.833 -110.833 -56.5 -148.5s-87.167 -56.5 -148.5 -56.5h-1024v-288c0 -58 -19.667 -106.667 -59 -146s-88 -59 -146 -59h-901c-58 0 -106.667 19.667 -146 59s-59 88 -59 146v901h410v-819h491v983h410v-491h205v491
h409v-491h205v491h410v-572z" />
    <glyph glyph-name="uFEB3" unicode="&#x633;" horiz-adv-x="1843" arabic-form="initial" 
d="M1843 206c0 -48.667 -17 -93.333 -51 -134c-40 -47.333 -91.333 -71 -154 -71h-1669v286h236v491h409v-491h205v491h410v-491h205v491h409v-572z" />
    <glyph glyph-name="uFEB4" unicode="&#x633;" horiz-adv-x="1843" arabic-form="medial" 
d="M1875 1h-32v286h32v-286zM1843 206c0 -48.667 -17 -93.333 -51 -134c-40 -47.333 -91.333 -71 -154 -71h-1669v286h236v491h409v-491h205v491h410v-491h205v491h409v-572z" />
    <glyph glyph-name="uFEB6" unicode="&#x634;" horiz-adv-x="2724" arabic-form="final" 
d="M2756 1h-32v286h32v-286zM2724 206c0 -61.333 -18.833 -110.833 -56.5 -148.5s-87.167 -56.5 -148.5 -56.5h-1024v-288c0 -58 -19.667 -106.667 -59 -146s-88 -59 -146 -59h-901c-58 0 -106.667 19.667 -146 59s-59 88 -59 146v901h410v-819h491v983h410v-491h205v491
h409v-491h205v491h410v-572zM2235 1147c0 45.333 -16 84 -48 116s-70.667 48 -116 48s-84 -16 -116 -48s-48 -70.667 -48 -116c0 -44.667 16.167 -83.167 48.5 -115.5s70.833 -48.5 115.5 -48.5c45.333 0 84 16 116 48s48 70.667 48 116zM1906 1147c0 45.333 -16 84 -48 116
s-70.667 48 -116 48s-84 -16 -116 -48s-48 -70.667 -48 -116c0 -44.667 16.167 -83.167 48.5 -115.5s70.833 -48.5 115.5 -48.5c45.333 0 84 16 116 48s48 70.667 48 116zM2070 1516c0 45.333 -16 84 -48 116s-70.667 48 -116 48s-84 -16 -116 -48s-48 -70.667 -48 -116
c0 -44.667 16.167 -83.167 48.5 -115.5s70.833 -48.5 115.5 -48.5c45.333 0 84 16 116 48s48 70.667 48 116z" />
    <glyph glyph-name="uFEB7" unicode="&#x634;" horiz-adv-x="1843" arabic-form="initial" 
d="M1843 206c0 -48.667 -17 -93.333 -51 -134c-40 -47.333 -91.333 -71 -154 -71h-1669v286h236v491h409v-491h205v491h410v-491h205v491h409v-572zM1355 1147c0 45.333 -16 84 -48 116s-70.667 48 -116 48s-84 -16 -116 -48s-48 -70.667 -48 -116
c0 -44.667 16.167 -83.167 48.5 -115.5s70.833 -48.5 115.5 -48.5c45.333 0 84 16 116 48s48 70.667 48 116zM1026 1147c0 45.333 -16 84 -48 116s-70.667 48 -116 48s-84 -16 -116 -48s-48 -70.667 -48 -116c0 -44.667 16.167 -83.167 48.5 -115.5
s70.833 -48.5 115.5 -48.5c45.333 0 84 16 116 48s48 70.667 48 116zM1190 1516c0 45.333 -16 84 -48 116s-70.667 48 -116 48s-84 -16 -116 -48s-48 -70.667 -48 -116c0 -44.667 16.167 -83.167 48.5 -115.5s70.833 -48.5 115.5 -48.5c45.333 0 84 16 116 48
s48 70.667 48 116z" />
    <glyph glyph-name="uFEB8" unicode="&#x634;" horiz-adv-x="1843" arabic-form="medial" 
d="M1875 1h-32v286h32v-286zM1843 206c0 -48.667 -17 -93.333 -51 -134c-40 -47.333 -91.333 -71 -154 -71h-1669v286h236v491h409v-491h205v491h410v-491h205v491h409v-572zM1355 1147c0 45.333 -16 84 -48 116s-70.667 48 -116 48s-84 -16 -116 -48s-48 -70.667 -48 -116
c0 -44.667 16.167 -83.167 48.5 -115.5s70.833 -48.5 115.5 -48.5c45.333 0 84 16 116 48s48 70.667 48 116zM1026 1147c0 45.333 -16 84 -48 116s-70.667 48 -116 48s-84 -16 -116 -48s-48 -70.667 -48 -116c0 -44.667 16.167 -83.167 48.5 -115.5
s70.833 -48.5 115.5 -48.5c45.333 0 84 16 116 48s48 70.667 48 116zM1190 1516c0 45.333 -16 84 -48 116s-70.667 48 -116 48s-84 -16 -116 -48s-48 -70.667 -48 -116c0 -44.667 16.167 -83.167 48.5 -115.5s70.833 -48.5 115.5 -48.5c45.333 0 84 16 116 48
s48 70.667 48 116z" />
    <glyph glyph-name="uFEBA" unicode="&#x635;" horiz-adv-x="2847" arabic-form="final" 
d="M2878 1h-31v286h31v-286zM2847 206c0 -60.667 -19 -110 -57 -148s-87.333 -57 -148 -57h-1147v-288c0 -58 -19.667 -106.667 -59 -146s-88 -59 -146 -59h-901c-58 0 -106.667 19.667 -146 59s-59 88 -59 146v901h410v-819h491v983h410v-491l282 352
c74 92.667 167 139 279 139h586c60 0 109.167 -19 147.5 -57s57.5 -87 57.5 -147v-368zM2437 287v205h-328l-163 -205h491z" />
    <glyph glyph-name="uFEBB" unicode="&#x635;" horiz-adv-x="1966" arabic-form="initial" 
d="M1966 206c0 -58.667 -19.5 -107.5 -58.5 -146.5s-87.833 -58.5 -146.5 -58.5h-1792v286h236v491h409v-491l282 352c74 92.667 167.333 139 280 139h585c60 0 109.167 -19 147.5 -57s57.5 -87 57.5 -147v-368zM1556 287v205h-327l-164 -205h491z" />
    <glyph glyph-name="uFEBC" unicode="&#x635;" horiz-adv-x="1966" arabic-form="medial" 
d="M1998 1h-32v286h32v-286zM1966 206c0 -58.667 -19.5 -107.5 -58.5 -146.5s-87.833 -58.5 -146.5 -58.5h-1792v286h236v491h409v-491l282 352c74 92.667 167.333 139 280 139h585c60 0 109.167 -19 147.5 -57s57.5 -87 57.5 -147v-368zM1556 287v205h-327l-164 -205h491z
" />
    <glyph glyph-name="uFEBE" unicode="&#x636;" horiz-adv-x="2847" arabic-form="final" 
d="M2878 1h-31v286h31v-286zM2847 206c0 -60.667 -19 -110 -57 -148s-87.333 -57 -148 -57h-1147v-288c0 -58 -19.667 -106.667 -59 -146s-88 -59 -146 -59h-901c-58 0 -106.667 19.667 -146 59s-59 88 -59 146v901h410v-819h491v983h410v-491l282 352
c74 92.667 167 139 279 139h586c60 0 109.167 -19 147.5 -57s57.5 -87 57.5 -147v-368zM2437 287v205h-328l-163 -205h491zM2428 1147c0 -45.333 -16 -84 -48 -116s-70.667 -48 -116 -48c-44.667 0 -83.167 16.167 -115.5 48.5s-48.5 70.833 -48.5 115.5
c0 45.333 16 84 48 116s70.667 48 116 48s84 -16 116 -48s48 -70.667 48 -116z" />
    <glyph glyph-name="uFEBF" unicode="&#x636;" horiz-adv-x="1966" arabic-form="initial" 
d="M1966 206c0 -58.667 -19.5 -107.5 -58.5 -146.5s-87.833 -58.5 -146.5 -58.5h-1792v286h236v491h409v-491l282 352c74 92.667 167.333 139 280 139h585c60 0 109.167 -19 147.5 -57s57.5 -87 57.5 -147v-368zM1556 287v205h-327l-164 -205h491zM1548 1148
c0 -45.333 -16 -84 -48 -116s-70.667 -48 -116 -48c-44.667 0 -83.167 16.167 -115.5 48.5s-48.5 70.833 -48.5 115.5c0 45.333 16 84 48 116s70.667 48 116 48s84 -16 116 -48s48 -70.667 48 -116z" />
    <glyph glyph-name="uFEC0" unicode="&#x636;" horiz-adv-x="1966" arabic-form="medial" 
d="M1998 1h-32v286h32v-286zM1966 206c0 -58.667 -19.5 -107.5 -58.5 -146.5s-87.833 -58.5 -146.5 -58.5h-1792v286h236v491h409v-491l282 352c74 92.667 167.333 139 280 139h585c60 0 109.167 -19 147.5 -57s57.5 -87 57.5 -147v-368zM1556 287v205h-327l-164 -205h491z
M1548 1148c0 -45.333 -16 -84 -48 -116s-70.667 -48 -116 -48c-44.667 0 -83.167 16.167 -115.5 48.5s-48.5 70.833 -48.5 115.5c0 45.333 16 84 48 116s70.667 48 116 48s84 -16 116 -48s48 -70.667 48 -116z" />
    <glyph glyph-name="uFEC2" unicode="&#x637;" horiz-adv-x="1802" arabic-form="final" 
d="M1834 1h-32v286h32v-286zM1802 206c0 -59.333 -19.333 -108.334 -58 -147.001s-87.334 -58 -146.001 -58h-1415v286h266l281 352c74 92.667 141.667 139 203 139v778h410v-574c0 -59.333 -19.167 -108.166 -57.5 -146.499s-87.166 -57.5 -146.499 -57.5h459
c60 0 109 -19 147 -57s57 -87 57 -147v-368zM1393 286.999v205h-330l-164 -205h494z" />
    <glyph glyph-name="uFEC3" unicode="&#x637;" horiz-adv-x="1560" arabic-form="initial" 
d="M1562 206c0 -59.333 -19.333 -108.334 -58 -147.001s-87.334 -58 -146.001 -58h-1385v286h236l281 352c74 92.667 141.667 139 203 139v778h410v-574c0 -59.333 -19.167 -108.166 -57.5 -146.499s-87.166 -57.5 -146.499 -57.5h459c60 0 109 -19 147 -57s57 -87 57 -147
v-368zM1153 286.999v205h-330l-164 -205h494z" />
    <glyph glyph-name="uFEC4" unicode="&#x637;" horiz-adv-x="1564" arabic-form="medial" 
d="M1594 1h-32v286h32v-286zM1562 206c0 -59.333 -19.333 -108.334 -58 -147.001s-87.334 -58 -146.001 -58h-1385v286h236l281 352c74 92.667 141.667 139 203 139v778h410v-574c0 -59.333 -19.167 -108.166 -57.5 -146.499s-87.166 -57.5 -146.499 -57.5h459
c60 0 109 -19 147 -57s57 -87 57 -147v-368zM1153 286.999v205h-330l-164 -205h494z" />
    <glyph glyph-name="uFEC6" unicode="&#x638;" horiz-adv-x="1802" arabic-form="final" 
d="M1834 1h-32v286h32v-286zM1802 206c0 -59.333 -19.333 -108.334 -58 -147.001s-87.334 -58 -146.001 -58h-1415v286h266l281 352c74 92.667 141.667 139 203 139v778h410v-574c0 -59.333 -19.167 -108.166 -57.5 -146.499s-87.166 -57.5 -146.499 -57.5h459
c60 0 109 -19 147 -57s57 -87 57 -147v-368zM1393 286.999v205h-330l-164 -205h494zM1768 1148c0 -45.333 -16 -84 -48 -116s-70.667 -48 -116 -48c-44.667 0 -83.167 16.167 -115.5 48.5s-48.5 70.833 -48.5 115.5c0 45.333 16 84 48 116s70.667 48 116 48s84 -16 116 -48
s48 -70.667 48 -116z" />
    <glyph glyph-name="uFEC7" unicode="&#x638;" horiz-adv-x="1564" arabic-form="initial" 
d="M1562 206c0 -59.333 -19.333 -108.334 -58 -147.001s-87.334 -58 -146.001 -58h-1385v286h236l281 352c74 92.667 141.667 139 203 139v778h410v-574c0 -59.333 -19.167 -108.166 -57.5 -146.499s-87.166 -57.5 -146.499 -57.5h459c60 0 109 -19 147 -57s57 -87 57 -147
v-368zM1153 286.999v205h-330l-164 -205h494zM1518 1148c0 -45.333 -16 -84 -48 -116s-70.667 -48 -116 -48c-44.667 0 -83.167 16.167 -115.5 48.5s-48.5 70.833 -48.5 115.5c0 45.333 16 84 48 116s70.667 48 116 48s84 -16 116 -48s48 -70.667 48 -116z" />
    <glyph glyph-name="uFEC8" unicode="&#x638;" horiz-adv-x="1564" arabic-form="medial" 
d="M1594 1h-32v286h32v-286zM1562 206c0 -59.333 -19.333 -108.334 -58 -147.001s-87.334 -58 -146.001 -58h-1385v286h236l281 352c74 92.667 141.667 139 203 139v778h410v-574c0 -59.333 -19.167 -108.166 -57.5 -146.499s-87.166 -57.5 -146.499 -57.5h459
c60 0 109 -19 147 -57s57 -87 57 -147v-368zM1153 286.999v205h-330l-164 -205h494zM1518 1148c0 -45.333 -16 -84 -48 -116s-70.667 -48 -116 -48c-44.667 0 -83.167 16.167 -115.5 48.5s-48.5 70.833 -48.5 115.5c0 45.333 16 84 48 116s70.667 48 116 48s84 -16 116 -48
s48 -70.667 48 -116z" />
    <glyph glyph-name="uFECA" unicode="&#x639;" horiz-adv-x="1536" arabic-form="final" 
d="M1566 1l-972 0.000976562v-247c0 -53.333 20.833 -100.833 62.5 -142.5s89.167 -62.5 142.5 -62.5v-41h-410c-58 0 -106.667 19.667 -146 59s-59 88 -59 146v369c0 62 18.667 111.667 56 149s87 56 149 56h205v287c0 59.333 19.333 108.166 58 146.499
s87.667 57.5 147 57.5h737v-286l-205 -205h235v-286zM1208 492.001h-204v-205z" />
    <glyph glyph-name="uFECB" unicode="&#x639;" horiz-adv-x="1147" arabic-form="initial" 
d="M1147 1l-1178 0.000976562v286h236v287c0 59.333 19.333 108.166 58 146.499s87.667 57.5 147 57.5h614v-286h-410v-205h533v-286z" />
    <glyph glyph-name="uFECC" unicode="&#x639;" horiz-adv-x="1147" arabic-form="medial" 
d="M1177 1l-1208 0.000976562v286h236v287c0 59.333 19.333 108.166 58 146.499s87.667 57.5 147 57.5h737v-286l-205 -205h235v-286zM819 492.001h-205v-205z" />
    <glyph glyph-name="uFECE" unicode="&#x63a;" horiz-adv-x="1536" arabic-form="final" 
d="M1566 1l-972 0.000976562v-247c0 -53.333 20.833 -100.833 62.5 -142.5s89.167 -62.5 142.5 -62.5v-41h-410c-58 0 -106.667 19.667 -146 59s-59 88 -59 146v369c0 62 18.667 111.667 56 149s87 56 149 56h205v287c0 59.333 19.333 108.166 58 146.499
s87.667 57.5 147 57.5h737v-286l-205 -205h235v-286zM1208 492.001h-204v-205zM1248 1148c0 -45.333 -16 -84 -48 -116s-70.667 -48 -116 -48c-44.667 0 -83.167 16.167 -115.5 48.5s-48.5 70.833 -48.5 115.5c0 45.333 16 84 48 116s70.667 48 116 48s84 -16 116 -48
s48 -70.667 48 -116z" />
    <glyph glyph-name="uFECF" unicode="&#x63a;" horiz-adv-x="1147" arabic-form="initial" 
d="M1147 1l-1178 0.000976562v286h236v287c0 59.333 19.333 108.166 58 146.499s87.667 57.5 147 57.5h614v-286h-410v-205h533v-286zM778 1148c0 -45.333 -16 -84 -48 -116s-70.667 -48 -116 -48c-44.667 0 -83.167 16.167 -115.5 48.5s-48.5 70.833 -48.5 115.5
c0 45.333 16 84 48 116s70.667 48 116 48s84 -16 116 -48s48 -70.667 48 -116z" />
    <glyph glyph-name="uFED0" unicode="&#x63a;" horiz-adv-x="1147" arabic-form="medial" 
d="M1177 1l-1208 0.000976562v286h236v287c0 59.333 19.333 108.166 58 146.499s87.667 57.5 147 57.5h737v-286l-205 -205h235v-286zM819 492.001h-205v-205zM858 1148c0 -45.333 -16 -84 -48 -116s-70.667 -48 -116 -48c-44.667 0 -83.167 16.167 -115.5 48.5
s-48.5 70.833 -48.5 115.5c0 45.333 16 84 48 116s70.667 48 116 48s84 -16 116 -48s48 -70.667 48 -116z" />
    <glyph glyph-name="uFED2" unicode="&#x641;" horiz-adv-x="2111" arabic-form="final" 
d="M2143 1h-32v286h32v-286zM2111 205c0 -58.667 -19.5 -107.498 -58.5 -146.498s-87.5 -58.5 -145.5 -58.5h-1518c-57.333 0 -105.833 19.667 -145.5 59s-59.5 87.666 -59.5 144.999v410h410v-327h696c-57.333 0 -105.833 19.833 -145.5 59.5s-59.5 88.167 -59.5 145.5v205
c0 59.333 19.333 108.166 58 146.499s87.667 57.5 147 57.5h617c60 0 109 -19 147 -57s57 -87 57 -147v-492zM1701 287.002v327h-206v-122c0 -57.333 20 -105.833 60 -145.5s88.667 -59.5 146 -59.5zM1766 1273c0 -45.333 -16 -84 -48 -116s-70.667 -48 -116 -48
c-44.667 0 -83.167 16.167 -115.5 48.5s-48.5 70.833 -48.5 115.5c0 45.333 16 84 48 116s70.667 48 116 48s84 -16 116 -48s48 -70.667 48 -116z" />
    <glyph glyph-name="uFED3" unicode="&#x641;" horiz-adv-x="1230" arabic-form="initial" 
d="M1230 205c0 -48.667 -17 -93.332 -51 -133.999c-40 -47.333 -91.333 -71 -154 -71h-1056v287h440c-57.333 0 -105.833 19.833 -145.5 59.5s-59.5 88.167 -59.5 145.5v205c0 59.333 19.333 108.166 58 146.499s87.667 57.5 147 57.5h616c60 0 109.167 -19 147.5 -57
s57.5 -87 57.5 -147v-492zM819 287.002v327h-206v-122c0 -57.333 20 -105.833 60 -145.5s88.667 -59.5 146 -59.5zM884 1273c0 -45.333 -16 -84 -48 -116s-70.667 -48 -116 -48c-44.667 0 -83.167 16.167 -115.5 48.5s-48.5 70.833 -48.5 115.5c0 45.333 16 84 48 116
s70.667 48 116 48s84 -16 116 -48s48 -70.667 48 -116z" />
    <glyph glyph-name="uFED4" unicode="&#x641;" horiz-adv-x="1230" arabic-form="medial" 
d="M1262 1h-32v286h32v-286zM1230 205c0 -48.667 -17 -93.332 -51 -133.999c-40 -47.333 -91.333 -71 -154 -71h-1056v287h440c-57.333 0 -105.833 19.833 -145.5 59.5s-59.5 88.167 -59.5 145.5v205c0 59.333 19.333 108.166 58 146.499s87.667 57.5 147 57.5h616
c60 0 109.167 -19 147.5 -57s57.5 -87 57.5 -147v-492zM819 287.002v327h-206v-122c0 -57.333 20 -105.833 60 -145.5s88.667 -59.5 146 -59.5zM884 1273c0 -45.333 -16 -84 -48 -116s-70.667 -48 -116 -48c-44.667 0 -83.167 16.167 -115.5 48.5s-48.5 70.833 -48.5 115.5
c0 45.333 16 84 48 116s70.667 48 116 48s84 -16 116 -48s48 -70.667 48 -116z" />
    <glyph glyph-name="uFED6" unicode="&#x642;" horiz-adv-x="1906" arabic-form="final" 
d="M1938 1h-32v286h32v-286zM1906 -287c0 -61.333 -18.834 -110.831 -56.501 -148.498s-87.167 -56.5 -148.5 -56.5h-1312c-57.333 0 -105.833 19.667 -145.5 59s-59.5 87.666 -59.5 144.999v901h410v-818h902v205h-412c-57.333 0 -105.666 19.833 -144.999 59.5
s-59 88.167 -59 145.5v489c0 60 19 109 57 147s87 57 147 57h617c60.667 0 110 -18.833 148 -56.5s57 -86.834 57 -147.501v-981zM1496 287.002v325h-206v-325h206zM1728 1273c0 -45.333 -15.833 -84 -47.5 -116s-70.167 -48 -115.5 -48s-84 16 -116 48s-48 70.667 -48 116
s16 84 48 116s70.667 48 116 48s83.833 -16 115.5 -48s47.5 -70.667 47.5 -116zM1400 1273c0 -45.333 -16 -84 -48 -116s-70.667 -48 -116 -48c-44.667 0 -83.167 16.167 -115.5 48.5s-48.5 70.833 -48.5 115.5c0 45.333 16 84 48 116s70.667 48 116 48s84 -16 116 -48
s48 -70.667 48 -116z" />
    <glyph glyph-name="uFED7" unicode="&#x642;" horiz-adv-x="1230" arabic-form="initial" 
d="M1230 205c0 -48.667 -17 -93.332 -51 -133.999c-40 -47.333 -91.333 -71 -154 -71h-1056v287h440c-57.333 0 -105.833 19.833 -145.5 59.5s-59.5 88.167 -59.5 145.5v205c0 59.333 19.333 108.166 58 146.499s87.667 57.5 147 57.5h616c60 0 109.167 -19 147.5 -57
s57.5 -87 57.5 -147v-492zM819 287.002v327h-206v-122c0 -57.333 20 -105.833 60 -145.5s88.667 -59.5 146 -59.5zM1048 1273c0 -45.333 -15.833 -84 -47.5 -116s-70.167 -48 -115.5 -48s-84 16 -116 48s-48 70.667 -48 116s16 84 48 116s70.667 48 116 48
s83.833 -16 115.5 -48s47.5 -70.667 47.5 -116zM720 1273c0 -45.333 -16 -84 -48 -116s-70.667 -48 -116 -48c-44.667 0 -83.167 16.167 -115.5 48.5s-48.5 70.833 -48.5 115.5c0 45.333 16 84 48 116s70.667 48 116 48s84 -16 116 -48s48 -70.667 48 -116z" />
    <glyph glyph-name="uFED8" unicode="&#x642;" horiz-adv-x="1230" arabic-form="medial" 
d="M1262 1h-32v286h32v-286zM1230 205c0 -48.667 -17 -93.332 -51 -133.999c-40 -47.333 -91.333 -71 -154 -71h-1056v287h440c-57.333 0 -105.833 19.833 -145.5 59.5s-59.5 88.167 -59.5 145.5v205c0 59.333 19.333 108.166 58 146.499s87.667 57.5 147 57.5h616
c60 0 109.167 -19 147.5 -57s57.5 -87 57.5 -147v-492zM819 287.002v327h-206v-122c0 -57.333 20 -105.833 60 -145.5s88.667 -59.5 146 -59.5zM1048 1273c0 -45.333 -15.833 -84 -47.5 -116s-70.167 -48 -115.5 -48s-84 16 -116 48s-48 70.667 -48 116s16 84 48 116
s70.667 48 116 48s83.833 -16 115.5 -48s47.5 -70.667 47.5 -116zM720 1273c0 -45.333 -16 -84 -48 -116s-70.667 -48 -116 -48c-44.667 0 -83.167 16.167 -115.5 48.5s-48.5 70.833 -48.5 115.5c0 45.333 16 84 48 116s70.667 48 116 48s84 -16 116 -48s48 -70.667 48 -116
z" />
    <glyph glyph-name="uFEDE" unicode="&#x644;" horiz-adv-x="1495" arabic-form="final" 
d="M1528 1h-32v286h32v-286zM1495 -287c0 -58 -19.667 -106.667 -59 -146s-88 -59 -146 -59h-901c-58 0 -106.667 19.667 -146 59s-59 88 -59 146v901h410v-819h491v1761h410v-1843z" />
    <glyph glyph-name="uFEDF" unicode="&#x644;" horiz-adv-x="614" arabic-form="initial" 
d="M614 206c0 -58 -19.5 -106.667 -58.5 -146s-87.5 -59 -145.5 -59h-441v286h236v1269h409v-1350z" />
    <glyph glyph-name="uFEE0" unicode="&#x644;" horiz-adv-x="614" arabic-form="medial" 
d="M614 206c0 -58 -19.5 -106.667 -58.5 -146s-87.5 -59 -145.5 -59h-441v286h236v1269h409v-1350zM646 1h-32v286h32v-286z" />
    <glyph glyph-name="uFEE2" unicode="&#x645;" horiz-adv-x="1618" arabic-form="final" 
d="M1650 1h-32v286h32v-286zM1618 207c0 -56.667 -20 -105.166 -60 -145.499s-88.333 -60.5 -145 -60.5h-819v-493h-410v574c0 58.667 19.5 107.5 58.5 146.5s87.833 58.5 146.5 58.5h205v287c0 59.333 19.333 108.166 58 146.499s87.667 57.5 147 57.5h614
c60 0 109.167 -19 147.5 -57s57.5 -87 57.5 -147v-367zM1208 287.001v205h-204v-205h204z" />
    <glyph glyph-name="uFEE3" unicode="&#x645;" horiz-adv-x="1229" arabic-form="initial" 
d="M1229 207c0 -56.667 -20 -105.166 -60 -145.499s-88.333 -60.5 -145 -60.5h-410v286h205v205h-205v-285c0 -58.667 -19.5 -107.667 -58.5 -147s-87.5 -59 -145.5 -59h-441v286h236v287c0 59.333 19.333 108.166 58 146.499s87.667 57.5 147 57.5h614
c60 0 109.167 -19 147.5 -57s57.5 -87 57.5 -147v-367z" />
    <glyph glyph-name="uFEE4" unicode="&#x645;" horiz-adv-x="1229" arabic-form="medial" 
d="M1261 1h-32v286h32v-286zM1229 207c0 -56.667 -20 -105.166 -60 -145.499s-88.333 -60.5 -145 -60.5h-410v286h205v205h-205v-285c0 -58.667 -19.5 -107.667 -58.5 -147s-87.5 -59 -145.5 -59h-441v286h236v287c0 59.333 19.333 108.166 58 146.499s87.667 57.5 147 57.5
h614c60 0 109.167 -19 147.5 -57s57.5 -87 57.5 -147v-367z" />
    <glyph glyph-name="uFEE6" unicode="&#x646;" horiz-adv-x="1495" arabic-form="final" 
d="M1527 1h-32v286h32v-286zM1495 -287c0 -58 -19.667 -106.667 -59 -146s-88 -59 -146 -59h-901c-58 0 -106.667 19.667 -146 59s-59 88 -59 146v1065h410v-983h491v983h410v-1065zM998 613c0 -45.333 -16 -84 -48 -116s-70.667 -48 -116 -48
c-44.667 0 -83.167 16.167 -115.5 48.5s-48.5 70.833 -48.5 115.5c0 45.333 16 84 48 116s70.667 48 116 48s84 -16 116 -48s48 -70.667 48 -116z" />
    <glyph glyph-name="uFEE7" unicode="&#x646;" horiz-adv-x="615" arabic-form="initial" 
d="M615 205c0 -57.333 -19.668 -105.667 -59.001 -145s-87.666 -59 -144.999 -59h-443v286h238v491h409v-573zM560.999 1147c0 -45.333 -16 -84 -48 -116s-70.667 -48 -116 -48c-44.667 0 -83.167 16.167 -115.5 48.5s-48.5 70.833 -48.5 115.5c0 45.333 16 84 48 116
s70.667 48 116 48s84 -16 116 -48s48 -70.667 48 -116z" />
    <glyph glyph-name="uFEE8" unicode="&#x646;" horiz-adv-x="615" arabic-form="medial" 
d="M647 1h-32v286h32v-286zM615 205c0 -57.333 -19.668 -105.667 -59.001 -145s-87.666 -59 -144.999 -59h-443v286h238v491h409v-573zM560.999 1147c0 -45.333 -16 -84 -48 -116s-70.667 -48 -116 -48c-44.667 0 -83.167 16.167 -115.5 48.5s-48.5 70.833 -48.5 115.5
c0 45.333 16 84 48 116s70.667 48 116 48s84 -16 116 -48s48 -70.667 48 -116z" />
    <glyph glyph-name="uFEEA" unicode="&#x647;" horiz-adv-x="1207" arabic-form="final" 
d="M1239 1h-32v286h32v-286zM1207 1l-205.001 0.000976562c-57.333 0 -105.666 19.833 -144.999 59.5s-59 88.5 -59 146.5v285h-205v-205h123v-286h-328c-56.667 0 -105 20.167 -145 60.5s-60 88.833 -60 145.5v367c0 59.333 19.333 108.166 58 146.499
s87.667 57.5 147 57.5h614c60 0 109.167 -19 147.5 -57s57.5 -87 57.5 -147v-573z" />
    <glyph glyph-name="uFEEB" unicode="&#x647;" horiz-adv-x="1843" arabic-form="initial" 
d="M1843 207c0 -49.333 -17 -94.332 -51 -134.999c-40 -47.333 -91.333 -71 -154 -71h-1669v286h236v287c0 59.333 19.333 108.166 58 146.499s87.667 57.5 147 57.5h409v205h410v-205h409c60 0 109.167 -19 147.5 -57s57.5 -87 57.5 -147v-367zM1434 287.001v205h-205v-205
h205zM819 287.001v205h-205v-205h205z" />
    <glyph glyph-name="uFEEC" unicode="&#x647;" horiz-adv-x="1843" arabic-form="medial" 
d="M1875 1h-32v286h32v-286zM1843 207c0 -49.333 -17 -94.332 -51 -134.999c-40 -47.333 -91.333 -71 -154 -71h-1669v286h236v287c0 59.333 19.333 108.166 58 146.499s87.667 57.5 147 57.5h409v205h410v-205h409c60 0 109.167 -19 147.5 -57s57.5 -87 57.5 -147v-367z
M1434 287.001v205h-205v-205h205zM819 287.001v205h-205v-205h205z" />
    <glyph glyph-name="uFEEE" unicode="&#x648;" horiz-adv-x="1208" arabic-form="final" 
d="M1240 1h-32v286h32v-286zM1208 -287c0 -58 -19.499 -106.667 -58.499 -146s-87.5 -59 -145.5 -59h-820v287h615v206h-615v573c0 59.333 19.333 108.166 58 146.499s87.667 57.5 147 57.5h615c59.333 0 108.166 -19.167 146.499 -57.5s57.5 -87.166 57.5 -146.499v-861z
M799.001 287v205h-205v-205h205z" />
    <glyph glyph-name="uFEF0" unicode="&#x649;" horiz-adv-x="1618" arabic-form="final" 
d="M1650 1h-32v286h32v-286zM1618 -287c0 -58 -19.667 -106.667 -59 -146s-88 -59 -146 -59h-1024c-58 0 -106.667 19.667 -146 59s-59 88 -59 146v779h410v-697h614v206h-409v286h819v-574z" />
    <glyph glyph-name=".notdef" horiz-adv-x="1024" 
d="M128 0v1359h768v-1359h-768zM256 128h512v1103h-512v-1103z" />
    <glyph glyph-name="space" unicode=" " horiz-adv-x="400" 
 />
    <glyph glyph-name="exclam" unicode="!" horiz-adv-x="594" 
d="M594 390l-410 -0.000976562v1023h205c57.333 0 105.833 -19.667 145.5 -59s59.5 -87.666 59.5 -144.999v-819zM553 62.999c0 -45.333 -16 -83.833 -48 -115.5s-70.667 -47.5 -116 -47.5s-84 15.833 -116 47.5s-48 70.167 -48 115.5s16 84 48 116s70.667 48 116 48
s84 -16 116 -48s48 -70.667 48 -116z" />
    <glyph glyph-name="percent" unicode="%" horiz-adv-x="1005" 
d="M512 1188c0 -45.333 -16 -84 -48 -116s-70.667 -48 -116 -48c-44.667 0 -83.167 16.167 -115.5 48.5s-48.5 70.833 -48.5 115.5c0 45.333 16 84 48 116s70.667 48 116 48s84 -16 116 -48s48 -70.667 48 -116zM1005 1434l-534 -1434h-287l533 1434h288zM1005 246
c0 -45.333 -16 -84 -48 -116s-70.667 -48 -116 -48c-44.667 0 -83.167 16.167 -115.5 48.5s-48.5 70.833 -48.5 115.5c0 45.333 16 84 48 116s70.667 48 116 48s84 -16 116 -48s48 -70.667 48 -116z" />
    <glyph glyph-name="parenleft" unicode="(" horiz-adv-x="860" 
d="M860 -204h-471c-58.667 0 -107.5 19.5 -146.5 58.5s-58.5 87.833 -58.5 146.5v1432c0 58 19.667 106.5 59 145.5s88 58.5 146 58.5h471v-285h-266v-1270h266v-286z" />
    <glyph glyph-name="parenright" unicode=")" horiz-adv-x="860" 
d="M184 -204h471c58.667 0 107.5 19.5 146.5 58.5s58.5 87.833 58.5 146.5v1432c0 58 -19.667 106.5 -59 145.5s-88 58.5 -146 58.5h-471v-285h266v-1270h-266v-286z" />
    <glyph glyph-name="asterisk" unicode="*" horiz-adv-x="1595" 
d="M1588 702c0 -38 -12.5 -69.667 -37.5 -95s-56.5 -38 -94.5 -38h-251l271 -271l-94 -94c-27.333 -27.333 -59 -41 -95 -41c-35.333 0 -66.333 13.333 -93 40l-177 178v-383h-133c-38 0 -69.667 12.5 -95 37.5s-38 56.5 -38 94.5v251l-271 -271l-94 94
c-27.333 27.333 -41 59 -41 95c0 35.333 13.333 66.333 40 93l177 177h-382v133c0 38 12.5 69.667 37.5 95s56.5 38 94.5 38h249l-269 271l94 94c27.333 27.333 59 41 95 41c35.333 0 66.333 -13.333 93 -40l176 -177l1 382h133c38 0 69.667 -12.5 95 -37.5
s38 -56.5 38 -94.5v-251l271 271l94 -94c27.333 -27.333 41 -59 41 -95c0 -35.333 -13.333 -66.333 -40 -93l-178 -177h383v-133zM1030 700c0 38.667 -13.667 71.667 -41 99s-60.333 41 -99 41s-71.667 -13.667 -99 -41s-41 -60.333 -41 -99s13.667 -71.667 41 -99
s60.333 -41 99 -41s71.667 13.667 99 41s41 60.333 41 99z" />
    <glyph glyph-name="plus" unicode="+" horiz-adv-x="1413" 
d="M1413 370h-409v-369h-410v369h-410v244h410v368h410v-368h409v-244z" />
    <glyph glyph-name="comma" unicode="," horiz-adv-x="512" 
d="M179 331l122.001 0.000976562c63.333 0 114 -24 152 -72c35.333 -44 53 -98.333 53 -163v-92c0 -94.667 -30.333 -184.334 -91 -269.001c-66.667 -93.333 -145.334 -140 -236.001 -140v205c81.333 32 122 100 122 204h-122v327z" />
    <glyph glyph-name="hyphen" unicode="-" horiz-adv-x="1413" 
d="M1413 370h-1229v244h1229v-244z" />
    <glyph glyph-name="period" unicode="." horiz-adv-x="512" 
d="M512 1h-122c-136.667 0 -205 67.667 -205 203v124h327v-327z" />
    <glyph glyph-name="slash" unicode="/" horiz-adv-x="1005" 
d="M1005 1556l-534 -1679h-287l533 1679h288z" />
    <glyph glyph-name="zero" unicode="0" horiz-adv-x="814" 
d="M747 288l-533 -0.000976562v532h328c57.333 0 105.833 -19.667 145.5 -59s59.5 -87.666 59.5 -144.999v-328z" />
    <glyph glyph-name="zero" unicode="&#x6f0;" horiz-adv-x="814" 
d="M747 288l-533 -0.000976562v532h328c57.333 0 105.833 -19.667 145.5 -59s59.5 -87.666 59.5 -144.999v-328z" />
    <glyph glyph-name="zero" unicode="&#x660;" horiz-adv-x="814" 
d="M747 288l-533 -0.000976562v532h328c57.333 0 105.833 -19.667 145.5 -59s59.5 -87.666 59.5 -144.999v-328z" />
    <glyph glyph-name="one" unicode="1" horiz-adv-x="797" 
d="M666 1h-409v1433h409v-1433z" />
    <glyph glyph-name="one" unicode="&#x6f1;" horiz-adv-x="797" 
d="M666 1h-409v1433h409v-1433z" />
    <glyph glyph-name="one" unicode="&#x661;" horiz-adv-x="797" 
d="M666 1h-409v1433h409v-1433z" />
    <glyph glyph-name="two" unicode="2" horiz-adv-x="1208" 
d="M1208 821c0 -59.333 -19.332 -108.5 -57.999 -147.5s-87.334 -58.5 -146.001 -58.5h-410v-614h-410v1433h410v-533h205v533h409v-613z" />
    <glyph glyph-name="two" unicode="&#x6f2;" horiz-adv-x="1208" 
d="M1208 821c0 -59.333 -19.332 -108.5 -57.999 -147.5s-87.334 -58.5 -146.001 -58.5h-410v-614h-410v1433h410v-533h205v533h409v-613z" />
    <glyph glyph-name="two" unicode="&#x662;" horiz-adv-x="1208" 
d="M1208 821c0 -59.333 -19.332 -108.5 -57.999 -147.5s-87.334 -58.5 -146.001 -58.5h-410v-614h-410v1433h410v-533h205v533h409v-613z" />
    <glyph glyph-name="three" unicode="3" horiz-adv-x="1618" 
d="M1618 821c0 -59.333 -19.334 -108.5 -58.001 -147.5s-87.667 -58.5 -147 -58.5h-205v206c0 -57.333 -19.667 -106 -59 -146s-87.666 -60 -144.999 -60h-410v-614h-410v1433h410v-533h205v533h409v-533h123v533h287v-613z" />
    <glyph glyph-name="three" unicode="&#x6f3;" horiz-adv-x="1618" 
d="M1618 821c0 -59.333 -19.334 -108.5 -58.001 -147.5s-87.667 -58.5 -147 -58.5h-205v206c0 -57.333 -19.667 -106 -59 -146s-87.666 -60 -144.999 -60h-410v-614h-410v1433h410v-533h205v533h409v-533h123v533h287v-613z" />
    <glyph glyph-name="three" unicode="&#x663;" horiz-adv-x="1618" 
d="M1618 821c0 -59.333 -19.334 -108.5 -58.001 -147.5s-87.667 -58.5 -147 -58.5h-205v206c0 -57.333 -19.667 -106 -59 -146s-87.666 -60 -144.999 -60h-410v-614h-410v1433h410v-533h205v533h409v-533h123v533h287v-613z" />
    <glyph glyph-name="four" unicode="4" horiz-adv-x="1540" 
d="M1538 615l-944 0.000976562v-614h-410v1433h410v-533h125v329c0 59.333 19.333 108.166 58 146.499s87.667 57.5 147 57.5h491v-287h-287v-246h410v-286z" />
    <glyph glyph-name="four" unicode="&#x6f4;" horiz-adv-x="1540" 
d="M1538 615l-944 0.000976562v-614h-410v1433h410v-533h125v329c0 59.333 19.333 108.166 58 146.499s87.667 57.5 147 57.5h491v-287h-287v-246h410v-286z" />
    <glyph glyph-name="four" unicode="&#x664;" horiz-adv-x="1540" 
d="M1538 615l-944 0.000976562v-614h-410v1433h410v-533h125v329c0 59.333 19.333 108.166 58 146.499s87.667 57.5 147 57.5h491v-287h-287v-246h410v-286z" />
    <glyph glyph-name="five" unicode="5" horiz-adv-x="1619" 
d="M1619 207c0 -59.333 -19.333 -108.501 -58 -147.501s-87.667 -58.5 -147 -58.5h-409v204c0 -55.333 -20.333 -103.166 -61 -143.499s-88.667 -60.5 -144 -60.5h-410c-57.333 0 -105.833 19.667 -145.5 59s-59.5 87.666 -59.5 144.999v901h287v-819h123v320h410v-320h204
v860h-1022v287h1227c57.333 0 105.833 -19.667 145.5 -59s59.5 -87.666 59.5 -144.999v-1023z" />
    <glyph glyph-name="five" unicode="&#x6f5;" horiz-adv-x="1619" 
d="M1619 207c0 -59.333 -19.333 -108.501 -58 -147.501s-87.667 -58.5 -147 -58.5h-409v204c0 -55.333 -20.333 -103.166 -61 -143.499s-88.667 -60.5 -144 -60.5h-410c-57.333 0 -105.833 19.667 -145.5 59s-59.5 87.666 -59.5 144.999v901h287v-819h123v320h410v-320h204
v860h-1022v287h1227c57.333 0 105.833 -19.667 145.5 -59s59.5 -87.666 59.5 -144.999v-1023z" />
    <glyph glyph-name="five" unicode="&#x665;" horiz-adv-x="1619" 
d="M1619 207c0 -59.333 -19.333 -108.501 -58 -147.501s-87.667 -58.5 -147 -58.5h-409v204c0 -55.333 -20.333 -103.166 -61 -143.499s-88.667 -60.5 -144 -60.5h-410c-57.333 0 -105.833 19.667 -145.5 59s-59.5 87.666 -59.5 144.999v901h287v-819h123v320h410v-320h204
v860h-1022v287h1227c57.333 0 105.833 -19.667 145.5 -59s59.5 -87.666 59.5 -144.999v-1023z" />
    <glyph glyph-name="six" unicode="6" horiz-adv-x="1085" 
d="M1085 1l-408.999 -0.000976562l1 1146h-492v287h696c57.333 0 105.666 -19.667 144.999 -59s59 -87.666 59 -144.999v-1229z" />
    <glyph glyph-name="six" unicode="&#x6f6;" horiz-adv-x="1085" 
d="M1085 1l-408.999 -0.000976562l1 1146h-492v287h696c57.333 0 105.666 -19.667 144.999 -59s59 -87.666 59 -144.999v-1229z" />
    <glyph glyph-name="six" unicode="&#x666;" horiz-adv-x="1085" 
d="M1085 1l-408.999 -0.000976562l1 1146h-492v287h696c57.333 0 105.666 -19.667 144.999 -59s59 -87.666 59 -144.999v-1229z" />
    <glyph glyph-name="seven" unicode="7" horiz-adv-x="1208" 
d="M1208 207c0 -59.333 -19.332 -108.5 -57.999 -147.5s-87.334 -58.5 -146.001 -58.5h-614c-60.667 0 -110.167 18.5 -148.5 55.5s-57.5 85.5 -57.5 145.5v1232h410v-1147h205v1147h409v-1227z" />
    <glyph glyph-name="seven" unicode="&#x6f7;" horiz-adv-x="1208" 
d="M1208 207c0 -59.333 -19.332 -108.5 -57.999 -147.5s-87.334 -58.5 -146.001 -58.5h-614c-60.667 0 -110.167 18.5 -148.5 55.5s-57.5 85.5 -57.5 145.5v1232h410v-1147h205v1147h409v-1227z" />
    <glyph glyph-name="seven" unicode="&#x667;" horiz-adv-x="1208" 
d="M1208 207c0 -59.333 -19.332 -108.5 -57.999 -147.5s-87.334 -58.5 -146.001 -58.5h-614c-60.667 0 -110.167 18.5 -148.5 55.5s-57.5 85.5 -57.5 145.5v1232h410v-1147h205v1147h409v-1227z" />
    <glyph glyph-name="eight" unicode="8" horiz-adv-x="1208" 
d="M1208 1228c0 59.333 -19.332 108.5 -57.999 147.5s-87.334 58.5 -146.001 58.5h-614c-60.667 0 -110.167 -18.5 -148.5 -55.5s-57.5 -85.5 -57.5 -145.5v-1232h410v1147h205v-1147h409v1227z" />
    <glyph glyph-name="eight" unicode="&#x6f8;" horiz-adv-x="1208" 
d="M1208 1228c0 59.333 -19.332 108.5 -57.999 147.5s-87.334 58.5 -146.001 58.5h-614c-60.667 0 -110.167 -18.5 -148.5 -55.5s-57.5 -85.5 -57.5 -145.5v-1232h410v1147h205v-1147h409v1227z" />
    <glyph glyph-name="eight" unicode="&#x668;" horiz-adv-x="1208" 
d="M1208 1228c0 59.333 -19.332 108.5 -57.999 147.5s-87.334 58.5 -146.001 58.5h-614c-60.667 0 -110.167 -18.5 -148.5 -55.5s-57.5 -85.5 -57.5 -145.5v-1232h410v1147h205v-1147h409v1227z" />
    <glyph glyph-name="nine" unicode="9" horiz-adv-x="1208" 
d="M1208 1l-409 0.000976562l1 614h-410c-60.667 0 -110.167 18.5 -148.5 55.5s-57.5 85.5 -57.5 145.5v414c0 59.333 19.333 108.166 58 146.499s87.667 57.5 147 57.5h615c58 0 106.5 -19.5 145.5 -58.5s58.5 -87.5 58.5 -145.5v-1229zM799 901.001v246h-205v-246h205z
" />
    <glyph glyph-name="nine" unicode="&#x6f9;" horiz-adv-x="1208" 
d="M1208 1l-409 0.000976562l1 614h-410c-60.667 0 -110.167 18.5 -148.5 55.5s-57.5 85.5 -57.5 145.5v414c0 59.333 19.333 108.166 58 146.499s87.667 57.5 147 57.5h615c58 0 106.5 -19.5 145.5 -58.5s58.5 -87.5 58.5 -145.5v-1229zM799 901.001v246h-205v-246h205z
" />
    <glyph glyph-name="nine" unicode="&#x669;" horiz-adv-x="1208" 
d="M1208 1l-409 0.000976562l1 614h-410c-60.667 0 -110.167 18.5 -148.5 55.5s-57.5 85.5 -57.5 145.5v414c0 59.333 19.333 108.166 58 146.499s87.667 57.5 147 57.5h615c58 0 106.5 -19.5 145.5 -58.5s58.5 -87.5 58.5 -145.5v-1229zM799 901.001v246h-205v-246h205z
" />
    <glyph glyph-name="colon" unicode=":" horiz-adv-x="512" 
d="M512 1h-122c-136.667 0 -205 67.667 -205 203v124h327v-327zM512 531h-122c-136.667 0 -205 67.667 -205 203v124h327v-327z" />
    <glyph glyph-name="equal" unicode="=" horiz-adv-x="1413" 
d="M1413 580h-1229v244h1229v-244zM1413 180h-1229v244h1229v-244z" />
    <glyph glyph-name="bracketleft" unicode="[" horiz-adv-x="860" 
d="M860 -474h-471c-58.667 0 -107.5 19.5 -146.5 58.5s-58.5 87.833 -58.5 146.5v1702c0 58 19.667 106.5 59 145.5s88 58.5 146 58.5h471v-285h-416v-1540h416v-286z" />
    <glyph glyph-name="bracketright" unicode="]" horiz-adv-x="860" 
d="M860 -269c0 -58.667 -19.5 -107.5 -58.5 -146.5s-87.833 -58.5 -146.5 -58.5h-471v286h416v1540h-416v285h471c58 0 106.667 -19.5 146 -58.5s59 -87.5 59 -145.5v-1702z" />
    <glyph glyph-name="braceleft" unicode="{" horiz-adv-x="981" 
d="M832 -320c-101.333 18 -184.332 61.001 -248.999 129.001c-68.667 71.333 -103 157 -103 257c0 40.667 8.66699 99.667 26 177c12.667 56.667 19 94 19 112c0 64.667 -24 119 -72 163c-44.667 41.333 -100 65.666 -166 72.999v38c159.333 34.667 239 107.667 239 219
c0 31.333 -5.33301 72 -16 122c-18 84 -27 146.667 -27 188c0 100.667 33.667 186.334 101 257.001c64 68 146.667 110.333 248 127v-40c-62.667 -9.33301 -114.334 -33.666 -155.001 -72.999c-44.667 -42.667 -67 -94.334 -67 -155.001c0 -30.667 4.33301 -69 13 -115
c20 -106.667 30 -176.667 30 -210c0 -149.333 -95.333 -261.333 -286 -336c188.667 -77.333 283 -194 283 -350c0 -32.667 -9 -92.334 -27 -179.001c-11.333 -54.667 -17 -99.667 -17 -135c0 -120 75.333 -197.667 226 -233v-36z" />
    <glyph glyph-name="braceright" unicode="}" horiz-adv-x="981" 
d="M695 593c-159.333 -34.667 -239.001 -107.994 -239.001 -219.994c0 -34.667 5 -75.334 15 -122.001c18.667 -87.333 28 -149.666 28 -186.999c0 -100.667 -33.667 -186.334 -101 -257.001c-64 -68 -146.667 -110.333 -248 -127v40
c62.667 9.33301 114.334 33.666 155.001 72.999c44 42 66 93.667 66 155c0 32 -4 70 -12 114c-20 109.333 -30 179.666 -30 210.999c0 148.667 95 260.667 285 336c-188 77.333 -282 193.666 -282 348.999c0 36.667 8.66699 96.667 26 180c12 58 18 103 18 135
c0 120 -75.333 197.667 -226 233v36c101.333 -18.667 184.333 -61.667 249 -129c68.667 -70.667 103 -156.334 103 -257.001c0 -38 -9 -97 -27 -177c-12 -53.333 -18 -91 -18 -113c0 -64.667 24.333 -118.667 73 -162c42.667 -38.667 97.667 -63.334 165 -74.001v-37z" />
    <glyph glyph-name="guillemotleft" unicode="&#xab;" horiz-adv-x="952" 
d="M952 -55l-240.999 0.000976562c-30 0 -55 10 -75 30s-30 45 -30 75v733c0 29.333 10.167 54.166 30.5 74.499s45.166 30.5 74.499 30.5h241v-146h-136v-651h136v-146zM532.001 -54.999l-240.999 0.000976562c-30 0 -55 10 -75 30s-30 45 -30 75v733
c0 29.333 10.167 54.166 30.5 74.499s45.166 30.5 74.499 30.5h241v-146h-136v-651h136v-146z" />
    <glyph glyph-name="periodcentered" unicode="&#xb7;" horiz-adv-x="405" 
d="M326 768c0 -33.333 -11.832 -61.668 -35.499 -85.001s-52.167 -35 -85.5 -35c-32.667 0 -60.834 11.833 -84.501 35.5s-35.5 51.834 -35.5 84.501s11.5 61 34.5 85s50.833 36 83.5 36c34 0 63 -11.667 87 -35s36 -52 36 -86z" />
    <glyph glyph-name="periodcentered" unicode="&#x2219;" horiz-adv-x="405" 
d="M326 768c0 -33.333 -11.832 -61.668 -35.499 -85.001s-52.167 -35 -85.5 -35c-32.667 0 -60.834 11.833 -84.501 35.5s-35.5 51.834 -35.5 84.501s11.5 61 34.5 85s50.833 36 83.5 36c34 0 63 -11.667 87 -35s36 -52 36 -86z" />
    <glyph glyph-name="periodcentered" unicode="&#x2d9;" horiz-adv-x="405" 
d="M326 768c0 -33.333 -11.832 -61.668 -35.499 -85.001s-52.167 -35 -85.5 -35c-32.667 0 -60.834 11.833 -84.501 35.5s-35.5 51.834 -35.5 84.501s11.5 61 34.5 85s50.833 36 83.5 36c34 0 63 -11.667 87 -35s36 -52 36 -86z" />
    <glyph glyph-name="guillemotright" unicode="&#xbb;" horiz-adv-x="952" 
d="M186 -55l240.999 0.000976562c30 0 55 10 75 30s30 45 30 75v733c0 29.333 -10.167 54.166 -30.5 74.499s-45.166 30.5 -74.499 30.5h-241v-146h136v-651h-136v-146zM605.999 -54.999l240.999 0.000976562c30 0 55 10 75 30s30 45 30 75v733
c0 29.333 -10.167 54.166 -30.5 74.499s-45.166 30.5 -74.499 30.5h-241v-146h136v-651h-136v-146z" />
    <glyph glyph-name="multiply" unicode="&#xd7;" horiz-adv-x="946" 
d="M802 219l-58 -57l-277 275l-277 -275l-59 57l275 278l-275 278l62 56l274 -276l277 276l58 -56l-279 -278z" />
    <glyph glyph-name="divide" unicode="&#xf7;" horiz-adv-x="1413" 
d="M1413 370h-1229v244h1229v-244zM952 -89h-122c-136.667 0 -205 67.667 -205 203v124h327v-327zM912 751h-122c-136.667 0 -205 67.667 -205 203v124h327v-327z" />
    <glyph glyph-name="u060C" unicode="&#x60c;" horiz-adv-x="512" 
d="M512 1l-122.001 -0.000976562c-63.333 0 -114 24 -152 72c-35.333 44 -53 98.333 -53 163v92c0 94.667 30.333 184.334 91 269.001c66.667 93.333 145.334 140 236.001 140v-205c-81.333 -32 -122 -100 -122 -204h122v-327z" />
    <glyph glyph-name="u061B" unicode="&#x61b;" horiz-adv-x="512" 
d="M512 1h-122c-136.667 0 -205 67.667 -205 203v124h327v-327zM512 441l-122.001 -0.000976562c-63.333 0 -114 24 -152 72c-35.333 44 -53 98.333 -53 163v92c0 94.667 30.333 184.334 91 269.001c66.667 93.333 145.334 140 236.001 140v-205
c-81.333 -32 -122 -100 -122 -204h122v-327z" />
    <glyph glyph-name="u061F" unicode="&#x61f;" horiz-adv-x="1207" 
d="M1212 387l-408.001 0.000976562v206h-411c-59.333 0 -108.166 19.333 -146.499 58s-57.5 87.667 -57.5 147v368c0 60 19 109.167 57 147.5s87 57.5 147 57.5h614c60.667 0 110 -19 148 -57s57 -87.333 57 -148v-205h-408v123h-205v-205h408
c60.667 0 110 -18.833 148 -56.5s57 -86.834 57 -147.501v-288zM1167 63.001c0 -45.333 -15.833 -83.833 -47.5 -115.5s-70.167 -47.5 -115.5 -47.5s-84 15.833 -116 47.5s-48 70.167 -48 115.5s16 84 48 116s70.667 48 116 48s83.833 -16 115.5 -48s47.5 -70.667 47.5 -116
z" />
    <glyph glyph-name="u0621" unicode="&#x621;" horiz-adv-x="819" 
d="M821 2h-637.001v156h128v154c0 32.667 10.333 59.167 31 79.5s47.334 30.5 80.001 30.5h331v-153h-221v-112h288v-155z" />
    <glyph glyph-name="u0640" unicode="&#x640;" horiz-adv-x="832" 
d="M861 1h-891v286h891v-286z" />
    <glyph glyph-name="u064B" unicode="&#x64b;" 
d="M417 1964l-331 -103.001c-4 -1.33301 -8.33301 -2 -13 -2c-25.333 0 -38 13.667 -38 41c0 20 12 34 36 42l319 101c6 2 12 3 18 3c28.667 0 43 -14 43 -42c0 -19.333 -11.333 -32.666 -34 -39.999zM425 1790l-330 -103c-4 -1.33301 -8.33301 -2 -13 -2
c-25.333 0 -38 13.667 -38 41c0 20.667 11.667 34.667 35 42l319 101c5.33301 2 11.333 3 18 3c29.333 0 44 -13.667 44 -41c0 -20 -11.667 -33.667 -35 -41z" />
    <glyph glyph-name="u064C" unicode="&#x64c;" 
d="M461 1987c0 -60.667 -29 -113 -87 -157c20.667 -14.667 31 -30 31 -46c0 -19.333 -11.333 -29 -34 -29c-18 0 -37.333 8 -58 24c-126 -66.667 -214.333 -100 -265 -100c-30 0 -45 12.333 -45 37c0 20 12 33 36 39c38.667 10.667 58 33.334 58 68.001c0 16 -11 24 -33 24
c-16 0 -31.333 -4.33301 -46 -13c-8.66699 -5.33301 -16 -8 -22 -8c-14 0 -21 7.33301 -21 22c0 11.333 5.33301 22.666 16 33.999c24 23.333 53.667 35 89 35c52.667 0 79 -24 79 -72c0 -17.333 -5 -36.333 -15 -57c33.333 12.667 67 29.667 101 51
c-25.333 26 -38 55.333 -38 88c0 40 14.833 76.167 44.5 108.5s64.167 48.5 103.5 48.5c28 0 52.667 -9.16699 74 -27.5s32 -41.5 32 -69.5zM385 1958c0 32.667 -15.667 48.999 -47 48.999c-15.333 0 -29.333 -7.5 -42 -22.5s-19 -30.5 -19 -46.5
c0 -25.333 13.333 -45.333 40 -60c15.333 4.66699 30.5 15.334 45.5 32.001s22.5 32.667 22.5 48z" />
    <glyph glyph-name="u064D" unicode="&#x64d;" 
d="M415 -926l-331.001 -104c-3.33301 -0.666992 -7.66602 -1 -12.999 -1c-24.667 0 -37 13.333 -37 40c0 20.667 12 34.667 36 42l319 102c5.33301 1.33301 11.333 2 18 2c28.667 0 43 -13.667 43 -41c0 -20 -11.667 -33.333 -35 -40zM422.999 -1092l-330 -103
c-4 -0.666992 -8.33301 -1 -13 -1c-25.333 0 -38 13 -38 39c0 20.667 11.667 34.667 35 42l320 103c5.33301 1.33301 11.333 2 18 2c28.667 0 43 -13.667 43 -41c0 -20 -11.667 -33.667 -35 -41z" />
    <glyph glyph-name="u064E" unicode="&#x64e;" 
d="M425 1790l-330 -103c-4 -1.33301 -8.33301 -2 -13 -2c-25.333 0 -38 13.667 -38 41c0 20.667 11.667 34.667 35 42l319 101c5.33301 2 11.333 3 18 3c29.333 0 44 -13.667 44 -41c0 -20 -11.667 -33.667 -35 -41z" />
    <glyph glyph-name="u064F" unicode="&#x64f;" 
d="M461 1987c0 -60.667 -29.001 -113 -87.001 -157c20.667 -14.667 31 -30 31 -46c0 -19.333 -11.333 -29 -34 -29c-18 0 -37.333 8 -58 24c-126 -66.667 -214.333 -100 -265 -100c-30 0 -45 12.333 -45 37c0 20 12 33 36 39c84.667 22.667 153.334 50.667 206.001 84
c-25.333 26 -38 55.333 -38 88c0 40 14.833 76.167 44.5 108.5s64.167 48.5 103.5 48.5c28 0 52.667 -9.16699 74 -27.5s32 -41.5 32 -69.5zM384.999 1958c0 32.667 -15.667 48.999 -47 48.999c-15.333 0 -29.333 -7.5 -42 -22.5s-19 -30.5 -19 -46.5
c0 -25.333 13.333 -45.333 40 -60c15.333 4.66699 30.5 15.334 45.5 32.001s22.5 32.667 22.5 48z" />
    <glyph glyph-name="u0650" unicode="&#x650;" 
d="M425 -928l-330 -103.001c-4 -1.33301 -8.33301 -2 -13 -2c-25.333 0 -38 13.333 -38 40c0 20.667 11.667 34.667 35 42l319 102c5.33301 2 11.333 3 18 3c29.333 0 44 -14 44 -42c0 -19.333 -11.667 -32.666 -35 -39.999z" />
    <glyph glyph-name="u0651" unicode="&#x651;" 
d="M443 1939c4 -20 6.00098 -39 6.00098 -57c0 -44 -9 -81 -27 -111c-22 -36.667 -54 -55 -96 -55c-40 0 -67 19.667 -81 59c-22 -60 -61.667 -90 -119 -90c-55.333 0 -83 36 -83 108c0 32 6.66699 61.667 20 89c7.33301 16 17.333 24 30 24
c18.667 0 26.334 -13.333 23.001 -40c-6 -50.667 5.33301 -76 34 -76c42 0 68.333 37 79 111c3.33301 24.667 13.666 37 30.999 37c15.333 0 23.666 -11.333 24.999 -34c2 -57.333 20 -86 54 -86c38.667 0 53 36.333 43 109c-0.666992 4 -1 8.33301 -1 13c0 26 9 39 27 39
s29.667 -13.333 35 -40z" />
    <glyph glyph-name="u0652" unicode="&#x652;" 
d="M396 1839c0 -42 -14.501 -78.167 -43.501 -108.5s-64.5 -45.5 -106.5 -45.5c-40 0 -71.667 12.667 -95 38s-35 58 -35 98c0 42 12 79 36 111c26.667 34.667 60.334 52 101.001 52c42.667 0 77.167 -13.5 103.5 -40.5s39.5 -61.833 39.5 -104.5zM332.999 1825
c0 22.667 -9.16699 41 -27.5 55s-39.166 21 -62.499 21c-16.667 0 -31.167 -7.5 -43.5 -22.5s-18.5 -31.167 -18.5 -48.5c0 -40.667 25.667 -61 77 -61c17.333 0 34.166 5.16699 50.499 15.5s24.5 23.833 24.5 40.5z" />
    <glyph glyph-name="zeronojoin" unicode="&#x200c;" horiz-adv-x="28" 
 />
    <glyph glyph-name="zerojoin" unicode="&#x200d;" horiz-adv-x="28" 
 />
    <glyph glyph-name="lefttoright" unicode="&#x200e;" horiz-adv-x="28" 
d="M187 993l-83 -84l-21 17l54 55h-109v-981h-28v1007h134l-51 52l21 19z" />
    <glyph glyph-name="righttoleft" unicode="&#x200f;" horiz-adv-x="28" 
d="M28 0h-28v981h-109l53 -55l-18 -17l-86 84l86 85l18 -19l-51 -52h135v-1007z" />
    <glyph glyph-name="quoteleft" unicode="&#x2018;" horiz-adv-x="491" 
d="M467 1486c-59.333 -39.333 -110.666 -87.6689 -153.999 -145.002c-50.667 -67.333 -76 -131.666 -76 -192.999c0 -36.667 10.667 -69.334 32 -98.001c26 31.333 56 47 90 47c68 0 102 -33.333 102 -100c0 -39.333 -16 -70 -48 -92c-28.667 -20 -63.334 -30 -104.001 -30
c-54.667 0 -99 16.833 -133 50.5s-51 77.834 -51 132.501c0 94 36 188.333 108 283c64.667 84.667 142.667 151.334 234 200.001v-55z" />
    <glyph glyph-name="quoteright" unicode="&#x2019;" horiz-adv-x="491" 
d="M444 1353c0 -95.333 -35.668 -189 -107.001 -281c-60.667 -78.667 -138 -145.334 -232 -200.001v56c152 108 228 220.667 228 338c0 41.333 -11 75 -33 101c-22 -32.667 -53.667 -49 -95 -49c-27.333 0 -50.5 9.33301 -69.5 28s-28.5 41.667 -28.5 69
c0 38.667 16.333 69.667 49 93c28.667 20.667 63.334 31 104.001 31c57.333 0 102.333 -16.667 135 -50s49 -78.666 49 -135.999z" />
    <glyph glyph-name="quotedblleft" unicode="&#x201c;" horiz-adv-x="650" 
d="M572 1146c-8.66699 -4 -22.333 -12.666 -41 -25.999c-34.667 -34 -52 -65.667 -52 -95c54.667 -14.667 82 -52 82 -112c0 -30 -10.5 -56 -31.5 -78s-46.5 -33 -76.5 -33c-34.667 0 -62.667 14 -84 42c-19.333 25.333 -29 56 -29 92c0 134 67.667 253.667 203 359
c0 -55.333 0.333008 -86.333 1 -93c2.66699 -26.667 12 -45.334 28 -56.001zM302.001 1146c-8.66699 -4 -22.333 -12.666 -41 -25.999c-34.667 -34 -52 -65.667 -52 -95c54.667 -14.667 82 -52 82 -112c0 -30 -10.5 -56 -31.5 -78s-46.5 -33 -76.5 -33
c-34.667 0 -62.667 14 -84 42c-19.333 25.333 -29 56 -29 92c0 134 67.667 253.667 203 359c0 -55.333 0.333008 -86.333 1 -93c2.66699 -26.667 12 -45.334 28 -56.001z" />
    <glyph glyph-name="quotedblright" unicode="&#x201d;" horiz-adv-x="650" 
d="M580 1151c0 -134 -67.6689 -253.669 -203.002 -359.002c0 55.333 -0.333008 86.333 -1 93c-2.66699 26.667 -12 45.334 -28 56.001c8.66699 4 22.334 12.667 41.001 26c34.667 34 52 65.667 52 95c-54.667 14.667 -82 52 -82 112c0 30.667 10.333 56.834 31 78.501
s46.334 32.5 77.001 32.5c36 0 64.333 -13.667 85 -41c18.667 -24.667 28 -55.667 28 -93zM309.998 1151c0 -134 -67.6689 -253.669 -203.002 -359.002c0 55.333 -0.333008 86.333 -1 93c-2.66699 26.667 -12 45.334 -28 56.001c8.66699 4 22.334 12.667 41.001 26
c34.667 34 52 65.667 52 95c-54.667 14.667 -82 52 -82 112c0 30.667 10.333 56.834 31 78.501s46.334 32.5 77.001 32.5c36 0 64.333 -13.667 85 -41c18.667 -24.667 28 -55.667 28 -93z" />
    <glyph glyph-name="guilsinglleft" unicode="&#x2039;" horiz-adv-x="512" 
d="M457 966l-228 -382l222 -380v-75l-383 455l389 457v-75z" />
    <glyph glyph-name="guilsinglright" unicode="&#x203a;" horiz-adv-x="512" 
d="M457 586l-393 -457v75l231 382l-222 381v77z" />
    <glyph glyph-name="uE820" unicode="&#xe820;" 
d="M432 1354l-330 -103c-4 -1.33301 -8.33301 -2 -13 -2c-25.333 0 -38 13.667 -38 41c0 20.667 11.667 34.667 35 42l319 101c5.33301 2 11.333 3 18 3c29.333 0 44 -13.667 44 -41c0 -20 -11.667 -33.667 -35 -41z" />
    <glyph glyph-name="uE821" unicode="&#xe821;" 
d="M475 1582c0 -60.667 -29.001 -113 -87.001 -157c20.667 -14.667 31 -30 31 -46c0 -19.333 -11.333 -29 -34 -29c-18 0 -37.333 8 -58 24c-126 -66.667 -214.333 -100 -265 -100c-30 0 -45 12.333 -45 37c0 20 12 33 36 39c84.667 22.667 153.334 50.667 206.001 84
c-25.333 26 -38 55.333 -38 88c0 40 14.833 76.167 44.5 108.5s64.167 48.5 103.5 48.5c28 0 52.667 -9.16699 74 -27.5s32 -41.5 32 -69.5zM398.999 1553c0 32.667 -15.667 48.999 -47 48.999c-15.333 0 -29.333 -7.5 -42 -22.5s-19 -30.5 -19 -46.5
c0 -25.333 13.333 -45.333 40 -60c15.333 4.66699 30.5 15.334 45.5 32.001s22.5 32.667 22.5 48z" />
    <glyph glyph-name="uE822" unicode="&#xe822;" 
d="M375 1420c0 -42 -14.501 -78.167 -43.501 -108.5s-64.5 -45.5 -106.5 -45.5c-40 0 -71.667 12.667 -95 38s-35 58 -35 98c0 42 12 79 36 111c26.667 34.667 60.334 52 101.001 52c42.667 0 77.167 -13.5 103.5 -40.5s39.5 -61.833 39.5 -104.5zM311.999 1406
c0 22.667 -9.16699 41 -27.5 55s-39.166 21 -62.499 21c-16.667 0 -31.167 -7.5 -43.5 -22.5s-18.5 -31.167 -18.5 -48.5c0 -40.667 25.667 -61 77 -61c17.333 0 34.166 5.16699 50.499 15.5s24.5 23.833 24.5 40.5z" />
    <glyph glyph-name="uE823" unicode="&#xe823;" 
d="M410 1542l-331 -103.001c-4 -1.33301 -8.33301 -2 -13 -2c-25.333 0 -38 13.667 -38 41c0 20 12 34 36 42l319 101c6 2 12 3 18 3c28.667 0 43 -14 43 -42c0 -19.333 -11.333 -32.666 -34 -39.999zM418 1368l-330 -103c-4 -1.33301 -8.33301 -2 -13 -2
c-25.333 0 -38 13.667 -38 41c0 20.667 11.667 34.667 35 42l319 101c5.33301 2 11.333 3 18 3c29.333 0 44 -13.667 44 -41c0 -20 -11.667 -33.667 -35 -41z" />
    <glyph glyph-name="uE824" unicode="&#xe824;" 
d="M503 1579c0 -60.667 -29 -113 -87 -157c20.667 -14.667 31 -30 31 -46c0 -19.333 -11.333 -29 -34 -29c-18 0 -37.333 8 -58 24c-126 -66.667 -214.333 -100 -265 -100c-30 0 -45 12.333 -45 37c0 20 12 33 36 39c38.667 10.667 58 33.334 58 68.001c0 16 -11 24 -33 24
c-16 0 -31.333 -4.33301 -46 -13c-8.66699 -5.33301 -16 -8 -22 -8c-14 0 -21 7.33301 -21 22c0 11.333 5.33301 22.666 16 33.999c24 23.333 53.667 35 89 35c52.667 0 79 -24 79 -72c0 -17.333 -5 -36.333 -15 -57c33.333 12.667 67 29.667 101 51
c-25.333 26 -38 55.333 -38 88c0 40 14.833 76.167 44.5 108.5s64.167 48.5 103.5 48.5c28 0 52.667 -9.16699 74 -27.5s32 -41.5 32 -69.5zM427 1550c0 32.667 -15.667 48.999 -47 48.999c-15.333 0 -29.333 -7.5 -42 -22.5s-19 -30.5 -19 -46.5
c0 -25.333 13.333 -45.333 40 -60c15.333 4.66699 30.5 15.334 45.5 32.001s22.5 32.667 22.5 48z" />
    </font>
</defs>
</svg>
