<?xml version="1.0" standalone="no"?>
<!DOCTYPE svg PUBLIC "-//W3C//DTD SVG 1.1//EN" "http://www.w3.org/Graphics/SVG/1.1/DTD/svg11.dtd" >
<svg>
<metadata>
Created by FontForge 20090914 at Wed Oct 19 01:46:38 2011
 By www-data
(c) by Abolfazl Seilsepour - +98 912 591 3420  -  seilsepor@yahoo.com
</metadata>
<defs>
<font id="FarSooreh" horiz-adv-x="0" >
  <font-face 
    font-family="Far.Sooreh"
    font-weight="400"
    font-stretch="normal"
    units-per-em="2048"
    panose-1="0 0 4 0 0 0 0 0 0 0"
    ascent="1638"
    descent="-410"
    bbox="-142 -1278 2082 2568"
    underline-thickness="80"
    underline-position="-640"
    unicode-range="U+0020-U+FEFC"
  />
<missing-glyph horiz-adv-x="1024" 
d="M128 0v1368h768v-1368h-768zM256 128h512v1112h-512v-1112z" />
    <glyph glyph-name="uE818" unicode="&#x651;&#x64b;" 
d="M591 1889c0 -32.667 -8.99902 -61 -26.999 -85c-20 -26.667 -45.667 -40 -77 -40h-6c-11.333 0 -27.333 4.5 -48 13.5s-36.667 13.5 -48 13.5c-22 0 -48.333 -18.333 -79 -55s-54.667 -55 -72 -55c-4.66699 0 -9.33398 0.666992 -14.001 2c-38.667 8 -64 29 -76 63
l-10 31c-4.66699 12.667 -7 23 -7 31c0 16.667 9 25 27 25c11.333 0 20.333 -8.66699 27 -26c16.667 -42 31.334 -64.333 44.001 -67c4 -0.666992 7.33301 -1 10 -1c21.333 0 40.5 30.167 57.5 90.5s34.833 90.5 53.5 90.5c21.333 0 37.666 -13.667 48.999 -41
c19.333 -48.667 39 -73 59 -73h3c18.667 0 32 30.333 40 91s20.667 91 38 91c4 0 7.66699 -0.666992 11 -2c30 -6.66699 45 -39 45 -97zM537.001 2482c0 -12.667 -3.33105 -28.667 -9.99805 -48c-11.333 -30 -39 -49.333 -83 -58c-66 -12 -105.667 -21.333 -119 -28
c-20.667 -10 -57.334 -50.333 -110.001 -121c-22 -29.333 -39 -44 -51 -44c-22.667 0 -34 19.667 -34 59c0 12.667 3.66699 28 11 46c11.333 28.667 41 48.667 89 60c34 7.33301 58 15 72 23c21.333 10.667 45.666 31.334 72.999 62l69 76c23.333 25.333 41.333 38 54 38
c26 0 39 -21.667 39 -65zM537.003 2223c0 -13.333 -3.33105 -29.333 -9.99805 -48c-11.333 -30.667 -39 -50 -83 -58c-66 -12.667 -105.667 -22.334 -119 -29c-20.667 -10 -57.334 -50 -110.001 -120c-22 -29.333 -39 -44 -51 -44c-22.667 0 -34 19.667 -34 59
c0 12.667 3.66699 28 11 46c11.333 28.667 41 48.334 89 59c34 8 58 15.667 72 23c21.333 11.333 45.666 32.333 72.999 63l69 76c23.333 25.333 41.333 38 54 38c26 0 39 -21.667 39 -65z" />
    <glyph glyph-name="uFC5E" unicode="&#x651;&#x64c;" arabic-form="isolated" 
d="M597 1935c0 -32.667 -9 -60.998 -27 -84.998c-20 -26.667 -45.667 -40 -77 -40c-2.66699 -0.666992 -4.66699 -1 -6 -1c-11.333 0 -27.166 4.66699 -47.499 14s-36.166 14 -47.499 14c-22.667 0 -49.334 -18.333 -80.001 -55s-54.667 -55 -72 -55
c-4.66699 0 -9.33398 0.333008 -14.001 1c-38 8 -63 29.333 -75 64l-11 31c-4 12.667 -6 23 -6 31c0 16.667 8.66699 25 26 25c12 0 21.333 -8.66699 28 -26c16 -42 30.333 -64.333 43 -67c4 -0.666992 7.66699 -1.33398 11 -2.00098c20.667 0 39.5 30.167 56.5 90.5
s34.833 90.5 53.5 90.5c22 0 38.333 -13.333 49 -40c20 -48.667 39.667 -73 59 -73h3c18.667 0 32 30.333 40 91s20.667 91 38 91c4 -0.666992 7.66699 -1.33398 11 -2.00098c30 -6.66699 45 -39 45 -97zM600 2158c0 -6.66699 -6.33496 -12 -19.002 -16
c-4 -1.33301 -8 -2 -12 -2c-7.33301 0 -18 6.5 -32 19.5s-24.667 20.167 -32 21.5s-12.666 2 -15.999 2c-26.667 0 -52.667 -13.667 -78 -41l-66 -76c-24 -28 -44.667 -42 -62 -42c-22 0 -36 9 -42 27c-2 5.33301 -3 10.666 -3 16c0 5.33301 0.833008 13.333 2.5 24
s2.5 19 2.5 25c0 10 -2.33301 18.333 -7 25c-18.667 26.667 -58 50 -118 70h-7c-8.66699 0 -21.167 -9.16699 -37.5 -27.5s-27.833 -27.5 -34.5 -27.5c-4.66699 0 -8.83398 1.33301 -12.501 4s-5.5 6.66699 -5.5 12c0 4 4.33301 15 13 33
c6.66699 13.333 20.334 20 41.001 20c1.33301 0 19.333 -1.66699 54 -5c14.667 -1.33301 41 -34.666 79 -100c17.333 -29.333 38.666 -44 63.999 -44c83.333 0 137 36.667 161 110c2 3.33301 3 9.33301 3 18c0 13.333 -11 34.333 -33 63s-33 52 -33 70c0 30 8 57.667 24 83
c18.667 28 42.334 42 71.001 42c4 -0.666992 7 -1 9 -1c48.667 -5.33301 77.667 -42.333 87 -111v-12c0 -12.667 -3.33301 -26.667 -10 -42c-15.333 -36 -23 -58 -23 -66c0 -8.66699 2 -18.334 6 -29c2.66699 -6 14.334 -12.167 35.001 -18.5s31 -14.5 31 -24.5z
M525.998 2340c0 17.333 -5.33203 33.333 -15.999 48s-24.334 22 -41.001 22c-37.333 0 -56 -23.667 -56 -71s19 -71 57 -71c37.333 0 56 24 56 72z" />
    <glyph glyph-name="uFC5F" unicode="&#x651;&#x64d;" arabic-form="isolated" 
d="M557 2470c0 -32.667 -9 -61 -27 -85c-20 -26.667 -45.667 -40 -77 -40c-2.66699 -0.666992 -4.66699 -1 -6 -1c-11.333 0 -27.166 4.66699 -47.499 14s-36.166 14 -47.499 14c-22.667 0 -49.334 -18.333 -80.001 -55s-54.667 -55 -72 -55
c-4.66699 0 -9.33398 0.333008 -14.001 1c-38 8 -63 29.333 -75 64l-11 31c-4 12.667 -6 23 -6 31c0 16.667 8.66699 25 26 25c12 0 21.333 -9 28 -27c16 -42 30.333 -64 43 -66c4 -1.33301 7.66699 -2 11 -2c20.667 0 39.5 30.167 56.5 90.5s34.833 90.5 53.5 90.5
c22 0 38.333 -13.333 49 -40c20 -48.667 39.667 -73 59 -73h3c18.667 0 32 30.167 40 90.5s20.667 90.5 38 90.5c4 0 7.66699 -0.333008 11 -1c30 -6.66699 45 -39 45 -97zM554 2187c0 -10 -4.00098 -26.668 -12.001 -50.001c-12 -36.667 -43 -59.667 -93 -69
c-76 -13.333 -121.333 -23.666 -136 -30.999c-17.333 -8.66699 -48.333 -43.667 -93 -105c-18 -25.333 -32.333 -38 -43 -38c-13.333 0 -22.666 10.667 -27.999 32c-1.33301 5.33301 -2 11.333 -2 18c0 11.333 3.66699 27.333 11 48c12 32.667 47.333 53.667 106 63
c64 10.667 114 38 150 82c60 72 95 108 105 108c23.333 0 35 -19.333 35 -58zM555.999 1932c0 -11.333 -3.66797 -26 -11.001 -44c-10 -24.667 -37.667 -39 -83 -43c-59.333 -5.33301 -93 -9.66602 -101 -12.999c-24 -11.333 -48.333 -34.333 -73 -69l-49 -76
c-27.333 -39.333 -46.333 -59 -57 -59c-9.33301 0 -17.666 8.66699 -24.999 26c-5.33301 14 -8 26.667 -8 38c0 12 3.66699 28.333 11 49c11.333 33.333 41 53.666 89 60.999c70.667 10.667 113.667 19.667 129 27c18.667 9.33301 38 27.333 58 54
c50 68.667 79.333 103 88 103s16.667 -7 24 -21c5.33301 -12 8 -23 8 -33z" />
    <glyph glyph-name="uFC60" unicode="&#x651;&#x64e;" arabic-form="isolated" 
d="M611 1916c0 -32.667 -9 -61 -27 -85c-20 -26.667 -45.667 -40 -77 -40h-6c-11.333 0 -27.166 4.5 -47.499 13.5s-36.166 13.5 -47.499 13.5c-22.667 0 -49.334 -18.333 -80.001 -55s-54.667 -55 -72 -55c-4.66699 0 -9.33398 0.666992 -14.001 2c-38 8 -63 29 -75 63
l-11 31c-4 12.667 -6 23 -6 31c0 16.667 8.66699 25 26 25c12 0 21.333 -8.66699 28 -26c16 -42 30.333 -64.333 43 -67c4 -0.666992 7.66699 -1 11 -1c20.667 0 39.5 30.167 56.5 90.5s34.833 90.5 53.5 90.5c22 0 38.333 -13.667 49 -41c20 -48.667 39.667 -73 59 -73h3
c18.667 0 32 30.333 40 91s20.667 91 38 91c4 0 7.66699 -0.666992 11 -2c30 -6.66699 45 -39 45 -97zM547 2236c0 -12.667 -3.33203 -28.667 -9.99902 -48c-10.667 -30.667 -38.334 -50 -83.001 -58c-66 -12 -105.667 -21.333 -119 -28c-20 -10 -56.667 -50.333 -110 -121
c-22 -29.333 -38.667 -44 -50 -44c-22.667 0 -34 19.667 -34 59c0 12.667 3.66699 28 11 46c11.333 28.667 41 48.667 89 60c33.333 7.33301 57.333 15 72 23c20.667 10.667 45 31.334 73 62l69 76c22.667 25.333 40.667 38 54 38c25.333 0 38 -21.667 38 -65z" />
    <glyph glyph-name="uFC61" unicode="&#x651;&#x64f;" arabic-form="isolated" 
d="M631 1903c0 -32.667 -8.99609 -61 -26.9961 -85c-19.333 -26.667 -45 -40 -77 -40c-2.66699 -0.666992 -4.33398 -1 -5.00098 -1c-11.333 0 -27.333 4.66699 -48 14s-36.667 14 -48 14c-22.667 0 -49.334 -18.333 -80.001 -55s-54.334 -55 -71.001 -55
c-5.33301 0 -10.333 0.333008 -15 1c-38 8 -63 29.333 -75 64l-11 31c-4 12.667 -6 23 -6 31c0 16.667 8.66699 25 26 25c12 0 21.333 -9 28 -27c16 -42 30.333 -64 43 -66c4 -1.33301 7.66699 -2 11 -2c20.667 0 39.5 30.167 56.5 90.5s35.167 90.5 54.5 90.5
c21.333 0 37.333 -13.333 48 -40c20 -48.667 39.667 -73 59 -73h3c18.667 0 32 30.167 40 90.5s21 90.5 39 90.5c3.33301 0 6.66602 -0.333008 9.99902 -1c30 -6.66699 45 -39 45 -97zM553.004 2117c0 -7.33301 -6.33496 -13.001 -19.002 -17.001c-4 -1.33301 -8 -2 -12 -2
c-8 0 -18.333 6.33301 -31 19c-14.667 14 -25.667 21.667 -33 23s-12.666 2 -15.999 2c-26.667 0 -52.667 -13.333 -78 -40l-65 -77c-24.667 -27.333 -46.334 -41 -65.001 -41c-11.333 0 -23 4.66699 -35 14c-11.333 6.66699 -18.666 11.334 -21.999 14.001
c-7.33301 4.66699 -11 11 -11 19c0 11.333 9 17 27 17c2 0 5.33301 -0.333008 10 -1h11c12.667 0 21.667 1.66699 27 5l85 33c29.333 12 48.666 30.667 57.999 56c2.66699 7.33301 4 14.333 4 21c0 12.667 -14.667 39.334 -44 80c-13.333 19.333 -20 37.333 -20 54
c0 30.667 7.66699 58.334 23 83c18.667 28 42.334 42 71.001 42c3.33301 -0.666992 6 -1 8 -1c48.667 -4.66699 77.667 -42 87 -112c0.666992 -3.33301 1 -7 1 -11c0 -12.667 -7.33301 -35.667 -22 -69c-7.33301 -16 -11 -29 -11 -39c0 -9.33301 2 -19 6 -29
c2.66699 -6 14.334 -12.167 35.001 -18.5s31 -14.5 31 -24.5zM479.002 2297c0 17.333 -5.16699 33.333 -15.5 48s-23.833 22 -40.5 22c-38 0 -57 -23.667 -57 -71s19 -71 57 -71c37.333 0 56 24 56 72z" />
    <glyph glyph-name="uFC62" unicode="&#x651;&#x650;" arabic-form="isolated" 
d="M638 2240c0 -32.667 -9 -61 -27 -85c-20 -26.667 -45.667 -40 -77 -40h-6c-11.333 0 -27.166 4.5 -47.499 13.5s-36.166 13.5 -47.499 13.5c-22.667 0 -49.334 -18.333 -80.001 -55s-54.667 -55 -72 -55c-4.66699 0 -9.33398 0.666992 -14.001 2c-38 8 -63 29 -75 63
l-11 31c-4 12.667 -6 23 -6 31c0 16.667 8.66699 25 26 25c12 0 21.333 -8.66699 28 -26c16 -42 30.333 -64.333 43 -67c4 -0.666992 7.66699 -1 11 -1c20.667 0 39.5 30.167 56.5 90.5s34.833 90.5 53.5 90.5c22 0 38.333 -13.667 49 -41c20 -48.667 39.667 -73 59 -73h3
c18.667 0 32 30.333 40 91s20.667 91 38 91c4 0 7.66699 -0.666992 11 -2c30 -6.66699 45 -39 45 -97zM652 1979c0 -10 -3.66699 -26.668 -11 -50.001c-12 -36.667 -43 -59.667 -93 -69c-76.667 -13.333 -122 -23.666 -136 -30.999c-18 -8.66699 -49 -43.667 -93 -105
c-18.667 -25.333 -33 -38 -43 -38c-13.333 0 -23 10.667 -29 32c-1.33301 5.33301 -2 11.333 -2 18c0 11.333 4 27.333 12 48c12 32.667 47 53.667 105 63c64 10.667 114 38 150 82c60 72 95.333 108 106 108c22.667 0 34 -19.333 34 -58z" />
    <glyph glyph-name="uFDF2" unicode="&#xfedf;&#xfee0;&#xfeea;" horiz-adv-x="2166" arabic-form="isolated" 
d="M1369 1395c0 -35.333 -9.66797 -65.6631 -29.001 -90.9961c-20.667 -27.333 -48 -41 -82 -41c-2 -0.666992 -3.66699 -1 -5 -1c-11.333 0 -27.166 4.66699 -47.499 14s-36.166 14 -47.499 14c-22 0 -43.333 -11.667 -64 -35c-44 -50.667 -74 -76 -90 -76
c-5.33301 0 -10 0.333008 -14 1c-40.667 9.33301 -67.334 32.666 -80.001 69.999c-10.667 31.333 -16 52.666 -16 63.999c0 18 7.33301 28.333 22 31c15.333 3.33301 29.333 -10 42 -40c14 -32 27.667 -49.333 41 -52c4 -0.666992 7.66699 -1.33398 11 -2.00098
c20 0 38.5 30.167 55.5 90.5s34.833 90.5 53.5 90.5c22.667 0 39 -13.667 49 -41c17.333 -44 34.666 -67.667 51.999 -71c4 -1.33301 7.33301 -2 10 -2c17.333 0 30.333 30.333 39 91s21.667 91 39 91c2.66699 0 6.33398 -0.333008 11.001 -1
c33.333 -8.66699 50 -43.334 50 -104.001zM2016 400.003c0 -40.667 16.3359 -136.003 49.0029 -286.003c11.333 -52 17 -92.333 17 -121c0 -73.333 -33.333 -110 -100 -110c-26.667 0 -52 7.66699 -76 23c-6 3.33301 -26.333 18.666 -61 45.999
c-26 20.667 -50.667 35 -74 43c-81.333 26 -163.333 39 -246 39c-39.333 0 -84.666 -2.66699 -135.999 -8l-159 -17c-55.333 -6 -106 -9 -152 -9h-658c-27.333 0 -66.833 -10.167 -118.5 -30.5s-86.834 -30.5 -105.501 -30.5c-26 0 -48.833 10.333 -68.5 31
s-29.5 45.667 -29.5 75c0 20.667 6.33301 47.667 19 81c8 18.667 19.333 47.667 34 87c20 53.333 61.333 99.666 124 138.999c37.333 20.667 92.666 53 165.999 97c55.333 34.667 83 73.667 83 117c0 17.333 -3.66699 35.333 -11 54c-4 10 -19.333 21.333 -46 34
c-24 12 -36 25 -36 39c0 12 7 18 21 18c7.33301 0 18.833 -1.66699 34.5 -5s27.5 -5 35.5 -5c34 0 61 36.333 81 109c15.333 56 26.666 84 33.999 84c9.33301 0 16 -8.33301 20 -25c0.666992 -3.33301 1 -6.66602 1 -9.99902c0 -6 -5 -21 -15 -45
c-4.66699 -12 -7 -22.333 -7 -31v-294c0 -25.333 -2.66699 -54.666 -8 -87.999c-10.667 -76.667 -16 -121.667 -16 -135c0 -57.333 18.667 -103.333 56 -138c58.667 -54 127.667 -81 207 -81c81.333 0 148.666 29 201.999 87c12.667 14 23.334 29.333 32.001 46
c3.33301 6.66699 14.333 35.334 33 86.001c34.667 94 52 180.667 52 260c0 112 -35 225.667 -105 341c-5.33301 8.66699 -20.333 17.334 -45 26.001c-20.667 7.33301 -31 17.666 -31 30.999c0 12.667 6.66699 19 20 19c4 0 18 -2.33301 42 -7c11.333 -2 20.666 -3 27.999 -3
c10.667 0 19.334 2 26.001 6c22 12.667 41 48.334 57 107.001c14.667 54 25.667 81 33 81c14.667 0 22 -11.333 22 -34c0 -5.33301 -5 -19.666 -15 -42.999c-5.33301 -12 -8 -22.333 -8 -31c0 -42 -4.33301 -83.667 -13 -125l-26 -125
c-9.33301 -42.667 -14 -83.667 -14 -123c0 -24 -0.666992 -60.333 -2 -109s-2 -85.334 -2 -110.001c0 -67.333 2.66699 -123 8 -167c15.333 -125.333 57 -212 125 -260c52 -36.667 115.333 -55 190 -55c70.667 0 144.667 16.5 222 49.5s140.666 75.167 189.999 126.5
c30 31.333 45 79.333 45 144c0 26 -2.33301 59 -7 99c-11.333 91.333 -17 148 -17 170c0 152.667 -56.667 312 -170 478c-4 6 -18 14 -42 24c-20 8 -30 17.667 -30 29c0 12.667 6.66699 19 20 19c6.66699 0 14.334 -1 23.001 -3c24.667 -4.66699 40 -7 46 -7
c10.667 0 19.667 2 27 6c21.333 12.667 40 48.334 56 107.001c15.333 54 26.666 81 33.999 81c9.33301 0 16 -8.33301 20 -25c0.666992 -3.33301 1 -6.66602 1 -9.99902c0 -6 -5 -21.667 -15 -47c-4.66699 -12.667 -7 -23.334 -7 -32.001c0 -80.667 11.667 -166.667 35 -258
l65 -240c24 -92 36 -177.333 36 -256zM558.002 121c2.66699 13.333 4 25.333 4 36c0 3.33301 -4 26.333 -12 69c0 13.333 2 28.333 6 45c9.33301 38 14 60.333 14 67c0 36 -18.667 62 -56 78c-14 6 -29.333 9 -46 9c-58 0 -112 -25.667 -162 -77l-25 -36
c-26 -41.333 -39 -84.333 -39 -129c0 -62 24.333 -106.667 73 -134c29.333 -16.667 62.333 -25 99 -25c83.333 0 131.333 32.333 144 97z" />
    <glyph glyph-name="uFEF5" unicode="&#xfedf;&#xfe82;" horiz-adv-x="995" arabic-form="isolated" 
d="M524 1339l-62 -6.99902c-8 -1.33301 -25.333 -5 -52 -11c-22.667 -5.33301 -40.334 -8 -53.001 -8c-18 0 -62.667 19.333 -134 58c-32.667 18 -63.334 27 -92.001 27c-15.333 -2 -32.833 -16.833 -52.5 -44.5s-34.167 -41.5 -43.5 -41.5
c-4.66699 0 -9.66699 1.33301 -15 4l1 2c8.66699 1.33301 13.334 2.66602 14.001 3.99902c2 9.33301 9.66699 14 23 14c6 0 13.333 -0.666992 22 -2c22.667 -3.33301 36.334 -5 41.001 -5c2 0 5.33301 0.333008 10 1h10h9c28.667 0 70 -13.333 124 -40s97 -40 129 -40
c23.333 0 48 13.333 74 40zM898 394.001c-2.66699 -2 -19.6689 -9.33301 -51.002 -22c-38.667 -16 -58 -44 -58 -84c0 -15.333 4.33301 -35 13 -59c12 -34.667 19 -56 21 -64l13 -50c8 -30.667 12 -55.667 12 -75c0 -26 -6 -51.333 -18 -76s-31 -45.667 -57 -63
c-37.333 -24 -62.333 -42 -75 -54c-19.333 -18.667 -44 -60.667 -74 -126c-22 -46.667 -51 -70 -87 -70c-36.667 0 -66 24 -88 72c-31.333 67.333 -54.666 108.666 -69.999 123.999c-10.667 10.667 -35.167 28.167 -73.5 52.5s-62.5 58.166 -72.5 101.499
c-2.66699 12.667 -4 25.667 -4 39c0 18 2.33301 37.667 7 59c2.66699 8.66699 8.33398 30.667 17.001 66c2.66699 10 10 31.333 22 64c8.66699 24.667 13 44.334 13 59.001c0 17.333 -5.16699 34 -15.5 50s-28.5 28.667 -54.5 38c-33.333 12 -54.666 25.667 -63.999 41
c-6 9.33301 -9 19.666 -9 30.999c0 12.667 21 65 63 157c12 26 18.833 52.833 20.5 80.5s3.16699 55.167 4.5 82.5c4.66699 64.667 7 101 7 109c0 38 -5 75 -15 111c-1.33301 4.66699 -12.333 20.334 -33 47.001c-8.66699 10.667 -12.667 21 -12 31
c0.666992 14.667 14 23.667 40 27c32.667 4 52 8.33301 58 13c8.66699 6.66699 28 29.667 58 69c20 26.667 42.667 40 68 40c24.667 0 37 -8.33301 37 -25c0 -14.667 -11 -40.667 -33 -78c-36 -59.333 -56.667 -94.333 -62 -105c-23.333 -44 -35 -80 -35 -108
c0 -18.667 -0.666992 -46.834 -2 -84.501s-2 -65.834 -2 -84.501c0 -55.333 5.33301 -106 16 -152c18.667 -80.667 32 -133.667 40 -159c38 -124 98.667 -186 182 -186c80.667 0 138.334 62.333 173.001 187l35 159c9.33301 43.333 14 86.333 14 129
c0 22.667 -1 48.667 -3 78l-6 123c-4.66699 46 -15 85.333 -31 118l-53 93c-20 34.667 -30 58.334 -30 71.001c0 16 11.333 24 34 24c23.333 0 44.666 -13.333 63.999 -40c26.667 -38 45.667 -61 57 -69c5.33301 -4 24.666 -8 57.999 -12
c26 -3.33301 39.333 -12.666 40 -27.999c0.666992 -10.667 -3 -21 -11 -31c-22 -27.333 -33.333 -43 -34 -47c-10.667 -41.333 -16 -83 -16 -125c0 -14 1.33301 -48.333 4 -103c2 -31.333 3 -54.666 3 -69.999c0 -30 22 -88.333 66 -175c14.667 -30 22 -53.333 22 -70
c0 -20.667 -11 -37.667 -33 -51zM732.998 27.001c0 42 -19.667 78 -59 108c-36.667 28 -76.667 42 -120 42c-51.333 0 -92 -22.667 -122 -68c-26 -39.333 -39 -86 -39 -140v-13c0 -3.33301 0.666992 -12 2 -26c11.333 -43.333 29.666 -80.666 54.999 -111.999
c30.667 -38.667 65.334 -58 104.001 -58c12.667 0 24.667 2 36 6c25.333 9.33301 43.666 36 54.999 80c8 28 16 49 24 63c2.66699 4.66699 9.33398 13.167 20.001 25.5s18 21.166 22 26.499c14.667 20.667 22 42.667 22 66z" />
    <glyph glyph-name="uFEF6" unicode="&#xfee0;&#xfe82;" horiz-adv-x="945" arabic-form="final" 
d="M524 1339l-62 -6.99902c-8 -1.33301 -25.333 -5 -52 -11c-22.667 -5.33301 -40.334 -8 -53.001 -8c-18 0 -62.667 19.333 -134 58c-32.667 18 -63.334 27 -92.001 27c-15.333 -2 -32.833 -16.833 -52.5 -44.5s-34.167 -41.5 -43.5 -41.5
c-4.66699 0 -9.66699 1.33301 -15 4l1 2c8.66699 1.33301 13.334 2.66602 14.001 3.99902c2 9.33301 9.66699 14 23 14c6 0 13.333 -0.666992 22 -2c22.667 -3.33301 36.334 -5 41.001 -5c2 0 5.33301 0.333008 10 1h10h9c28.667 0 70 -13.333 124 -40s97 -40 129 -40
c23.333 0 48 13.333 74 40zM1008 0.000976562l-110.005 0.000976562c-50 0 -95 -30.667 -135 -92l-91 -173c-34 -62 -70.667 -93 -110 -93c-15.333 0 -30.666 3.33301 -45.999 10c-25.333 11.333 -46 29 -62 53c-3.33301 4.66699 -16 29.334 -38 74.001
c-15.333 30.667 -32 55.667 -50 75c-12.667 12.667 -37.334 30.667 -74.001 54c-40 24 -65 58 -75 102c-2.66699 13.333 -4 26.333 -4 39c0 18 2.33301 38 7 60l17 65c2.66699 11.333 10 33 22 65c8.66699 25.333 13 45 13 59c0 18 -5.33301 35 -16 51
c-9.33301 13.333 -22.666 23.333 -39.999 30c-26 10 -42.333 17.333 -49 22c-15.333 9.33301 -23 21.666 -23 36.999c0 12.667 10.667 39.5 32 80.5s32 72.5 32 94.5c0 28.667 3.83301 71 11.5 127s11.5 97.333 11.5 124c0 38.667 -6 79 -18 121
c-2 6.66699 -13 21.334 -33 44.001c-8 10 -12 19.667 -12 29c0 15.333 13 25.333 39 30c34.667 5.33301 54.334 10 59.001 14c12.667 9.33301 27.334 32.666 44.001 69.999c13.333 28.667 30 43 50 43c12.667 0 19 -4.66699 19 -14c0 -6.66699 -11.5 -30.334 -34.5 -71.001
s-34.5 -71.334 -34.5 -92.001c0 -36.667 -1.66699 -72.667 -5 -108l-11 -104c-4 -34.667 -6 -64.334 -6 -89.001c0 -65.333 20.333 -168 61 -308c16.667 -56.667 37.667 -100.334 63 -131.001c30.667 -36.667 69.667 -55 117 -55c80 0 137.333 62.333 172 187l36 159
c12 51.333 18 101.333 18 150c0 21.333 -4 76 -12 164c-4 46.667 -6 85.334 -6 116.001c0 21.333 -12 54.5 -36 99.5s-36 71.5 -36 79.5c0 11.333 7.33301 17 22 17c20.667 0 38.334 -14.333 53.001 -43c18.667 -37.333 34.334 -60.666 47.001 -69.999
c6 -4.66699 25.333 -9 58 -13c26 -3.33301 39.333 -12.333 40 -27c0.666992 -10 -3.33301 -20.333 -12 -31c-20 -26.667 -31 -42.667 -33 -48c-11.333 -39.333 -17 -79.333 -17 -120c0 -14.667 2 -48 6 -100c2 -32 3 -56 3 -72c0 -30 -2.66699 -85 -8 -165
c-2.66699 -39.333 -4 -73.666 -4 -102.999c0 -11.333 -0.333008 -28.333 -1 -51v-51c0 -68 4.66699 -118 14 -150c13.333 -46.667 37.333 -70 72 -70h103v-101zM732.995 27.002c0 42 -19.667 78 -59 108c-36.667 28 -76.667 42 -120 42c-51.333 0 -92 -22.667 -122 -68
c-26 -39.333 -39 -86 -39 -140v-13c0 -3.33301 0.666992 -12 2 -26c11.333 -43.333 29.666 -80.666 54.999 -111.999c30.667 -38.667 65.334 -58 104.001 -58c12.667 0 24.667 2 36 6c25.333 9.33301 43.666 36 54.999 80c8 28 16 49 24 63
c2.66699 4.66699 9.33398 13.167 20.001 25.5s18 21.166 22 26.499c14.667 20.667 22 42.667 22 66z" />
    <glyph glyph-name="uFEF7" unicode="&#xfedf;&#xfe84;" horiz-adv-x="1016" arabic-form="isolated" 
d="M391 1282h-4h-3c-8.66699 0 -19.334 8.66699 -32.001 26s-23.334 27 -32.001 29c-17.333 5.33301 -36 8 -56 8c-12.667 0 -36 -2 -70 -6c-18.667 -2.66699 -33 -4 -43 -4c-13.333 0 -27.666 1.33301 -42.999 4c7.33301 -1.33301 -4 -2 -34 -2c-6.66699 0 -11.667 2 -15 6
c-6.66699 4.66699 -10 10 -10 16c0 4.66699 1 8.66699 3 12c0 6 1.33301 11.667 4 17c6.66699 4.66699 15.667 7 27 7h10c6.66699 0 12.334 0.666992 17.001 2c22.667 11.333 39.667 29.333 51 54l89 170c12 23.333 24.667 35 38 35c4.66699 0 9.5 -1.5 14.5 -4.5
s8.5 -6 10.5 -9s5.66699 -10.167 11 -21.5c6.66699 -18.667 10 -31 10 -37c0 -25.333 -27.333 -51 -82 -77c-35.333 -16.667 -53 -32.667 -53 -48c0 -4 0.666992 -8.33301 2 -13c5.33301 -18.667 28 -31.667 68 -39c48 -8.66699 77 -16.667 87 -24c14 -10 23 -23.333 27 -40
c1.33301 -4 5.33301 -12.333 12 -25c5.33301 -10 8 -18 8 -24s-4 -10 -12 -12zM898 394c-2.66699 -2 -19.6689 -9.33301 -51.002 -22c-38.667 -16 -58 -44 -58 -84c0 -15.333 4.33301 -35 13 -59c12 -34.667 19 -56 21 -64l13 -50c8 -30.667 12 -55.667 12 -75
c0 -26 -6 -51.333 -18 -76s-31 -45.667 -57 -63c-37.333 -24 -62.333 -42 -75 -54c-19.333 -18.667 -44 -60.667 -74 -126c-22 -46.667 -51 -70 -87 -70c-36.667 0 -66 24 -88 72c-31.333 67.333 -54.666 108.666 -69.999 123.999c-10.667 10.667 -35.167 28.167 -73.5 52.5
s-62.5 58.166 -72.5 101.499c-2.66699 12.667 -4 25.667 -4 39c0 18 2.33301 37.667 7 59c2.66699 8.66699 8.33398 30.667 17.001 66c2.66699 10 10 31.333 22 64c8.66699 24.667 13 44.334 13 59.001c0 17.333 -5.16699 34 -15.5 50s-28.5 28.667 -54.5 38
c-33.333 12 -54.666 25.667 -63.999 41c-6 9.33301 -9 19.666 -9 30.999c0 12.667 21 65 63 157c12 26 18.833 52.833 20.5 80.5s3.16699 55.167 4.5 82.5c4.66699 64.667 7 101 7 109c0 38 -5 75 -15 111c-1.33301 4.66699 -12.333 20.334 -33 47.001
c-8.66699 10.667 -12.667 21 -12 31c0.666992 14.667 14 23.667 40 27c32.667 4 52 8.33301 58 13c8.66699 6.66699 28 29.667 58 69c20 26.667 42.667 40 68 40c24.667 0 37 -8.33301 37 -25c0 -14.667 -11 -40.667 -33 -78c-36 -59.333 -56.667 -94.333 -62 -105
c-23.333 -44 -35 -80 -35 -108c0 -18.667 -0.666992 -46.834 -2 -84.501s-2 -65.834 -2 -84.501c0 -55.333 5.33301 -106 16 -152c18.667 -80.667 32 -133.667 40 -159c38 -124 98.667 -186 182 -186c80.667 0 138.334 62.333 173.001 187l35 159
c9.33301 43.333 14 86.333 14 129c0 22.667 -1 48.667 -3 78l-6 123c-4.66699 46 -15 85.333 -31 118l-53 93c-20 34.667 -30 58.334 -30 71.001c0 16 11.333 24 34 24c23.333 0 44.666 -13.333 63.999 -40c26.667 -38 45.667 -61 57 -69c5.33301 -4 24.666 -8 57.999 -12
c26 -3.33301 39.333 -12.666 40 -27.999c0.666992 -10.667 -3 -21 -11 -31c-22 -27.333 -33.333 -43 -34 -47c-10.667 -41.333 -16 -83 -16 -125c0 -14 1.33301 -48.333 4 -103c2 -31.333 3 -54.666 3 -69.999c0 -30 22 -88.333 66 -175c14.667 -30 22 -53.333 22 -70
c0 -20.667 -11 -37.667 -33 -51zM732.998 27c0 42 -19.667 78 -59 108c-36.667 28 -76.667 42 -120 42c-51.333 0 -92 -22.667 -122 -68c-26 -39.333 -39 -86 -39 -140v-13c0 -3.33301 0.666992 -12 2 -26c11.333 -43.333 29.666 -80.666 54.999 -111.999
c30.667 -38.667 65.334 -58 104.001 -58c12.667 0 24.667 2 36 6c25.333 9.33301 43.666 36 54.999 80c8 28 16 49 24 63c2.66699 4.66699 9.33398 13.167 20.001 25.5s18 21.166 22 26.499c14.667 20.667 22 42.667 22 66z" />
    <glyph glyph-name="uFEF8" unicode="&#xfee0;&#xfe84;" horiz-adv-x="945" arabic-form="final" 
d="M391 1282h-4h-3c-8.66699 0 -19.334 8.66699 -32.001 26s-23.334 27 -32.001 29c-17.333 5.33301 -36 8 -56 8c-12.667 0 -36 -2 -70 -6c-18.667 -2.66699 -33 -4 -43 -4c-13.333 0 -27.666 1.33301 -42.999 4c7.33301 -1.33301 -4 -2 -34 -2c-6.66699 0 -11.667 2 -15 6
c-6.66699 4.66699 -10 10 -10 16c0 4.66699 1 8.66699 3 12c0 6 1.33301 11.667 4 17c6.66699 4.66699 15.667 7 27 7h10c6.66699 0 12.334 0.666992 17.001 2c22.667 11.333 39.667 29.333 51 54l89 170c12 23.333 24.667 35 38 35c4.66699 0 9.5 -1.5 14.5 -4.5
s8.5 -6 10.5 -9s5.66699 -10.167 11 -21.5c6.66699 -18.667 10 -31 10 -37c0 -25.333 -27.333 -51 -82 -77c-35.333 -16.667 -53 -32.667 -53 -48c0 -4 0.666992 -8.33301 2 -13c5.33301 -18.667 28 -31.667 68 -39c48 -8.66699 77 -16.667 87 -24c14 -10 23 -23.333 27 -40
c1.33301 -4 5.33301 -12.333 12 -25c5.33301 -10 8 -18 8 -24s-4 -10 -12 -12zM1008 0l-110.005 0.000976562c-50 0 -95 -30.667 -135 -92l-91 -173c-34 -62 -70.667 -93 -110 -93c-15.333 0 -30.666 3.33301 -45.999 10c-25.333 11.333 -46 29 -62 53
c-3.33301 4.66699 -16 29.334 -38 74.001c-15.333 30.667 -32 55.667 -50 75c-12.667 12.667 -37.334 30.667 -74.001 54c-40 24 -65 58 -75 102c-2.66699 13.333 -4 26.333 -4 39c0 18 2.33301 38 7 60l17 65c2.66699 11.333 10 33 22 65c8.66699 25.333 13 45 13 59
c0 18 -5.33301 35 -16 51c-9.33301 13.333 -22.666 23.333 -39.999 30c-26 10 -42.333 17.333 -49 22c-15.333 9.33301 -23 21.666 -23 36.999c0 12.667 10.667 39.5 32 80.5s32 72.5 32 94.5c0 28.667 3.83301 71 11.5 127s11.5 97.333 11.5 124c0 38.667 -6 79 -18 121
c-2 6.66699 -13 21.334 -33 44.001c-8 10 -12 19.667 -12 29c0 15.333 13 25.333 39 30c34.667 5.33301 54.334 10 59.001 14c12.667 9.33301 27.334 32.666 44.001 69.999c13.333 28.667 30 43 50 43c12.667 0 19 -4.66699 19 -14c0 -6.66699 -11.5 -30.334 -34.5 -71.001
s-34.5 -71.334 -34.5 -92.001c0 -36.667 -1.66699 -72.667 -5 -108l-11 -104c-4 -34.667 -6 -64.334 -6 -89.001c0 -65.333 20.333 -168 61 -308c16.667 -56.667 37.667 -100.334 63 -131.001c30.667 -36.667 69.667 -55 117 -55c80 0 137.333 62.333 172 187l36 159
c12 51.333 18 101.333 18 150c0 21.333 -4 76 -12 164c-4 46.667 -6 85.334 -6 116.001c0 21.333 -12 54.5 -36 99.5s-36 71.5 -36 79.5c0 11.333 7.33301 17 22 17c20.667 0 38.334 -14.333 53.001 -43c18.667 -37.333 34.334 -60.666 47.001 -69.999
c6 -4.66699 25.333 -9 58 -13c26 -3.33301 39.333 -12.333 40 -27c0.666992 -10 -3.33301 -20.333 -12 -31c-20 -26.667 -31 -42.667 -33 -48c-11.333 -39.333 -17 -79.333 -17 -120c0 -14.667 2 -48 6 -100c2 -32 3 -56 3 -72c0 -30 -2.66699 -85 -8 -165
c-2.66699 -39.333 -4 -73.666 -4 -102.999c0 -11.333 -0.333008 -28.333 -1 -51v-51c0 -68 4.66699 -118 14 -150c13.333 -46.667 37.333 -70 72 -70h103v-101zM732.995 27.001c0 42 -19.667 78 -59 108c-36.667 28 -76.667 42 -120 42c-51.333 0 -92 -22.667 -122 -68
c-26 -39.333 -39 -86 -39 -140v-13c0 -3.33301 0.666992 -12 2 -26c11.333 -43.333 29.666 -80.666 54.999 -111.999c30.667 -38.667 65.334 -58 104.001 -58c12.667 0 24.667 2 36 6c25.333 9.33301 43.666 36 54.999 80c8 28 16 49 24 63
c2.66699 4.66699 9.33398 13.167 20.001 25.5s18 21.166 22 26.499c14.667 20.667 22 42.667 22 66z" />
    <glyph glyph-name="uFEF9" unicode="&#xfedf;&#xfe88;" horiz-adv-x="1002" arabic-form="isolated" 
d="M898 394c-2.66699 -2 -19.6689 -9.33301 -51.002 -22c-38.667 -16 -58 -44 -58 -84c0 -15.333 4.33301 -35 13 -59c12 -34.667 19 -56 21 -64l13 -50c8 -30.667 12 -55.667 12 -75c0 -26 -6 -51.333 -18 -76s-31 -45.667 -57 -63c-37.333 -24 -62.333 -42 -75 -54
c-19.333 -18.667 -44 -60.667 -74 -126c-22 -46.667 -51 -70 -87 -70c-36.667 0 -66 24 -88 72c-31.333 67.333 -54.666 108.666 -69.999 123.999c-10.667 10.667 -35.167 28.167 -73.5 52.5s-62.5 58.166 -72.5 101.499c-2.66699 12.667 -4 25.667 -4 39
c0 18 2.33301 37.667 7 59c2.66699 8.66699 8.33398 30.667 17.001 66c2.66699 10 10 31.333 22 64c8.66699 24.667 13 44.334 13 59.001c0 17.333 -5.16699 34 -15.5 50s-28.5 28.667 -54.5 38c-33.333 12 -54.666 25.667 -63.999 41c-6 9.33301 -9 19.666 -9 30.999
c0 12.667 21 65 63 157c12 26 18.833 52.833 20.5 80.5s3.16699 55.167 4.5 82.5c4.66699 64.667 7 101 7 109c0 38 -5 75 -15 111c-1.33301 4.66699 -12.333 20.334 -33 47.001c-8.66699 10.667 -12.667 21 -12 31c0.666992 14.667 14 23.667 40 27
c32.667 4 52 8.33301 58 13c8.66699 6.66699 28 29.667 58 69c20 26.667 42.667 40 68 40c24.667 0 37 -8.33301 37 -25c0 -14.667 -11 -40.667 -33 -78c-36 -59.333 -56.667 -94.333 -62 -105c-23.333 -44 -35 -80 -35 -108c0 -18.667 -0.666992 -46.834 -2 -84.501
s-2 -65.834 -2 -84.501c0 -55.333 5.33301 -106 16 -152c18.667 -80.667 32 -133.667 40 -159c38 -124 98.667 -186 182 -186c80.667 0 138.334 62.333 173.001 187l35 159c9.33301 43.333 14 86.333 14 129c0 22.667 -1 48.667 -3 78l-6 123
c-4.66699 46 -15 85.333 -31 118l-53 93c-20 34.667 -30 58.334 -30 71.001c0 16 11.333 24 34 24c23.333 0 44.666 -13.333 63.999 -40c26.667 -38 45.667 -61 57 -69c5.33301 -4 24.666 -8 57.999 -12c26 -3.33301 39.333 -12.666 40 -27.999
c0.666992 -10.667 -3 -21 -11 -31c-22 -27.333 -33.333 -43 -34 -47c-10.667 -41.333 -16 -83 -16 -125c0 -14 1.33301 -48.333 4 -103c2 -31.333 3 -54.666 3 -69.999c0 -30 22 -88.333 66 -175c14.667 -30 22 -53.333 22 -70c0 -20.667 -11 -37.667 -33 -51zM399.998 -603
c-2 -0.666992 -3.66602 -1.00098 -4.99902 -1.00098h-3c-8.66699 0 -19.334 8.66699 -32.001 26s-23.334 27 -32.001 29c-17.333 5.33301 -36 8 -56 8c-12.667 0 -36 -2 -70 -6c-18.667 -2.66699 -33 -4 -43 -4c-13.333 0 -27.666 1.33301 -42.999 4
c7.33301 -1.33301 -4 -2 -34 -2c-6.66699 0 -11.667 2 -15 6c-6.66699 4.66699 -10 10.334 -10 17.001c0 4 1 7.66699 3 11c0 6 1.33301 11.667 4 17c6.66699 4.66699 15.667 7 27 7h10c6.66699 0 12.334 0.666992 17.001 2c22.667 11.333 39.667 29.333 51 54l90 170
c11.333 24 23.666 36 36.999 36c4.66699 0 9.5 -1.66699 14.5 -5s8.5 -6.5 10.5 -9.5s5.66699 -10.167 11 -21.5c6.66699 -18.667 10 -31 10 -37c0 -25.333 -27 -51 -81 -77c-36 -16.667 -54 -32.667 -54 -48c0 -4 0.666992 -8.33301 2 -13c6 -18.667 28.667 -31.667 68 -39
c48 -8.66699 77 -16.667 87 -24c14 -10 23 -23.333 27 -40c1.33301 -4 5.33301 -12.333 12 -25c5.33301 -10 8 -18 8 -24s-3.66699 -9.66699 -11 -11zM732.999 26.999c0 42 -19.667 78 -59 108c-36.667 28 -76.667 42 -120 42c-51.333 0 -92 -22.667 -122 -68
c-26 -39.333 -39 -86 -39 -140v-13c0 -3.33301 0.666992 -12 2 -26c11.333 -43.333 29.666 -80.666 54.999 -111.999c30.667 -38.667 65.334 -58 104.001 -58c12.667 0 24.667 2 36 6c25.333 9.33301 43.666 36 54.999 80c8 28 16 49 24 63
c2.66699 4.66699 9.33398 13.167 20.001 25.5s18 21.166 22 26.499c14.667 20.667 22 42.667 22 66z" />
    <glyph glyph-name="uFEFA" unicode="&#xfee0;&#xfe88;" horiz-adv-x="945" arabic-form="final" 
d="M1008 0l-110.005 0.000976562c-50 0 -95 -30.667 -135 -92l-91 -173c-34 -62 -70.667 -93 -110 -93c-15.333 0 -30.666 3.33301 -45.999 10c-25.333 11.333 -46 29 -62 53c-3.33301 4.66699 -16 29.334 -38 74.001c-15.333 30.667 -32 55.667 -50 75
c-12.667 12.667 -37.334 30.667 -74.001 54c-40 24 -65 58 -75 102c-2.66699 13.333 -4 26.333 -4 39c0 18 2.33301 38 7 60l17 65c2.66699 11.333 10 33 22 65c8.66699 25.333 13 45 13 59c0 18 -5.33301 35 -16 51c-9.33301 13.333 -22.666 23.333 -39.999 30
c-26 10 -42.333 17.333 -49 22c-15.333 9.33301 -23 21.666 -23 36.999c0 12.667 10.667 39.5 32 80.5s32 72.5 32 94.5c0 28.667 3.83301 71 11.5 127s11.5 97.333 11.5 124c0 38.667 -6 79 -18 121c-2 6.66699 -13 21.334 -33 44.001c-8 10 -12 19.667 -12 29
c0 15.333 13 25.333 39 30c34.667 5.33301 54.334 10 59.001 14c12.667 9.33301 27.334 32.666 44.001 69.999c13.333 28.667 30 43 50 43c12.667 0 19 -4.66699 19 -14c0 -6.66699 -11.5 -30.334 -34.5 -71.001s-34.5 -71.334 -34.5 -92.001
c0 -36.667 -1.66699 -72.667 -5 -108l-11 -104c-4 -34.667 -6 -64.334 -6 -89.001c0 -65.333 20.333 -168 61 -308c16.667 -56.667 37.667 -100.334 63 -131.001c30.667 -36.667 69.667 -55 117 -55c80 0 137.333 62.333 172 187l36 159c12 51.333 18 101.333 18 150
c0 21.333 -4 76 -12 164c-4 46.667 -6 85.334 -6 116.001c0 21.333 -12 54.5 -36 99.5s-36 71.5 -36 79.5c0 11.333 7.33301 17 22 17c20.667 0 38.334 -14.333 53.001 -43c18.667 -37.333 34.334 -60.666 47.001 -69.999c6 -4.66699 25.333 -9 58 -13
c26 -3.33301 39.333 -12.333 40 -27c0.666992 -10 -3.33301 -20.333 -12 -31c-20 -26.667 -31 -42.667 -33 -48c-11.333 -39.333 -17 -79.333 -17 -120c0 -14.667 2 -48 6 -100c2 -32 3 -56 3 -72c0 -30 -2.66699 -85 -8 -165c-2.66699 -39.333 -4 -73.666 -4 -102.999
c0 -11.333 -0.333008 -28.333 -1 -51v-51c0 -68 4.66699 -118 14 -150c13.333 -46.667 37.333 -70 72 -70h103v-101zM399.995 -602.999c-2 -0.666992 -3.66602 -1.00098 -4.99902 -1.00098h-3c-8.66699 0 -19.334 8.66699 -32.001 26s-23.334 27 -32.001 29
c-17.333 5.33301 -36 8 -56 8c-12.667 0 -36 -2 -70 -6c-18.667 -2.66699 -33 -4 -43 -4c-13.333 0 -27.666 1.33301 -42.999 4c7.33301 -1.33301 -4 -2 -34 -2c-6.66699 0 -11.667 2 -15 6c-6.66699 4.66699 -10 10.334 -10 17.001c0 4 1 7.66699 3 11
c0 6 1.33301 11.667 4 17c6.66699 4.66699 15.667 7 27 7h10c6.66699 0 12.334 0.666992 17.001 2c22.667 11.333 39.667 29.333 51 54l90 170c11.333 24 23.666 36 36.999 36c4.66699 0 9.5 -1.66699 14.5 -5s8.5 -6.5 10.5 -9.5s5.66699 -10.167 11 -21.5
c6.66699 -18.667 10 -31 10 -37c0 -25.333 -27 -51 -81 -77c-36 -16.667 -54 -32.667 -54 -48c0 -4 0.666992 -8.33301 2 -13c6 -18.667 28.667 -31.667 68 -39c48 -8.66699 77 -16.667 87 -24c14 -10 23 -23.333 27 -40c1.33301 -4 5.33301 -12.333 12 -25
c5.33301 -10 8 -18 8 -24s-3.66699 -9.66699 -11 -11zM732.996 27c0 42 -19.667 78 -59 108c-36.667 28 -76.667 42 -120 42c-51.333 0 -92 -22.667 -122 -68c-26 -39.333 -39 -86 -39 -140v-13c0 -3.33301 0.666992 -12 2 -26
c11.333 -43.333 29.666 -80.666 54.999 -111.999c30.667 -38.667 65.334 -58 104.001 -58c12.667 0 24.667 2 36 6c25.333 9.33301 43.666 36 54.999 80c8 28 16 49 24 63c2.66699 4.66699 9.33398 13.167 20.001 25.5s18 21.166 22 26.499c14.667 20.667 22 42.667 22 66z
" />
    <glyph glyph-name="uFEFB" unicode="&#xfedf;&#xfe8e;" horiz-adv-x="1002" arabic-form="isolated" 
d="M898 394c-2.66699 -2 -19.6689 -9.33301 -51.002 -22c-38.667 -16 -58 -44 -58 -84c0 -15.333 4.33301 -35 13 -59c12 -34.667 19 -56 21 -64l13 -50c8 -30.667 12 -55.667 12 -75c0 -26 -6 -51.333 -18 -76s-31 -45.667 -57 -63c-37.333 -24 -62.333 -42 -75 -54
c-19.333 -18.667 -44 -60.667 -74 -126c-22 -46.667 -51 -70 -87 -70c-36.667 0 -66 24 -88 72c-31.333 67.333 -54.666 108.666 -69.999 123.999c-10.667 10.667 -35.167 28.167 -73.5 52.5s-62.5 58.166 -72.5 101.499c-2.66699 12.667 -4 25.667 -4 39
c0 18 2.33301 37.667 7 59c2.66699 8.66699 8.33398 30.667 17.001 66c2.66699 10 10 31.333 22 64c8.66699 24.667 13 44.334 13 59.001c0 17.333 -5.16699 34 -15.5 50s-28.5 28.667 -54.5 38c-33.333 12 -54.666 25.667 -63.999 41c-6 9.33301 -9 19.666 -9 30.999
c0 12.667 21 65 63 157c12 26 18.833 52.833 20.5 80.5s3.16699 55.167 4.5 82.5c4.66699 64.667 7 101 7 109c0 38 -5 75 -15 111c-1.33301 4.66699 -12.333 20.334 -33 47.001c-8.66699 10.667 -12.667 21 -12 31c0.666992 14.667 14 23.667 40 27
c32.667 4 52 8.33301 58 13c8.66699 6.66699 28 29.667 58 69c20 26.667 42.667 40 68 40c24.667 0 37 -8.33301 37 -25c0 -14.667 -11 -40.667 -33 -78c-36 -59.333 -56.667 -94.333 -62 -105c-23.333 -44 -35 -80 -35 -108c0 -18.667 -0.666992 -46.834 -2 -84.501
s-2 -65.834 -2 -84.501c0 -55.333 5.33301 -106 16 -152c18.667 -80.667 32 -133.667 40 -159c38 -124 98.667 -186 182 -186c80.667 0 138.334 62.333 173.001 187l35 159c9.33301 43.333 14 86.333 14 129c0 22.667 -1 48.667 -3 78l-6 123
c-4.66699 46 -15 85.333 -31 118l-53 93c-20 34.667 -30 58.334 -30 71.001c0 16 11.333 24 34 24c23.333 0 44.666 -13.333 63.999 -40c26.667 -38 45.667 -61 57 -69c5.33301 -4 24.666 -8 57.999 -12c26 -3.33301 39.333 -12.666 40 -27.999
c0.666992 -10.667 -3 -21 -11 -31c-22 -27.333 -33.333 -43 -34 -47c-10.667 -41.333 -16 -83 -16 -125c0 -14 1.33301 -48.333 4 -103c2 -31.333 3 -54.666 3 -69.999c0 -30 22 -88.333 66 -175c14.667 -30 22 -53.333 22 -70c0 -20.667 -11 -37.667 -33 -51zM732.998 27
c0 42 -19.667 78 -59 108c-36.667 28 -76.667 42 -120 42c-51.333 0 -92 -22.667 -122 -68c-26 -39.333 -39 -86 -39 -140v-13c0 -3.33301 0.666992 -12 2 -26c11.333 -43.333 29.666 -80.666 54.999 -111.999c30.667 -38.667 65.334 -58 104.001 -58
c12.667 0 24.667 2 36 6c25.333 9.33301 43.666 36 54.999 80c8 28 16 49 24 63c2.66699 4.66699 9.33398 13.167 20.001 25.5s18 21.166 22 26.499c14.667 20.667 22 42.667 22 66z" />
    <glyph glyph-name="uFEFC" unicode="&#xfee0;&#xfe8e;" horiz-adv-x="945" arabic-form="final" 
d="M1008 0l-110.005 0.000976562c-50 0 -95 -30.667 -135 -92l-91 -173c-34 -62 -70.667 -93 -110 -93c-15.333 0 -30.666 3.33301 -45.999 10c-25.333 11.333 -46 29 -62 53c-3.33301 4.66699 -16 29.334 -38 74.001c-15.333 30.667 -32 55.667 -50 75
c-12.667 12.667 -37.334 30.667 -74.001 54c-40 24 -65 58 -75 102c-2.66699 13.333 -4 26.333 -4 39c0 18 2.33301 38 7 60l17 65c2.66699 11.333 10 33 22 65c8.66699 25.333 13 45 13 59c0 18 -5.33301 35 -16 51c-9.33301 13.333 -22.666 23.333 -39.999 30
c-26 10 -42.333 17.333 -49 22c-15.333 9.33301 -23 21.666 -23 36.999c0 12.667 10.667 39.5 32 80.5s32 72.5 32 94.5c0 28.667 3.83301 71 11.5 127s11.5 97.333 11.5 124c0 38.667 -6 79 -18 121c-2 6.66699 -13 21.334 -33 44.001c-8 10 -12 19.667 -12 29
c0 15.333 13 25.333 39 30c34.667 5.33301 54.334 10 59.001 14c12.667 9.33301 27.334 32.666 44.001 69.999c13.333 28.667 30 43 50 43c12.667 0 19 -4.66699 19 -14c0 -6.66699 -11.5 -30.334 -34.5 -71.001s-34.5 -71.334 -34.5 -92.001
c0 -36.667 -1.66699 -72.667 -5 -108l-11 -104c-4 -34.667 -6 -64.334 -6 -89.001c0 -65.333 20.333 -168 61 -308c16.667 -56.667 37.667 -100.334 63 -131.001c30.667 -36.667 69.667 -55 117 -55c80 0 137.333 62.333 172 187l36 159c12 51.333 18 101.333 18 150
c0 21.333 -4 76 -12 164c-4 46.667 -6 85.334 -6 116.001c0 21.333 -12 54.5 -36 99.5s-36 71.5 -36 79.5c0 11.333 7.33301 17 22 17c20.667 0 38.334 -14.333 53.001 -43c18.667 -37.333 34.334 -60.666 47.001 -69.999c6 -4.66699 25.333 -9 58 -13
c26 -3.33301 39.333 -12.333 40 -27c0.666992 -10 -3.33301 -20.333 -12 -31c-20 -26.667 -31 -42.667 -33 -48c-11.333 -39.333 -17 -79.333 -17 -120c0 -14.667 2 -48 6 -100c2 -32 3 -56 3 -72c0 -30 -2.66699 -85 -8 -165c-2.66699 -39.333 -4 -73.666 -4 -102.999
c0 -11.333 -0.333008 -28.333 -1 -51v-51c0 -68 4.66699 -118 14 -150c13.333 -46.667 37.333 -70 72 -70h103v-101zM732.995 27.001c0 42 -19.667 78 -59 108c-36.667 28 -76.667 42 -120 42c-51.333 0 -92 -22.667 -122 -68c-26 -39.333 -39 -86 -39 -140v-13
c0 -3.33301 0.666992 -12 2 -26c11.333 -43.333 29.666 -80.666 54.999 -111.999c30.667 -38.667 65.334 -58 104.001 -58c12.667 0 24.667 2 36 6c25.333 9.33301 43.666 36 54.999 80c8 28 16 49 24 63c2.66699 4.66699 9.33398 13.167 20.001 25.5s18 21.166 22 26.499
c14.667 20.667 22 42.667 22 66z" />
    <glyph glyph-name="u0652_u064E.liga" unicode="&#x652;&#x64e;" horiz-adv-x="1" 
d="M74 1300c19.333 -3.33301 36.668 -15.3311 52.001 -35.998c13.333 -18.667 13.666 -43 0.999023 -73c-19.333 -44.667 -29.666 -72.334 -30.999 -83.001c-2.66699 -16 6.66602 -54 27.999 -114c8.66699 -25.333 10.334 -41.333 5.00098 -48
c-3.33301 -5.33301 -10.333 -7.33301 -21 -6c-20 2 -37 13.333 -51 34c-12.667 18.667 -12.334 44.667 0.999023 78c8.66699 23.333 13.667 40.666 15 51.999c2 16.667 -0.666992 39.667 -8 69l-18 72c-3.33301 12.667 -5 23 -5 31c0 20 10.667 28 32 24z" />
    <glyph glyph-name="u0652_u064B.liga" unicode="&#x652;&#x64b;" horiz-adv-x="1" 
d="M500 1084c-8 -3.33301 -15.666 -6.33398 -22.999 -9.00098l-32 -14c-32.667 -15.333 -53.667 -39.333 -63 -72c-7.33301 -28.667 -22.333 -43 -45 -43c-19.333 0 -29 9 -29 27c0 8 2.33301 19 7 33l12 39l13 26c26 54.667 56 82 90 82c19.333 0 42.666 -7 69.999 -21
c16 -8 24 -16.667 24 -26s-8 -16.666 -24 -21.999zM230.001 1084c-8 -3.33301 -15.666 -6.33398 -22.999 -9.00098l-32 -14c-32.667 -15.333 -53.667 -39.333 -63 -72c-7.33301 -28.667 -22.333 -43 -45 -43c-19.333 0 -29 9 -29 27c0 8 2.33301 19 7 33l12 39l13 26
c26 54.667 56 82 90 82c19.333 0 42.666 -7 69.999 -21c16 -8 24 -16.667 24 -26s-8 -16.666 -24 -21.999z" />
    <glyph glyph-name="u0652_u064D.liga" unicode="&#x652;&#x64d;" horiz-adv-x="1" 
d="M836 -656c-33.333 -12.667 -61.666 -25.667 -84.999 -39c-10.667 -6.66699 -21.667 -26.334 -33 -59.001c-10 -26.667 -24.667 -40 -44 -40s-29 9 -29 27c0 10 6.33301 34 19 72l12 25c26 55.333 56 83 90 83c19.333 0 42.666 -7 69.999 -21c16.667 -8 25 -16.667 25 -26
s-8.33301 -16.666 -25 -21.999zM566 -656c-33.333 -12.667 -61.666 -25.667 -84.999 -39c-10.667 -6.66699 -21.667 -26.334 -33 -59.001c-10 -26.667 -24.667 -40 -44 -40s-29 9 -29 27c0 10 6.33301 34 19 72l12 25c26 55.333 56 83 90 83c19.333 0 42.666 -7 69.999 -21
c16.667 -8 25 -16.667 25 -26s-8.33301 -16.666 -25 -21.999z" />
    <glyph glyph-name="u0622" unicode="&#x622;" horiz-adv-x="459" arabic-form="isolated" 
d="M524 1339l-62 -6.99902c-8 -1.33301 -25.333 -5 -52 -11c-22.667 -5.33301 -40.334 -8 -53.001 -8c-18 0 -62.667 19.333 -134 58c-32.667 18 -63.334 27 -92.001 27c-15.333 -2 -32.833 -16.833 -52.5 -44.5s-34.167 -41.5 -43.5 -41.5
c-4.66699 0 -9.66699 1.33301 -15 4l1 2c8.66699 1.33301 13.334 2.66602 14.001 3.99902c2 9.33301 9.66699 14 23 14c6 0 13.333 -0.666992 22 -2c22.667 -3.33301 36.334 -5 41.001 -5c2 0 5.33301 0.333008 10 1h10h9c28.667 0 70 -13.333 124 -40s97 -40 129 -40
c23.333 0 48 13.333 74 40zM450 1034v-5.00098c0 -13.333 -5 -26.333 -15 -39c-26 -34.667 -39.667 -55.667 -41 -63c-10 -38 -15 -75.333 -15 -112c0 -22.667 5.66699 -76.667 17 -162c6 -44.667 9 -82 9 -112v-53c0 -184 -21.667 -316 -65 -396
c-33.333 -61.333 -79.333 -92 -138 -92c-25.333 -0 -38 7.33301 -38 22c0 11.333 15.667 42.333 47 93c20 34 35.333 62.333 46 85c42 91.333 63 210 63 356c0 57.333 -1 101.333 -3 132c-6.66699 122 -26.667 218.667 -60 290c-10 21.333 -40.333 72.666 -91 153.999
c-16.667 26.667 -25 45.334 -25 56.001c0 18 18.333 27 55 27c25.333 0 49 -14.333 71 -43c26 -34.667 41 -53.667 45 -57c10 -7.33301 35.5 -16.166 76.5 -26.499s61.5 -28.5 61.5 -54.5z" />
    <glyph glyph-name="u0623" unicode="&#x623;" horiz-adv-x="459" arabic-form="isolated" 
d="M391 1282l-3.99707 -0.000976562h-3c-8.66699 0 -19.334 8.66699 -32.001 26s-23.334 27 -32.001 29c-18 5.33301 -36.667 8 -56 8c-12.667 0 -36 -2 -70 -6c-18.667 -2.66699 -33.334 -4 -44.001 -4c-12.667 0 -26.667 1.33301 -42 4c7.33301 -1.33301 -4 -2 -34 -2
c-6.66699 0 -12 2 -16 6c-6 4.66699 -9 10 -9 16c0 4.66699 1 8.66699 3 12c0 6 1.33301 11.667 4 17c6.66699 4.66699 15.667 7 27 7h10c6 0 11.667 0.666992 17 2c22 11.333 38.667 29.333 50 54c20.667 36.667 50.667 93.334 90 170.001c12 23.333 24.333 35 37 35
c5.33301 0 10.5 -1.5 15.5 -4.5s8.5 -6 10.5 -9s5.66699 -10.167 11 -21.5c6.66699 -18.667 10 -31 10 -37c0 -25.333 -27.333 -51 -82 -77c-35.333 -16.667 -53 -32.667 -53 -48c0 -4 0.666992 -8.33301 2 -13c5.33301 -18.667 28 -31.667 68 -39
c48 -8.66699 77 -16.667 87 -24c14 -10 23 -23.333 27 -40c1.33301 -4 5 -12.333 11 -25c6 -10 9 -18 9 -24s-4 -10 -12 -12zM449.003 1034c0.666992 -2 1 -3.66797 1 -5.00098c0 -13.333 -5 -26.333 -15 -39c-26 -34.667 -40 -55.667 -42 -63
c-9.33301 -38 -14 -75.333 -14 -112c0 -22.667 5.66699 -76.667 17 -162c6 -44.667 9 -82 9 -112v-53c0 -184 -21.667 -316 -65 -396c-33.333 -61.333 -79.333 -92 -138 -92c-25.333 0 -38 7.33301 -38 22c0 11.333 15.333 42.333 46 93c20.667 34 36.334 62.333 47.001 85
c42 91.333 63 210 63 356c0 57.333 -1 101.333 -3 132c-7.33301 122 -27.333 218.667 -60 290c-10 21.333 -40.333 72.666 -91 153.999c-16.667 26.667 -25 45.334 -25 56.001c0 18 18.333 27 55 27c25.333 0 48.666 -14.333 69.999 -43c26.667 -34.667 42 -53.667 46 -57
c10 -7.33301 35.333 -16.166 76 -26.499s61 -28.5 61 -54.5z" />
    <glyph glyph-name="u0624" unicode="&#x624;" horiz-adv-x="895" arabic-form="isolated" 
d="M364 597c-1.33301 -0.666992 -2.99902 -1.00098 -4.99902 -1.00098h-3c-8.66699 0 -19.334 8.66699 -32.001 26s-23.334 27 -32.001 29c-17.333 5.33301 -36 8 -56 8c-12.667 0 -35.667 -2 -69 -6c-18.667 -2.66699 -33.334 -4 -44.001 -4
c-13.333 0 -27.666 1.33301 -42.999 4c8 -1.33301 -3 -2 -33 -2c-7.33301 0 -12.666 2 -15.999 6c-6 4.66699 -9 10.334 -9 17.001c0 4 0.666992 7.66699 2 11c0 6.66699 1.33301 12.334 4 17.001c6.66699 4.66699 15.667 7 27 7h10c6.66699 0 12.334 0.666992 17.001 2
c22.667 11.333 39.667 29.333 51 54l90 170c11.333 24 23.666 36 36.999 36c4.66699 0 9.5 -1.66699 14.5 -5s8.5 -6.5 10.5 -9.5s5.66699 -9.83301 11 -20.5c6.66699 -19.333 10 -32 10 -38c0 -25.333 -27 -51 -81 -77c-36 -16.667 -54 -32.667 -54 -48
c0 -4 0.666992 -8.33301 2 -13c6 -18.667 28.667 -31.667 68 -39c48.667 -8 77.667 -15.667 87 -23c14.667 -10.667 24 -24.334 28 -41.001c0.666992 -4 4 -11.667 10 -23s9 -20 9 -26s-3.66699 -9.66699 -11 -11zM803.001 -3.00098
c0 -160 -55.9971 -281.332 -167.997 -363.999c-32 -24 -68 -40 -108 -48c-52 -2 -130.667 -10 -236 -24c-10.667 -2.66699 -39 -16 -85 -40c-20 -10 -34.333 -15 -43 -15c-10 0 -15 6.66699 -15 20c0 22.667 12 39.667 36 51c14.667 7.33301 39 13.333 73 18
c3.33301 0.666992 7.33301 1 12 1c18 0 36.667 -8 56 -24c48 -39.333 82.667 -59 104 -59h10c67.333 0 128.666 30.667 183.999 92c54.667 59.333 82 123 82 191c0 39.333 -10.167 72.666 -30.5 99.999s-43.5 48 -69.5 62c-16 9.33301 -45 21 -87 35
c-11.333 4 -24.333 6 -39 6c-24 0 -59.333 -9.33301 -106 -28s-79.334 -28 -98.001 -28c-24.667 0 -45.334 10.333 -62.001 31c-19.333 24 -29 51.333 -29 82c0 28 9 64 27 108c22 53.333 37.667 89.666 47 108.999c20 39.333 42.333 72 67 98c30 32 70 63 120 93l150 82
l66 41c24 13.333 48 20 72 20c44 0 66 -23.667 66 -71c0 -20 -3.33301 -46 -10 -78l-21 -97c-6.66699 -33.333 -10 -62 -10 -86c0 -10 0.666992 -20 2 -30c3.33301 -24 12 -65.333 26 -124c11.333 -45.333 17 -86.666 17 -123.999zM684.004 300
c0 38 -18.333 71.001 -55 99.001c-33.333 26.667 -69.666 40 -108.999 40c-46.667 0 -84 -21.333 -112 -64c-24 -36.667 -36 -79.334 -36 -128.001v-19c0 -4 0.333008 -9 1 -15c6 -38.667 21.333 -74 46 -106c28 -37.333 59.667 -56 95 -56
c41.333 0 68.666 22.333 81.999 67c11.333 39.333 21.333 64 30 74l19 25c26 31.333 39 59 39 83z" />
    <glyph glyph-name="u0625" unicode="&#x625;" horiz-adv-x="459" arabic-form="isolated" 
d="M450 1034v-5.00098c0 -13.333 -5 -26.333 -15 -39c-26 -34.667 -39.667 -55.667 -41 -63c-10 -38 -15 -75.333 -15 -112c0 -22.667 5.66699 -76.667 17 -162c6 -44.667 9 -82 9 -112v-53c0 -184 -21.667 -316 -65 -396c-33.333 -61.333 -79.333 -92 -138 -92
c-25.333 0 -38 7.33301 -38 22c0 11.333 15.667 42.333 47 93c20 34 35.333 62.333 46 85c42 91.333 63 210 63 356c0 57.333 -1 101.333 -3 132c-6.66699 122 -26.667 218.667 -60 290c-10 21.333 -40.333 72.666 -91 153.999c-16.667 26.667 -25 45.334 -25 56.001
c0 18 18.333 27 55 27c25.333 0 49 -14.333 71 -43c26 -34.667 41 -53.667 45 -57c10 -7.33301 35.5 -16.166 76.5 -26.499s61.5 -28.5 61.5 -54.5zM391 -472.001c-1.33301 -0.666992 -3 -1 -5 -1h-3c-8.66699 0 -19.334 8.66699 -32.001 26s-23.334 27 -32.001 29
c-17.333 5.33301 -36 8 -56 8c-12.667 0 -35.667 -2 -69 -6c-18.667 -2.66699 -33.334 -4 -44.001 -4c-13.333 0 -27.666 1.33301 -42.999 4c8 -1.33301 -3 -2 -33 -2c-7.33301 0 -12.666 2 -15.999 6c-6 4.66699 -9 10 -9 16c0 4.66699 0.666992 8.66699 2 12
c0 6 1.33301 11.667 4 17c6.66699 4.66699 15.667 7 27 7h10c6.66699 0 12.334 0.666992 17.001 2c22.667 11.333 39.667 29.333 51 54l90 170c11.333 23.333 23.666 35 36.999 35c4.66699 0 9.5 -1.5 14.5 -4.5s8.5 -6 10.5 -9s5.66699 -10.167 11 -21.5
c6.66699 -18.667 10 -31 10 -37c0 -25.333 -27 -51 -81 -77c-36 -16.667 -54 -32.667 -54 -48c0 -4 0.666992 -8.33301 2 -13c6 -18.667 28.667 -31.667 68 -39c48.667 -8.66699 77.667 -16.667 87 -24c14.667 -10 24 -23.333 28 -40
c0.666992 -4 4.33398 -12.333 11.001 -25c5.33301 -10 8 -18 8 -24s-3.66699 -9.66699 -11 -11z" />
    <glyph glyph-name="u0626" unicode="&#x626;" horiz-adv-x="1368" arabic-form="isolated" 
d="M449 447c-1.33301 -0.666992 -2.99902 -1.00293 -4.99902 -1.00293h-3c-8.66699 0 -19.334 8.66699 -32.001 26s-23.334 27.333 -32.001 30c-17.333 4.66699 -36 7 -56 7c-12.667 0 -35.667 -2 -69 -6c-18.667 -2.66699 -33.334 -4 -44.001 -4
c-13.333 0 -27.666 1.66699 -42.999 5c8 -1.33301 -3 -2 -33 -2c-7.33301 0 -12.666 1.66699 -15.999 5c-6 4.66699 -9 10.334 -9 17.001c0 4 0.666992 7.66699 2 11c0 6.66699 1.33301 12.334 4 17.001c6.66699 4.66699 15.667 7 27 7h10c6.66699 0 12.334 1 17.001 3
c22.667 10.667 39.667 28.334 51 53.001l90 170c11.333 24 23.666 36 36.999 36c4.66699 0 9.5 -1.66699 14.5 -5s8.5 -6.5 10.5 -9.5s5.66699 -9.83301 11 -20.5c6.66699 -19.333 10 -32 10 -38c0 -25.333 -27 -50.666 -81 -75.999c-36 -16.667 -54 -33 -54 -49
c0 -4 0.666992 -8.33301 2 -13c6 -18.667 28.667 -31.667 68 -39c48.667 -8 77.667 -15.667 87 -23c14.667 -10.667 24 -24.334 28 -41.001c0.666992 -4 4 -11.667 10 -23s9 -20 9 -26c0 -5.33301 -3.66699 -9 -11 -11zM1258 -89.0029
c-8 -50 -16.6709 -86.3311 -26.0039 -108.998c-13.333 -32.667 -36.666 -64.334 -69.999 -95.001c-140 -129.333 -298.667 -194 -476 -194c-98 0 -193.333 43.333 -286 130c-14 12.667 -50.667 50.334 -110 113.001c-24 26 -40 55 -48 87c-5.33301 21.333 -8 50.333 -8 87
v24c0 36 -2.33301 63.667 -7 83c-6.66699 30.667 -21 58.667 -43 84c-7.33301 8.66699 -26.666 13 -57.999 13c-28 0 -42 5.66699 -42 17c0 10.667 7.66699 16 23 16c4.66699 0 11.667 -0.666992 21 -2c20.667 -2.66699 34.334 -4 41.001 -4c12.667 0 23 2.33301 31 7
c12.667 8.66699 30 30 52 64c17.333 27.333 39.666 42.666 66.999 45.999c6 0.666992 11.333 1 16 1c14 0 21 -4.33301 21 -13c0 -9.33301 -9.66699 -26.666 -29 -51.999c-30.667 -42 -48.667 -67 -54 -75c-19.333 -30.667 -29 -56.667 -29 -78c0 -8 1.66699 -15.667 5 -23
l90 -209c36 -78.667 76.667 -139 122 -181c54.667 -51.333 120 -77 196 -77c18.667 0 36.334 1 53.001 3c55.333 7.33301 117.666 30.333 186.999 69c64 36 117.667 75.667 161 119c50 50 75 94 75 132c0 47.333 -37.667 79.666 -113 96.999c-36 8 -76 12 -120 12
c-40 0 -77 -2.66699 -111 -8c-12.667 -2.66699 -33.667 -12 -63 -28c-21.333 -12 -40.666 -18 -57.999 -18c-29.333 0 -44 23.333 -44 70c0 14.667 1.66699 36.667 5 66s5 51.333 5 66c0 48 13 90.667 39 128c20.667 31.333 56.334 67.333 107.001 108
c28 23.333 63.333 43 106 59c111.333 43.333 173.333 69 186 77c17.333 11.333 39 41.333 65 90c20 38 47 57 81 57c22 0 33 -4 33 -12l-85 -85c-39.333 -42.667 -59 -74 -59 -94c0 -10 11.333 -21 34 -33s34 -19.333 34 -22c0 -12.667 -11.333 -19 -34 -19
c-7.33301 0 -27 5.66699 -59 17c-15.333 5.33301 -28.333 8 -39 8c-5.33301 0 -11 -1 -17 -3c-41.333 -11.333 -89.333 -39.333 -144 -84c-58.667 -47.333 -92.667 -89.333 -102 -126c-0.666992 -3.33301 -1 -9 -1 -17c0 -33.333 31 -54.666 93 -63.999l113 -15l137 -20
c45.333 -6.66699 75.333 -11.334 90 -14.001c44.667 -8.66699 73 -18 85 -28c7.33301 -6.66699 11 -14.667 11 -24s-4.33301 -22 -13 -38c-22 -40.667 -34.333 -69.334 -37 -86.001z" />
    <glyph glyph-name="u0627" unicode="&#x627;" horiz-adv-x="459" arabic-form="isolated" 
d="M450 1034v-5.00098c0 -13.333 -5 -26.333 -15 -39c-26 -34.667 -39.667 -55.667 -41 -63c-10 -38 -15 -75.333 -15 -112c0 -22.667 5.66699 -76.667 17 -162c6 -44.667 9 -82 9 -112v-53c0 -184 -21.667 -316 -65 -396c-33.333 -61.333 -79.333 -92 -138 -92
c-25.333 0 -38 7.33301 -38 22c0 11.333 15.667 42.333 47 93c20 34 35.333 62.333 46 85c42 91.333 63 210 63 356c0 57.333 -1 101.333 -3 132c-6.66699 122 -26.667 218.667 -60 290c-10 21.333 -40.333 72.666 -91 153.999c-16.667 26.667 -25 45.334 -25 56.001
c0 18 18.333 27 55 27c25.333 0 49 -14.333 71 -43c26 -34.667 41 -53.667 45 -57c10 -7.33301 35.5 -16.166 76.5 -26.499s61.5 -28.5 61.5 -54.5z" />
    <glyph glyph-name="u0628" unicode="&#x628;" horiz-adv-x="1456" arabic-form="isolated" 
d="M1397 657c-19.333 -51.333 -29 -105.002 -29 -161.002c0 -28.667 2 -61.667 6 -99c11.333 -89.333 17 -150.666 17 -183.999v-213h-956c-41.333 0 -71.666 -1 -90.999 -3c-39.333 -4.66699 -69 -14.334 -89 -29.001c-16 -12 -41 -36 -75 -72
c-23.333 -25.333 -41.333 -38 -54 -38c-12 0 -23.667 9.33301 -35 28c-7.33301 12 -11.333 19 -12 21c-3.33301 7.33301 -5 15 -5 23c-1.33301 19.333 5 37.333 19 54c28 32.667 43.667 51.334 47 56.001c14 20 22 41.667 24 65c0 20.667 1 51.334 3 92.001
c0 10.667 2.66699 24 8 40l10 75c5.33301 32 18.666 50.333 39.999 55c5.33301 1.33301 10.666 2 15.999 2c22 0 33.667 -18 35 -54c0.666992 -24.667 2 -61.334 4 -110.001c2.66699 -44.667 16.334 -74.334 41.001 -89.001c49.333 -29.333 102.333 -44 159 -44
c20 0 76.333 6.66699 169 20c44.667 6 82.667 9 114 9c30 0 66.333 -2.66699 109 -8c92 -11.333 148 -17 168 -17c59.333 0 111.666 13 156.999 39c25.333 15.333 44 30 56 44c8 9.33301 20.667 29.333 38 60c5.33301 9.33301 8 19 8 29c0 17.333 -17.5 45.833 -52.5 85.5
s-52.5 69.834 -52.5 90.501c0 30 15.667 49.667 47 59c34 10 54.667 17.333 62 22c32.667 20.667 60.667 53.667 84 99c18 36.667 27 63.334 27 80.001h-4c-3.33301 -5.33301 -7.66602 -14.333 -12.999 -27zM859 -172.002c-34 -12.667 -62.334 -25.667 -85.001 -39
c-11.333 -6.66699 -22.666 -26.334 -33.999 -59.001c-9.33301 -26.667 -24 -40 -44 -40c-19.333 0 -29 9 -29 27c0 10 6.33301 34 19 72l12 25c26 55.333 56.333 83 91 83c19.333 0 42.333 -7 69 -21c16.667 -8 25 -16.667 25 -26s-8 -16.666 -24 -21.999z" />
    <glyph glyph-name="u0629" unicode="&#x629;" horiz-adv-x="996" arabic-form="isolated" 
d="M931 896c3.33301 7.33301 4.99609 14.334 4.99609 21.001c0 24 -24.667 36 -74 36c-38 0 -76.667 -7.33301 -116 -22c-47.333 -18 -76 -41.667 -86 -71c-4 -11.333 -6 -22.333 -6 -33c0 -12.667 6.5 -37 19.5 -73s19.5 -91 19.5 -165c0 -28 -1.33301 -61.667 -4 -101
c-5.33301 -85.333 -8 -146.333 -8 -183c0 -24.667 -0.666992 -48 -2 -70l-6 -103c0 -44.667 6.66699 -89 20 -133c4.66699 -15.333 27.334 -48 68.001 -98c17.333 -21.333 26 -35.333 26 -42c0 -8 -6.33301 -12 -19 -12c-20 0 -36.333 13.333 -49 40
c-16 33.333 -30 54 -42 62c-25.333 18 -51.666 29.667 -78.999 35c-73.333 14 -131 21 -173 21c-16 0 -40.167 -0.833008 -72.5 -2.5s-56.5 -2.5 -72.5 -2.5c-13.333 0 -36 -5 -68 -15c-16 -4.66699 -28.333 -7 -37 -7c-42.667 0 -64 19.333 -64 58
c0 19.333 14.333 54.333 43 105c16.667 29.333 28.334 52.666 35.001 69.999c15.333 42.667 31.666 78.667 48.999 108c14.667 25.333 37 58.666 67 99.999c20 26.667 54 52 102 76l114 56c36 20 54 42.667 54 68c0 30 -19.333 54 -58 72c-25.333 11.333 -38 21.333 -38 30
c0 16.667 9.33301 25 28 25c6.66699 0 16.834 -2 30.501 -6s24.167 -6 31.5 -6c3.33301 0 6 0.333008 8 1c42 3.33301 109.333 27.333 202 72c42.667 15.333 71.667 26.333 87 33c30.667 12.667 52.334 31.334 65.001 56.001zM650.996 328.001
c0 38 -18.666 71.332 -55.999 99.999c-34.667 26 -71.667 39 -111 39c-46.667 0 -84 -21.333 -112 -64c-24.667 -37.333 -37 -80.666 -37 -129.999v-15c0 -5.33301 0.666992 -12 2 -20c6 -38 21.667 -73.333 47 -106c28.667 -36.667 60.667 -55 96 -55
c41.333 0 68.666 22 81.999 66c12 40.667 22 66 30 76l18 24c4 5.33301 10.333 13.333 19 24c14.667 18.667 22 39 22 61zM528.997 852c-2 -0.666992 -3.66699 -1.00293 -5 -1.00293h-3c-8.66699 0 -19.334 8.66699 -32.001 26s-23.334 27.333 -32.001 30
c-17.333 4.66699 -36 7 -56 7c-12.667 0 -35.667 -2 -69 -6c-19.333 -2.66699 -34 -4 -44 -4c-13.333 0 -27.666 1.66699 -42.999 5c8 -1.33301 -3 -2 -33 -2c-7.33301 0 -12.666 1.66699 -15.999 5c-6 4.66699 -9 10.334 -9 17.001c0 4 0.666992 7.66699 2 11
c0 6.66699 1.33301 12.334 4 17.001c6.66699 4.66699 15.667 7 27 7h10c6.66699 0 12.334 1 17.001 3c22.667 10.667 39.667 28.334 51 53.001l90 170c11.333 24 23.666 36 36.999 36c4.66699 0 9.5 -1.66699 14.5 -5s8.5 -6.5 10.5 -9.5s5.66699 -9.83301 11 -20.5
c6.66699 -19.333 10 -32 10 -38c0 -25.333 -27 -50.666 -81 -75.999c-36 -16.667 -54 -33 -54 -49c0 -4 0.666992 -8.33301 2 -13c6 -18.667 28.667 -31.667 68 -39c48.667 -8 77.667 -15.667 87 -23c14.667 -10.667 24 -24.334 28 -41.001c0.666992 -4 4 -11.667 10 -23
s9 -20 9 -26c0 -5.33301 -3.66699 -9 -11 -11z" />
    <glyph glyph-name="u062A" unicode="&#x62a;" horiz-adv-x="1477" arabic-form="isolated" 
d="M1032 552c-8 -3.33301 -15.665 -6.33301 -22.998 -9l-32 -14c-32.667 -15.333 -53.334 -39.333 -62.001 -72c-8 -28.667 -23 -43 -45 -43c-19.333 0 -29 9 -29 27c0 8.66699 2 19.667 6 33l13 39l12 26c26 54.667 56 82 90 82c19.333 0 42.666 -7 69.999 -21
c16.667 -8 25 -16.667 25 -26c0 -8.66699 -8.33301 -16 -25 -22zM762.002 552c-8 -3.33301 -15.665 -6.33301 -22.998 -9l-32 -14c-32.667 -15.333 -53.334 -39.333 -62.001 -72c-8 -28.667 -23 -43 -45 -43c-19.333 0 -29 9 -29 27c0 8.66699 2 19.667 6 33l13 39l12 26
c26 54.667 56 82 90 82c19.333 0 42.666 -7 69.999 -21c16.667 -8 25 -16.667 25 -26c0 -8.66699 -8.33301 -16 -25 -22zM1404 657c-19.333 -51.333 -29 -105.002 -29 -161.002c0 -28.667 2 -61.667 6 -99c11.333 -89.333 17 -150.666 17 -183.999v-213h-956
c-41.333 0 -71.666 -1 -90.999 -3c-39.333 -4.66699 -69 -14.334 -89 -29.001c-16 -12 -41 -36 -75 -72c-23.333 -25.333 -41.333 -38 -54 -38c-12 0 -23.667 9.33301 -35 28c-7.33301 12 -11.333 19 -12 21c-3.33301 7.33301 -5 15 -5 23c-1.33301 19.333 5 37.333 19 54
c28 32.667 43.667 51.334 47 56.001c14 20 22 41.667 24 65c0 20.667 1 51.334 3 92.001c0 10.667 2.66699 24 8 40l10 75c5.33301 32 18.666 50.333 39.999 55c5.33301 1.33301 10.666 2 15.999 2c22 0 33.667 -18 35 -54c0.666992 -24.667 2 -61.334 4 -110.001
c2.66699 -44.667 16.334 -74.334 41.001 -89.001c49.333 -29.333 102.333 -44 159 -44c20 0 76.333 6.66699 169 20c44.667 6 82.667 9 114 9c30 0 66.333 -2.66699 109 -8c92 -11.333 148 -17 168 -17c59.333 0 111.666 13 156.999 39c25.333 15.333 44 30 56 44
c8 9.33301 20.667 29.333 38 60c5.33301 9.33301 8 19 8 29c0 17.333 -17.5 45.833 -52.5 85.5s-52.5 69.834 -52.5 90.501c0 30 15.667 49.667 47 59c34 10 54.667 17.333 62 22c32.667 20.667 60.667 53.667 84 99c18 36.667 27 63.334 27 80.001h-4
c-3.33301 -5.33301 -7.66602 -14.333 -12.999 -27z" />
    <glyph glyph-name="u062B" unicode="&#x62b;" horiz-adv-x="1513" arabic-form="isolated" 
d="M969 847l-22.999 -7.99902l-32 -15c-32.667 -14.667 -53.667 -38.334 -63 -71.001c-7.33301 -29.333 -22 -44 -44 -44c-19.333 0 -29 9 -29 27c0 8.66699 2 19.667 6 33l12 40l13 25c26 55.333 56 83 90 83c19.333 0 42.666 -7 69.999 -21c16.667 -8 25 -16.667 25 -26
s-8.33301 -17 -25 -23zM1039 552.001c-8 -3.33301 -15.665 -6.33301 -22.998 -9l-32 -14c-32.667 -15.333 -53.334 -39.333 -62.001 -72c-8 -28.667 -23 -43 -45 -43c-19.333 0 -29 9 -29 27c0 8.66699 2 19.667 6 33l13 39l12 26c26 54.667 56 82 90 82
c19.333 0 42.666 -7 69.999 -21c16.667 -8 25 -16.667 25 -26c0 -8.66699 -8.33301 -16 -25 -22zM769.003 552.001c-8 -3.33301 -15.665 -6.33301 -22.998 -9l-32 -14c-32.667 -15.333 -53.334 -39.333 -62.001 -72c-8 -28.667 -23 -43 -45 -43c-19.333 0 -29 9 -29 27
c0 8.66699 2 19.667 6 33l13 39l12 26c26 54.667 56 82 90 82c19.333 0 42.666 -7 69.999 -21c16.667 -8 25 -16.667 25 -26c0 -8.66699 -8.33301 -16 -25 -22zM1411 657.001c-19.333 -51.333 -29 -105.002 -29 -161.002c0 -28.667 2 -61.667 6 -99
c11.333 -89.333 17 -150.666 17 -183.999v-213h-956c-41.333 0 -71.666 -1 -90.999 -3c-39.333 -4.66699 -69 -14.334 -89 -29.001c-16 -12 -41 -36 -75 -72c-23.333 -25.333 -41.333 -38 -54 -38c-12 0 -23.667 9.33301 -35 28c-7.33301 12 -11.333 19 -12 21
c-3.33301 7.33301 -5 15 -5 23c-1.33301 19.333 5 37.333 19 54c28 32.667 43.667 51.334 47 56.001c14 20 22 41.667 24 65c0 20.667 1 51.334 3 92.001c0 10.667 2.66699 24 8 40l10 75c5.33301 32 18.666 50.333 39.999 55c5.33301 1.33301 10.666 2 15.999 2
c22 0 33.667 -18 35 -54c0.666992 -24.667 2 -61.334 4 -110.001c2.66699 -44.667 16.334 -74.334 41.001 -89.001c49.333 -29.333 102.333 -44 159 -44c20 0 76.333 6.66699 169 20c44.667 6 82.667 9 114 9c30 0 66.333 -2.66699 109 -8c92 -11.333 148 -17 168 -17
c59.333 0 111.666 13 156.999 39c25.333 15.333 44 30 56 44c8 9.33301 20.667 29.333 38 60c5.33301 9.33301 8 19 8 29c0 17.333 -17.5 45.833 -52.5 85.5s-52.5 69.834 -52.5 90.501c0 30 15.667 49.667 47 59c34 10 54.667 17.333 62 22
c32.667 20.667 60.667 53.667 84 99c18 36.667 27 63.334 27 80.001h-4c-3.33301 -5.33301 -7.66602 -14.333 -12.999 -27z" />
    <glyph glyph-name="u062C" unicode="&#x62c;" horiz-adv-x="1121" arabic-form="isolated" 
d="M1043 -1l-432.001 1c-21.333 0 -61.333 3 -120 9c-27.333 2.66699 -49.333 4 -66 4c-42 0 -81.667 -8 -119 -24c-80.667 -33.333 -125 -53 -133 -59c-40.667 -28 -61 -70.667 -61 -128c0 -92 36 -168 108 -228c67.333 -56 148 -84 242 -84
c14.667 0 35.334 16.667 62.001 50s47 50 61 50c24.667 0 38 -17.333 40 -52c0.666992 -24.667 3.66699 -41.334 9 -50.001c9.33301 -13.333 30.333 -30.666 63 -51.999c26.667 -17.333 43 -37.333 49 -60c1.33301 -4.66699 7.83301 -11 19.5 -19s17.5 -12.667 17.5 -14
c0 -4.66699 -4 -7 -12 -7c-5.33301 0 -13 7.83301 -23 23.5s-19 24.167 -27 25.5c-33.333 6.66699 -68 10 -104 10c-18.667 0 -58.667 -2.33301 -120 -7c-37.333 -2.66699 -65 -4 -83 -4c-116.667 0 -206.667 51.667 -270 155c-53.333 87.333 -80 193 -80 317
c0 38 26.667 77 80 117c10 8 35.667 25.667 77 53c34.667 24 87.667 40.667 159 50c39.333 5.33301 100.333 9.33301 183 12c80 2.66699 140.667 7 182 13c50.667 8 76 26.667 76 56c0 20.667 -13.333 50.334 -40 89.001c-18.667 27.333 -53 47.333 -103 60l-142 34
c-54.667 12.667 -91.667 28.334 -111 47.001c-2 2 -10.667 7 -26 15c-10 5.33301 -15.667 12 -17 20c-2.66699 15.333 7 28.666 29 39.999c35.333 18.667 53 39 53 61c0 12.667 -5.16699 31.834 -15.5 57.501s-15.5 42.834 -15.5 51.501c0 14 6.66699 23 20 27
c4 1.33301 8.33301 2 13 2c12 0 20 -12 24 -36c10 -62.667 23 -100.334 39 -113.001c38.667 -30 84 -58.667 136 -86l130 -70c97.333 -60 169 -127.667 215 -203c23.333 -38.667 35 -78.334 35 -119.001c0 -6.66699 -0.666992 -18.334 -2 -35.001zM715.999 -426
c-10 0 -23.999 10.002 -41.999 30.002l-26 28c-2 4 -7.33301 12 -16 24c-23.333 32.667 -35 61 -35 85c0 18.667 6.33301 35 19 49c27.333 30 50.666 45 69.999 45c8.66699 0 13.667 -4 15 -12c1.33301 -4 2 -8.33301 2 -13c0 -4 -2 -15.333 -6 -34
c-2.66699 -22.667 -4 -45.334 -4 -68.001c0 -14.667 5.33301 -28.334 16 -41.001c25.333 -28.667 38 -46 38 -52c0 -27.333 -10.333 -41 -31 -41z" />
    <glyph glyph-name="u062D" unicode="&#x62d;" horiz-adv-x="1135" arabic-form="isolated" 
d="M1057 -1l-432.001 1c-21.333 0 -61.333 3 -120 9c-27.333 2.66699 -49.333 4 -66 4c-42 0 -81.667 -8 -119 -24c-80.667 -33.333 -125 -53 -133 -59c-40.667 -28 -61 -70.667 -61 -128c0 -92 36 -168 108 -228c67.333 -56 148 -84 242 -84
c14.667 0 35.334 16.667 62.001 50s47 50 61 50c24.667 0 38 -17.333 40 -52c0.666992 -24.667 3.66699 -41.334 9 -50.001c9.33301 -13.333 30.333 -30.666 63 -51.999c26.667 -17.333 43 -37.333 49 -60c1.33301 -4.66699 7.83301 -11 19.5 -19s17.5 -12.667 17.5 -14
c0 -4.66699 -4 -7 -12 -7c-5.33301 0 -13 7.83301 -23 23.5s-19 24.167 -27 25.5c-33.333 6.66699 -68 10 -104 10c-18.667 0 -58.667 -2.33301 -120 -7c-37.333 -2.66699 -65 -4 -83 -4c-116.667 0 -206.667 51.667 -270 155c-53.333 87.333 -80 193 -80 317
c0 38 26.667 77 80 117c10 8 35.667 25.667 77 53c34.667 24 87.667 40.667 159 50c39.333 5.33301 100.333 9.33301 183 12c80 2.66699 140.667 7 182 13c50.667 8 76 26.667 76 56c0 20.667 -13.333 50.334 -40 89.001c-18.667 27.333 -53 47.333 -103 60l-142 34
c-54.667 12.667 -91.667 28.334 -111 47.001c-2 2 -10.667 7 -26 15c-10 5.33301 -15.667 12 -17 20c-2.66699 15.333 7 28.666 29 39.999c35.333 18.667 53 39 53 61c0 12.667 -5.16699 31.834 -15.5 57.501s-15.5 42.834 -15.5 51.501c0 14 6.66699 23 20 27
c4 1.33301 8.33301 2 13 2c12 0 20 -12 24 -36c10 -62.667 23 -100.334 39 -113.001c38.667 -30 84 -58.667 136 -86l130 -70c97.333 -60 169 -127.667 215 -203c23.333 -38.667 35 -78.334 35 -119.001c0 -6.66699 -0.666992 -18.334 -2 -35.001z" />
    <glyph glyph-name="u062E" unicode="&#x62e;" horiz-adv-x="1128" arabic-form="isolated" 
d="M720 649c-10 0 -24 10.002 -42 30.002c-10 10 -18.333 19 -25 27l-17 24c-23.333 34 -35 62.667 -35 86c0 18 6.33301 34.333 19 49c27.333 30 50.333 45 69 45c8.66699 0 14 -4.33301 16 -13c0.666992 -2.66699 1 -6.33398 1 -11.001
c0 -4 -0.833008 -9.83301 -2.5 -17.5s-2.5 -13.5 -2.5 -17.5l-4 -40c-0.666992 -6.66699 -1 -16.334 -1 -29.001c0 -14.667 9 -31.5 27 -50.5s27 -32.833 27 -41.5c0 -27.333 -10 -41 -30 -41zM1050 -0.998047l-432.001 1c-21.333 0 -61.333 3 -120 9
c-27.333 2.66699 -49.333 4 -66 4c-42 0 -81.667 -8 -119 -24c-80.667 -33.333 -125 -53 -133 -59c-40.667 -28 -61 -70.667 -61 -128c0 -92 36 -168 108 -228c67.333 -56 148 -84 242 -84c14.667 0 35.334 16.667 62.001 50s47 50 61 50c24.667 0 38 -17.333 40 -52
c0.666992 -24.667 3.66699 -41.334 9 -50.001c9.33301 -13.333 30.333 -30.666 63 -51.999c26.667 -17.333 43 -37.333 49 -60c1.33301 -4.66699 7.83301 -11 19.5 -19s17.5 -12.667 17.5 -14c0 -4.66699 -4 -7 -12 -7c-5.33301 0 -13 7.83301 -23 23.5s-19 24.167 -27 25.5
c-33.333 6.66699 -68 10 -104 10c-18.667 0 -58.667 -2.33301 -120 -7c-37.333 -2.66699 -65 -4 -83 -4c-116.667 0 -206.667 51.667 -270 155c-53.333 87.333 -80 193 -80 317c0 38 26.667 77 80 117c10 8 35.667 25.667 77 53c34.667 24 87.667 40.667 159 50
c39.333 5.33301 100.333 9.33301 183 12c80 2.66699 140.667 7 182 13c50.667 8 76 26.667 76 56c0 20.667 -13.333 50.334 -40 89.001c-18.667 27.333 -53 47.333 -103 60l-142 34c-54.667 12.667 -91.667 28.334 -111 47.001c-2 2 -10.667 7 -26 15
c-10 5.33301 -15.667 12 -17 20c-2.66699 15.333 7 28.666 29 39.999c35.333 18.667 53 39 53 61c0 12.667 -5.16699 31.834 -15.5 57.501s-15.5 42.834 -15.5 51.501c0 14 6.66699 23 20 27c4 1.33301 8.33301 2 13 2c12 0 20 -12 24 -36
c10 -62.667 23 -100.334 39 -113.001c38.667 -30 84 -58.667 136 -86l130 -70c97.333 -60 169 -127.667 215 -203c23.333 -38.667 35 -78.334 35 -119.001c0 -6.66699 -0.666992 -18.334 -2 -35.001z" />
    <glyph glyph-name="u062F" unicode="&#x62f;" horiz-adv-x="1469" arabic-form="isolated" 
d="M1347 610c20.667 -36.667 31 -75.6641 31 -116.997c0 -23.333 -14.667 -93.333 -44 -210c-10 -38.667 -15 -75.334 -15 -110.001c0 -18.667 1.33301 -47.334 4 -86.001s4 -67.667 4 -87h-651c-30.667 0 -92.667 -19.667 -186 -59
c-31.333 -13.333 -56.666 -20 -75.999 -20c-28 0 -51.5 13 -70.5 39s-28.5 48.667 -28.5 68c0 28.667 20.333 49.334 61 62.001c48 15.333 119.667 23 215 23c42.667 0 78 -0.333008 106 -1l78 -1c27.333 -0.666992 68.333 -6.16699 123 -16.5s96 -15.5 124 -15.5
c48 0 90.667 14 128 42c56 43.333 95.333 99.666 118 168.999c12.667 39.333 19 78.333 19 117c0 86.667 -30 149 -90 187c-54 34.667 -109.333 52 -166 52c-54 0 -96.333 -17.333 -127 -52c-13.333 -14.667 -20 -33.334 -20 -56.001c0 -8 1 -19.667 3 -35s3 -27 3 -35
c0 -15.333 -2 -28.333 -6 -39c-8 -22 -20.667 -33 -38 -33c-14 0 -39 11 -75 33l-73 46c-31.333 18.667 -60.333 28 -87 28h-55c-50.667 0 -88.334 2.33301 -113.001 7c-102.667 18.667 -184.334 79.667 -245.001 183c-36.667 63.333 -55 116 -55 158
c0 27.333 9.33301 41 28 41c10.667 0 24 -5 40 -15c22.667 -12.667 43.334 -32 62.001 -58c24.667 -32 43 -54 55 -66l136 -135c46 -43.333 100.333 -72 163 -86c14 -3.33301 27.667 -5 41 -5c47.333 0 93.333 22.667 138 68l118 127c46 46 94.333 69 145 69
c10 0 18 -0.333008 24 -1c110 -15.333 194.667 -75.333 254 -180z" />
    <glyph glyph-name="u0630" unicode="&#x630;" horiz-adv-x="1476" arabic-form="isolated" 
d="M796 838l-22.999 -7.99902l-32 -15c-32.667 -14.667 -53.334 -38.667 -62.001 -72c-8 -28.667 -23 -43 -45 -43c-19.333 0 -29 9 -29 27c0 8.66699 2 19.667 6 33l13 39l12 26c26 54.667 56 82 90 82c20 0 43.333 -6.66699 70 -20c16.667 -8.66699 25 -17.334 25 -26.001
c0 -9.33301 -8.33301 -17 -25 -23zM1347 610.001c20.667 -36.667 31 -75.6641 31 -116.997c0 -23.333 -14.667 -93.333 -44 -210c-10 -38.667 -15 -75.334 -15 -110.001c0 -18.667 1.33301 -47.334 4 -86.001s4 -67.667 4 -87h-651c-30.667 0 -92.667 -19.667 -186 -59
c-31.333 -13.333 -56.666 -20 -75.999 -20c-28 0 -51.5 13 -70.5 39s-28.5 48.667 -28.5 68c0 28.667 20.333 49.334 61 62.001c48 15.333 119.667 23 215 23c42.667 0 78 -0.333008 106 -1l78 -1c27.333 -0.666992 68.333 -6.16699 123 -16.5s96 -15.5 124 -15.5
c48 0 90.667 14 128 42c56 43.333 95.333 99.666 118 168.999c12.667 39.333 19 78.333 19 117c0 86.667 -30 149 -90 187c-54 34.667 -109.333 52 -166 52c-54 0 -96.333 -17.333 -127 -52c-13.333 -14.667 -20 -33.334 -20 -56.001c0 -8 1 -19.667 3 -35s3 -27 3 -35
c0 -15.333 -2 -28.333 -6 -39c-8 -22 -20.667 -33 -38 -33c-14 0 -39 11 -75 33l-73 46c-31.333 18.667 -60.333 28 -87 28h-55c-50.667 0 -88.334 2.33301 -113.001 7c-102.667 18.667 -184.334 79.667 -245.001 183c-36.667 63.333 -55 116 -55 158
c0 27.333 9.33301 41 28 41c10.667 0 24 -5 40 -15c22.667 -12.667 43.334 -32 62.001 -58c24.667 -32 43 -54 55 -66l136 -135c46 -43.333 100.333 -72 163 -86c14 -3.33301 27.667 -5 41 -5c47.333 0 93.333 22.667 138 68l118 127c46 46 94.333 69 145 69
c10 0 18 -0.333008 24 -1c110 -15.333 194.667 -75.333 254 -180z" />
    <glyph glyph-name="u0631" unicode="&#x631;" horiz-adv-x="973" arabic-form="isolated" 
d="M865 -26c-52.667 -244.667 -217.002 -390 -493.002 -436c-17.333 -3.33301 -58.666 -21.333 -123.999 -54c-28 -14.667 -48.667 -22 -62 -22c-26.667 0 -40 16.333 -40 49c0 22.667 10.333 42.5 31 59.5s42.334 25.5 65.001 25.5c14.667 0 30.334 -6 47.001 -18
c20.667 -15.333 34.667 -24.333 42 -27c23.333 -8.66699 46 -13 68 -13c64 0 126 31 186 93c47.333 48.667 86.666 108.334 117.999 179.001c34 78.667 51 153.334 51 224.001c0 18.667 -1.33301 37 -4 55c-5.33301 34.667 -27.333 58 -66 70l-104 30c-36 14 -54 38 -54 72
c0 32 18 61 54 87c50 36 80 61.667 90 77c9.33301 13.333 14 32.666 14 57.999c0 18 -2.66699 39.333 -8 64c-2.66699 14 -8.33398 35.667 -17.001 65c-2.66699 -11.333 -4 -21.666 -4 -30.999c0 -4.66699 0.666992 -9.33398 2 -14.001
c10.667 -58.667 35.334 -121.334 74.001 -188.001l95 -160c31.333 -56 47 -113.333 47 -172c0 -24 -2.66699 -48.333 -8 -73z" />
    <glyph glyph-name="u0632" unicode="&#x632;" horiz-adv-x="962" arabic-form="isolated" 
d="M532 571l-23.999 -7.99805l-31 -15c-33.333 -14.667 -54.333 -38.334 -63 -71.001c-8 -29.333 -23 -44 -45 -44c-19.333 0 -29 9 -29 27c0 8.66699 2.33301 19.667 7 33l12 40l12 25c26 55.333 56.333 83 91 83c19.333 0 42.666 -7 69.999 -21
c16 -8.66699 24 -17.334 24 -26.001c0 -9.33301 -8 -17 -24 -23zM869.001 -15.998c-46.667 -203.333 -180.333 -348.667 -401 -436l-94 -38c-94.667 -36.667 -159.334 -55 -194.001 -55c-24 0 -36 7.66699 -36 23c0 6.66699 2.66699 15 8 25c32 66.667 70.333 100 115 100
c16 0 37.333 -22.333 64 -67c12.667 -22 27.334 -33 44.001 -33c130.667 0 238.667 32.667 324 98c94 72 141 171.333 141 298c0 84.667 -23.667 161.667 -71 231c-14 20.667 -38 38.334 -72 53.001l-81 35c-25.333 16 -38 37.667 -38 65c0 22 8.33301 42.333 25 61
c31.333 34.667 48 53.667 50 57c16 21.333 24.667 44 26 68c0.666992 13.333 1 28.666 1 45.999c0 42 -4.33301 83 -13 123c-2.66699 0 -4.66699 -12.667 -6 -38c-0.666992 -7.33301 -1 -15 -1 -23c0 -65.333 18.667 -129.333 56 -192l104 -161
c37.333 -60 56 -118.333 56 -175c0 -22 -2.33301 -43.667 -7 -65z" />
    <glyph glyph-name="u0633" unicode="&#x633;" horiz-adv-x="2135" arabic-form="isolated" 
d="M2023 261l-4.00293 -262.993l-314 -4c-42 -0.666992 -88.333 1.66602 -139 6.99902l-138 14c-47.333 4.66699 -85.666 7 -114.999 7c-68 0 -135 -8.66699 -201 -26c-70.667 -18.667 -135.334 -64.667 -194.001 -138l-145 -186c-52.667 -62.667 -115.667 -94 -189 -94h-17
c-4.66699 0.666992 -8.33398 1 -11.001 1c-212 19.333 -341 118.666 -387 297.999c-4.66699 17.333 -7 34.333 -7 51c0 15.333 5 45.333 15 90c5.33301 22.667 8 41.334 8 56.001c0 27.333 -6 55.666 -18 84.999c-3.33301 7.33301 -11.333 12.666 -24 15.999
c-23.333 7.33301 -34.333 15.666 -33 24.999c0 6.66699 2 10 6 10c3.33301 0 13.833 -5.5 31.5 -16.5s30.167 -16.5 37.5 -16.5c19.333 0 33.333 18.333 42 55c4 19.333 6 45 6 77c0 10.667 -0.5 25.5 -1.5 44.5s-1.5 32.5 -1.5 40.5c0 9.33301 1 14 3 14
c10 0 15 -9.66699 15 -29c0 -10 -7 -21 -21 -33c-31.333 -27.333 -48 -47.333 -50 -60c-14 -76 -21 -135.333 -21 -178c0 -47.333 7.66699 -97.666 23 -150.999c29.333 -104 68 -179 116 -225c52.667 -49.333 130.667 -79.333 234 -90c22 -2 42.333 -3 61 -3
c137.333 0 239.333 40.333 306 121c18.667 23.333 33.334 55.333 44.001 96c7.33301 26.667 14 63.334 20 110.001c1.33301 9.33301 9.66602 40.666 24.999 93.999c13.333 45.333 20 83 20 113c0 23.333 -3.66699 46.333 -11 69c-5.33301 15.333 -34 44 -86 86
c-22 17.333 -33 34.666 -33 51.999c0 6.66699 1.33301 14 4 22c7.33301 20.667 20.666 35 39.999 43c37.333 14.667 60.666 33.667 69.999 57c2.66699 7.33301 4 14.666 4 21.999c0 14 -9.16699 30.667 -27.5 50s-27.5 30.666 -27.5 33.999c0 9.33301 11.333 17 34 23
c12 2.66699 21 4 27 4c46.667 0 73 -45.667 79 -137l6 -260c2.66699 -88.667 17.667 -133 45 -133c10.667 0 23 5 37 15c5.33301 4 28.5 8 69.5 12s64.167 8.33301 69.5 13c28 24.667 42 59 42 103c0 26 -4.66699 57.333 -14 94s-15 57 -17 61c-8 16 -24.667 28.333 -50 37
c-30 10 -45 23.333 -45 40c0 9.33301 5.66699 14 17 14c4.66699 0 11.834 -0.833008 21.501 -2.5s17.167 -2.5 22.5 -2.5c9.33301 0 17 2 23 6c20 14.667 39 43 57 85c0.666992 2 13.334 37 38.001 105c12.667 34 23.334 51 32.001 51c11.333 0 19.333 -11.333 24 -34
c0.666992 -4.66699 1 -9.33398 1 -14.001c0 -4 -0.5 -10.667 -1.5 -20s-1.5 -16.333 -1.5 -21v-8c1.33301 -16.667 2 -30 2 -40c0 -36 -4.66699 -74.667 -14 -116l-29 -124c-9.33301 -40.667 -14 -74 -14 -100c0 -64 28 -110.333 84 -139c21.333 -10.667 54 -17.667 98 -21
l92 -8c11.333 -0.666992 16.666 -1 15.999 -1h17c72.667 0 127.334 25 164.001 75c30 40.667 45 80.334 45 119.001c0 32.667 -13 77.667 -39 135c-4.66699 10.667 -21.667 20.334 -51 29.001c-26 8 -39 18.667 -39 32c0 9.33301 5.66699 14 17 14
c4.66699 0 11.834 -0.833008 21.501 -2.5s17.167 -2.5 22.5 -2.5c10 0 17.667 2 23 6c20.667 14.667 40 43 58 85c0.666992 2 13.334 37 38.001 105c12.667 34 23.334 51 32.001 51c11.333 0 19 -11.333 23 -34c1.33301 -4.66699 2 -9.33398 2 -14.001
c0 -4 -0.666992 -10.667 -2 -20s-2 -16.333 -2 -21c0.666992 -1.33301 1 -4 1 -8c4.66699 -58.667 7 -111.334 7 -158.001c0 -0.666992 -1.33301 -74 -4 -220z" />
    <glyph glyph-name="u0634" unicode="&#x634;" horiz-adv-x="2093" arabic-form="isolated" 
d="M1667 1344l-23.999 -7.99805l-31 -15c-32.667 -14.667 -53.667 -38.334 -63 -71.001c-8 -29.333 -23 -44 -45 -44c-19.333 0 -29 9 -29 27c0 8.66699 2.33301 19.667 7 33l12 39l12 26c26 54.667 56.333 82 91 82c19.333 0 42.666 -6.66699 69.999 -20
c16 -8.66699 24 -17.334 24 -26.001c0 -9.33301 -8 -17 -24 -23zM1805 981.002l-23.999 -7.99805l-32 -15c-32.667 -14.667 -53.334 -38.334 -62.001 -71.001c-8 -29.333 -23 -44 -45 -44c-19.333 0 -29 9 -29 27c0 8.66699 2 19.667 6 33l13 39l12 26
c26 54.667 56 82 90 82c20 0 43.333 -6.66699 70 -20c16.667 -8.66699 25 -17.334 25 -26.001c0 -9.33301 -8 -17 -24 -23zM1400 981.004l-23.999 -7.99805l-32 -15c-32.667 -14.667 -53.334 -38.334 -62.001 -71.001c-8 -29.333 -23 -44 -45 -44c-19.333 0 -29 9 -29 27
c0 8.66699 2 19.667 6 33l13 39l12 26c26 54.667 56.333 82 91 82c19.333 0 42.333 -6.66699 69 -20c16.667 -8.66699 25 -17.334 25 -26.001c0 -9.33301 -8 -17 -24 -23zM2002 261.006l-4.00293 -262.993l-314 -4c-42 -0.666992 -88.333 1.66602 -139 6.99902l-138 14
c-47.333 4.66699 -85.666 7 -114.999 7c-68 0 -135 -8.66699 -201 -26c-70.667 -18.667 -135.334 -64.667 -194.001 -138l-145 -186c-52.667 -62.667 -115.667 -94 -189 -94h-17c-4.66699 0.666992 -8.33398 1 -11.001 1c-212 19.333 -341 118.666 -387 297.999
c-4.66699 17.333 -7 34.333 -7 51c0 15.333 5 45.333 15 90c5.33301 22.667 8 41.334 8 56.001c0 27.333 -6 55.666 -18 84.999c-3.33301 7.33301 -11.333 12.666 -24 15.999c-23.333 7.33301 -34.333 15.666 -33 24.999c0 6.66699 2 10 6 10
c3.33301 0 13.833 -5.5 31.5 -16.5s30.167 -16.5 37.5 -16.5c19.333 0 33.333 18.333 42 55c4 19.333 6 45 6 77c0 10.667 -0.5 25.5 -1.5 44.5s-1.5 32.5 -1.5 40.5c0 9.33301 1 14 3 14c10 0 15 -9.66699 15 -29c0 -10 -7 -21 -21 -33
c-31.333 -27.333 -48 -47.333 -50 -60c-14 -76 -21 -135.333 -21 -178c0 -47.333 7.66699 -97.666 23 -150.999c29.333 -104 68 -179 116 -225c52.667 -49.333 130.667 -79.333 234 -90c22 -2 42.333 -3 61 -3c137.333 0 239.333 40.333 306 121
c18.667 23.333 33.334 55.333 44.001 96c7.33301 26.667 14 63.334 20 110.001c1.33301 9.33301 9.66602 40.666 24.999 93.999c13.333 45.333 20 83 20 113c0 23.333 -3.66699 46.333 -11 69c-5.33301 15.333 -34 44 -86 86c-22 17.333 -33 34.666 -33 51.999
c0 6.66699 1.33301 14 4 22c7.33301 20.667 20.666 35 39.999 43c37.333 14.667 60.666 33.667 69.999 57c2.66699 7.33301 4 14.666 4 21.999c0 14 -9.16699 30.667 -27.5 50s-27.5 30.666 -27.5 33.999c0 9.33301 11.333 17 34 23c12 2.66699 21 4 27 4
c46.667 0 73 -45.667 79 -137l6 -260c2.66699 -88.667 17.667 -133 45 -133c10.667 0 23 5 37 15c5.33301 4 28.5 8 69.5 12s64.167 8.33301 69.5 13c28 24.667 42 59 42 103c0 26 -4.66699 57.333 -14 94s-15 57 -17 61c-8 16 -24.667 28.333 -50 37
c-30 10 -45 23.333 -45 40c0 9.33301 5.66699 14 17 14c4.66699 0 11.834 -0.833008 21.501 -2.5s17.167 -2.5 22.5 -2.5c9.33301 0 17 2 23 6c20 14.667 39 43 57 85c0.666992 2 13.334 37 38.001 105c12.667 34 23.334 51 32.001 51c11.333 0 19.333 -11.333 24 -34
c0.666992 -4.66699 1 -9.33398 1 -14.001c0 -4 -0.5 -10.667 -1.5 -20s-1.5 -16.333 -1.5 -21v-8c1.33301 -16.667 2 -30 2 -40c0 -36 -4.66699 -74.667 -14 -116l-29 -124c-9.33301 -40.667 -14 -74 -14 -100c0 -64 28 -110.333 84 -139c21.333 -10.667 54 -17.667 98 -21
l92 -8c11.333 -0.666992 16.666 -1 15.999 -1h17c72.667 0 127.334 25 164.001 75c30 40.667 45 80.334 45 119.001c0 32.667 -13 77.667 -39 135c-4.66699 10.667 -21.667 20.334 -51 29.001c-26 8 -39 18.667 -39 32c0 9.33301 5.66699 14 17 14
c4.66699 0 11.834 -0.833008 21.501 -2.5s17.167 -2.5 22.5 -2.5c10 0 17.667 2 23 6c20.667 14.667 40 43 58 85c0.666992 2 13.334 37 38.001 105c12.667 34 23.334 51 32.001 51c11.333 0 19 -11.333 23 -34c1.33301 -4.66699 2 -9.33398 2 -14.001
c0 -4 -0.666992 -10.667 -2 -20s-2 -16.333 -2 -21c0.666992 -1.33301 1 -4 1 -8c4.66699 -58.667 7 -111.334 7 -158.001c0 -0.666992 -1.33301 -74 -4 -220z" />
    <glyph glyph-name="u0635" unicode="&#x635;" horiz-adv-x="1849" arabic-form="isolated" 
d="M1754 78l-3.00098 -77.9941h-302c-26 0 -64.833 1.83301 -116.5 5.5s-90.167 5.5 -115.5 5.5c-44 0 -88.333 -4.66699 -133 -14c-74 -15.333 -140.333 -59.333 -199 -132l-145 -190c-54 -64.667 -117.667 -97 -191 -97h-13c-6 0.666992 -10.667 1 -14 1
c-212 19.333 -341 118.666 -387 297.999c-4.66699 17.333 -7 36.333 -7 57c0 15.333 4.66699 48.666 14 99.999c4.66699 24 7 43.333 7 58c0 27.333 -5 51.666 -15 72.999c-2.66699 5.33301 -11.5 10.666 -26.5 15.999s-21.833 11.333 -20.5 18c0 5.33301 1.66699 8 5 8
c2 0 10.333 -4.5 25 -13.5s25.334 -13.5 32.001 -13.5c16 0 27 13.667 33 41c4.66699 19.333 7 41.666 7 66.999c0 9.33301 -0.333008 21.333 -1 36c-0.666992 18 -1.33398 30 -2.00098 36c0 7.33301 1 11 3 11c8 0 12 -8 12 -24c0 -7.33301 -9.33301 -19.333 -28 -36
s-28.667 -30 -30 -40c-11.333 -62 -17 -111 -17 -147c0 -40.667 6 -82.334 18 -125.001c62.667 -220.667 179.667 -339.667 351 -357c13.333 -1.33301 28 -2 44 -2c97.333 0 182.833 30.333 256.5 91s117.167 139 130.5 235c1.33301 6 2 11.333 2 16
c0 37.333 -21.667 69.666 -65 96.999c-27.333 15.333 -67.333 39 -120 71c-44 27.333 -66 58 -66 92c0 33.333 16 63 48 89s52.333 44.667 61 56c16.667 22 25 61.667 25 119c0 8 -0.333008 19.667 -1 35v34c0 50.667 11 76 33 76c27.333 0 48 -15.667 62 -47
c24.667 -56 42 -87.667 52 -95c25.333 -17.333 51 -26 77 -26c40 0 85.333 22.667 136 68l138 127c52.667 45.333 103.667 68 153 68c17.333 0 34 -2.66699 50 -8c88.667 -27.333 153.334 -90.666 194.001 -189.999c37.333 -92.667 56 -176.334 56 -251.001
c0 -16.667 -1 -41.667 -3 -75s-3 -58.666 -3 -75.999s-0.333008 -40 -1 -68zM1550 119.006c80 53.333 119.999 147.666 119.999 282.999c0 67.333 -12.667 125.333 -38 174c-31.333 61.333 -77.666 92 -138.999 92c-36 0 -65 -17.333 -87 -52l-51 -108
c-31.333 -66 -77.333 -99 -138 -99c-9.33301 0 -23.166 1 -41.499 3s-31.833 3 -40.5 3c-18 0 -33.667 -2.33301 -47 -7c-50 -16.667 -83.333 -28.667 -100 -36c-67.333 -30 -111.333 -75.667 -132 -137c-4.66699 -14 -7 -26.333 -7 -37c0 -55.333 58 -88.666 174 -99.999
c36 -4 86 -6 150 -6h65c3.33301 0 7.66602 0.333008 12.999 1h13c18 0.666992 44.833 -1 80.5 -5s62.167 -6 79.5 -6c48 0 90 12.333 126 37z" />
    <glyph glyph-name="u0636" unicode="&#x636;" horiz-adv-x="1842" arabic-form="isolated" 
d="M1199 855c-8 -3.33301 -15.999 -6.33301 -23.999 -9l-31 -14c-32.667 -14.667 -53.667 -38.667 -63 -72c-8 -28.667 -23 -43 -45 -43c-19.333 0 -29 9 -29 27c0 8.66699 2.33301 19.667 7 33l12 39l12 26c26 54.667 56.333 82 91 82c19.333 0 42.666 -7 69.999 -21
c16 -8 24 -16.667 24 -26c0 -8.66699 -8 -16 -24 -22zM1754 78l-3.00098 -77.9941h-302c-26 0 -64.833 1.83301 -116.5 5.5s-90.167 5.5 -115.5 5.5c-44 0 -88.333 -4.66699 -133 -14c-74 -15.333 -140.333 -59.333 -199 -132l-145 -190c-54 -64.667 -117.667 -97 -191 -97
h-13c-6 0.666992 -10.667 1 -14 1c-212 19.333 -341 118.666 -387 297.999c-4.66699 17.333 -7 36.333 -7 57c0 15.333 4.66699 48.666 14 99.999c4.66699 24 7 43.333 7 58c0 27.333 -5 51.666 -15 72.999c-2.66699 5.33301 -11.5 10.666 -26.5 15.999
s-21.833 11.333 -20.5 18c0 5.33301 1.66699 8 5 8c2 0 10.333 -4.5 25 -13.5s25.334 -13.5 32.001 -13.5c16 0 27 13.667 33 41c4.66699 19.333 7 41.666 7 66.999c0 9.33301 -0.333008 21.333 -1 36c-0.666992 18 -1.33398 30 -2.00098 36c0 7.33301 1 11 3 11
c8 0 12 -8 12 -24c0 -7.33301 -9.33301 -19.333 -28 -36s-28.667 -30 -30 -40c-11.333 -62 -17 -111 -17 -147c0 -40.667 6 -82.334 18 -125.001c62.667 -220.667 179.667 -339.667 351 -357c13.333 -1.33301 28 -2 44 -2c97.333 0 182.833 30.333 256.5 91
s117.167 139 130.5 235c1.33301 6 2 11.333 2 16c0 37.333 -21.667 69.666 -65 96.999c-27.333 15.333 -67.333 39 -120 71c-44 27.333 -66 58 -66 92c0 33.333 16 63 48 89s52.333 44.667 61 56c16.667 22 25 61.667 25 119c0 8 -0.333008 19.667 -1 35v34
c0 50.667 11 76 33 76c27.333 0 48 -15.667 62 -47c24.667 -56 42 -87.667 52 -95c25.333 -17.333 51 -26 77 -26c40 0 85.333 22.667 136 68l138 127c52.667 45.333 103.667 68 153 68c17.333 0 34 -2.66699 50 -8c88.667 -27.333 153.334 -90.666 194.001 -189.999
c37.333 -92.667 56 -176.334 56 -251.001c0 -16.667 -1 -41.667 -3 -75s-3 -58.666 -3 -75.999s-0.333008 -40 -1 -68zM1550 119.006c80 53.333 119.999 147.666 119.999 282.999c0 67.333 -12.667 125.333 -38 174c-31.333 61.333 -77.666 92 -138.999 92
c-36 0 -65 -17.333 -87 -52l-51 -108c-31.333 -66 -77.333 -99 -138 -99c-9.33301 0 -23.166 1 -41.499 3s-31.833 3 -40.5 3c-18 0 -33.667 -2.33301 -47 -7c-50 -16.667 -83.333 -28.667 -100 -36c-67.333 -30 -111.333 -75.667 -132 -137c-4.66699 -14 -7 -26.333 -7 -37
c0 -55.333 58 -88.666 174 -99.999c36 -4 86 -6 150 -6h65c3.33301 0 7.66602 0.333008 12.999 1h13c18 0.666992 44.833 -1 80.5 -5s62.167 -6 79.5 -6c48 0 90 12.333 126 37z" />
    <glyph glyph-name="u0637" unicode="&#x637;" horiz-adv-x="1570" arabic-form="isolated" 
d="M1477 518c12 -28 17.998 -57 17.998 -87c0 -16 -6 -55.667 -18 -119c-6 -32 -9 -59.667 -9 -83c0 -18 4.5 -44.667 13.5 -80s13.5 -60.666 13.5 -75.999c0 -26.667 -8.66699 -49.667 -26 -69c-19.333 -20.667 -44 -31 -74 -31c-11.333 0 -44.666 6.33301 -99.999 19
c-26 6 -48.333 9 -67 9c-84 0 -155 -0.666992 -213 -2l-194 -4c-107.333 -2 -171.333 -2.66699 -192 -2l-165 6c-20 0.666992 -58.333 -4.33301 -115 -15c-28 -4.66699 -49 -7 -63 -7c-32 0 -61.333 7.66699 -88 23c-46 26 -79.667 59.667 -101 101
c-8 15.333 -12.333 25 -13 29c6 -1.33301 11.667 -2.33301 17 -3c36.667 -17.333 69 -26 97 -26c22 0 49.333 -1.33301 82 -4c80.667 -6.66699 130.334 -10 149.001 -10c44 0 78 4.66699 102 14c99.333 38.667 175 123.334 227 254.001
c41.333 105.333 62 220.666 62 345.999s-21 235.666 -63 330.999c-56 126 -139 189 -249 189h-14c-4.66699 0 -10 -0.333008 -16 -1c-17.333 0 -28.666 -1.66699 -33.999 -5c-12.667 -7.33301 -20.667 -21.333 -24 -42c-2.66699 -15.333 6 -30.666 26 -45.999l50 -31l96 -63
c30 -26.667 55 -55.334 75 -86.001c54.667 -83.333 85 -163.333 91 -240c1.33301 -10.667 2.33301 -49.5 3 -116.5s6.33398 -122.5 17.001 -166.5c8 -29.333 19.333 -44 34 -44c17.333 0 47.666 29.667 90.999 89c64.667 88.667 107.667 144.334 129 167.001
c55.333 60 105.666 90 150.999 90c8 0 14.667 -0.666992 20 -2c134.667 -22.667 226 -91.334 274 -206.001zM1369 245c16 41.333 24.001 86.668 24.001 136.001s-8 92.333 -24 129c-21.333 50 -53 75 -95 75c-40.667 0 -70.667 -18.667 -90 -56l-40 -84
c-21.333 -42.667 -54.333 -64 -99 -64c-10 0 -29.333 2.66699 -58 8c-15.333 3.33301 -27.333 5 -36 5c-9.33301 0 -19.333 -1.33301 -30 -4c-123.333 -31.333 -185 -86.333 -185 -165c0 -36.667 16.333 -61.334 49 -74.001c24 -10 62.333 -15 115 -15h40
c0.666992 0 14 0.333008 40 1h31c15.333 0 51.666 -4.66699 108.999 -14c30 -5.33301 54 -8 72 -8c19.333 0 37.666 2.66699 54.999 8c56.667 15.333 97.334 56 122.001 122z" />
    <glyph glyph-name="u0638" unicode="&#x638;" horiz-adv-x="1584" arabic-form="isolated" 
d="M1166 895l-22.999 -7.99805l-32 -15c-32.667 -14.667 -53.667 -38.334 -63 -71.001c-7.33301 -29.333 -22 -44 -44 -44c-20 0 -30 9 -30 27c0 8.66699 2.33301 19.667 7 33l12 40l13 25c26 55.333 56 83 90 83c19.333 0 42.666 -7 69.999 -21
c16 -8.66699 24 -17.334 24 -26.001c0 -9.33301 -8 -17 -24 -23zM1484 518.002c12 -28 17.998 -57 17.998 -87c0 -16 -6 -55.667 -18 -119c-6 -32 -9 -59.667 -9 -83c0 -18 4.5 -44.667 13.5 -80s13.5 -60.666 13.5 -75.999c0 -26.667 -8.66699 -49.667 -26 -69
c-19.333 -20.667 -44 -31 -74 -31c-11.333 0 -44.666 6.33301 -99.999 19c-26 6 -48.333 9 -67 9c-84 0 -155 -0.666992 -213 -2l-194 -4c-107.333 -2 -171.333 -2.66699 -192 -2l-165 6c-20 0.666992 -58.333 -4.33301 -115 -15c-28 -4.66699 -49 -7 -63 -7
c-32 0 -61.333 7.66699 -88 23c-46 26 -79.667 59.667 -101 101c-8 15.333 -12.333 25 -13 29c6 -1.33301 11.667 -2.33301 17 -3c36.667 -17.333 69 -26 97 -26c22 0 49.333 -1.33301 82 -4c80.667 -6.66699 130.334 -10 149.001 -10c44 0 78 4.66699 102 14
c99.333 38.667 175 123.334 227 254.001c41.333 105.333 62 220.666 62 345.999s-21 235.666 -63 330.999c-56 126 -139 189 -249 189h-14c-4.66699 0 -10 -0.333008 -16 -1c-17.333 0 -28.666 -1.66699 -33.999 -5c-12.667 -7.33301 -20.667 -21.333 -24 -42
c-2.66699 -15.333 6 -30.666 26 -45.999l50 -31l96 -63c30 -26.667 55 -55.334 75 -86.001c54.667 -83.333 85 -163.333 91 -240c1.33301 -10.667 2.33301 -49.5 3 -116.5s6.33398 -122.5 17.001 -166.5c8 -29.333 19.333 -44 34 -44c17.333 0 47.666 29.667 90.999 89
c64.667 88.667 107.667 144.334 129 167.001c55.333 60 105.666 90 150.999 90c8 0 14.667 -0.666992 20 -2c134.667 -22.667 226 -91.334 274 -206.001zM1376 245.002c16 41.333 24.001 86.668 24.001 136.001s-8 92.333 -24 129c-21.333 50 -53 75 -95 75
c-40.667 0 -70.667 -18.667 -90 -56l-40 -84c-21.333 -42.667 -54.333 -64 -99 -64c-10 0 -29.333 2.66699 -58 8c-15.333 3.33301 -27.333 5 -36 5c-9.33301 0 -19.333 -1.33301 -30 -4c-123.333 -31.333 -185 -86.333 -185 -165c0 -36.667 16.333 -61.334 49 -74.001
c24 -10 62.333 -15 115 -15h40c0.666992 0 14 0.333008 40 1h31c15.333 0 51.666 -4.66699 108.999 -14c30 -5.33301 54 -8 72 -8c19.333 0 37.666 2.66699 54.999 8c56.667 15.333 97.334 56 122.001 122z" />
    <glyph glyph-name="u0639" unicode="&#x639;" horiz-adv-x="1173" arabic-form="isolated" 
d="M1103 89c5.33301 -10 8.00098 -21.332 8.00098 -33.999c0 -24.667 -7 -54.667 -21 -90c-4.66699 -12.667 -12.667 -30.334 -24 -53.001c-14.667 5.33301 -45 19.666 -91 42.999c-41.333 21.333 -76.666 35.333 -105.999 42l-181 41c-61.333 13.333 -115 20 -161 20
c-88.667 0 -171.667 -24.667 -249 -74l-69 -43c-50.667 -35.333 -76 -76 -76 -122c0 -94 35.333 -173 106 -237c68 -61.333 149.667 -92 245 -92c14.667 0 35.334 16.667 62.001 50s46.667 50 60 50c24.667 0 38 -17.333 40 -52c0.666992 -24.667 3.66699 -41.334 9 -50.001
c9.33301 -13.333 30.333 -30.666 63 -51.999c26.667 -17.333 43 -37.333 49 -60c1.33301 -4.66699 7.83301 -11 19.5 -19s17.5 -12.667 17.5 -14c0 -4.66699 -4 -7 -12 -7c-5.33301 0 -13 7.83301 -23 23.5s-19 24.167 -27 25.5c-33.333 6.66699 -68 10 -104 10
c-18.667 0 -58.667 -2.33301 -120 -7c-37.333 -2.66699 -65 -4 -83 -4c-116 0 -205.333 46 -268 138c-54.667 80.667 -82 181.667 -82 303c0 83.333 34.333 154 103 212c28 24 62.667 37.667 104 41l109 6c76.667 7.33301 131.334 52 164.001 134
c3.33301 8 13.333 41.667 30 101c12.667 42 28 77 46 105c15.333 23.333 32.666 61 51.999 113c21.333 56.667 37 93.334 47 110.001c19.333 33.333 41.666 50 66.999 50c10 0 38.333 -10.333 85 -31c15.333 -10 23 -23 23 -39c0 -11.333 -3 -23 -9 -35
c-12.667 -26.667 -19 -44.667 -19 -54c0 -15.333 16.667 -32 50 -50s50 -30 50 -36c0 -12 -6.33301 -18 -19 -18c-3.33301 0 -17 8 -41 24c-10.667 7.33301 -20 10 -28 8c-48.667 -8.66699 -85.334 -17 -110.001 -25c-86 -26 -131 -74 -135 -144v-9
c0 -60.667 43.333 -109.334 130 -146.001c31.333 -13.333 69.333 -25.666 114 -36.999c10.667 -2.66699 20.667 -4 30 -4c12.667 0 36 4.66699 70 14c17.333 4 31 6 41 6c31.333 0 52.666 -10.667 63.999 -32z" />
    <glyph glyph-name="u063A" unicode="&#x63a;" horiz-adv-x="1173" arabic-form="isolated" 
d="M729 895c-8 -3.33301 -15.665 -6.33398 -22.998 -9.00098l-32 -14c-32.667 -15.333 -53.334 -39.333 -62.001 -72c-8 -28.667 -23 -43 -45 -43c-19.333 0 -29 9 -29 27c0 8 2 19 6 33l13 39l12 26c26 54.667 56 82 90 82c19.333 0 42.666 -7 69.999 -21
c16.667 -8 25 -16.667 25 -26s-8.33301 -16.666 -25 -21.999zM1096 88.999c5.33301 -10 8.00098 -21.332 8.00098 -33.999c0 -24.667 -7 -54.667 -21 -90c-4.66699 -12.667 -12.667 -30.334 -24 -53.001c-14.667 5.33301 -45 19.666 -91 42.999
c-41.333 21.333 -76.666 35.333 -105.999 42l-181 41c-61.333 13.333 -115 20 -161 20c-88.667 0 -171.667 -24.667 -249 -74l-69 -43c-50.667 -35.333 -76 -76 -76 -122c0 -94 35.333 -173 106 -237c68 -61.333 149.667 -92 245 -92c14.667 0 35.334 16.667 62.001 50
s46.667 50 60 50c24.667 0 38 -17.333 40 -52c0.666992 -24.667 3.66699 -41.334 9 -50.001c9.33301 -13.333 30.333 -30.666 63 -51.999c26.667 -17.333 43 -37.333 49 -60c1.33301 -4.66699 7.83301 -11 19.5 -19s17.5 -12.667 17.5 -14c0 -4.66699 -4 -7 -12 -7
c-5.33301 0 -13 7.83301 -23 23.5s-19 24.167 -27 25.5c-33.333 6.66699 -68 10 -104 10c-18.667 0 -58.667 -2.33301 -120 -7c-37.333 -2.66699 -65 -4 -83 -4c-116 0 -205.333 46 -268 138c-54.667 80.667 -82 181.667 -82 303c0 83.333 34.333 154 103 212
c28 24 62.667 37.667 104 41l109 6c76.667 7.33301 131.334 52 164.001 134c3.33301 8 13.333 41.667 30 101c12.667 42 28 77 46 105c15.333 23.333 32.666 61 51.999 113c21.333 56.667 37 93.334 47 110.001c19.333 33.333 41.666 50 66.999 50
c10 0 38.333 -10.333 85 -31c15.333 -10 23 -23 23 -39c0 -11.333 -3 -23 -9 -35c-12.667 -26.667 -19 -44.667 -19 -54c0 -15.333 16.667 -32 50 -50s50 -30 50 -36c0 -12 -6.33301 -18 -19 -18c-3.33301 0 -17 8 -41 24c-10.667 7.33301 -20 10 -28 8
c-48.667 -8.66699 -85.334 -17 -110.001 -25c-86 -26 -131 -74 -135 -144v-9c0 -60.667 43.333 -109.334 130 -146.001c31.333 -13.333 69.333 -25.666 114 -36.999c10.667 -2.66699 20.667 -4 30 -4c12.667 0 36 4.66699 70 14c17.333 4 31 6 41 6
c31.333 0 52.666 -10.667 63.999 -32z" />
    <glyph glyph-name="u0641" unicode="&#x641;" horiz-adv-x="1597" arabic-form="isolated" 
d="M1380 1247c-8.66699 -2.66699 -16.666 -5.33105 -23.999 -7.99805l-32 -15c-32.667 -14.667 -53.334 -38.334 -62.001 -71.001c-8 -29.333 -23 -44 -45 -44c-19.333 0 -29 9 -29 27c0 8.66699 2 19.667 6 33l13 39l12 26c26 54.667 56 82 90 82
c20 0 43.333 -6.66699 70 -20c16.667 -8.66699 25 -17.334 25 -26.001c0 -9.33301 -8 -17 -24 -23zM1509 1084c0.666992 -2.66699 0.999023 -4.99902 0.999023 -6.99902c0 -5.33301 -3.33301 -13.166 -10 -23.499s-10.334 -18.166 -11.001 -23.499
c-9.33301 -66 -14 -131 -14 -195c0 -29.333 0.666992 -62.666 2 -99.999l6 -114c1.33301 -32.667 2.33301 -71 3 -115l3 -510c-32.667 0 -82 -1 -148 -3l-201 -7c-68 -2 -124.333 -3 -169 -3c-61.333 0 -120.666 1.33301 -177.999 4l-180 9c-62 2.66699 -118.667 4 -170 4
c-32 0 -68 -12.667 -108 -38c-11.333 -8.66699 -44.333 -32.334 -99 -71.001c-36 -26 -63.667 -39 -83 -39c-21.333 0 -41.666 16.333 -60.999 49c-4 8 -6.33301 17.667 -7 29c-2 26.667 12 50 42 70c67.333 45.333 101.333 78.666 102 99.999v15
c0 15.333 -9 44.666 -27 87.999c-8 20.667 -12 39.667 -12 57c0 30.667 2 53 6 67c6 22 19.333 35.333 40 40c5.33301 1.33301 10.666 2 15.999 2c22 0 34 -18.667 36 -56c0.666992 -25.333 2 -63 4 -113c4.66699 -58 41.334 -95 110.001 -111
c20.667 -4.66699 42.667 -7 66 -7c18.667 0 43.667 2 75 6c70 8.66699 117.667 13 143 13c46 0 99 -5 159 -15l182 -31c60.667 -10.667 110.334 -16 149.001 -16c122 0 191 49 207 147c6.66699 41.333 10 68.333 10 81c0 68 -23.667 113.333 -71 136
c-20 10 -46.333 15 -79 15c-22 0 -54.667 -2.66699 -98 -8s-76 -8 -98 -8c-14.667 0 -31.334 -2.33301 -50.001 -7c-40.667 -10 -65.334 -15 -74.001 -15c-16.667 0 -32 4 -46 12c-27.333 16 -41 38.667 -41 68c0 24.667 10.333 58.334 31 101.001
c12.667 23.333 30.667 59 54 107c38.667 83.333 98.334 145.666 179.001 186.999c32.667 16.667 76.667 34 132 52c22 7.33301 46.667 12.666 74 15.999c68 8 108.333 13.667 121 17c26 6 51 58 75 156c2 -1.33301 4.33301 -5.33301 7 -12zM1392 699.004
c0 38 -17.6641 70.667 -52.9971 98c-32.667 25.333 -68.334 38 -107.001 38c-46.667 0 -83.334 -20.333 -110.001 -61c-23.333 -36 -35 -78.333 -35 -127c0 -11.333 0.666992 -23 2 -35c27.333 -102.667 74.333 -154 141 -154c40.667 0 67 20 79 60
c14 44.667 23 69.667 27 75l18.5 24.5c8.33301 11 14.166 18.5 17.499 22.5c6 8 10.833 17.333 14.5 28s5.5 21 5.5 31z" />
    <glyph glyph-name="u0642" unicode="&#x642;" horiz-adv-x="1152" arabic-form="isolated" 
d="M917 749c-8 -2.66699 -15.999 -5.66699 -23.999 -9l-31 -14c-32.667 -14.667 -53.667 -38.667 -63 -72c-8 -28.667 -23 -43 -45 -43c-19.333 0 -29 9 -29 27c0 8.66699 2.33301 19.667 7 33l12 39l12 26c26 54.667 56.333 82 91 82c19.333 0 42.666 -7 69.999 -21
c16 -8 24 -16.333 24 -25c0 -9.33301 -8 -17 -24 -23zM647.001 749c-8 -2.66699 -15.999 -5.66699 -23.999 -9l-31 -14c-32.667 -14.667 -53.667 -38.667 -63 -72c-8 -28.667 -23 -43 -45 -43c-19.333 0 -29 9 -29 27c0 8.66699 2.33301 19.667 7 33l12 39l12 26
c26 54.667 56.333 82 91 82c19.333 0 42.666 -7 69.999 -21c16 -8 24 -16.333 24 -25c0 -9.33301 -8 -17 -24 -23zM1076 678c0 -11.333 -1.99805 -23.001 -5.99805 -35.001c-6.66699 -20 -10.334 -32 -11.001 -36c-8 -44.667 -12 -87.667 -12 -129
c0 -24.667 1 -52.334 3 -83.001c5.33301 -74.667 8 -125.667 8 -153c0 -30 3.33301 -77.667 10 -143c4 -34.667 6 -60.334 6 -77.001c0 -38 -5 -76 -15 -114c-18 -68.667 -37.333 -122.667 -58 -162c-24 -44.667 -60.667 -89.5 -110 -134.5s-97.666 -78.5 -144.999 -100.5
c-51.333 -23.333 -107 -35 -167 -35h-33c-9.33301 0.666992 -16.333 1.33398 -21 2.00098c-77.333 8 -136 47.333 -176 118c-16 28.667 -43 104 -81 226c-32 104.667 -70.333 183 -115 235c-5.33301 6 -20.333 17 -45 33c-18.667 11.333 -28 23.333 -28 36
c0 3.33301 0.333008 6.66602 1 9.99902c3.33301 12 16.333 20.667 39 26c29.333 6 46 10.667 50 14l94 107c12.667 8.66699 21.667 13 27 13c4 0 6 -2.33301 6 -7c0 -10 -10.667 -36 -32 -78c-28 -56 -47.667 -97.667 -59 -125c-21.333 -53.333 -32 -95.666 -32 -126.999
c0 -9.33301 0.666992 -17.666 2 -24.999c18 -101.333 61.333 -183.833 130 -247.5s154 -100.167 256 -109.5c24.667 -2 48.334 -3 71.001 -3c87.333 0 160.666 13.333 219.999 40c80.667 36 121 92.667 121 170c0 63.333 -51.333 95 -154 95
c-16.667 0 -41.834 -0.833008 -75.501 -2.5s-58.834 -2.5 -75.501 -2.5c-102.667 0 -165.667 27.667 -189 83c-18.667 45.333 -28 89.333 -28 132c0 49.333 14 104.666 42 165.999c22 48.667 59.333 84.334 112 107.001c3.33301 2 54.666 17.333 153.999 46
c65.333 18.667 116 44.667 152 78c18 16.667 38.667 43.334 62 80.001l56 91c18.667 30.667 31.334 46 38.001 46c5.33301 0 8 -8.33301 8 -25zM984.004 231.999c0 41.333 -20.002 77.334 -60.002 108.001c-37.333 28 -77.333 42 -120 42c-51.333 0 -92 -23 -122 -69
c-26.667 -40 -40 -86.667 -40 -140v-20c0 -4.66699 0.666992 -11.334 2 -20.001c6.66699 -41.333 23.334 -79.333 50.001 -114c31.333 -40 66.333 -60 105 -60c44.667 0 74.334 24 89.001 72c13.333 44 24 71.333 32 82l19 26l22 26c15.333 20.667 23 43 23 67z" />
    <glyph glyph-name="u0643" unicode="&#x643;" horiz-adv-x="1711" arabic-form="isolated" 
d="M283 -2c-27.333 -2.66699 -55.666 -6.66797 -84.999 -12.001c-13.333 -2 -31 -22 -53 -60c-10 -17.333 -18.333 -26 -25 -26c-10 0 -15 4 -15 12c0.666992 3.33301 1 6.33301 1 9c0 27.333 23.833 57.833 71.5 91.5s71.834 62.834 72.501 87.501v15
c0 15.333 -9 44.666 -27 87.999c-8 20.667 -12 39.667 -12 57c0 30.667 2 53 6 67c6 22 19.333 35.333 40 40c5.33301 1.33301 10.666 2 15.999 2c21.333 0 33 -18.333 35 -55c0.666992 -25.333 2.33398 -62.666 5.00098 -111.999c4 -60 41.667 -98.667 113 -116
c22.667 -5.33301 46 -8 70 -8c18 0 66 5.33301 144 16c37.333 4.66699 74.333 7 111 7h388c19.333 0 51.666 -1.33301 96.999 -4c26 -2 43.667 -3 53 -3c57.333 0 106.333 15.333 147 46c77.333 58.667 116 147.334 116 266.001c0 124.667 -43.333 209.667 -130 255
c-52 26.667 -100.667 40 -146 40c-64.667 0 -113 -26 -145 -78c-10 -15.333 -15 -34.333 -15 -57c0 -6.66699 0.5 -16.667 1.5 -30s1.5 -23.333 1.5 -30c0 -12 -0.666992 -21.667 -2 -29c-2.66699 -16 -4.33398 -26.667 -5.00098 -32c-6 -27.333 -20 -41 -42 -41
c-11.333 0 -38.333 14.167 -81 42.5s-75 42.5 -97 42.5c-22.667 0 -47 -2.66699 -73 -8c-59.333 -12.667 -95.333 -19 -108 -19c-20.667 0 -41.334 3.33301 -62.001 10c-16 4 -27.333 7 -34 9c-27.333 6.66699 -41 23.667 -41 51c0 9.33301 3.66699 22.333 11 39
c15.333 38 23.666 63.333 24.999 76c8.66699 63.333 36.667 122.333 84 177l126 137c44 49.333 66 98.666 66 147.999c0 26 -5 51.333 -15 76c-3.33301 8.66699 -15.833 13.5 -37.5 14.5s-32.5 3.5 -32.5 7.5c0 1.33301 0.666992 3 2 5l-15 -2c-4 -4 -8 -7.66699 -12 -11
c10.667 0 20.334 -5.33301 29.001 -16c24.667 -29.333 46.667 -44 66 -44c16.667 0 50.667 13.333 102 40c24.667 13.333 47 20 67 20h24c30.667 0 46 -5 46 -15s-5.33301 -17.667 -16 -23c-6 -2.66699 -13.667 -4 -23 -4c-4.66699 0 -11.334 0.333008 -20.001 1
s-14.667 1 -18 1c-15.333 0.666992 -27.666 -3 -36.999 -11c-55.333 -46 -100.333 -107.5 -135 -184.5s-52 -152.167 -52 -225.5c0 -43.333 6 -81.333 18 -114c12.667 -35.333 31.667 -53 57 -53c26.667 0 68.334 26.333 125.001 79l159 147
c65.333 53.333 121.666 80 168.999 80c6.66699 0 14 -0.666992 22 -2c63.333 -10.667 108.333 -23 135 -37c37.333 -19.333 69.833 -52.333 97.5 -99s41.5 -96.667 41.5 -150c0 -22.667 -15.333 -100.334 -46 -233.001c-11.333 -47.333 -17 -92.666 -17 -135.999
c0 -28 0.333008 -54.667 1 -80l5 -140h-1187c-45.333 0.666992 -80.666 0 -105.999 -2z" />
    <glyph glyph-name="u0644" unicode="&#x644;" horiz-adv-x="1238" arabic-form="isolated" 
d="M1163 1212c14.667 0 22.0029 -3.99707 22.0029 -11.9971c-88 -105.333 -132 -170.666 -132 -195.999v-633l12 -430c2 -87.333 -44.5 -172.666 -139.5 -255.999s-198.167 -125 -309.5 -125h-25c-4.66699 0.666992 -8.33398 1 -11.001 1
c-77.333 7.33301 -142 38.666 -194 93.999c-36 39.333 -74.333 103.333 -115 192c-55.333 121.333 -91.666 197 -108.999 227c-3.33301 6 -21.333 20 -54 42c-12.667 8.66699 -19 17.667 -19 27c0 3.33301 0.666992 6.66602 2 9.99902
c3.33301 11.333 16.666 19.333 39.999 24c27.333 5.33301 44 10.666 50 15.999c10.667 9.33301 23 29.5 37 60.5s34.667 46.5 62 46.5c6.66699 0 10 -2.33301 10 -7c0 -8 -11 -27.333 -33 -58c-31.333 -44 -52 -74.333 -62 -91c-22 -38 -33 -69 -33 -93
c0 -10.667 1.66699 -20.334 5 -29.001c61.333 -149.333 135.666 -250.666 222.999 -303.999c53.333 -32.667 113.666 -49 180.999 -49c184 0 311 86.333 381 259c8.66699 22.667 13 107 13 253c0 43.333 -0.333008 94.333 -1 153l-3 172
c-0.666992 55.333 -1 94.666 -1 117.999c0 30 -2.66699 63.667 -8 101c-12 80.667 -18 129.667 -18 147c0 89.333 24.667 148.666 74 177.999c42 24.667 71.667 55 89 91c22 47.333 44 71 66 71z" />
    <glyph glyph-name="u0645" unicode="&#x645;" horiz-adv-x="1344" arabic-form="isolated" 
d="M1264 604c2.66699 -6 4.00195 -12.3311 4.00195 -18.998c0 -12 -8 -34.5 -24 -67.5s-24 -58.167 -24 -75.5c0 -26.667 -0.833008 -66.334 -2.5 -119.001s-2.5 -92 -2.5 -118v-93l-1 -112h-81c-12.667 0 -31.334 0.5 -56.001 1.5s-43.334 1.5 -56.001 1.5h-23
c-95.333 0 -177.666 -37.333 -246.999 -112l-156 -180c-60 -66.667 -129 -107 -207 -121c-26 -4.66699 -59 -18.667 -99 -42c-106.667 -61.333 -164.334 -92 -173.001 -92c-9.33301 0 -14 6 -14 18c0 26 16.333 50.5 49 73.5s51.334 51.5 56.001 85.5c4 28 13.667 41 29 39
c10 -1.33301 18 -7.33301 24 -18c16.667 -28.667 27.667 -44.667 33 -48c28 -16 56 -24 84 -24c79.333 0 153 68.667 221 206c50 101.333 78 178 84 230c1.33301 13.333 2 28.666 2 45.999v36c-0.666992 16.667 -1.33398 28.334 -2.00098 35.001c0 42 9.66699 74.333 29 97
c98.667 111.333 220.667 202.666 366 273.999c18.667 8.66699 38.667 26 60 52c42 50.667 70.333 76 85 76c19.333 0 33.333 -10 42 -30zM1154 300.002c0 34 -15.668 63.667 -47.001 89c-30 22.667 -62.333 34 -97 34c-42 0 -75 -18.667 -99 -56
c-21.333 -32 -32 -70 -32 -114c0 -8 0.666992 -18.333 2 -31c24.667 -92 67.667 -138 129 -138c10.667 0 20.667 1.66699 30 5c20.667 8 35.334 29.667 44.001 65c6 23.333 12 40.333 18 51l16 20c7.33301 8.66699 13 15.667 17 21c12.667 18 19 36 19 54z" />
    <glyph glyph-name="u0646" unicode="&#x646;" horiz-adv-x="988" arabic-form="isolated" 
d="M612 606l-22.999 -8l-32 -14c-32.667 -15.333 -53.667 -39.333 -63 -72c-7.33301 -29.333 -22.333 -44 -45 -44c-19.333 0 -29 9 -29 27c0 8.66699 2.33301 20 7 34l12 39l13 25c26 55.333 56 83 90 83c19.333 0 42.666 -7 69.999 -21c16 -8 24 -16.667 24 -26
s-8 -17 -24 -23zM796.001 -274c-76 -89.333 -170.33 -133.998 -282.997 -133.998c-74 0 -135 27 -183 81c-34.667 40 -69 105 -103 195c-50.667 136 -80 212.333 -88 229c-2.66699 5.33301 -18 20.333 -46 45c-10 8.66699 -15 17.667 -15 27c0 17.333 9 28.333 27 33
c40 11.333 61.333 18 64 20c10.667 8.66699 25 28 43 58s41.333 45 70 45c7.33301 0 11 -2.66699 11 -8c0 -7.33301 -14.333 -28 -43 -62c-38.667 -45.333 -65.334 -78.666 -80.001 -99.999c-29.333 -42.667 -44 -78.334 -44 -107.001c0 -8.66699 1.33301 -16.667 4 -24
c51.333 -168 113.666 -281 186.999 -339c50 -38.667 107.667 -58 173 -58c109.333 0 198.666 46 267.999 138c63.333 83.333 95 181.333 95 294c0 30.667 -16 58.334 -48 83.001l-90 58c-32 22.667 -48 47 -48 73c0 34 18.5 61.667 55.5 83s60.167 37.666 69.5 48.999
c14 16 21 42 21 78c0 23.333 -3.33301 54 -10 92l-25 -37c-8.66699 -15.333 -13 -30 -13 -44c0 -52.667 13.333 -103.334 40 -152.001l75 -129c27.333 -48.667 41 -97.334 41 -146.001v-12c0 -121.333 -41.667 -231 -125 -329z" />
    <glyph glyph-name="u0647" unicode="&#x647;" horiz-adv-x="954" arabic-form="isolated" 
d="M918 896c3.33301 7.33301 4.99609 14.334 4.99609 21.001c0 24 -25 36 -75 36c-38 0 -76.333 -7.33301 -115 -22c-47.333 -18 -76.333 -41.667 -87 -71c-4 -11.333 -6 -22.333 -6 -33c0 -12.667 6.66699 -37 20 -73s20 -91 20 -165c0 -28 -1.33301 -61.667 -4 -101
c-6 -85.333 -9 -146.333 -9 -183c0 -24.667 -0.666992 -48 -2 -70l-6 -103c0 -44.667 7 -89 21 -133c4.66699 -15.333 27.334 -48 68.001 -98c17.333 -21.333 26 -35.333 26 -42c0 -8 -6.66699 -12 -20 -12c-19.333 0 -35.333 13.333 -48 40
c-16.667 33.333 -30.667 54 -42 62c-25.333 18 -52 29.667 -80 35c-72.667 14 -130 21 -172 21c-16 0 -40.167 -0.833008 -72.5 -2.5s-56.5 -2.5 -72.5 -2.5c-13.333 0 -36 -5 -68 -15c-16 -4.66699 -28.333 -7 -37 -7c-42.667 0 -64 19.333 -64 58
c0 19.333 14.333 54.333 43 105c16.667 29.333 28 52.666 34 69.999c16 42.667 32.667 78.667 50 108c14.667 25.333 37 58.666 67 99.999c20 26.667 54 52 102 76l113 56c36 20 54 42.667 54 68c0 30 -19.333 54 -58 72c-24.667 11.333 -37 21.333 -37 30
c0 16.667 9.33301 25 28 25c6.66699 0 16.834 -2 30.501 -6s23.834 -6 30.501 -6c4 0 6.66699 0.333008 8 1c42.667 3.33301 110.334 27.333 203.001 72c42 15.333 71 26.333 87 33c30 12.667 51.667 31.334 65 56.001zM643.996 328.001c0 38 -18.332 71.332 -54.999 99.999
c-34.667 26 -71.667 39 -111 39c-47.333 0 -85 -21.333 -113 -64c-24 -37.333 -36 -80.666 -36 -129.999v-15c0 -5.33301 0.666992 -12 2 -20c6 -38 21.333 -73.333 46 -106c29.333 -36.667 61.666 -55 96.999 -55c40.667 0 67.667 22 81 66c12.667 40.667 22.667 66 30 76
l18 24l20 24c14 18.667 21 39 21 61z" />
    </font>
</defs>
</svg>
