<?xml version="1.0" standalone="no"?>
<!DOCTYPE svg PUBLIC "-//W3C//DTD SVG 1.1//EN" "http://www.w3.org/Graphics/SVG/1.1/DTD/svg11.dtd" >
<svg>
<metadata>
Created by FontForge 20090914 at Wed Oct 19 00:52:32 2011
 By www-data
(c) by Abolfazl Seilsepour - +98 912 591 3420  -  seilsepor@yahoo.com
</metadata>
<defs>
<font id="FarBadkonak" horiz-adv-x="0" >
  <font-face 
    font-family="Far.Badkonak"
    font-weight="400"
    font-stretch="normal"
    units-per-em="2048"
    panose-1="0 0 4 0 0 0 0 0 0 0"
    ascent="1638"
    descent="-410"
    bbox="-190 -1158 1161 1801"
    underline-thickness="60"
    underline-position="-650"
    unicode-range="U+0020-U+FEFC"
  />
<missing-glyph horiz-adv-x="1024" 
d="M128 0v1296h768v-1296h-768zM256 128h512v1040h-512v-1040z" />
    <glyph glyph-name="uE818" unicode="&#x651;&#x64b;" 
d="M358 1459l-271 -112v71l271 108v-67zM386 1193c0 -30.667 -8.99805 -56.999 -26.998 -78.999s-42.333 -33 -73 -33c-30 0 -54 16 -72 48c-28 -33.333 -61 -50 -99 -50c-24.667 0 -45.334 12.333 -62.001 37c-12.667 19.333 -19 38.666 -19 57.999
c0 16.667 4.66699 35 14 55c11.333 24.667 24.333 37 39 37c6.66699 0 10 -5.33301 10 -16c0 -4.66699 -0.5 -12 -1.5 -22s-1.5 -17.667 -1.5 -23c0 -26.667 12.667 -40 38 -40s42.666 9.66699 51.999 29c2 5.33301 7 25 15 59c2.66699 10.667 8.66699 16 18 16
s14.666 -6 15.999 -18c6.66699 -60.667 24.334 -91 53.001 -91c28 0 42 14.333 42 43c0 12 -2.33301 26.333 -7 43l46 36c12.667 -20 19 -49.667 19 -89zM358.002 1625l-271 -111v71l271 107v-67z" />
    <glyph glyph-name="uFC5E" unicode="&#x651;&#x64c;" arabic-form="isolated" 
d="M395 1259c0 -30.667 -9.16602 -57.001 -27.499 -79.001s-42.5 -33 -72.5 -33c-31.333 0 -55.666 15.667 -72.999 47c-28 -33.333 -60.667 -50 -98 -50c-22.667 0 -42 10.167 -58 30.5s-24 41.833 -24 64.5c0 17.333 4.66699 36 14 56c12 24.667 25 37 39 37
c7.33301 0 11 -5.33301 11 -16c0 -5.33301 -0.666992 -13 -2 -23s-2 -17.667 -2 -23c0 -27.333 12.667 -41 38 -41c24.667 0 42 10 52 30c3.33301 6.66699 8.66602 26.334 15.999 59.001c2 11.333 8 17 18 17c9.33301 0 14.666 -6.33301 15.999 -19
c6 -60.667 23.667 -91 53 -91c27.333 0 41 14.333 41 43c0 12 -2.33301 26 -7 42l46 38c13.333 -21.333 20 -51 20 -89zM404.001 1648c0 -25.333 -19.333 -59.668 -58 -103.001c6 -3.33301 18.333 -7.66602 37 -12.999l-32 -54c-26.667 4.66699 -49.667 14 -69 28
c-64.667 -38.667 -121.667 -58 -171 -58c-16.667 0 -34 20 -52 60c24.667 0 41 1.33301 49 4c13.333 15.333 20 30.333 20 45c0 15.333 -8 23 -24 23c-13.333 0 -27.333 -7.66699 -42 -23l-9 42c22 24.667 44.333 37 67 37c7.33301 0 15 -1.66699 23 -5
c21.333 -10 32 -28.333 32 -55c0 -21.333 -6.33301 -41.333 -19 -60c40.667 3.33301 69.667 12 87 26c-20 33.333 -30 56.333 -30 69c0 27.333 18.333 54.333 55 81c31.333 22.667 55 34 71 34c43.333 0 65 -26 65 -78zM340.001 1639c0 17.333 -9.33301 26 -28 26
c-24.667 0 -37 -12.333 -37 -37c0 -20 10 -38.333 30 -55c23.333 14.667 35 36.667 35 66z" />
    <glyph glyph-name="uFC5F" unicode="&#x651;&#x64d;" arabic-form="isolated" 
d="M343 1584c0 -30.667 -9.16699 -57 -27.5 -79s-42.5 -33 -72.5 -33c-31.333 0 -55.666 16 -72.999 48c-28 -34 -60.667 -51 -98 -51c-22.667 0 -42.334 10.667 -59.001 32c-15.333 19.333 -23 40.666 -23 63.999c0 16.667 4.66699 35 14 55c12 24.667 25 37 39 37
c7.33301 0 11 -5.33301 11 -16c0 -5.33301 -0.666992 -13 -2 -23s-2 -17.667 -2 -23c0 -26.667 12.667 -40 38 -40c24.667 0 42 9.66699 52 29c3.33301 6.66699 8.33301 26.334 15 59.001c2.66699 11.333 8.66699 17 18 17c10 0 15.667 -6.33301 17 -19
c6 -60.667 23.667 -91 53 -91c27.333 0 41 14.333 41 43c0 12 -2.33301 26.333 -7 43l46 38c13.333 -22 20 -52 20 -90zM299 1350l-271 -111v70l271 108v-67zM299 1206l-271 -111v70l271 108v-67z" />
    <glyph glyph-name="uFC60" unicode="&#x651;&#x64e;" arabic-form="isolated" 
d="M411 1231c0 -30.667 -8.99902 -57.001 -26.999 -79.001s-42 -33 -72 -33c-31.333 0 -55.666 15.667 -72.999 47c-28.667 -33.333 -61.334 -50 -98.001 -50c-22.667 0 -42 10.167 -58 30.5s-24 41.833 -24 64.5c0 17.333 4.66699 36 14 56c12 24.667 25 37 39 37
c7.33301 0 11 -5.33301 11 -16c0 -5.33301 -0.666992 -13 -2 -23s-2 -17.667 -2 -23c0 -27.333 12.667 -41 38 -41c24.667 0 42 10 52 30c3.33301 6.66699 8.33301 26.334 15 59.001c2.66699 11.333 8.66699 17 18 17s14.666 -6.33301 15.999 -19
c6.66699 -60.667 24.667 -91 54 -91c27.333 0 41 14.333 41 43c0 12 -2.33301 26 -7 42l46 38c12.667 -21.333 19 -51 19 -89zM388.001 1528l-272 -112v71l272 107v-66z" />
    <glyph glyph-name="uFC61" unicode="&#x651;&#x64f;" arabic-form="isolated" 
d="M441 1210c0 -30.667 -8.66504 -56.666 -25.998 -77.999c-19.333 -22.667 -44 -34 -74 -34c-30.667 0 -55 15.667 -73 47c-27.333 -32.667 -60 -49 -98 -49c-24.667 0 -45.334 12.333 -62.001 37c-13.333 19.333 -20 38.333 -20 57c0 17.333 5 36 15 56
c11.333 24.667 24 37 38 37c7.33301 0 11 -5.33301 11 -16c0 -5.33301 -0.666992 -13 -2 -23s-2 -17.333 -2 -22c0 -27.333 12.667 -41 38 -41s42.666 10 51.999 30c2.66699 5.33301 8 24.666 16 57.999c2.66699 11.333 8.66699 17 18 17s14.666 -6 15.999 -18
c6.66699 -60.667 24.334 -91 53.001 -91c27.333 0 41 14.333 41 43c0 12 -2.33301 26 -7 42l46 37c13.333 -20 20 -49.667 20 -89zM435.002 1565c0 -25.333 -19.332 -59.333 -57.999 -102c5.33301 -4 17.333 -8.66699 36 -14l-31 -54c-28 5.33301 -51 14.333 -69 27
c-68 -38 -125 -57 -171 -57c-18 0 -35.333 20 -52 60c51.333 1.33301 86 3.33301 104 6c36 4.66699 62.667 14 80 28c-19.333 34.667 -29 58 -29 70c0 26 18.333 52.667 55 80c31.333 23.333 54.666 35 69.999 35c43.333 0 65 -26.333 65 -79zM371.003 1556
c0 18 -9 27 -27 27c-26.667 0 -40 -12.333 -40 -37c0 -20.667 10.667 -39 32 -55c23.333 14 35 35.667 35 65z" />
    <glyph glyph-name="uFC62" unicode="&#x651;&#x650;" arabic-form="isolated" 
d="M449 1415c0 -30.667 -9 -57 -27 -79s-42.333 -33 -73 -33s-54.667 16 -72 48c-28.667 -34 -61.667 -51 -99 -51c-22 0 -41.333 10.667 -58 32c-15.333 19.333 -23 40.666 -23 63.999c0 16.667 4.66699 35 14 55c11.333 24.667 24.333 37 39 37
c6.66699 0 10 -5.33301 10 -16c0 -5.33301 -0.5 -13 -1.5 -23s-1.5 -17.667 -1.5 -23c0 -26.667 12.667 -40 38 -40c24.667 0 42 9.66699 52 29c3.33301 6.66699 8.33301 26.334 15 59.001c2.66699 11.333 8.66699 17 18 17s14.666 -6.33301 15.999 -19
c6.66699 -60.667 24.334 -91 53.001 -91c28 0 42 14.333 42 43c0 12 -2.33301 26.333 -7 43l46 38c12.667 -22 19 -52 19 -90zM406 1181l-272 -111v70l272 108v-67z" />
    <glyph glyph-name="uFDF2" unicode="&#xfedf;&#xfee0;&#xfeea;" horiz-adv-x="1085" arabic-form="isolated" 
d="M190 906l14.001 -5c9.33301 -2 16.666 -5.33301 21.999 -10l34 -19l17 17l-7 63l-23 -9l-21 -12l-16 -11zM616.001 917h83.002l-33 253l98 78c0 -25.333 1.66699 -46.833 5 -64.5s7.33301 -32.167 12 -43.5l13 -23l-22 -21l2 -63l3 -54l6 -105l1 -45l3 -50l-3 -85h-417
c-24 3.33301 -42 14 -54 32c-6.66699 11.333 -11 24.333 -13 39c0 9.33301 -1.33301 18 -4 26l-4 12l-35 -43c-6 -8.66699 -15.333 -17.334 -28 -26.001l-22 11l-64 34l-31 20l-1 4v3l5 36l19 92l32 32l25 20l26 16l45 24l-2 29l64 56l12 -143
c1.33301 -19.333 5.66602 -32.666 12.999 -39.999s15.666 -11 24.999 -11h159l-35 253l99 78c0 -28 2 -50 6 -66l8 -32l14 -33l-19 -21l1 -61l6 -66zM999.003 949c0 -79.333 -21 -149.33 -63 -209.997l-290 -424l-64 -123c-23.333 -46 -40.333 -88.333 -51 -127
c-18 -68 -36 -149.667 -54 -245l-77 -414l-7 -4c-1.33301 -2 -5 -3 -11 -3l-9 2c-4.66699 1.33301 -8.66699 3.66602 -12 6.99902s-6.66602 11.333 -9.99902 24v21l31 137l54 275c20 99.333 30 180 30 242c0 44.667 -11.333 87 -34 127l-46 81
c-22.667 39.333 -49 74.666 -79 105.999c-82 84.667 -131.333 139 -148 163l-80 120l-33 56l-25 55c-15.333 47.333 -23 92 -23 134c0 74.667 11.333 137.667 34 189c25.333 56.667 63 110.167 113 160.5s103 87.166 159 110.499s120.667 35 194 35
c139.333 0 256.666 -48 351.999 -144c76 -76.667 122.667 -159.667 140 -249c6 -30.667 9 -64.667 9 -102zM945.003 949.003c0 120.667 -43.666 224 -130.999 310c-47.333 46.667 -96.166 80.167 -146.499 100.5s-106.833 30.5 -169.5 30.5
c-122.667 0 -227 -42.333 -313 -127c-47.333 -46.667 -81.333 -95 -102 -145c-7.33301 -18 -14.5 -43.833 -21.5 -77.5s-10.167 -64.167 -9.5 -91.5l1 -34v-14c0 -6 1.33301 -13 4 -21c7.33301 -43.333 30.666 -94.333 69.999 -153l72 -107c6 -11.333 22 -30.666 48 -57.999
l105 -109c44 -46 81 -104.333 111 -175c26 -61.333 39 -118.333 39 -171l31 79c21.333 55.333 43 106 65 152c16.667 35.333 43 77.333 79 126c49.333 66 78.666 106 87.999 120l30 46l20 31l33 42l41 60c22.667 33.333 39 72.666 49 117.999c4.66699 22 7 44.667 7 68z" />
    <glyph glyph-name="uFEF5" unicode="&#xfedf;&#xfe82;" horiz-adv-x="1150" arabic-form="isolated" 
d="M526 1385c-12 -7.33301 -27.999 -13.667 -47.999 -19l-27 -4l-29 -2h-21l-11 1c-5.33301 0 -11 1 -17 3c-14.667 3.33301 -24.334 6.33301 -29.001 9l9 -19l3 -17l-1 -4l-7 -25l-6 -12l-2 -2l-1 4c0 23.333 -4 41.333 -12 54c-6 8.66699 -15.667 19.667 -29 33l21 45
c38.667 -22.667 77.667 -34 117 -34c30 0 63.667 9 101 27zM607.001 1284l119.998 81.998v-22l2 -26l1 -22c0 -8 1 -16.333 3 -25l13 -55l-35 -25c-6.66699 -46.667 -13.667 -76.334 -21 -89.001c-4 -19.333 -13.333 -36.666 -28 -51.999l29 -46c27.333 -54 41 -100 41 -138
v-154c0 -17.333 -2.16699 -30.166 -6.5 -38.499s-12.166 -13.833 -23.499 -16.5l-255 -1c-36.667 0 -55.334 16.667 -56.001 50l-9 226l7 7l8 1c3.33301 0 8.33301 -2.33301 15 -7c24 6.66699 51.833 21.334 83.5 44.001s53.834 44.334 66.501 65.001l-36 34l-41 36l-31 26
l-9 -27l-2 -1c-6 0 -17 6.66699 -33 20l-46 42c-9.33301 8 -13.333 15 -12 21l20 81l8 26c2 6 6.66699 9 14 9c6 0 12 -2.33301 18 -7l52 -42l42 -36l30 -29l28 -30l36 -40l8 55l4 66l-1 25c-1.33301 7.33301 -2.66602 11.666 -3.99902 12.999zM529.999 930.997l33 -7l33 -2
l32 3l32 7l-21 26l-25 31l-60 -45zM1064 1102l-0.000976562 -30.9971l-5 -27l-2 -21l-9 -27c-11.333 -38 -27.333 -72.333 -48 -103l-289 -424l-64 -123c-24 -46 -41 -88.333 -51 -127c-18.667 -68 -36.667 -149.667 -54 -245l-77 -414l-7 -5
c-2 -1.33301 -5.66699 -2 -11 -2l-9 2c-4.66699 1.33301 -8.66699 3.66602 -12 6.99902s-6.66602 11.333 -9.99902 24v21l30 137l55 275c20 99.333 30 180 30 242c0 44.667 -11.333 87 -34 127l-46 81c-22.667 39.333 -49 74.666 -79 105.999
c-82.667 84.667 -132 139 -148 163l-80 120l-32 55l-27 55c-14.667 47.333 -22 92 -22 134c0 75.333 11.333 138.666 34 189.999c24.667 56 62.167 109.333 112.5 160s103.5 87.667 159.5 111s120.333 35 193 35c140 0 257.667 -48.333 353 -145
c76 -76 122.667 -158.667 140 -248c6 -30.667 9 -65 9 -103zM1010 1102c0 121.333 -43.668 224.999 -131.001 310.999c-47.333 46.667 -96.166 80.167 -146.499 100.5s-107.166 30.5 -170.499 30.5c-122.667 0 -226.667 -42.333 -312 -127
c-47.333 -46.667 -81.333 -95 -102 -145c-8 -18 -15.333 -43.833 -22 -77.5s-9.66699 -64.5 -9 -92.5l1 -33v-14c0 -6 1 -13 3 -21c8 -43.333 31.667 -94.333 71 -153l72 -107c6 -11.333 21.667 -30.666 47 -57.999l106 -109c44 -46 81 -104.333 111 -175
c26 -61.333 39 -118.333 39 -171l31 79c21.333 55.333 42.666 106 63.999 152c16 34 35.333 66.333 58 97l110 149c16 29.333 43.333 69.333 82 120c65.333 86 98 167.333 98 244z" />
    <glyph glyph-name="uFEF6" unicode="&#xfee0;&#xfe82;" horiz-adv-x="1150" arabic-form="final" 
d="M526 1385c-12 -7.33301 -27.999 -13.667 -47.999 -19l-27 -4l-29 -2h-21l-11 1c-5.33301 0 -11 1 -17 3c-14.667 3.33301 -24.334 6.33301 -29.001 9l9 -19l3 -17l-1 -4l-7 -25l-6 -12l-2 -2l-1 4c0 23.333 -4 41.333 -12 54c-6 8.66699 -15.667 19.667 -29 33l21 45
c38.667 -22.667 77.667 -34 117 -34c30 0 63.667 9 101 27zM607.001 1284l119.998 81.998v-22l2 -26l1 -22c0 -8 1 -16.333 3 -25l13 -55l-35 -25c-6.66699 -46.667 -13.667 -76.334 -21 -89.001c-4 -19.333 -13.333 -36.666 -28 -51.999l29 -46c27.333 -54 41 -100 41 -138
v-154c0 -17.333 -2.16699 -30.166 -6.5 -38.499s-12.166 -13.833 -23.499 -16.5l-255 -1c-36.667 0 -55.334 16.667 -56.001 50l-9 226l7 7l8 1c3.33301 0 8.33301 -2.33301 15 -7c24 6.66699 51.833 21.334 83.5 44.001s53.834 44.334 66.501 65.001l-36 34l-41 36l-31 26
l-9 -27l-2 -1c-6 0 -17 6.66699 -33 20l-46 42c-9.33301 8 -13.333 15 -12 21l20 81l8 26c2 6 6.66699 9 14 9c6 0 12 -2.33301 18 -7l52 -42l42 -36l30 -29l28 -30l36 -40l8 55l4 66l-1 25c-1.33301 7.33301 -2.66602 11.666 -3.99902 12.999zM529.999 930.997l33 -7l33 -2
l32 3l32 7l-21 26l-25 31l-60 -45zM1064 1102l-0.000976562 -30.9971l-5 -27l-2 -21l-9 -27c-11.333 -38 -27.333 -72.333 -48 -103l-289 -424l-64 -123c-24 -46 -41 -88.333 -51 -127c-18.667 -68 -36.667 -149.667 -54 -245l-77 -414l-7 -5
c-2 -1.33301 -5.66699 -2 -11 -2l-9 2c-4.66699 1.33301 -8.66699 3.66602 -12 6.99902s-6.66602 11.333 -9.99902 24v21l30 137l55 275c20 99.333 30 180 30 242c0 44.667 -11.333 87 -34 127l-46 81c-22.667 39.333 -49 74.666 -79 105.999
c-82.667 84.667 -132 139 -148 163l-80 120l-32 55l-27 55c-14.667 47.333 -22 92 -22 134c0 75.333 11.333 138.666 34 189.999c24.667 56 62.167 109.333 112.5 160s103.5 87.667 159.5 111s120.333 35 193 35c140 0 257.667 -48.333 353 -145
c76 -76 122.667 -158.667 140 -248c6 -30.667 9 -65 9 -103zM1010 1102c0 121.333 -43.668 224.999 -131.001 310.999c-47.333 46.667 -96.166 80.167 -146.499 100.5s-107.166 30.5 -170.499 30.5c-122.667 0 -226.667 -42.333 -312 -127
c-47.333 -46.667 -81.333 -95 -102 -145c-8 -18 -15.333 -43.833 -22 -77.5s-9.66699 -64.5 -9 -92.5l1 -33v-14c0 -6 1 -13 3 -21c8 -43.333 31.667 -94.333 71 -153l72 -107c6 -11.333 21.667 -30.666 47 -57.999l106 -109c44 -46 81 -104.333 111 -175
c26 -61.333 39 -118.333 39 -171l31 79c21.333 55.333 42.666 106 63.999 152c16 34 35.333 66.333 58 97l110 149c16 29.333 43.333 69.333 82 120c65.333 86 98 167.333 98 244z" />
    <glyph glyph-name="uFEF7" unicode="&#xfedf;&#xfe84;" horiz-adv-x="1069" arabic-form="isolated" 
d="M580 972l-14.999 -46.002l-18 -8c-6 -2 -12 -5.33301 -18 -10l-26 -15l-62 -39l4 16l3 15l13 11l15 13l-20 7c-16 4 -25 8.33301 -27 13c0 33.333 20.333 68 61 104c4 4 8.66699 7 14 9l17 3c8 0 13.667 -1.16699 17 -3.5s6.66602 -8.16602 9.99902 -17.499
c0 -6.66699 -2.66699 -13.667 -8 -21l-12 -17l-11 8l-12 5l-13 -5l-9 -10l-9 -15l18 -9l23 -2h17l13 3c10 2.66699 20.333 7.33398 31 14.001zM574.001 830.998l120.999 81.998v-23l2 -26v-22c0.666992 -7.33301 2 -15.666 4 -24.999l13 -55l-35 -25
c-6.66699 -46 -13.667 -75.667 -21 -89c-4.66699 -19.333 -14 -36.333 -28 -51l29 -46c26.667 -54 40 -100.333 40 -139v-154c0 -17.333 -2 -30.166 -6 -38.499s-11.667 -13.833 -23 -16.5l-255 -1c-36.667 0 -55.667 17 -57 51l-8 226l6 6l8 2c4 0 9.33301 -2.33301 16 -7
c24 6 51.833 20.5 83.5 43.5s53.834 44.833 66.501 65.5l-36 34l-41 36l-32 26l-8 -27l-3 -2c-6 0 -16.667 7 -32 21l-47 41c-9.33301 8.66699 -13.333 16 -12 22l20 81l8 25c2.66699 6.66699 7.66699 10 15 10c6 0 12 -2.33301 18 -7l52 -43l41 -36l31 -28l28 -30l36 -41
l8 55l4 66l-1 25c-1.33301 8 -3 12.667 -5 14zM498 476.996l33 -6l32 -2l33 3l31 7l-20 26l-26 30l-59 -45zM1023 648.996l-0.000976562 -32l-4 -27l-3 -20l-8 -27c-11.333 -38.667 -27.666 -73.334 -48.999 -104.001l-289 -424l-63 -123c-24 -46 -41.333 -88.333 -52 -127
c-18 -68 -36 -149.667 -54 -245l-76 -414l-7 -4c-2 -2 -5.66699 -3 -11 -3l-9 2c-4.66699 1.33301 -8.66699 3.83301 -12 7.5s-7 11.5 -11 23.5v21l31 137l55 275c19.333 99.333 29 180 29 242c0 44.667 -11.333 87 -34 127l-46 81c-22 40 -48.333 75.333 -79 106
c-82 84.667 -131 139 -147 163l-81 120l-32 55l-26 56c-15.333 46.667 -23 91.334 -23 134.001c0 74.667 11.667 138 35 190c24.667 56 62.167 109.167 112.5 159.5s103.333 87.333 159 111s120.167 35.5 193.5 35.5c138 0 255 -48 351 -144c100 -100.667 150 -218 150 -352
zM968.999 648.996c0 121.333 -43.3311 224.67 -129.998 310.003c-47.333 47.333 -96.333 81.166 -147 101.499s-107.334 30.5 -170.001 30.5c-122.667 0 -227 -42.667 -313 -128c-46.667 -46.667 -80.667 -95 -102 -145c-7.33301 -18 -14.5 -43.833 -21.5 -77.5
s-10.167 -64.167 -9.5 -91.5l1 -33v-14c0 -6.66699 1.33301 -14 4 -22c7.33301 -43.333 30.666 -94.333 69.999 -153l72 -107c6 -11.333 22 -30.333 48 -57l105 -110c58 -60.667 102.333 -138.334 133 -233.001c11.333 -34.667 17 -72.334 17 -113.001l31 80
c21.333 55.333 43 106 65 152c16 33.333 35 65.333 57 96l110 149c16.667 29.333 44 69.333 82 120c65.333 86 98 167.667 98 245z" />
    <glyph glyph-name="uFEF8" unicode="&#xfee0;&#xfe84;" horiz-adv-x="1069" arabic-form="final" 
d="M580 972l-14.999 -46.002l-18 -8c-6 -2 -12 -5.33301 -18 -10l-26 -15l-62 -39l4 16l3 15l13 11l15 13l-20 7c-16 4 -25 8.33301 -27 13c0 33.333 20.333 68 61 104c4 4 8.66699 7 14 9l17 3c8 0 13.667 -1.16699 17 -3.5s6.66602 -8.16602 9.99902 -17.499
c0 -6.66699 -2.66699 -13.667 -8 -21l-12 -17l-11 8l-12 5l-13 -5l-9 -10l-9 -15l18 -9l23 -2h17l13 3c10 2.66699 20.333 7.33398 31 14.001zM574.001 830.998l120.999 81.998v-23l2 -26v-22c0.666992 -7.33301 2 -15.666 4 -24.999l13 -55l-35 -25
c-6.66699 -46 -13.667 -75.667 -21 -89c-4.66699 -19.333 -14 -36.333 -28 -51l29 -46c26.667 -54 40 -100.333 40 -139v-154c0 -17.333 -2 -30.166 -6 -38.499s-11.667 -13.833 -23 -16.5l-255 -1c-36.667 0 -55.667 17 -57 51l-8 226l6 6l8 2c4 0 9.33301 -2.33301 16 -7
c24 6 51.833 20.5 83.5 43.5s53.834 44.833 66.501 65.5l-36 34l-41 36l-32 26l-8 -27l-3 -2c-6 0 -16.667 7 -32 21l-47 41c-9.33301 8.66699 -13.333 16 -12 22l20 81l8 25c2.66699 6.66699 7.66699 10 15 10c6 0 12 -2.33301 18 -7l52 -43l41 -36l31 -28l28 -30l36 -41
l8 55l4 66l-1 25c-1.33301 8 -3 12.667 -5 14zM498 476.996l33 -6l32 -2l33 3l31 7l-20 26l-26 30l-59 -45zM1023 648.996l-0.000976562 -32l-4 -27l-3 -20l-8 -27c-11.333 -38.667 -27.666 -73.334 -48.999 -104.001l-289 -424l-63 -123c-24 -46 -41.333 -88.333 -52 -127
c-18 -68 -36 -149.667 -54 -245l-76 -414l-7 -4c-2 -2 -5.66699 -3 -11 -3l-9 2c-4.66699 1.33301 -8.66699 3.83301 -12 7.5s-7 11.5 -11 23.5v21l31 137l55 275c19.333 99.333 29 180 29 242c0 44.667 -11.333 87 -34 127l-46 81c-22 40 -48.333 75.333 -79 106
c-82 84.667 -131 139 -147 163l-81 120l-32 55l-26 56c-15.333 46.667 -23 91.334 -23 134.001c0 74.667 11.667 138 35 190c24.667 56 62.167 109.167 112.5 159.5s103.333 87.333 159 111s120.167 35.5 193.5 35.5c138 0 255 -48 351 -144c100 -100.667 150 -218 150 -352
zM968.999 648.996c0 121.333 -43.3311 224.67 -129.998 310.003c-47.333 47.333 -96.333 81.166 -147 101.499s-107.334 30.5 -170.001 30.5c-122.667 0 -227 -42.667 -313 -128c-46.667 -46.667 -80.667 -95 -102 -145c-7.33301 -18 -14.5 -43.833 -21.5 -77.5
s-10.167 -64.167 -9.5 -91.5l1 -33v-14c0 -6.66699 1.33301 -14 4 -22c7.33301 -43.333 30.666 -94.333 69.999 -153l72 -107c6 -11.333 22 -30.333 48 -57l105 -110c58 -60.667 102.333 -138.334 133 -233.001c11.333 -34.667 17 -72.334 17 -113.001l31 80
c21.333 55.333 43 106 65 152c16 33.333 35 65.333 57 96l110 149c16.667 29.333 44 69.333 82 120c65.333 86 98 167.667 98 245z" />
    <glyph glyph-name="uFEF9" unicode="&#xfedf;&#xfe88;" horiz-adv-x="1061" arabic-form="isolated" 
d="M582 1560l120.999 81.998v-23l2 -26l1 -22c0 -7.33301 1 -15.666 3 -24.999l13 -55l-35 -25c-6.66699 -46 -13.667 -75.667 -21 -89c-4.66699 -19.333 -14 -36.333 -28 -51l29 -46c26.667 -54 40 -100.333 40 -139v-154c0 -17.333 -2 -30.166 -6 -38.499
s-11.667 -13.833 -23 -16.5l-255 -1c-36.667 0 -55.667 17 -57 51l-8 226l6 6l9 2c3.33301 0 8.33301 -2.33301 15 -7c24 6 51.833 20.5 83.5 43.5s53.834 44.833 66.501 65.5l-36 34l-41 36l-32 26l-8 -27l-3 -2c-6 0 -16.667 7 -32 21l-47 41
c-9.33301 8.66699 -13 16 -11 22l19 81l8 25c2.66699 6.66699 7.66699 10 15 10c6 0 12 -2.33301 18 -7l52 -43l41 -36l31 -28l28 -30l36 -41l8 55l4 66l-1 25c-1.33301 8 -3 12.667 -5 14zM505.999 1206l33 -6l32 -2l33 3l31 7l-20 26l-26 30l-59 -45zM630.999 800.998
l-17 -48l-19 -9l-23 -11l-40 -25l-42 -27l5 22l3 11l12 10l16 12l-20 8c-12.667 4 -21.334 8.66699 -26.001 14c0 30 19.667 64.333 59 103c8.66699 8.66699 19.334 13 32.001 13c8 0 14 -1.5 18 -4.5s7 -9.16699 9 -18.5l-9 -20c-2 -6 -5.66699 -11.667 -11 -17l-11 8
l-12 4c-8.66699 0 -19 -9.33301 -31 -28l18 -10l21 -2c14.667 0 26.167 1.16699 34.5 3.5s17.5 7.5 27.5 15.5l4 -2zM1007 1256v-30.998l-4 -27l-3 -21l-8 -27c-12 -38.667 -28.333 -73 -49 -103l-289 -424l-64 -124c-23.333 -45.333 -40.333 -87.333 -51 -126
c-18 -68 -36 -149.667 -54 -245l-76 -414l-8 -5c-1.33301 -1.33301 -4.66602 -2 -9.99902 -2l-9 1c-4.66699 2 -8.83398 4.66699 -12.501 8s-7.16699 11.333 -10.5 24v21l31 136l55 276c19.333 99.333 29 180 29 242c0 44 -11.333 86.333 -34 127l-46 81
c-22.667 39.333 -49 74.666 -79 105.999c-82 84.667 -131.333 139 -148 163l-80 120l-32 54l-26 56c-15.333 46.667 -23 91.334 -23 134.001c0 75.333 11.333 138.666 34 189.999c25.333 56 63 109.167 113 159.5s103 87.333 159 111s120.667 35.5 194 35.5
c138 0 254.667 -47.667 350 -143c100.667 -100.667 151 -218.334 151 -353.001zM952.999 1256c0 121.333 -43.332 225 -129.999 311c-48 46.667 -97.167 80.167 -147.5 100.5s-106.833 30.5 -169.5 30.5c-122.667 0 -227 -42.667 -313 -128
c-46.667 -46.667 -80.667 -94.667 -102 -144c-7.33301 -18 -14.5 -43.833 -21.5 -77.5s-10.167 -64.5 -9.5 -92.5l1 -33v-14c0 -6 1.33301 -13 4 -21c7.33301 -43.333 30.666 -94.333 69.999 -153l72 -107c6 -11.333 22 -30.666 48 -57.999l105 -110
c44 -45.333 81 -103.333 111 -174c26 -61.333 39 -118.333 39 -171l31 79c21.333 55.333 43 106 65 152c16 34 35 66 57 96l110 150c16 29.333 43.333 69.333 82 120c65.333 85.333 98 166.666 98 243.999z" />
    <glyph glyph-name="uFEFA" unicode="&#xfee0;&#xfe88;" horiz-adv-x="1061" arabic-form="final" 
d="M582 1560l120.999 81.998v-23l2 -26l1 -22c0 -7.33301 1 -15.666 3 -24.999l13 -55l-35 -25c-6.66699 -46 -13.667 -75.667 -21 -89c-4.66699 -19.333 -14 -36.333 -28 -51l29 -46c26.667 -54 40 -100.333 40 -139v-154c0 -17.333 -2 -30.166 -6 -38.499
s-11.667 -13.833 -23 -16.5l-255 -1c-36.667 0 -55.667 17 -57 51l-8 226l6 6l9 2c3.33301 0 8.33301 -2.33301 15 -7c24 6 51.833 20.5 83.5 43.5s53.834 44.833 66.501 65.5l-36 34l-41 36l-32 26l-8 -27l-3 -2c-6 0 -16.667 7 -32 21l-47 41
c-9.33301 8.66699 -13 16 -11 22l19 81l8 25c2.66699 6.66699 7.66699 10 15 10c6 0 12 -2.33301 18 -7l52 -43l41 -36l31 -28l28 -30l36 -41l8 55l4 66l-1 25c-1.33301 8 -3 12.667 -5 14zM505.999 1206l33 -6l32 -2l33 3l31 7l-20 26l-26 30l-59 -45zM630.999 800.998
l-17 -48l-19 -9l-23 -11l-40 -25l-42 -27l5 22l3 11l12 10l16 12l-20 8c-12.667 4 -21.334 8.66699 -26.001 14c0 30 19.667 64.333 59 103c8.66699 8.66699 19.334 13 32.001 13c8 0 14 -1.5 18 -4.5s7 -9.16699 9 -18.5l-9 -20c-2 -6 -5.66699 -11.667 -11 -17l-11 8
l-12 4c-8.66699 0 -19 -9.33301 -31 -28l18 -10l21 -2c14.667 0 26.167 1.16699 34.5 3.5s17.5 7.5 27.5 15.5l4 -2zM1007 1256v-30.998l-4 -27l-3 -21l-8 -27c-12 -38.667 -28.333 -73 -49 -103l-289 -424l-64 -124c-23.333 -45.333 -40.333 -87.333 -51 -126
c-18 -68 -36 -149.667 -54 -245l-76 -414l-8 -5c-1.33301 -1.33301 -4.66602 -2 -9.99902 -2l-9 1c-4.66699 2 -8.83398 4.66699 -12.501 8s-7.16699 11.333 -10.5 24v21l31 136l55 276c19.333 99.333 29 180 29 242c0 44 -11.333 86.333 -34 127l-46 81
c-22.667 39.333 -49 74.666 -79 105.999c-82 84.667 -131.333 139 -148 163l-80 120l-32 54l-26 56c-15.333 46.667 -23 91.334 -23 134.001c0 75.333 11.333 138.666 34 189.999c25.333 56 63 109.167 113 159.5s103 87.333 159 111s120.667 35.5 194 35.5
c138 0 254.667 -47.667 350 -143c100.667 -100.667 151 -218.334 151 -353.001zM952.999 1256c0 121.333 -43.332 225 -129.999 311c-48 46.667 -97.167 80.167 -147.5 100.5s-106.833 30.5 -169.5 30.5c-122.667 0 -227 -42.667 -313 -128
c-46.667 -46.667 -80.667 -94.667 -102 -144c-7.33301 -18 -14.5 -43.833 -21.5 -77.5s-10.167 -64.5 -9.5 -92.5l1 -33v-14c0 -6 1.33301 -13 4 -21c7.33301 -43.333 30.666 -94.333 69.999 -153l72 -107c6 -11.333 22 -30.666 48 -57.999l105 -110
c44 -45.333 81 -103.333 111 -174c26 -61.333 39 -118.333 39 -171l31 79c21.333 55.333 43 106 65 152c16 34 35 66 57 96l110 150c16 29.333 43.333 69.333 82 120c65.333 85.333 98 166.666 98 243.999z" />
    <glyph glyph-name="uFEFB" unicode="&#xfedf;&#xfe8e;" horiz-adv-x="1053" arabic-form="isolated" 
d="M501 1163l120.998 81.998v-23l2 -26l1 -22c0 -7.33301 1 -15.666 3 -24.999l13 -55l-35 -25c-6.66699 -46 -13.667 -75.667 -21 -89c-4.66699 -19.333 -14 -36.333 -28 -51l29 -46c26.667 -54 40 -100.333 40 -139v-154c0 -17.333 -2.33301 -29.666 -7 -36.999
c-3.33301 -9.33301 -10.666 -15.333 -21.999 -18h-255c-36.667 0 -55.667 16.667 -57 50l-8 226l6 6l9 2c3.33301 0 8.33301 -2.33301 15 -7c24 6 51.833 20.5 83.5 43.5s53.834 44.833 66.501 65.5l-36 34l-41 36l-32 26l-8 -27l-3 -2c-6 0 -16.667 7 -32 21l-47 41
c-9.33301 8.66699 -13 16 -11 22l19 81l8 25c2.66699 6.66699 7.66699 10 15 10c6 0 12 -2.33301 18 -7l52 -43l41 -36l31 -28l28 -30l36 -41l8 55l4 66l-1 25c-1.33301 8 -3 12.667 -5 14zM424.998 808.998l33 -6l32 -2l33 3l31 7l-20 26l-26 31l-59 -45zM998.998 948.998
c0 -79.333 -21 -149.33 -63 -209.997l-290 -424l-64 -123c-23.333 -46 -40.333 -88.333 -51 -127c-18 -68 -36 -149.667 -54 -245l-77 -414l-7 -4c-1.33301 -2 -5 -3 -11 -3l-9 2c-4.66699 1.33301 -8.66699 3.66602 -12 6.99902s-6.66602 11.333 -9.99902 24v21l31 137
l54 275c20 99.333 30 180 30 242c0 44.667 -11.333 87 -34 127l-46 81c-22.667 39.333 -49 74.666 -79 105.999c-82 84.667 -131.333 139 -148 163l-80 120l-33 56l-25 55c-15.333 47.333 -23 92 -23 134c0 74.667 11.333 137.667 34 189
c25.333 56.667 63 110.167 113 160.5s103 87.166 159 110.499s120.667 35 194 35c139.333 0 256.666 -48 351.999 -144c76 -76.667 122.667 -159.667 140 -249c6 -30.667 9 -64.667 9 -102zM944.998 949.001c0 120.667 -43.666 224 -130.999 310
c-47.333 46.667 -96.166 80.167 -146.499 100.5s-106.833 30.5 -169.5 30.5c-122.667 0 -227 -42.333 -313 -127c-47.333 -46.667 -81.333 -95 -102 -145c-7.33301 -18 -14.5 -43.833 -21.5 -77.5s-10.167 -64.167 -9.5 -91.5l1 -34v-14c0 -6 1.33301 -13 4 -21
c7.33301 -43.333 30.666 -94.333 69.999 -153l72 -107c6 -11.333 22 -30.666 48 -57.999l105 -109c44 -46 81 -104.333 111 -175c26 -61.333 39 -118.333 39 -171l31 79c21.333 55.333 43 106 65 152c16.667 35.333 43 77.333 79 126c49.333 66 78.666 106 87.999 120l30 46
l20 31l33 42l41 60c22.667 33.333 39 72.666 49 117.999c4.66699 22 7 44.667 7 68z" />
    <glyph glyph-name="uFEFC" unicode="&#xfee0;&#xfe8e;" horiz-adv-x="1053" arabic-form="final" 
d="M501 1163l120.998 81.998v-23l2 -26l1 -22c0 -7.33301 1 -15.666 3 -24.999l13 -55l-35 -25c-6.66699 -46 -13.667 -75.667 -21 -89c-4.66699 -19.333 -14 -36.333 -28 -51l29 -46c26.667 -54 40 -100.333 40 -139v-154c0 -17.333 -2.33301 -29.666 -7 -36.999
c-3.33301 -9.33301 -10.666 -15.333 -21.999 -18h-255c-36.667 0 -55.667 16.667 -57 50l-8 226l6 6l9 2c3.33301 0 8.33301 -2.33301 15 -7c24 6 51.833 20.5 83.5 43.5s53.834 44.833 66.501 65.5l-36 34l-41 36l-32 26l-8 -27l-3 -2c-6 0 -16.667 7 -32 21l-47 41
c-9.33301 8.66699 -13 16 -11 22l19 81l8 25c2.66699 6.66699 7.66699 10 15 10c6 0 12 -2.33301 18 -7l52 -43l41 -36l31 -28l28 -30l36 -41l8 55l4 66l-1 25c-1.33301 8 -3 12.667 -5 14zM424.998 808.998l33 -6l32 -2l33 3l31 7l-20 26l-26 31l-59 -45zM998.998 948.998
c0 -79.333 -21 -149.33 -63 -209.997l-290 -424l-64 -123c-23.333 -46 -40.333 -88.333 -51 -127c-18 -68 -36 -149.667 -54 -245l-77 -414l-7 -4c-1.33301 -2 -5 -3 -11 -3l-9 2c-4.66699 1.33301 -8.66699 3.66602 -12 6.99902s-6.66602 11.333 -9.99902 24v21l31 137
l54 275c20 99.333 30 180 30 242c0 44.667 -11.333 87 -34 127l-46 81c-22.667 39.333 -49 74.666 -79 105.999c-82 84.667 -131.333 139 -148 163l-80 120l-33 56l-25 55c-15.333 47.333 -23 92 -23 134c0 74.667 11.333 137.667 34 189
c25.333 56.667 63 110.167 113 160.5s103 87.166 159 110.499s120.667 35 194 35c139.333 0 256.666 -48 351.999 -144c76 -76.667 122.667 -159.667 140 -249c6 -30.667 9 -64.667 9 -102zM944.998 949.001c0 120.667 -43.666 224 -130.999 310
c-47.333 46.667 -96.166 80.167 -146.499 100.5s-106.833 30.5 -169.5 30.5c-122.667 0 -227 -42.333 -313 -127c-47.333 -46.667 -81.333 -95 -102 -145c-7.33301 -18 -14.5 -43.833 -21.5 -77.5s-10.167 -64.167 -9.5 -91.5l1 -34v-14c0 -6 1.33301 -13 4 -21
c7.33301 -43.333 30.666 -94.333 69.999 -153l72 -107c6 -11.333 22 -30.666 48 -57.999l105 -109c44 -46 81 -104.333 111 -175c26 -61.333 39 -118.333 39 -171l31 79c21.333 55.333 43 106 65 152c16.667 35.333 43 77.333 79 126c49.333 66 78.666 106 87.999 120l30 46
l20 31l33 42l41 60c22.667 33.333 39 72.666 49 117.999c4.66699 22 7 44.667 7 68z" />
    <glyph glyph-name="u0622" unicode="&#x622;" horiz-adv-x="1053" arabic-form="isolated" 
d="M632 1292c-13.333 -6.66699 -34.333 -14.999 -63 -24.999l-29 -4l-33 -2c-40.667 -2 -71.667 3.66699 -93 17l10 -24l4 -21v-4l-10 -29l-5 -10l-4 -7v4c0 27.333 -5.33301 49 -16 65c-4.66699 9.33301 -15.667 22.666 -33 39.999l14 35l10 18l34 -18l34 -11
c20.667 -7.33301 44 -11 70 -11c41.333 0 82.333 11 123 33zM613 559.001l-8 -48.999c-6 -35.333 -13 -60 -21 -74c-1.33301 -4.66699 -4.33301 -10.334 -9 -17.001l-23 -31l-34 -37l-37 -36l-45 774l153 119zM999 949.002c0 -79.333 -21 -149.33 -63 -209.997l-290 -424
l-64 -123c-23.333 -46 -40.333 -88.333 -51 -127c-18 -68 -36 -149.667 -54 -245l-77 -414l-7 -4c-1.33301 -2 -5 -3 -11 -3l-9 2c-4.66699 1.33301 -8.66699 3.66602 -12 6.99902s-6.66602 11.333 -9.99902 24v21l31 137l54 275c20 99.333 30 180 30 242
c0 44.667 -11.333 87 -34 127l-46 81c-22.667 39.333 -49 74.666 -79 105.999c-82 84.667 -131.333 139 -148 163l-80 120l-33 56l-25 55c-15.333 47.333 -23 92 -23 134c0 74.667 11.333 137.667 34 189c25.333 56.667 63 110.167 113 160.5s103 87.166 159 110.499
s120.667 35 194 35c139.333 0 256.666 -48 351.999 -144c76 -76.667 122.667 -159.667 140 -249c6 -30.667 9 -64.667 9 -102zM945 949.005c0 120.667 -43.666 224 -130.999 310c-47.333 46.667 -96.166 80.167 -146.499 100.5s-106.833 30.5 -169.5 30.5
c-122.667 0 -227 -42.333 -313 -127c-47.333 -46.667 -81.333 -95 -102 -145c-7.33301 -18 -14.5 -43.833 -21.5 -77.5s-10.167 -64.167 -9.5 -91.5l1 -34v-14c0 -6 1.33301 -13 4 -21c7.33301 -43.333 30.666 -94.333 69.999 -153l72 -107c6 -11.333 22 -30.666 48 -57.999
l105 -109c44 -46 81 -104.333 111 -175c26 -61.333 39 -118.333 39 -171l31 79c21.333 55.333 43 106 65 152c16.667 35.333 43 77.333 79 126c49.333 66 78.666 106 87.999 120l30 46l20 31l33 42l41 60c22.667 33.333 39 72.666 49 117.999c4.66699 22 7 44.667 7 68z" />
    <glyph glyph-name="u0623" unicode="&#x623;" horiz-adv-x="1150" arabic-form="isolated" 
d="M681 1629l-18 -52l-38 -19l-28 -17l-69 -42l6 34l14 13l19 13l-24 8c-18 3.33301 -27.333 8.33301 -28 15v4c0 14 6.66699 31 20 51l21 33c16.667 25.333 36.667 38 60 38c12 0 21 -7.33301 27 -22c0 -10 -2.33301 -18.333 -7 -25l-13 -18l-9 8
c-2 0.666992 -3.33301 1 -4 1c-4 2.66699 -7.66699 4.66699 -11 6c-4.66699 0 -10 -2.33301 -16 -7l-6 -6l-13 -19c10 -9.33301 24.667 -14 44 -14c32 0 54.667 6.66699 68 20h3zM718 889l-6 -30.999c-4 -20.667 -10.667 -46.334 -20 -77.001
c-6 -11.333 -16.333 -25.333 -31 -42l-28 -33l-35 -35l-41 710l140 108zM1096 1297l-0.000976562 -32l-4 -27l-3 -20l-8 -27c-11.333 -38.667 -27.666 -73.334 -48.999 -104.001l-289 -424l-64 -123c-23.333 -46 -40.333 -88.333 -51 -127c-18 -68 -36 -149.667 -54 -245
l-76 -414l-8 -4c-1.33301 -2 -4.66602 -3 -9.99902 -3l-9 2c-4.66699 1.33301 -8.66699 3.83301 -12 7.5s-7 11.5 -11 23.5v21l31 137l55 275c19.333 99.333 29 180 29 242c0 44.667 -11.333 87 -34 127l-46 81c-22 40 -48.333 75.333 -79 106
c-82 84.667 -131.333 139 -148 163l-80 120l-32 55l-26 56c-15.333 46.667 -23 91.334 -23 134.001c0 74.667 11.667 138 35 190c24.667 56 62.167 109.167 112.5 159.5s103.333 87.333 159 111s120.167 35.5 193.5 35.5c139.333 0 257 -48.333 353 -145
c75.333 -76.667 121.666 -159.667 138.999 -249c6 -30 9 -64 9 -102zM1042 1297c0 121.333 -43.3311 224.668 -129.998 310.001c-47.333 47.333 -96.333 81.166 -147 101.499s-107.334 30.5 -170.001 30.5c-122.667 0 -227 -42.667 -313 -128
c-46.667 -46.667 -80.667 -95 -102 -145c-7.33301 -18 -14.5 -43.833 -21.5 -77.5s-10.167 -64.167 -9.5 -91.5l1 -33v-14c0 -6.66699 1.33301 -14 4 -22c7.33301 -43.333 30.666 -94.333 69.999 -153l72 -107c6 -11.333 22 -30.333 48 -57l105 -110
c44 -46 81 -104.333 111 -175c26 -60.667 39 -117.667 39 -171l31 80c21.333 55.333 43 106 65 152c16 33.333 35 65.333 57 96l110 149c16 29.333 43.333 69.333 82 120c65.333 86 98 167.667 98 245z" />
    <glyph glyph-name="u0624" unicode="&#x624;" horiz-adv-x="1085" arabic-form="isolated" 
d="M547 427c-30 0 -60.335 14.667 -91.002 44c-21.333 20 -36 47 -44 81v10c0 39.333 10 87 30 143l14 40l17 42c10 22.667 22.667 46.667 38 72c30.667 50 59 75 85 75c36 0 69.333 -37 100 -111c32 -78.667 47.333 -161 46 -247l-1 -43l-3 -23l-4 -33
c0 -9.33301 -0.333008 -15.333 -1 -18l-11 -45l-10 -29c-16.667 -48.667 -37 -84.667 -61 -108c-32 -30.667 -68.333 -46 -109 -46h-19l-18 4c-11.333 2 -29.666 9.33301 -54.999 22l-14 8l-13 8l-30 21l-49 35c-5.33301 4 -9.66602 9.66699 -12.999 17c0 6 5.33301 9 16 9
h7l9 -1l32 -6l32 -1l27 1c10.667 0.666992 21.667 2 33 4s20 4.33301 26 7l26 12c61.333 27.333 99 70 113 128c-10.667 -16.667 -27.667 -35 -51 -55c-17.333 -11.333 -35.333 -17 -54 -17zM537.998 767c0 -16.667 9.66699 -32.333 29 -47c25.333 -15.333 50 -23 74 -23h5
l15 1c-18.667 68.667 -48.667 103 -90 103c-18 0 -29 -11.333 -33 -34zM537.998 981.001l-17 -6.99902l-19 -11l-26 -15l-62 -38l4 15l3 15l13 12l15 12l-20 7c-14 3.33301 -22.667 7.66602 -26 12.999v3l3 17c1.33301 8 6.33301 18 15 30c11.333 22 25.333 40.333 42 55
l14 8l17 4c18 0 27 -7.33301 27 -22c0 -3.33301 -2 -9.33301 -6 -18l-14 -20l-11 8l-11 5c-4 0 -8.66699 -2.33301 -14 -7s-11 -12 -17 -22l17 -10l24 -3l14 1l16 4l17 5l14 8l3 -2zM1048 697.002v-30.9961l-5 -27l-3 -21l-8 -27c-11.333 -38 -27.333 -72.333 -48 -103
l-289 -424l-64 -123c-24 -46 -41 -88.333 -51 -127c-18.667 -68 -36.667 -149.667 -54 -245l-77 -414l-7 -5c-2 -1.33301 -5.66699 -2 -11 -2l-9 2c-4.66699 1.33301 -8.66699 3.66602 -12 6.99902s-6.66602 11.333 -9.99902 24v21l30 137l55 275c20 99.333 30 180 30 242
c0 44.667 -11.333 87 -34 127l-46 81c-22.667 39.333 -49.334 74.666 -80.001 105.999c-82 84.667 -131 139 -147 163l-80 120l-33 55l-26 55c-14.667 47.333 -22 92 -22 134c0 75.333 11.333 138.666 34 189.999c24.667 56 62.167 109.333 112.5 160
s103.333 87.667 159 111s120.167 35 193.5 35c138 0 255 -47.667 351 -143c100.667 -100.667 151 -218.334 151 -353.001zM993.998 697.006c0 121.333 -43.6699 225 -131.003 311c-47.333 46.667 -96.166 80.167 -146.499 100.5s-107.166 30.5 -170.499 30.5
c-122.667 0 -226.667 -42.333 -312 -127c-47.333 -46.667 -81.666 -95 -102.999 -145c-7.33301 -18 -14.333 -43.833 -21 -77.5s-9.66699 -64.5 -9 -92.5l1 -33v-14c0 -6 1 -13 3 -21c7.33301 -43.333 30.666 -94.333 69.999 -153l72 -107
c6.66699 -11.333 22.667 -30.666 48 -57.999l105 -109c58.667 -60.667 103.334 -138.334 134.001 -233.001c11.333 -35.333 17 -73 17 -113l30 79c22 56 43.667 106.667 65 152c16 34 35.333 66.333 58 97l110 149c16 29.333 43 69.333 81 120c66 86 99 167.333 99 244z" />
    <glyph glyph-name="u0625" unicode="&#x625;" horiz-adv-x="1215" arabic-form="isolated" 
d="M754 616l-7.99902 -47c-6.66699 -39.333 -12.334 -64 -17.001 -74s-17 -26.667 -37 -50l-31 -37l-38 -36l-45 683l152 119zM746.001 253l-16.998 -58.001c-16.667 -5.33301 -35.667 -14.666 -57 -27.999l-93 -58l10 39l14 13l20 14l-25 9c-17.333 6 -28 11.667 -32 17
c0 14.667 8.66699 36.334 26 65.001s32.666 48.667 45.999 60c6 5.33301 11.667 9 17 11l20 3c9.33301 0 17 -2 23 -6s9 -11.333 9 -22c0 -6 -3 -14.333 -9 -25l-6 -11l-8 -9l-14 10c-4.66699 4 -9 6 -13 6c-9.33301 0 -22 -11.333 -38 -34l21 -11l27 -4l19 1
c3.33301 0 9.33301 1.33301 18 4l19 7c7.33301 1.33301 13.666 4.66602 18.999 9.99902zM1120 753.999l0.000976562 -30.998l-4 -27l-3 -21l-8 -27c-11.333 -38.667 -27.333 -73.334 -48 -104.001l-289 -423l-64 -124c-24 -46 -41.333 -88.333 -52 -127
c-18 -67.333 -36 -148.666 -54 -243.999l-76 -414l-7 -5c-2 -2 -5.66699 -3 -11 -3l-9 2c-4.66699 2 -8.66699 4.66699 -12 8s-7 11.333 -11 24v20l31 137l55 276c20 99.333 30 180 30 242c0 44 -11.667 86.333 -35 127l-45 81
c-22.667 39.333 -49.334 74.666 -80.001 105.999c-82 84 -131 138.333 -147 163l-80 119l-33 55l-26 56c-14.667 46.667 -22 91.334 -22 134.001c0 75.333 11.333 138.666 34 189.999c24.667 56 62.167 109.167 112.5 159.5s103.333 87.333 159 111s120.167 35.5 193.5 35.5
c138 0 255 -47.667 351 -143c100 -100.667 150 -218.334 150 -353.001zM1066 754.001c0 121.333 -43.334 225 -130.001 311c-47.333 46.667 -96.166 80.167 -146.499 100.5s-107.166 30.5 -170.499 30.5c-122.667 0 -227 -42.667 -313 -128
c-46.667 -46.667 -80.667 -95 -102 -145c-7.33301 -17.333 -14.333 -43 -21 -77s-9.66699 -64.667 -9 -92l1 -33v-14c0 -6 1 -13 3 -21c7.33301 -43.333 30.666 -94.333 69.999 -153l72 -107c6 -12 22 -31.333 48 -58l105 -110c44 -46 81.333 -104 112 -174
c26 -61.333 39 -118.333 39 -171l30 79c21.333 55.333 43 106 65 152c16 34 35.333 66 58 96l109 150c16.667 29.333 44 69 82 119c65.333 86 98 167.667 98 245z" />
    <glyph glyph-name="u0626" unicode="&#x626;" horiz-adv-x="1134" arabic-form="isolated" 
d="M394 1165l-14 -44.998l-29 -15l-33 -20l-62 -37l7 30l12 12c3.33301 3.33301 8.66602 7.33301 15.999 12l-20 7c-16.667 6 -25.667 10.333 -27 13c0 33.333 20 68.666 60 105.999c4 3.33301 9 6 15 8l17 2c18 0 27 -7 27 -21c0 -4.66699 -2.66699 -11.334 -8 -20.001
l-12 -18l-11 8l-13 5l-5 -1l-6 -4l-9 -10l-9 -14l6 -6l11 -3l22 -3c16.667 0 27.667 1.66699 33 5c10.667 1.33301 20.334 5.33301 29.001 12zM801 1096l-0.00195312 -4.99805c0 -19.333 -8 -32.333 -24 -39c-7.33301 0 -16 4 -26 12l-13 7l-23 4
c-40 0 -79.667 -21 -119 -63c-16.667 -16.667 -25 -30.334 -25 -41.001c0 -6.66699 4 -12 12 -16l17 -6l27 -2l100 -4l11 -3l26 -7c32.667 -7.33301 49 -23.333 49 -48v-10l-1 -6c-3.33301 -23.333 -9.33301 -54 -18 -92c-9.33301 -27.333 -19.333 -48.333 -30 -63
c-52 -56.667 -103 -95.667 -153 -117l-37 -17l-41 -12c-22 -6.66699 -48.333 -10 -79 -10c-103.333 0 -173.666 28.333 -210.999 85c-24.667 36.667 -36.334 79.667 -35.001 129l1 33l5 42l13 68l8 24c4 16.667 8 28.667 12 36c6 12.667 15 21 27 25l9 -6l2 -6l3 -8v-4
l-5 -55v-24v-32l1 -12c0.666992 -4.66699 1.33398 -7.33398 2.00098 -8.00098l6 -13c5.33301 -10 14 -21.167 26 -33.5s33.333 -25.833 64 -40.5c24.667 -9.33301 52 -14 82 -14c56 0 120 18 192 54l-28 6l-56 10c-24.667 4 -55 10.667 -91 20
c-29.333 13.333 -44 33.333 -44 60l2 16c3.33301 29.333 23.333 71 60 125c28.667 42 63 82 103 120c52.667 50.667 96.334 76 131.001 76h5c20.667 0 35 -7.66699 43 -23l15 -44c3.33301 -18 5 -40.667 5 -68zM998.998 949.004c0 -79.333 -21 -149.33 -63 -209.997
l-290 -424l-64 -123c-23.333 -46 -40.333 -88.333 -51 -127c-18 -68 -36 -149.667 -54 -245l-77 -414l-7 -4c-1.33301 -2 -5 -3 -11 -3l-9 2c-4.66699 1.33301 -8.66699 3.66602 -12 6.99902s-6.66602 11.333 -9.99902 24v21l31 137l54 275c20 99.333 30 180 30 242
c0 44.667 -11.333 87 -34 127l-46 81c-22.667 39.333 -49 74.666 -79 105.999c-82 84.667 -131.333 139 -148 163l-80 120l-33 56l-25 55c-15.333 47.333 -23 92 -23 134c0 74.667 11.333 137.667 34 189c25.333 56.667 63 110.167 113 160.5s103 87.166 159 110.499
s120.667 35 194 35c139.333 0 256.666 -48 351.999 -144c76 -76.667 122.667 -159.667 140 -249c6 -30.667 9 -64.667 9 -102zM944.998 949.007c0 120.667 -43.666 224 -130.999 310c-47.333 46.667 -96.166 80.167 -146.499 100.5s-106.833 30.5 -169.5 30.5
c-122.667 0 -227 -42.333 -313 -127c-47.333 -46.667 -81.333 -95 -102 -145c-7.33301 -18 -14.5 -43.833 -21.5 -77.5s-10.167 -64.167 -9.5 -91.5l1 -34v-14c0 -6 1.33301 -13 4 -21c7.33301 -43.333 30.666 -94.333 69.999 -153l72 -107c6 -11.333 22 -30.666 48 -57.999
l105 -109c44 -46 81 -104.333 111 -175c26 -61.333 39 -118.333 39 -171l31 79c21.333 55.333 43 106 65 152c16.667 35.333 43 77.333 79 126c49.333 66 78.666 106 87.999 120l30 46l20 31l33 42l41 60c22.667 33.333 39 72.666 49 117.999c4.66699 22 7 44.667 7 68z" />
    <glyph glyph-name="u0627" unicode="&#x627;" horiz-adv-x="1121" arabic-form="isolated" 
d="M610 678l-8 -49c-6 -35.333 -13 -60.333 -21 -75c-0.666992 -4 -3.66699 -9.33301 -9 -16l-23 -31l-33 -37l-37 -36l-45 774l152 119zM1008 949c0 -79.333 -21.001 -149.33 -63.001 -209.997l-290 -424l-64 -123c-23.333 -46 -40.333 -88.333 -51 -127
c-18 -68 -36 -149.667 -54 -245l-77 -414l-7 -4c-1.33301 -2 -5 -3 -11 -3l-9 2c-4.66699 1.33301 -8.66699 3.66602 -12 6.99902s-6.66602 11.333 -9.99902 24v21l31 137l54 275c20 99.333 30 180 30 242c0 44.667 -11.333 87 -34 127l-46 81
c-22.667 39.333 -49 74.666 -79 105.999c-82 84.667 -131.333 139 -148 163l-80 120l-33 56l-25 55c-15.333 47.333 -23 92 -23 134c0 74.667 11.333 137.667 34 189c25.333 56.667 63 110.167 113 160.5s103 87.166 159 110.499s120.667 35 194 35
c138 0 254.667 -47.667 350 -143c100.667 -100.667 151 -218 151 -352zM953.999 949.003c0 120.667 -43.666 224 -130.999 310c-47.333 46.667 -96.166 80.167 -146.499 100.5s-106.833 30.5 -169.5 30.5c-122.667 0 -227 -42.333 -313 -127
c-47.333 -46.667 -81.333 -95 -102 -145c-7.33301 -18 -14.5 -43.833 -21.5 -77.5s-10.167 -64.167 -9.5 -91.5l1 -34v-14c0 -6 1.33301 -13 4 -21c7.33301 -43.333 30.666 -94.333 69.999 -153l72 -107c6 -11.333 22 -30.666 48 -57.999l105 -109
c44 -46 81 -104.333 111 -175c26 -61.333 39 -118.333 39 -171l31 79c21.333 55.333 43 106 65 152c16.667 35.333 43 77.333 79 126c49.333 66 78.666 106 87.999 120l30 46l20 31l33 42l41 60c22.667 33.333 39 72.666 49 117.999c4.66699 22 7 44.667 7 68z" />
    <glyph glyph-name="u0628" unicode="&#x628;" horiz-adv-x="1102" arabic-form="isolated" 
d="M850 401l-504 -0.000976562c-59.333 0 -108 25 -146 75c-34.667 46 -52 99.333 -52 160c0 56.667 15.333 116.334 46 179.001c7.33301 14 15.333 25.667 24 35c2.66699 2.66699 9.33398 5.66699 20.001 9c12 0 18 -8 18 -24l-2 -15l-7 -24l-3 -21
c0 -17.333 6.16699 -34.333 18.5 -51s27.166 -25 44.499 -25h449c-1.33301 6.66699 -5 15 -11 25l-18 31c-2 3.33301 -8.33301 12.333 -19 27l-14 20l-15 18l125 106l18 -47l13 -45l8 -38l4 -36l3 -81v-278zM535 214.999l-68 61l67 76l68 -64zM1048 640.999v-31.999l-5 -27
l-3 -20l-8 -27c-11.333 -38.667 -27.333 -73.334 -48 -104.001l-289 -424l-64 -123c-24 -46 -41 -88.333 -51 -127c-18.667 -68 -36.667 -149.667 -54 -245l-77 -414l-7 -4c-2 -2 -5.66699 -3 -11 -3l-9 2c-4.66699 1.33301 -8.66699 3.66602 -12 6.99902
s-6.66602 11.333 -9.99902 24v21l30 137l55 275c20 99.333 30 180 30 242c0 44.667 -11.333 87 -34 127l-46 81c-22.667 40 -49.334 75.333 -80.001 106c-82 84.667 -131 139 -147 163l-80 120l-33 55l-26 56c-14.667 46.667 -22 91.334 -22 134.001
c0 74.667 11.333 138 34 190c24.667 56 62.167 109.167 112.5 159.5s103.333 87.333 159 111s120.167 35.5 193.5 35.5c138 0 255 -48 351 -144c100.667 -100.667 151 -218 151 -352zM994 641c0 120.667 -43.6699 224.003 -131.003 310.003
c-47.333 47.333 -96.166 81.166 -146.499 101.499s-107.166 30.5 -170.499 30.5c-122.667 0 -226.667 -42.667 -312 -128c-47.333 -46.667 -81.666 -95 -102.999 -145c-7.33301 -18 -14.333 -43.833 -21 -77.5s-9.66699 -64.167 -9 -91.5l1 -34v-13c0 -6.66699 1 -14 3 -22
c7.33301 -43.333 30.666 -94.333 69.999 -153l72 -107c6.66699 -11.333 22.667 -30.333 48 -57l105 -110c58.667 -60.667 103.334 -138.334 134.001 -233.001c11.333 -34.667 17 -72.334 17 -113.001l30 80c22 55.333 43.667 106 65 152c16 33.333 35.333 65.333 58 96
l110 149c16 29.333 43 69.333 81 120c66 86 99 167.667 99 245z" />
    <glyph glyph-name="u0629" unicode="&#x629;" horiz-adv-x="1058" arabic-form="isolated" 
d="M389 856l-10.999 3c-2 1.33301 -3 4.33301 -3 9v6l-1 101c0 5.33301 3.33301 10 10 14c11.333 4.66699 21 6.66699 29 6l12 -1h23c28.667 -1.33301 62 -13.333 100 -36c88.667 -52 133 -111.333 133 -178c0 -100.667 -8 -159 -24 -175
c-44.667 -60 -101.334 -90 -170.001 -90c-48 0 -88.667 16.333 -122 49s-50 72.667 -50 120c0 58 24.667 115.333 74 172zM463.001 841c-11.333 -12 -23 -27 -35 -45l-8 -19l-3 -17c0 -12.667 4 -23 12 -31l16 -7c5.33301 -2 12 -3 20 -3c15.333 0 32.666 4 51.999 12
c16 8 36.333 20.667 61 38c-21.333 36 -59.666 60 -114.999 72zM999.001 949c0 -79.333 -21 -149.33 -63 -209.997l-290 -424l-64 -123c-23.333 -46 -40.333 -88.333 -51 -127c-18 -68 -36 -149.667 -54 -245l-77 -414l-7 -4c-1.33301 -2 -5 -3 -11 -3l-9 2
c-4.66699 1.33301 -8.66699 3.66602 -12 6.99902s-6.66602 11.333 -9.99902 24v21l31 137l54 275c20 99.333 30 180 30 242c0 44.667 -11.333 87 -34 127l-46 81c-22.667 39.333 -49 74.666 -79 105.999c-82 84.667 -131.333 139 -148 163l-80 120l-33 56l-25 55
c-15.333 47.333 -23 92 -23 134c0 74.667 11.333 137.667 34 189c25.333 56.667 63 110.167 113 160.5s103 87.166 159 110.499s120.667 35 194 35c139.333 0 256.666 -48 351.999 -144c76 -76.667 122.667 -159.667 140 -249c6 -30.667 9 -64.667 9 -102zM945.001 949.003
c0 120.667 -43.666 224 -130.999 310c-47.333 46.667 -96.166 80.167 -146.499 100.5s-106.833 30.5 -169.5 30.5c-122.667 0 -227 -42.333 -313 -127c-47.333 -46.667 -81.333 -95 -102 -145c-7.33301 -18 -14.5 -43.833 -21.5 -77.5s-10.167 -64.167 -9.5 -91.5l1 -34v-14
c0 -6 1.33301 -13 4 -21c7.33301 -43.333 30.666 -94.333 69.999 -153l72 -107c6 -11.333 22 -30.666 48 -57.999l105 -109c44 -46 81 -104.333 111 -175c26 -61.333 39 -118.333 39 -171l31 79c21.333 55.333 43 106 65 152c16.667 35.333 43 77.333 79 126
c49.333 66 78.666 106 87.999 120l30 46l20 31l33 42l41 60c22.667 33.333 39 72.666 49 117.999c4.66699 22 7 44.667 7 68zM538.002 1147l-14 -44.998l-29 -15l-33 -20l-62 -37l7 30l12 12c3.33301 3.33301 8.66602 7.33301 15.999 12l-20 7
c-16.667 6 -25.667 10.333 -27 13c0 33.333 20 68.666 60 105.999c4 3.33301 9 6 15 8l17 2c18 0 27 -7 27 -21c0 -4.66699 -2.66699 -11.334 -8 -20.001l-12 -18l-11 8l-13 5l-5 -1l-6 -4l-9 -10l-9 -14l6 -6l11 -3l22 -3c16.667 0 27.667 1.66699 33 5
c10.667 1.33301 20.334 5.33301 29.001 12z" />
    <glyph glyph-name="u062A" unicode="&#x62a;" horiz-adv-x="1134" arabic-form="isolated" 
d="M511 1543l50 55l65 -57l-63 -67l-60 53l-50 -54l-64 55l59 69zM821 1057l-467 0.000976562c-56.667 0 -102.334 22.667 -137.001 68c-31.333 42 -47 92 -47 150v24c0 8.66699 0.666992 15 2 19l8 36c2 9.33301 6 23 12 41l19 43c11.333 23.333 25.333 37.333 42 42
c3.33301 0 7.33301 -2.33301 12 -7l4 -5l2 -9l-3 -15l-7 -21l-2 -21c-1.33301 -16 6 -32.667 22 -50l17 -14l20 -5h415c-4 17.333 -12.667 34.666 -26 51.999l-45 59l116 99l12 -33l16 -53c4.66699 -14.667 7.33398 -26 8.00098 -34l4 -33l3 -75v-258zM1039 1281
l0.000976562 -32l-4 -27l-3 -21l-8 -27c-11.333 -38 -27.333 -72.333 -48 -103l-289 -424l-64 -123c-24 -46 -41.333 -88.333 -52 -127c-18 -68 -36 -149.667 -54 -245l-76 -414l-7 -4c-2 -2 -5.66699 -3 -11 -3l-9 2c-4.66699 1.33301 -8.66699 3.66602 -12 6.99902
s-7 11.333 -11 24v21l31 137l55 275c20 99.333 30 180 30 242c0 44.667 -11.667 87 -35 127l-45 81c-22.667 40 -49.334 75.333 -80.001 106c-82 84.667 -131 139 -147 163l-80 120l-33 55l-26 56c-14.667 46.667 -22 91.334 -22 134.001c0 74.667 11.333 138 34 190
c24.667 56 62.167 109.167 112.5 159.5s103.333 87.333 159 111s120.167 35.5 193.5 35.5c138 0 255 -48 351 -144c100 -100.667 150 -218 150 -352zM985.001 1281c0 120.667 -43.334 223.999 -130.001 309.999c-47.333 46.667 -96.166 80.334 -146.499 101.001
s-107.166 31 -170.499 31c-122.667 0 -227 -42.667 -313 -128c-46.667 -46.667 -80.667 -95 -102 -145c-7.33301 -18 -14.333 -43.833 -21 -77.5s-9.66699 -64.167 -9 -91.5l1 -34v-14c0 -6 1 -13 3 -21c7.33301 -43.333 30.666 -94.333 69.999 -153l72 -107
c6 -11.333 22 -30.333 48 -57l105 -110c44 -46 81.333 -104.333 112 -175c26 -61.333 39 -118.333 39 -171l30 79c21.333 56 43 106.667 65 152c16 34 35.333 66.333 58 97l109 149c16.667 29.333 44 69.333 82 120c65.333 86 98 167.667 98 245z" />
    <glyph glyph-name="u062B" unicode="&#x62b;" horiz-adv-x="1093" arabic-form="isolated" 
d="M481 1083l-63 56l63 70l63 -59zM481 1061l49 56l66 -59l-63 -65l-61 53l-50 -54l-64 55l60 68zM790 575h-466.999c-56 0 -101.333 23 -136 69c-32 41.333 -48 91 -48 149c0 22 3.66699 48.667 11 80c5.33301 22 16.333 50.333 33 85c6.66699 14 13.5 24.333 20.5 31
s13.167 10 18.5 10c4 0 7.66699 -1.66699 11 -5l7 -18l-2 -14l-8 -21l-1 -20c-1.33301 -16 4.16699 -31.667 16.5 -47s26.166 -23 41.499 -23h416c-1.33301 7.33301 -4.33301 15 -9 23l-17 29l-7 10c-2 6 -6.33301 11.667 -13 17l-25 32l115 99l15 -41l14 -44l8 -36l3 -32
l3 -76v-257zM1015 819l-0.00195312 -32l-4 -27l-3 -20l-8 -27c-11.333 -38.667 -27.666 -73.334 -48.999 -104.001l-289 -424l-64 -123c-23.333 -46 -40.333 -88.333 -51 -127c-18 -68 -36 -149.667 -54 -245l-76 -414l-8 -4c-1.33301 -2 -4.66602 -3 -9.99902 -3l-9 2
c-4.66699 2 -8.66699 4.66699 -12 8s-7 11.333 -11 24v20l31 137l55 275c19.333 99.333 29 180 29 242c0 44.667 -11.333 87 -34 127l-46 81c-22 40 -48.333 75.667 -79 107c-82 84 -131.333 138 -148 162l-80 120l-32 55l-26 56c-15.333 46.667 -23 91.334 -23 134.001
c0 74.667 11.667 138 35 190c24.667 56 62.167 109.167 112.5 159.5s103.333 87.333 159 111s120.167 35.5 193.5 35.5c138 0 254.667 -48 350 -144c100.667 -100 151 -217.333 151 -352zM960.999 819c0 121.333 -43.3311 224.668 -129.998 310.001
c-47.333 47.333 -96.333 81.166 -147 101.499s-107.334 30.5 -170.001 30.5c-122.667 0 -227 -42.667 -313 -128c-46.667 -46.667 -80.667 -95 -102 -145c-7.33301 -17.333 -14.5 -43 -21.5 -77s-10.167 -64.667 -9.5 -92l1 -33v-14c0 -6 1.33301 -13 4 -21
c7.33301 -43.333 30.666 -94.333 69.999 -153l72 -108c6 -11.333 22 -30.333 48 -57l105 -110c44 -46 81 -104.333 111 -175c26 -60.667 39 -117.667 39 -171l31 80c21.333 55.333 43 106 65 152c16 33.333 35 65.333 57 96l110 149c16 29.333 43.333 69.333 82 120
c65.333 86 98 167.667 98 245z" />
    <glyph glyph-name="u062C" unicode="&#x62c;" horiz-adv-x="1037" arabic-form="isolated" 
d="M403 1149l-2.99707 -10v-7v-3c0 -21.333 10.667 -39.333 32 -54s47.666 -22 78.999 -22c53.333 0 102 20 146 60l22 20l4 3l4 2l1 -3v-4l-2 -21l-14 -107c-6 -47.333 -24 -86.666 -54 -117.999c-34.667 -37.333 -85.334 -56 -152.001 -56c-64.667 0 -115.667 24 -153 72
c-34.667 44.667 -52 100 -52 166c0 46.667 7.33301 86.667 22 120l10 25l8 17l10 17c8 12.667 21.667 28.334 41 47.001c32 32 71 55.333 117 70l-19 5l-24 5l-40 3c-21.333 1.33301 -43 -2.66699 -65 -12c-12.667 -5.33301 -22.334 -12.333 -29.001 -21l-5 -15l-4 -2
c-3.33301 3.33301 -5 6.66602 -5 9.99902c-2 10.667 -3 21.667 -3 33l1 19l6 18l8 24c1.33301 7.33301 2.66602 12 3.99902 14l8 12c14 21.333 28.333 36 43 44l19 7l20 4l11 1c14 1.33301 36.333 -2.33398 67 -11.001l43 -12l51 -11l51 -4l27 1c8 0 15.667 1.33301 23 4
l40 11l4 -4l-7 -235h-55l-76 -1c-6 0 -12.333 -1.33301 -19 -4c-39.333 -6.66699 -67 -15.667 -83 -27c-25.333 -14.667 -44.666 -38 -57.999 -70zM477.003 1155l61 42l37 -56l-62 -42zM1023 1216l-0.000976562 -32l-4 -27l-3 -20l-8 -27
c-11.333 -38.667 -27.666 -73.334 -48.999 -104.001l-289 -424l-63 -123c-24 -46 -41.333 -88.333 -52 -127c-18 -68 -36 -149.667 -54 -245l-76 -414l-7 -4c-2 -2 -5.66699 -3 -11 -3l-9 2c-4.66699 1.33301 -8.66699 3.83301 -12 7.5s-7 11.5 -11 23.5v21l31 137l55 275
c19.333 99.333 29 180 29 242c0 44.667 -11.333 87 -34 127l-46 81c-22 40 -48.333 75.333 -79 106c-82 84.667 -131 139 -147 163l-81 120l-32 55l-26 56c-15.333 46.667 -23 91.334 -23 134.001c0 74.667 11.667 138 35 190c24.667 56 62.167 109.167 112.5 159.5
s103.333 87.333 159 111s120.167 35.5 193.5 35.5c138 0 255 -48 351 -144c100 -100.667 150 -218 150 -352zM969.002 1216c0 121.333 -43.3311 224.668 -129.998 310.001c-47.333 47.333 -96.333 81.166 -147 101.499s-107.334 30.5 -170.001 30.5
c-122.667 0 -227 -42.667 -313 -128c-46.667 -46.667 -80.667 -95 -102 -145c-7.33301 -18 -14.5 -43.833 -21.5 -77.5s-10.167 -64.167 -9.5 -91.5l1 -33v-14c0 -6.66699 1.33301 -14 4 -22c7.33301 -43.333 30.666 -94.333 69.999 -153l72 -107
c6 -11.333 22 -30.333 48 -57l105 -110c44 -46 81 -104.333 111 -175c26 -60.667 39 -117.667 39 -171l31 80c21.333 55.333 43 106 65 152c16 33.333 35 65.333 57 96l110 149c16.667 29.333 44 69.333 82 120c65.333 86 98 167.667 98 245z" />
    <glyph glyph-name="u062D" unicode="&#x62d;" horiz-adv-x="1061" arabic-form="isolated" 
d="M411 544l-1.99707 -9.99805l-1 -8v-3c0 -20.667 10.667 -38.5 32 -53.5s47.666 -22.5 78.999 -22.5c53.333 0 102 20.333 146 61l22 19l4 3l4 2l1 -3l1 -3l-3 -22l-14 -106c-6 -47.333 -24 -87 -54 -119c-34.667 -37.333 -85.334 -56 -152.001 -56
c-64.667 0 -115.667 24.333 -153 73c-34.667 44 -52 99.333 -52 166c0 46 7.33301 85.667 22 119l10 26l9 17l9 16c8 12.667 21.667 28.667 41 48c32 31.333 71 54.666 117 69.999l-19 4l-24 6l-40 2c-21.333 2 -43 -1.66699 -65 -11c-12.667 -6 -22 -13.333 -28 -22l-6 -14
l-3 -3c-4 3.33301 -6 6.66602 -6 9.99902c-2 10.667 -3 21.667 -3 33l1 19l6 18l8 24c1.33301 8 2.66602 12.667 3.99902 14l8 12c14 22 28.333 37 43 45l20 7l19 3l11 1c14 1.33301 36.333 -2.33398 67 -11.001l43 -11l51 -12l51 -4l28 1
c7.33301 0.666992 14.666 2 21.999 4l41 12l3 -5l-7 -235h-55l-76 -1c-6 0 -12.333 -1 -19 -3c-39.333 -7.33301 -67 -16.666 -83 -27.999c-25.333 -14.667 -44.666 -37.667 -57.999 -69zM999.003 643.002c0 -79.333 -21 -149.33 -63 -209.997l-290 -424l-64 -123
c-23.333 -46 -40.333 -88.333 -51 -127c-18 -68 -36 -149.667 -54 -245l-77 -414l-7 -4c-1.33301 -2 -5 -3 -11 -3l-9 2c-4.66699 1.33301 -8.66699 3.66602 -12 6.99902s-6.66602 11.333 -9.99902 24v21l31 137l54 275c20 99.333 30 180 30 242
c0 44.667 -11.333 87 -34 127l-46 81c-22.667 39.333 -49 74.666 -79 105.999c-82 84.667 -131.333 139 -148 163l-80 120l-33 56l-25 55c-15.333 47.333 -23 92 -23 134c0 74.667 11.333 137.667 34 189c25.333 56.667 63 110.167 113 160.5s103 87.166 159 110.499
s120.667 35 194 35c139.333 0 256.666 -48 351.999 -144c76 -76.667 122.667 -159.667 140 -249c6 -30.667 9 -64.667 9 -102zM945.003 643.005c0 120.667 -43.666 224.001 -130.999 310.001c-47.333 46.667 -96.166 80.167 -146.499 100.5s-106.833 30.5 -169.5 30.5
c-122.667 0 -227 -42.333 -313 -127c-47.333 -46.667 -81.333 -95 -102 -145c-7.33301 -18 -14.5 -43.833 -21.5 -77.5s-10.167 -64.167 -9.5 -91.5l1 -34v-14c0 -6 1.33301 -13 4 -21c7.33301 -43.333 30.666 -94.333 69.999 -153l72 -107c6 -11.333 22 -30.666 48 -57.999
l105 -109c58 -60.667 102.333 -138.334 133 -233.001c11.333 -35.333 17 -73 17 -113l31 79c21.333 55.333 43 106 65 152c16.667 35.333 43 77.333 79 126c49.333 66 78.666 106 87.999 120l30 46l20 31l33 42l41 60c22.667 33.333 39 72.666 49 117.999
c4.66699 22 7 44.667 7 68z" />
    <glyph glyph-name="u062E" unicode="&#x62e;" horiz-adv-x="1069" arabic-form="isolated" 
d="M504 1369l76 -71l-69 -77l-78 70zM444 769l-2.99805 -9.99805l-1 -8v-3c0 -20.667 10.667 -38.5 32 -53.5s48 -22.5 80 -22.5c53.333 0 101.666 20.333 144.999 61l22 19l5 3l3 2l1 -3l1 -3l-3 -22l-13 -106c-6 -47.333 -24 -87 -54 -119
c-35.333 -37.333 -86 -56 -152 -56c-64.667 0 -116 24.333 -154 73c-34.667 44 -52 99.333 -52 166c0 46 7.33301 85.667 22 119l11 26l8 17l10 16c8 12.667 21.333 28.667 40 48c32 31.333 71 54.666 117 69.999l-19 4l-24 6l-39 2c-21.333 2 -43 -1.66699 -65 -11
c-13.333 -6 -23 -13.333 -29 -22l-5 -14l-4 -3c-3.33301 3.33301 -5 6.66602 -5 9.99902c-2.66699 10.667 -3.66699 21.667 -3 33l1 19l5 18l8 24c2 8 3.66699 12.667 5 14l8 12c14 22 28 37 42 45l20 7l20 3l11 1c13.333 1.33301 35.333 -2.33398 66 -11.001l43 -11l52 -12
l50 -4l28 1c7.33301 0.666992 14.666 2 21.999 4l41 12l4 -5l-8 -235h-55l-75 -1c-6 0 -12.667 -1 -20 -3c-39.333 -7.33301 -67 -16.666 -83 -27.999c-25.333 -14.667 -44.333 -37.667 -57 -69zM999.002 949.002c0 -79.333 -21 -149.33 -63 -209.997l-290 -424l-64 -123
c-23.333 -46 -40.333 -88.333 -51 -127c-18 -68 -36 -149.667 -54 -245l-77 -414l-7 -4c-1.33301 -2 -5 -3 -11 -3l-9 2c-4.66699 1.33301 -8.66699 3.66602 -12 6.99902s-6.66602 11.333 -9.99902 24v21l31 137l54 275c20 99.333 30 180 30 242
c0 44.667 -11.333 87 -34 127l-46 81c-22.667 39.333 -49 74.666 -79 105.999c-82 84.667 -131.333 139 -148 163l-80 120l-33 56l-25 55c-15.333 47.333 -23 92 -23 134c0 74.667 11.333 137.667 34 189c25.333 56.667 63 110.167 113 160.5s103 87.166 159 110.499
s120.667 35 194 35c139.333 0 256.666 -48 351.999 -144c76 -76.667 122.667 -159.667 140 -249c6 -30.667 9 -64.667 9 -102zM945.002 949.005c0 120.667 -43.666 224 -130.999 310c-47.333 46.667 -96.166 80.167 -146.499 100.5s-106.833 30.5 -169.5 30.5
c-122.667 0 -227 -42.333 -313 -127c-47.333 -46.667 -81.333 -95 -102 -145c-7.33301 -18 -14.5 -43.833 -21.5 -77.5s-10.167 -64.167 -9.5 -91.5l1 -34v-14c0 -6 1.33301 -13 4 -21c7.33301 -43.333 30.666 -94.333 69.999 -153l72 -107c6 -11.333 22 -30.666 48 -57.999
l105 -109c44 -46 81 -104.333 111 -175c26 -61.333 39 -118.333 39 -171l31 79c21.333 55.333 43 106 65 152c16.667 35.333 43 77.333 79 126c49.333 66 78.666 106 87.999 120l30 46l20 31l33 42l41 60c22.667 33.333 39 72.666 49 117.999c4.66699 22 7 44.667 7 68z" />
    <glyph glyph-name="u062F" unicode="&#x62f;" horiz-adv-x="1077" arabic-form="isolated" 
d="M660 1035c-7.33301 -7.33301 -22.667 -13.666 -46 -18.999l-37 -4l-48 -2l-136 2c-28 0 -46.667 17 -56 51l-4 61l-2 71l-1 78c0 6 0.666992 10 2 12l8 5l14 -4l10 -4l48 -11l50 -3c16 -0.666992 38 1 66 5l23 4l21 6c-4 21.333 -12.333 45.333 -25 72
c-15.333 34.667 -29.666 54 -42.999 58l-3 -2l-14 -12l-14 -4c-6.66699 0 -10.334 4.66699 -11.001 14l2 13l21 52l8 17l10 16l11 16c6.66699 9.33301 17.334 16 32.001 20c4.66699 0 14 -5.33301 28 -16c20 -20.667 43 -61 69 -121l19 -61l8 -31l5 -31l3 -150
c0 -21.333 -1.33301 -40.333 -4 -57s-7.33398 -30.334 -14.001 -41.001zM1031 1281v-32l-4 -27l-3 -21l-8 -27c-11.333 -38 -27.666 -72.333 -48.999 -103l-288 -424l-64 -123c-24 -46 -41.333 -88.333 -52 -127c-18 -68 -36 -149.667 -54 -245l-76 -414l-7 -4
c-2 -2 -5.66699 -3 -11 -3l-9 2c-4.66699 1.33301 -8.66699 3.66602 -12 6.99902s-7 11.333 -11 24v21l31 137l55 275c20 99.333 30 180 30 242c0 44.667 -11.667 87 -35 127l-46 81c-22 40 -48.333 75.333 -79 106c-82 84.667 -131 139 -147 163l-80 120l-33 55l-26 56
c-14.667 46.667 -22 91.334 -22 134.001c0 74.667 11.333 138 34 190c24.667 56 62.167 109.167 112.5 159.5s103.333 87.333 159 111s120.167 35.5 193.5 35.5c140 0 257.667 -48.333 353 -145c75.333 -76.667 121.666 -159.667 138.999 -249c6 -30.667 9 -64.667 9 -102z
M976.999 1281c0 120.667 -43.334 223.999 -130.001 309.999c-47.333 46.667 -96.166 80.334 -146.499 101.001s-107.166 31 -170.499 31c-122.667 0 -227 -42.667 -313 -128c-46.667 -46.667 -80.667 -95 -102 -145c-7.33301 -18 -14.5 -43.833 -21.5 -77.5
s-9.83301 -64.167 -8.5 -91.5v-34v-14c0 -6 1.33301 -13 4 -21c7.33301 -43.333 30.666 -94.333 69.999 -153l72 -107c6 -11.333 22 -30.333 48 -57l105 -110c44 -46 81 -104.333 111 -175c26.667 -61.333 40 -118.333 40 -171l30 79c21.333 56 43 106.667 65 152
c16 34 35.333 66.333 58 97l109 149c16.667 29.333 44 69.333 82 120c65.333 86 98 167.667 98 245z" />
    <glyph glyph-name="u0630" unicode="&#x630;" horiz-adv-x="1053" arabic-form="isolated" 
d="M439 1276l77 -71l-70 -76l-79 70zM652 622c-7.33301 -7.33301 -22.668 -13.666 -46.001 -18.999l-37 -5l-48 -1l-136 1c-28.667 0.666992 -47.667 18 -57 52l-3 61l-2 71l-1 78c0 6 0.666992 10 2 12l8 5l14 -4l10 -5l48 -10l50 -3c16 -0.666992 38 1 66 5l23 4l21 6
c-4 21.333 -12.333 45.333 -25 72c-15.333 34.667 -29.666 54 -42.999 58l-3 -2l-14 -13l-14 -3c-7.33301 0 -11 4.66699 -11 14l2 13l21 52l8 17l10 16l11 16c6.66699 9.33301 17.334 16 32.001 20c4.66699 0 14 -5.33301 28 -16c19.333 -20.667 42.333 -61 69 -121l19 -61
l7 -31l6 -31l3 -150c0 -21.333 -1.33301 -40.333 -4 -57s-7.33398 -30.334 -14.001 -41.001zM998.998 949c0 -79.333 -21 -149.33 -63 -209.997l-290 -424l-64 -123c-23.333 -46 -40.333 -88.333 -51 -127c-18 -68 -36 -149.667 -54 -245l-77 -414l-7 -4
c-1.33301 -2 -5 -3 -11 -3l-9 2c-4.66699 1.33301 -8.66699 3.66602 -12 6.99902s-6.66602 11.333 -9.99902 24v21l31 137l54 275c20 99.333 30 180 30 242c0 44.667 -11.333 87 -34 127l-46 81c-22.667 39.333 -49 74.666 -79 105.999c-82 84.667 -131.333 139 -148 163
l-80 120l-33 56l-25 55c-15.333 47.333 -23 92 -23 134c0 74.667 11.333 137.667 34 189c25.333 56.667 63 110.167 113 160.5s103 87.166 159 110.499s120.667 35 194 35c139.333 0 256.666 -48 351.999 -144c76 -76.667 122.667 -159.667 140 -249
c6 -30.667 9 -64.667 9 -102zM944.998 949.003c0 120.667 -43.666 224 -130.999 310c-47.333 46.667 -96.166 80.167 -146.499 100.5s-106.833 30.5 -169.5 30.5c-122.667 0 -227 -42.333 -313 -127c-47.333 -46.667 -81.333 -95 -102 -145
c-7.33301 -18 -14.5 -43.833 -21.5 -77.5s-10.167 -64.167 -9.5 -91.5l1 -34v-14c0 -6 1.33301 -13 4 -21c7.33301 -43.333 30.666 -94.333 69.999 -153l72 -107c6 -11.333 22 -30.666 48 -57.999l105 -109c44 -46 81 -104.333 111 -175c26 -61.333 39 -118.333 39 -171
l31 79c21.333 55.333 43 106 65 152c16.667 35.333 43 77.333 79 126c49.333 66 78.666 106 87.999 120l30 46l20 31l33 42l41 60c22.667 33.333 39 72.666 49 117.999c4.66699 22 7 44.667 7 68z" />
    <glyph glyph-name="u0631" unicode="&#x631;" horiz-adv-x="1069" arabic-form="isolated" 
d="M330 532l-1.99902 7.00098l3 6l6 1l7 2h5l8 -1h14c70 0 139.667 34.667 209 104c20.667 20.667 38 42 52 64l-30 56c-11.333 17.333 -24 32.666 -38 45.999l-48 47l37 50l59 86c36.667 -40.667 64.667 -102.667 84 -186l9 -40l6 -40v-13l1 -15
c3.33301 -53.333 -13.334 -110.666 -50.001 -171.999c-33.333 -56 -74 -90.333 -122 -103l-6 -1c-22 0 -55.667 11 -101 33c-15.333 8 -29.333 15.667 -42 23c-26.667 15.333 -47 30.666 -61 45.999zM1056 738.001l-0.000976562 -32l-5 -27l-3 -20l-8 -27
c-11.333 -38.667 -27.333 -73.334 -48 -104.001l-289 -424l-64 -123c-24 -46 -41 -88.333 -51 -127c-18.667 -68 -36.667 -149.667 -54 -245l-77 -414l-7 -4c-2 -2 -5.66699 -3 -11 -3l-9 2c-4.66699 2 -8.66699 4.66699 -12 8s-6.66602 11.333 -9.99902 24v20l30 137
l55 275c20 99.333 30 180.333 30 243c0 44 -11.333 86 -34 126l-46 81c-22.667 40 -49 75.667 -79 107c-82.667 84 -132 138 -148 162l-80 120l-33 55l-26 56c-14.667 46.667 -22 91.334 -22 134.001c0 74.667 11.333 138 34 190c24.667 56 62.167 109.167 112.5 159.5
s103.5 87.333 159.5 111s120.333 35.5 193 35.5c138 0 255 -48 351 -144c100.667 -100 151 -217.333 151 -352zM1002 738.001c0 121.333 -43.6699 224.669 -131.003 310.002c-47.333 47.333 -96.166 81.166 -146.499 101.499s-107.166 30.5 -170.499 30.5
c-122.667 0 -226.667 -42.667 -312 -128c-47.333 -46.667 -81.666 -95 -102.999 -145c-7.33301 -17.333 -14.333 -43 -21 -77s-9.66699 -64.667 -9 -92l1 -33v-14c0 -6 1 -13 3 -21c7.33301 -43.333 31 -94.333 71 -153l72 -108c6 -11.333 21.667 -30.333 47 -57l106 -110
c44 -46 81 -104.333 111 -175c26 -60.667 39 -117.334 39 -170.001l30 79c22 55.333 43.667 106 65 152c16 33.333 35.333 65.333 58 96l110 149c16 29.333 43.333 69.333 82 120c65.333 86 98 167.667 98 245z" />
    <glyph glyph-name="u0632" unicode="&#x632;" horiz-adv-x="1069" arabic-form="isolated" 
d="M595 1653l76 -70l-71 -76l-77 68zM371 904l-3 8l4 6l5 1l7 2h6l8 -1h13c70.667 0 140.334 34.333 209.001 103c21.333 21.333 38.666 43 51.999 65l-29 56c-11.333 16.667 -24 32 -38 46l-49 47l37 50l59 85c37.333 -40 65.333 -102 84 -186l9 -39l6 -40v-14l1 -14
c3.33301 -54 -13.334 -111.667 -50.001 -173c-33.333 -55.333 -74 -89.333 -122 -102l-6 -1c-21.333 0 -54.666 11 -99.999 33c-16 8 -30.333 15.667 -43 23c-26.667 14.667 -46.667 29.667 -60 45zM1064 1273l-0.000976562 -31.9971l-5 -27l-2 -21l-9 -27
c-11.333 -38 -27.333 -72.333 -48 -103l-289 -424l-64 -123c-24 -46 -41 -88.333 -51 -127c-18.667 -68 -36.667 -149.667 -54 -245l-77 -414l-7 -4c-2 -2 -5.66699 -3 -11 -3l-9 2c-4.66699 1.33301 -8.66699 3.66602 -12 6.99902s-6.66602 11.333 -9.99902 24v21l30 137
l55 275c20 99.333 30 180 30 242c0 44.667 -11.333 87 -34 127l-46 81c-22.667 39.333 -49 74.666 -79 105.999c-82.667 84.667 -132 139 -148 163l-80 120l-32 55l-27 55c-14.667 47.333 -22 92.333 -22 135c0 74.667 11.333 137.667 34 189
c24.667 56.667 62.167 110.167 112.5 160.5s103.5 87.166 159.5 110.499s120.333 35 193 35c140 0 257.667 -48 353 -144c76 -76.667 122.667 -159.667 140 -249c6 -30.667 9 -64.667 9 -102zM1010 1273c0 120.667 -43.668 223.999 -131.001 309.999
c-47.333 46.667 -96.166 80.167 -146.499 100.5s-107.166 30.5 -170.499 30.5c-122.667 0 -226.667 -42.333 -312 -127c-47.333 -46.667 -81.333 -95 -102 -145c-8 -18 -15.333 -43.833 -22 -77.5s-9.66699 -64.167 -9 -91.5l1 -34v-14c0 -6 1 -13 3 -21
c8 -43.333 31.667 -94.333 71 -153l72 -107c6 -11.333 21.667 -30.666 47 -57.999l106 -109c44 -46 81 -104.333 111 -175c26 -61.333 39 -118.333 39 -171l31 79c21.333 56 42.666 106.667 63.999 152c16 34 35.333 66.333 58 97l110 149c16 29.333 43.333 69.333 82 120
c65.333 86 98 167.667 98 245z" />
    <glyph glyph-name="u0633" unicode="&#x633;" horiz-adv-x="1069" arabic-form="isolated" 
d="M301 752c-8 -24 -11.9961 -45.002 -11.9961 -63.002c0 -35.333 11.167 -63.166 33.5 -83.499s50.166 -30.5 83.499 -30.5c54.667 0 103.667 25.667 147 77l-8 20l-7 14c-5.33301 14 -11 25 -17 33c-12 23.333 -26.667 43.666 -44 60.999l118 104l12 -34l5 -20l10 -25
l3 -23l3 -21l20 -1c26.667 0 50.667 23 72 69l3 3l2 1l7 -7c14 -50 49 -75 105 -75l-5 21c-2 7.33301 -4.66699 13 -8 17c-6 16 -16 30.667 -30 44l91 87l17 -52l11 -50l4 -53v-249h-108c-14.667 0 -27.334 3.33301 -38.001 10l-26 22l-14 -13l-16 -10
c-11.333 -6.66699 -23.333 -10 -36 -10l-23 2c-6.66699 2 -13.334 6 -20.001 12c-12.667 -56 -40 -100.667 -82 -134c-36.667 -29.333 -81 -44 -133 -44c-80 0 -138.333 33 -175 99c-4 6.66699 -11.667 26 -23 58l-5 32l-2 35v19l1 13l3 27l6 30l3 16l7 20
c6.66699 22 16.667 42.333 30 61c9.33301 12.667 18.666 19.334 27.999 20.001l7 -3l4 -10c0 -5.33301 -1.33301 -10.666 -4 -15.999zM1072 656.998l-0.000976562 -32l-5 -27l-2 -20l-8 -27c-12 -38.667 -28.333 -73.334 -49 -104.001l-289 -424l-64 -123
c-24 -46 -41 -88.333 -51 -127c-18 -68 -36 -149.667 -54 -245l-77 -414l-7 -4c-2 -2 -5.66699 -3 -11 -3l-9 2c-4.66699 2 -8.66699 4.66699 -12 8s-6.66602 11.333 -9.99902 24v20l30 137l55 275c20 99.333 30 180.333 30 243c0 44 -11.333 86 -34 126l-46 81
c-22.667 40 -49 75.667 -79 107c-82.667 84 -132 138 -148 162l-80 120l-32 55l-26 56c-15.333 46.667 -23 91.334 -23 134.001c0 74.667 11.333 138 34 190c24.667 56 62.167 109.167 112.5 159.5s103.5 87.333 159.5 111s120.667 35.5 194 35.5
c138 0 254.667 -48 350 -144c100.667 -100 151 -217.333 151 -352zM1018 656.998c0 121.333 -43.667 224.669 -131 310.002c-47.333 47.333 -96.166 81.166 -146.499 101.499s-106.833 30.5 -169.5 30.5c-123.333 0 -227.666 -42.667 -312.999 -128
c-47.333 -46.667 -81.333 -95 -102 -145c-8 -17.333 -15.333 -43 -22 -77s-9.66699 -64.667 -9 -92l1 -33v-14c0 -6 1.33301 -13 4 -21c7.33301 -43.333 30.666 -94.333 69.999 -153l72 -108c6 -11.333 21.667 -30.333 47 -57l106 -110
c58 -60.667 102.333 -138.334 133 -233.001c11.333 -34.667 17 -72 17 -112l31 79c21.333 55.333 42.666 106 63.999 152c16 33.333 35.333 65.333 58 96l110 149c16 29.333 43.333 69.333 82 120c65.333 86 98 167.667 98 245z" />
    <glyph glyph-name="u0634" unicode="&#x634;" horiz-adv-x="1110" arabic-form="isolated" 
d="M652 1251l-57 51l55 61l56 -51zM654 1223l45 52l58 -53l-54 -60l-56 48l-45 -48l-57 50l53 62zM232 975l-9.99805 -33.9971l-2 -30c-1.33301 -30.667 10 -58.334 34 -83.001c7.33301 -6.66699 19.333 -14.334 36 -23.001c14 -5.33301 29.333 -8 46 -8
c51.333 0 100.333 25.667 147 77l-14 36l-27 48l-11 16l-10 14l-13 14l118 103l13 -38l11 -37c5.33301 -18 8 -33.333 8 -46l21 -2c25.333 -2 49 20.667 71 68l2 3l4 3l6 -8c5.33301 -22 17.666 -40 36.999 -54c5.33301 -3.33301 15.333 -8 30 -14l18 -4l21 -2
c-2 9.33301 -6.16699 22.333 -12.5 39s-16.5 31 -30.5 43l89 86l10 -29l8 -24c2.66699 -10.667 6 -27 10 -49l4 -54v-248h-107c-15.333 0 -28 3.33301 -38 10l-13 9l-12 13l-15 -13l-16 -10c-10.667 -6.66699 -23.334 -10 -38.001 -10c-7.33301 0 -14.333 1.33301 -21 4
c-6.66699 0 -13.334 3.33301 -20.001 10c-10 -52 -35 -94.833 -75 -128.5s-86.333 -50.5 -139 -50.5c-80 0 -138.667 33.333 -176 100c-19.333 36 -29 77.667 -29 125v24c0 10 0.333008 16.667 1 20l9 49l8 27c8 27.333 18 49.666 30 66.999
c10.667 12.667 20.334 19 29.001 19c8 0 12 -5.33301 12 -16zM999.002 949.003c0 -79.333 -21 -149.33 -63 -209.997l-290 -424l-64 -123c-23.333 -46 -40.333 -88.333 -51 -127c-18 -68 -36 -149.667 -54 -245l-77 -414l-7 -4c-1.33301 -2 -5 -3 -11 -3l-9 2
c-4.66699 1.33301 -8.66699 3.66602 -12 6.99902s-6.66602 11.333 -9.99902 24v21l31 137l54 275c20 99.333 30 180 30 242c0 44.667 -11.333 87 -34 127l-46 81c-22.667 39.333 -49 74.666 -79 105.999c-82 84.667 -131.333 139 -148 163l-80 120l-33 56l-25 55
c-15.333 47.333 -23 92 -23 134c0 74.667 11.333 137.667 34 189c25.333 56.667 63 110.167 113 160.5s103 87.166 159 110.499s120.667 35 194 35c139.333 0 256.666 -48 351.999 -144c76 -76.667 122.667 -159.667 140 -249c6 -30.667 9 -64.667 9 -102zM945.002 949.006
c0 120.667 -43.666 224 -130.999 310c-47.333 46.667 -96.166 80.167 -146.499 100.5s-106.833 30.5 -169.5 30.5c-122.667 0 -227 -42.333 -313 -127c-47.333 -46.667 -81.333 -95 -102 -145c-7.33301 -18 -14.5 -43.833 -21.5 -77.5s-10.167 -64.167 -9.5 -91.5l1 -34v-14
c0 -6 1.33301 -13 4 -21c7.33301 -43.333 30.666 -94.333 69.999 -153l72 -107c6 -11.333 22 -30.666 48 -57.999l105 -109c44 -46 81 -104.333 111 -175c26 -61.333 39 -118.333 39 -171l31 79c21.333 55.333 43 106 65 152c16.667 35.333 43 77.333 79 126
c49.333 66 78.666 106 87.999 120l30 46l20 31l33 42l41 60c22.667 33.333 39 72.666 49 117.999c4.66699 22 7 44.667 7 68z" />
    <glyph glyph-name="u0635" unicode="&#x635;" horiz-adv-x="1150" arabic-form="isolated" 
d="M526 1202c-10 -48 -32.834 -87.167 -68.501 -117.5s-77.834 -45.5 -126.501 -45.5c-69.333 0 -120.666 30 -153.999 90c-19.333 33.333 -28.333 69.333 -27 108l1 25v11l4 16l3 25l9 32c14 49.333 31.667 74 53 74c2.66699 0 5.66699 -4 9 -12v-6l-2 -7
c-8 -31.333 -12 -50 -12 -56c0 -30 10 -54.667 30 -74s45.667 -29 77 -29h15l22 4c6.66699 0.666992 15.334 4.33398 26.001 11.001c16.667 8 38 24.333 64 49c-6.66699 33.333 -14.334 55.666 -23.001 66.999c-8.66699 16.667 -23 34 -43 52l103 95
c4.66699 -6 10 -15.667 16 -29l9 -33l6 -33l56 48l57 41c20.667 15.333 49.667 30 87 44c30.667 12 57.334 18 80.001 18c76 0 114 -41 114 -123v-10l-2 -11l-9 -65l-11 -67l-6 -33c-2.66699 -14 -5.66699 -24 -9 -30c-10 -32 -30.333 -48 -61 -48h-235l-16 2l-18 5
c-6 2 -12 6 -18 12zM607.999 1403h196l1 8c0 41.333 -21.667 62 -65 62c-20.667 0 -41 -5.66699 -61 -17l-17 -9l-18 -12zM1056 1289l-0.000976562 -31.999l-5 -27l-3 -20l-8 -27c-11.333 -38.667 -27.333 -73.334 -48 -104.001l-289 -424l-64 -123
c-24 -46 -41 -88.333 -51 -127c-18.667 -68 -36.667 -149.667 -54 -245l-77 -414l-7 -4c-2 -2 -5.66699 -3 -11 -3l-9 2c-4.66699 1.33301 -8.66699 3.66602 -12 6.99902s-6.66602 11.333 -9.99902 24v21l30 137l55 275c20 99.333 30 180 30 242
c0 44.667 -11.333 87 -34 127l-46 81c-22.667 40 -49 75.333 -79 106c-82.667 84.667 -132 139 -148 163l-80 120l-33 55l-26 56c-14.667 46.667 -22 91.334 -22 134.001c0 74.667 11.333 138 34 190c24.667 56 62.167 109.167 112.5 159.5s103.5 87.333 159.5 111
s120.333 35.5 193 35.5c138 0 255 -48 351 -144c100.667 -100.667 151 -218 151 -352zM1002 1289c0 120.667 -43.6699 223.999 -131.003 309.999c-47.333 46.667 -96.166 80.334 -146.499 101.001s-107.166 31 -170.499 31c-122.667 0 -226.667 -42.667 -312 -128
c-47.333 -46.667 -81.666 -95 -102.999 -145c-7.33301 -18 -14.333 -43.833 -21 -77.5s-9.66699 -64.167 -9 -91.5l1 -34v-13c0 -6.66699 1 -14 3 -22c7.33301 -43.333 31 -94.333 71 -153l72 -107c6 -11.333 21.667 -30.333 47 -57l106 -110c44 -46 81 -104.333 111 -175
c26 -61.333 39 -118.333 39 -171l30 79c22 56 43.667 107 65 153c16 33.333 35.333 65.333 58 96l110 149c16 29.333 43.333 69.333 82 120c65.333 86 98 167.667 98 245z" />
    <glyph glyph-name="u0636" unicode="&#x636;" horiz-adv-x="1150" arabic-form="isolated" 
d="M510 668c-10 -48 -32.6689 -87.166 -68.002 -117.499s-77.333 -45.5 -126 -45.5c-69.333 0 -120.666 29.667 -153.999 89c-19.333 34 -28.333 70.333 -27 109l1 24v11l3 16l4 25l9 33c14 49.333 31.333 74 52 74c3.33301 0 6.66602 -4.33301 9.99902 -13l-1 -5l-2 -8
c-7.33301 -30.667 -11 -49 -11 -55c0 -30 10 -54.833 30 -74.5s45.667 -29.5 77 -29.5h14l23 5c6.66699 0 15.334 3.33301 26.001 10c16.667 8 38 24.333 64 49c-6.66699 33.333 -14.667 55.666 -24 66.999c-8 17.333 -22 35 -42 53l103 94c4.66699 -6 10 -15.667 16 -29
l9 -33l5 -32l57 47l57 42c20 14.667 49 29 87 43c30.667 12 57.334 18 80.001 18c75.333 0 113 -40.667 113 -122v-10l-1 -12l-9 -65l-11 -66l-6 -34c-2.66699 -13.333 -5.66699 -23 -9 -29c-10 -32.667 -30.667 -49 -62 -49h-235l-15 3l-18 4c-6 2.66699 -12.333 7 -19 13z
M592.998 868.001h195l1 9c0 41.333 -21.667 62 -65 62c-20 0 -40.333 -5.66699 -61 -17l-16 -9l-18 -12zM1040 754.001l-0.000976562 -30.998l-4 -27l-3 -21l-8 -27c-11.333 -38.667 -27.666 -73.334 -48.999 -104.001l-288 -423l-64 -124c-24 -46 -41.333 -88.333 -52 -127
c-18 -67.333 -36 -148.666 -54 -243.999l-76 -414l-7 -5c-2 -2 -5.66699 -3 -11 -3l-9 2c-4.66699 2 -8.66699 4.66699 -12 8s-7 11.333 -11 24v20l31 137l55 276c20 99.333 30 180 30 242c0 44 -11.667 86.333 -35 127l-46 81c-22 39.333 -48.333 74.666 -79 105.999
c-82 84 -131 138.333 -147 163l-80 119l-33 55l-26 56c-14.667 46.667 -22 91.334 -22 134.001c0 75.333 11.333 138.666 34 189.999c24.667 56 62.167 109.167 112.5 159.5s103.333 87.333 159 111s120.167 35.5 193.5 35.5c138 0 255 -47.667 351 -143
c100 -100.667 150 -218.334 150 -353.001zM985.997 754.003c0 121.333 -43.334 225 -130.001 311c-47.333 46.667 -96.166 80.167 -146.499 100.5s-107.166 30.5 -170.499 30.5c-122.667 0 -227 -42.667 -313 -128c-46.667 -46.667 -80.667 -95 -102 -145
c-7.33301 -17.333 -14.5 -43 -21.5 -77s-9.83301 -64.667 -8.5 -92v-33v-14c0 -6 1.33301 -13 4 -21c7.33301 -43.333 30.666 -94.333 69.999 -153l72 -107c6 -12 22 -31.333 48 -58l105 -110c44 -46 81 -104 111 -174c26.667 -61.333 40 -118.333 40 -171l30 79
c21.333 55.333 43 106 65 152c16 34 35.333 66 58 96l109 150c16.667 29.333 44 69 82 119c65.333 86 98 167.667 98 245zM564.996 1171l77 -71l-70 -77l-78 70z" />
    <glyph glyph-name="u0637" unicode="&#x637;" horiz-adv-x="1134" arabic-form="isolated" 
d="M310 490l-23.001 117.997c-7.33301 36.667 -11 75 -11 115c0 5.33301 2 8 6 8l28 -16l20 -7l6 1l4 3l26 26l28 23l-47 298l111 74l3 -34l11 -36c4.66699 -17.333 15.334 -38.666 32.001 -63.999l-27 -41l7 -45l3 -40l-3 -32c-0.666992 -12.667 -4 -21.667 -10 -27l65 38
c51.333 30.667 103.333 51.334 156 62.001l15 1h5c35.333 0 65.333 -12.667 90 -38c20.667 -21.333 34.334 -46 41.001 -74l7 -31l3 -21v-43l-2 -12l-5 -46l-17 -102l-22 -98l-10 -10l-15 -4h-398c-23.333 0 -40.333 3.33301 -51 10
c-12.667 8.66699 -21.334 23.334 -26.001 44.001zM470.999 711.997h251.999c-7.33301 58 -35 87 -83 87c-45.333 0 -101.666 -29 -168.999 -87zM1064 736.997l-0.000976562 -31.001l-5 -27l-2 -21l-9 -27c-11.333 -38.667 -27.333 -73.334 -48 -104.001l-289 -424l-64 -123
c-24 -46 -41 -88.333 -51 -127c-18.667 -67.333 -36.667 -148.666 -54 -243.999l-77 -414l-7 -5c-2 -2 -5.66699 -3 -11 -3l-9 2c-4.66699 2 -8.66699 4.66699 -12 8s-6.66602 11.333 -9.99902 24v20l30 137l55 276c20 98.667 30 179.334 30 242.001
c0 44 -11.333 86 -34 126l-46 81c-22.667 40 -49 75.667 -79 107c-82.667 84 -132 138.333 -148 163l-80 119l-32 55l-27 56c-14.667 46.667 -22 91.334 -22 134.001c0 75.333 11.333 138.666 34 189.999c24.667 56 62.167 109.167 112.5 159.5s103.5 87.333 159.5 111
s120.333 35.5 193 35.5c140 0 257.667 -48.333 353 -145c76 -76 122.667 -158.667 140 -248c6 -30.667 9 -65 9 -103zM1010 736.996c0 121.333 -43.668 225 -131.001 311c-47.333 46.667 -96.166 80.167 -146.499 100.5s-107.166 30.5 -170.499 30.5
c-122.667 0 -226.667 -42.667 -312 -128c-47.333 -46.667 -81.333 -95 -102 -145c-8 -17.333 -15.333 -43 -22 -77s-9.66699 -64.667 -9 -92l1 -33v-14c0 -6 1 -13 3 -21c8 -43.333 31.667 -94.333 71 -153l72 -107c6 -12 21.667 -31.333 47 -58l106 -110
c44 -46 81 -104 111 -174c26 -61.333 39 -118.333 39 -171l31 79c21.333 55.333 42.666 106 63.999 152c16 33.333 35.333 65.333 58 96l110 150c16 29.333 43.333 69 82 119c65.333 86 98 167.667 98 245z" />
    <glyph glyph-name="u0638" unicode="&#x638;" horiz-adv-x="1134" arabic-form="isolated" 
d="M286 961l-23.001 117.999c-7.33301 36.667 -11 74.667 -11 114c0 5.33301 1.66699 8 5 8l29 -16l20 -6l5 1l5 3l26 26l28 23l-47 298l111 74l2 -34l11 -36c5.33301 -18 16.333 -39.333 33 -64l-27 -41l7 -45l3 -40l-3 -33c-1.33301 -12 -4.66602 -21 -9.99902 -27l65 39
c51.333 30.667 103 51.334 155 62.001l16 1h5c35.333 0 65 -12.667 89 -38c21.333 -22 35.333 -47 42 -75l7 -30l3 -22v-42l-2 -13l-6 -46l-16 -101l-22 -98l-10 -10l-16 -5h-397c-23.333 0 -41 4 -53 12s-20 22.333 -24 43zM445.999 1183h252c-6.66699 58 -34 87 -82 87
c-45.333 0 -102 -29 -170 -87zM604.999 1584l76 -70l-70 -78l-79 70zM1039 1208l0.000976562 -31.999l-4 -27l-3 -20l-8 -27c-11.333 -38.667 -27.333 -73.334 -48 -104.001l-289 -424l-64 -123c-24 -46 -41.333 -88.333 -52 -127c-18 -68 -36 -149.667 -54 -245l-76 -414
l-7 -4c-2 -2 -5.66699 -3 -11 -3l-9 2c-4.66699 1.33301 -8.66699 3.66602 -12 6.99902s-7 11.333 -11 24v21l31 137l55 275c20 99.333 30 180 30 242c0 44.667 -11.667 87 -35 127l-45 81c-22.667 40 -49.334 75.333 -80.001 106c-82 84.667 -131 139 -147 163l-80 120
l-33 55l-26 56c-14.667 46.667 -22 91.334 -22 134.001c0 74.667 11.333 138 34 190c24.667 56 62.167 109.167 112.5 159.5s103.333 87.333 159 111s120.167 35.5 193.5 35.5c138 0 255 -48 351 -144c100 -100.667 150 -218 150 -352zM985 1208
c0 120.667 -43.334 223.999 -130.001 309.999c-47.333 46.667 -96.166 80.334 -146.499 101.001s-107.166 31 -170.499 31c-122.667 0 -227 -42.667 -313 -128c-46.667 -46.667 -80.667 -95 -102 -145c-7.33301 -18 -14.333 -43.833 -21 -77.5s-9.66699 -64.167 -9 -91.5
l1 -34v-13c0 -6.66699 1 -14 3 -22c7.33301 -43.333 30.666 -94.333 69.999 -153l72 -107c6 -11.333 22 -30.333 48 -57l105 -110c44 -46 81.333 -104.333 112 -175c26 -61.333 39 -118.333 39 -171l30 79c21.333 56 43 107 65 153c16 33.333 35.333 65.333 58 96l109 149
c16.667 29.333 44 69.333 82 120c65.333 86 98 167.667 98 245z" />
    <glyph glyph-name="u0639" unicode="&#x639;" horiz-adv-x="1102" arabic-form="isolated" 
d="M523 160c-56.667 0 -104 22.999 -142 68.999c-11.333 16.667 -23.666 40.334 -36.999 71.001c-8 32.667 -12 61.334 -12 86.001c0 120.667 49.667 210.667 149 270l-15 10l-19 14l-30 30c-26 31.333 -38 57.666 -36 78.999l1 13l4 12c16 41.333 44.667 75.333 86 102
c30.667 20 63.334 30 98.001 30c23.333 0 41.333 -4.33301 54 -13c12 -5.33301 21.333 -15.333 28 -30l33 -96v-4c0 -5.33301 -2 -8 -6 -8l-5 1l-8 5l-22 9l-32 3c-16.667 1.33301 -33.667 -0.666992 -51 -6c-12.667 -4 -26.334 -11.333 -41.001 -22
c4 -14.667 15 -30.667 33 -48l20 -12l20 -4l9 1l43 18l55 17l10 -31l2 -36l3 -28l-3 -23c0 -3.33301 -0.666992 -5.66602 -2 -6.99902l-2 -2c-60.667 0 -110.334 -12.667 -149.001 -38c-30 -19.333 -45 -46.333 -45 -81c0 -26 9.66699 -49.333 29 -70
c22 -24.667 48.667 -38.334 80 -41.001h11l10 -2l19 1l20 3c5.33301 0 13 2.66699 23 8l14 8l11 3l4 -4l-4 -15l-14 -22l-38 -81c-6.66699 -13.333 -16.334 -31 -29.001 -53c-7.33301 -14 -17.666 -27.667 -30.999 -41c-28.667 -30 -60.667 -45 -96 -45zM1031 664.999
v-31.001l-4 -27l-3 -21l-8 -27c-11.333 -38.667 -27.666 -73.334 -48.999 -104.001l-288 -424l-64 -123c-24 -46 -41.333 -88.333 -52 -127c-18 -67.333 -36 -148.666 -54 -243.999l-76 -414l-7 -5c-2 -2 -5.66699 -3 -11 -3l-9 2c-4.66699 2 -8.66699 4.66699 -12 8
s-7 11.333 -11 24v20l31 137l55 276c20 98.667 30 179.334 30 242.001c0 44 -11.667 86.333 -35 127l-46 80c-22 40 -48.333 75.667 -79 107c-82 84 -131 138.333 -147 163l-80 119l-33 55l-26 56c-14.667 46.667 -22 91.334 -22 134.001
c0 75.333 11.333 138.666 34 189.999c24.667 56 62.167 109.167 112.5 159.5s103.333 87.333 159 111s120.167 35.5 193.5 35.5c140 0 257.667 -48.333 353 -145c75.333 -76 121.666 -158.667 138.999 -248c6 -30.667 9 -65 9 -103zM977 664.998
c0 121.333 -43.334 225 -130.001 311c-47.333 46.667 -96.166 80.167 -146.499 100.5s-107.166 30.5 -170.499 30.5c-122.667 0 -227 -42.667 -313 -128c-46.667 -46.667 -80.667 -95 -102 -145c-7.33301 -17.333 -14.5 -43 -21.5 -77s-9.83301 -64.667 -8.5 -92v-33v-14
c0 -6 1.33301 -13 4 -21c7.33301 -43.333 30.666 -94.333 69.999 -153l72 -107c6 -12 22 -31.333 48 -58l105 -110c58 -60.667 102.333 -138 133 -232c12 -35.333 18 -73 18 -113l30 79c21.333 55.333 43 106 65 152c16 33.333 35.333 65.333 58 96l109 150
c16.667 29.333 44 69 82 119c65.333 86 98 167.667 98 245z" />
    <glyph glyph-name="u063A" unicode="&#x63a;" horiz-adv-x="1102" arabic-form="isolated" 
d="M523 160c-56.667 0 -104 22.999 -142 68.999c-11.333 16.667 -23.666 40.334 -36.999 71.001c-8 32.667 -12 61.334 -12 86.001c0 120.667 49.667 210.667 149 270l-15 10l-19 14l-30 30c-26 31.333 -38 57.666 -36 78.999l1 13l4 12c16 41.333 44.667 75.333 86 102
c30.667 20 63.334 30 98.001 30c23.333 0 41.333 -4.33301 54 -13c12 -5.33301 21.333 -15.333 28 -30l33 -96v-4c0 -5.33301 -2 -8 -6 -8l-5 1l-8 5l-22 9l-32 3c-16.667 1.33301 -33.667 -0.666992 -51 -6c-12.667 -4 -26.334 -11.333 -41.001 -22
c4 -14.667 15 -30.667 33 -48l20 -12l20 -4l9 1l43 18l55 17l10 -31l2 -36l3 -28l-3 -23c0 -3.33301 -0.666992 -5.66602 -2 -6.99902l-2 -2c-60.667 0 -110.334 -12.667 -149.001 -38c-30 -19.333 -45 -46.333 -45 -81c0 -26 9.66699 -49.333 29 -70
c22 -24.667 48.667 -38.334 80 -41.001h11l10 -2l19 1l20 3c5.33301 0 13 2.66699 23 8l14 8l11 3l4 -4l-4 -15l-14 -22l-38 -81c-6.66699 -13.333 -16.334 -31 -29.001 -53c-7.33301 -14 -17.666 -27.667 -30.999 -41c-28.667 -30 -60.667 -45 -96 -45zM1031 664.999
v-31.001l-4 -27l-3 -21l-8 -27c-11.333 -38.667 -27.666 -73.334 -48.999 -104.001l-288 -424l-64 -123c-24 -46 -41.333 -88.333 -52 -127c-18 -67.333 -36 -148.666 -54 -243.999l-76 -414l-7 -5c-2 -2 -5.66699 -3 -11 -3l-9 2c-4.66699 2 -8.66699 4.66699 -12 8
s-7 11.333 -11 24v20l31 137l55 276c20 98.667 30 179.334 30 242.001c0 44 -11.667 86.333 -35 127l-46 80c-22 40 -48.333 75.667 -79 107c-82 84 -131 138.333 -147 163l-80 119l-33 55l-26 56c-14.667 46.667 -22 91.334 -22 134.001
c0 75.333 11.333 138.666 34 189.999c24.667 56 62.167 109.167 112.5 159.5s103.333 87.333 159 111s120.167 35.5 193.5 35.5c140 0 257.667 -48.333 353 -145c75.333 -76 121.666 -158.667 138.999 -248c6 -30.667 9 -65 9 -103zM977 664.998
c0 121.333 -43.334 225 -130.001 311c-47.333 46.667 -96.166 80.167 -146.499 100.5s-107.166 30.5 -170.499 30.5c-122.667 0 -227 -42.667 -313 -128c-46.667 -46.667 -80.667 -95 -102 -145c-7.33301 -17.333 -14.5 -43 -21.5 -77s-9.83301 -64.667 -8.5 -92v-33v-14
c0 -6 1.33301 -13 4 -21c7.33301 -43.333 30.666 -94.333 69.999 -153l72 -107c6 -12 22 -31.333 48 -58l105 -110c58 -60.667 102.333 -138 133 -232c12 -35.333 18 -73 18 -113l30 79c21.333 55.333 43 106 65 152c16 33.333 35.333 65.333 58 96l109 150
c16.667 29.333 44 69 82 119c65.333 86 98 167.667 98 245zM507.999 1088l76 -71l-70 -77l-78 71z" />
    <glyph glyph-name="u0641" unicode="&#x641;" horiz-adv-x="1150" arabic-form="isolated" 
d="M663 1009l77 -71l-70 -77l-78 70zM348 316c-53.333 0 -97.9961 23.667 -133.996 71c-33.333 43.333 -50 92.666 -50 147.999c0 52 14.333 106.667 43 164c6 12.667 11 21.334 15 26.001c6.66699 7.33301 15 12.333 25 15c5.33301 0 9.66602 -2.16699 12.999 -6.5
s5 -9.83301 5 -16.5l-3 -14c-4.66699 -16.667 -7.66699 -30.667 -9 -42c0 -15.333 5.66699 -30.666 17 -45.999s24.666 -23 39.999 -23h333l-19 18l-17 20c-10.667 18 -16.667 32.333 -18 43l2 9l3 10l13 25l17 24l31 39c17.333 22 35.666 34.667 54.999 38
c23.333 0 44.666 -14 63.999 -42l20 -39l17 -50c9.33301 -44.667 14 -76.334 14 -95.001v-276h-477zM751.004 597c-8 72.667 -25 109 -51 109h-4l-6 -3c-3.33301 -2 -7 -6 -11 -12l-3 -19c0 -32 25 -57 75 -75zM1055 600l-0.000976562 -30.998l-5 -27l-2 -21l-9 -27
c-11.333 -38.667 -27.333 -73 -48 -103l-289 -424l-64 -124c-24 -46 -41 -88 -51 -126c-18.667 -68 -36.667 -149.667 -54 -245l-77 -414l-7 -5c-2 -1.33301 -5.66699 -2 -11 -2l-9 1c-4.66699 2 -8.66699 4.66699 -12 8s-6.66602 11.333 -9.99902 24v21l30 136l55 276
c20 99.333 30 180 30 242c0 44 -11.333 86.333 -34 127l-46 81c-22.667 39.333 -49 74.666 -79 105.999c-82.667 84.667 -132 139 -148 163l-80 119l-32 55l-27 56c-14.667 46.667 -22 91.334 -22 134.001c0 75.333 11.333 138.666 34 189.999
c24.667 56 62.167 109.167 112.5 159.5s103.5 87.333 159.5 111s120.333 35.5 193 35.5c138 0 255 -47.667 351 -143c100.667 -100.667 151 -218.334 151 -353.001zM1001 600.002c0 121.333 -43.668 225 -131.001 311c-47.333 46.667 -96.166 80.167 -146.499 100.5
s-107.166 30.5 -170.499 30.5c-122.667 0 -226.667 -42.667 -312 -128c-47.333 -46.667 -81.333 -95 -102 -145c-8 -17.333 -15.333 -42.833 -22 -76.5s-9.66699 -64.5 -9 -92.5l1 -33v-14c0 -6 1 -13 3 -21c8 -43.333 31.667 -94.333 71 -153l72 -107
c6 -12 21.667 -31.333 47 -58l106 -110c58 -60 102.333 -137.333 133 -232c11.333 -35.333 17 -73 17 -113l31 79c21.333 55.333 42.666 106 63.999 152c16 34 35.333 66 58 96l110 150c16 29.333 43.333 69 82 119c65.333 86 98 167.667 98 245z" />
    <glyph glyph-name="u0642" unicode="&#x642;" horiz-adv-x="1093" arabic-form="isolated" 
d="M541 1285l50 56l66 -58l-62 -65l-62 52l-51 -55l-62 58l59 68zM256 839c0.666992 6 3.00293 12.333 7.00293 19c3.33301 11.333 8.33301 17 15 17c4 0 9.66699 -9 17 -27c10.667 -72 35.667 -129 75 -171c36 -38.667 75.667 -58 119 -58
c59.333 0 105.666 35.333 138.999 106c-14 -14 -30 -25.667 -48 -35l-28 -10l-24 -1c-26 -2 -51 6.33301 -75 25l-25 25l-14 30c-2 10.667 -3.66699 17 -5 19v12l1 23l3 11l5 16l18 58l5 24l7 16l24 54c10 22 20 40.333 30 55l15 22l19 25c22 29.333 42.667 44 62 44
c22.667 0 46 -17 70 -51c51.333 -74 77 -167.333 77 -280c0 -140.667 -44.667 -242.334 -134 -305.001c-38.667 -26.667 -81.334 -40 -128.001 -40c-70.667 0 -134 34.333 -190 103l-19 35l-9 23l-4 19c-6.66699 26.667 -9.33398 56.334 -8.00098 89.001l1 29zM555.003 1021
l-12 -19l-5 -20c0 -17.333 8 -32 24 -44c17.333 -14 42.333 -21 75 -21c0 22 -5.33301 44.667 -16 68c-12.667 28.667 -29 43 -49 43c-6 0 -11.667 -2.33301 -17 -7zM999.003 949c0 -79.333 -21 -149.33 -63 -209.997l-290 -424l-64 -123
c-23.333 -46 -40.333 -88.333 -51 -127c-18 -68 -36 -149.667 -54 -245l-77 -414l-7 -4c-1.33301 -2 -5 -3 -11 -3l-9 2c-4.66699 1.33301 -8.66699 3.66602 -12 6.99902s-6.66602 11.333 -9.99902 24v21l31 137l54 275c20 99.333 30 180 30 242
c0 44.667 -11.333 87 -34 127l-46 81c-22.667 39.333 -49 74.666 -79 105.999c-82 84.667 -131.333 139 -148 163l-80 120l-33 56l-25 55c-15.333 47.333 -23 92 -23 134c0 74.667 11.333 137.667 34 189c25.333 56.667 63 110.167 113 160.5s103 87.166 159 110.499
s120.667 35 194 35c139.333 0 256.666 -48 351.999 -144c76 -76.667 122.667 -159.667 140 -249c6 -30.667 9 -64.667 9 -102zM945.003 949.003c0 120.667 -43.666 224 -130.999 310c-47.333 46.667 -96.166 80.167 -146.499 100.5s-106.833 30.5 -169.5 30.5
c-122.667 0 -227 -42.333 -313 -127c-47.333 -46.667 -81.333 -95 -102 -145c-7.33301 -18 -14.5 -43.833 -21.5 -77.5s-10.167 -64.167 -9.5 -91.5l1 -34v-14c0 -6 1.33301 -13 4 -21c7.33301 -43.333 30.666 -94.333 69.999 -153l72 -107c6 -11.333 22 -30.666 48 -57.999
l105 -109c44 -46 81 -104.333 111 -175c26 -61.333 39 -118.333 39 -171l31 79c21.333 55.333 43 106 65 152c16.667 35.333 43 77.333 79 126c49.333 66 78.666 106 87.999 120l30 46l20 31l33 42l41 60c22.667 33.333 39 72.666 49 117.999c4.66699 22 7 44.667 7 68z" />
    <glyph glyph-name="u0643" unicode="&#x643;" horiz-adv-x="1126" arabic-form="isolated" 
d="M1040 616l-0.000976562 -30.9961l-4 -27l-3 -21l-8 -27c-11.333 -38 -27.666 -72.333 -48.999 -103l-288 -424l-64 -123c-24 -46 -41.333 -88.333 -52 -127c-18 -68 -36 -149.667 -54 -245l-76 -414l-7 -5c-2 -1.33301 -5.66699 -2 -11 -2l-9 2
c-4.66699 1.33301 -8.66699 3.66602 -12 6.99902s-7 11.333 -11 24v21l31 137l55 275c20 99.333 30 180 30 242c0 44.667 -11.667 87 -35 127l-46 81c-22 39.333 -48.333 74.666 -79 105.999c-82 84.667 -131 139 -147 163l-80 120l-33 55l-26 55
c-14.667 47.333 -22 92 -22 134c0 75.333 11.333 138.666 34 189.999c24.667 56 62.167 109.333 112.5 160s103.333 87.667 159 111s120.167 35 193.5 35c138 0 255 -47.667 351 -143c100 -100.667 150 -218.334 150 -353.001zM985.999 616.004
c0 121.333 -43.334 225 -130.001 311c-47.333 46.667 -96.166 80.167 -146.499 100.5s-107.166 30.5 -170.499 30.5c-122.667 0 -227 -42.333 -313 -127c-46.667 -46.667 -80.667 -95 -102 -145c-7.33301 -18 -14.5 -43.833 -21.5 -77.5s-9.83301 -64.5 -8.5 -92.5v-33v-14
c0 -6 1.33301 -13 4 -21c7.33301 -43.333 30.666 -94.333 69.999 -153l72 -107c6 -11.333 22 -30.666 48 -57.999l105 -109c58 -60.667 102.333 -138.334 133 -233.001c12 -35.333 18 -73 18 -113l30 79c21.333 55.333 43 106 65 152c16 34 35.333 66.333 58 97l109 149
c16.667 29.333 44 69.333 82 120c65.333 86 98 167.333 98 244zM373.998 297.004c-42 0 -80.3301 17.166 -114.997 51.499s-52 72.833 -52 115.5c0 58.667 8.66699 108.334 26 149.001c18 43.333 32.333 65 43 65c14.667 0 24.667 -3 30 -9l4 -10
c0.666992 -3.33301 1 -7.33301 1 -12c0 -2 -1.66699 -8.5 -5 -19.5s-5 -20.833 -5 -29.5s4 -18.5 12 -29.5s93.333 -16.5 256 -16.5h131c-24.667 35.333 -68.334 67.666 -131.001 96.999l1 -8l-3 -12h-11c-12 6.66699 -29 17.334 -51 32.001l-15 11
c-12.667 10 -19.334 18.333 -20.001 25l-10 120c106 64.667 221 97 345 97l-58 -113c-58.667 0 -121.334 -10 -188.001 -30c68 -35.333 117.333 -66.333 148 -93c45.333 -40 75 -88.667 89 -146c10 -44 15 -90.667 15 -140s-3.5 -77.5 -10.5 -84.5
s-119.5 -10.5 -337.5 -10.5h-89z" />
    <glyph glyph-name="u0644" unicode="&#x644;" horiz-adv-x="1134" arabic-form="isolated" 
d="M376 580l-5.00195 -23.001l-1 -22c-1.33301 -32.667 11 -60.834 37 -84.501s57.333 -35.5 94 -35.5c22.667 0 47.667 4.66699 75 14l39 19c13.333 8.66699 26.333 18.334 39 29.001l-68 443l139 109l3 -38l4 -20l6 -22l13 -36l18 -35l-30 -26l26 -411
c2.66699 -55.333 -8.66602 -108 -33.999 -158c-40.667 -78 -107.667 -117 -201 -117c-97.333 0 -169.333 38.333 -216 115c-26 42 -39 87 -39 135c0 28.667 4.33301 57.334 13 86.001c12 42 25.667 75.333 41 100l9 14l10 12c4.66699 5.33301 11.334 9 20.001 11
c9.33301 0 14 -7.66699 14 -23l-1 -17zM1056 624.999l-0.000976562 -31.9971l-5 -27l-3 -21l-8 -27c-11.333 -38 -27.333 -72.333 -48 -103l-289 -424l-64 -123c-24 -46 -41 -88.333 -51 -127c-18.667 -68 -36.667 -149.667 -54 -245l-77 -414l-7 -4
c-2 -2 -5.66699 -3 -11 -3l-9 2c-4.66699 1.33301 -8.66699 3.66602 -12 6.99902s-6.66602 11.333 -9.99902 24v21l30 137l55 275c20 99.333 30 180 30 242c0 44.667 -11.333 87 -34 127l-46 81c-22.667 39.333 -49 74.666 -79 105.999c-82.667 84.667 -132 139 -148 163
l-80 120l-33 55l-26 55c-14.667 47.333 -22 92.333 -22 135c0 74.667 11.333 137.667 34 189c24.667 56.667 62.167 110.167 112.5 160.5s103.5 87.166 159.5 110.499s120.333 35 193 35c138 0 255 -47.667 351 -143c100.667 -100.667 151 -218 151 -352zM1002 625.002
c0 120.667 -43.6699 224 -131.003 310c-47.333 46.667 -96.166 80.167 -146.499 100.5s-107.166 30.5 -170.499 30.5c-122.667 0 -226.667 -42.333 -312 -127c-47.333 -46.667 -81.666 -95 -102.999 -145c-7.33301 -18 -14.333 -43.833 -21 -77.5s-9.66699 -64.167 -9 -91.5
l1 -34v-14c0 -6 1 -13 3 -21c7.33301 -43.333 31 -94.333 71 -153l72 -107c6 -11.333 21.667 -30.666 47 -57.999l106 -109c58 -60.667 102.333 -138.334 133 -233.001c11.333 -35.333 17 -73 17 -113l30 79c22 56 43.667 106.667 65 152c16 34 35.333 66.333 58 97l110 149
c16 29.333 43.333 69.333 82 120c65.333 86 98 167.667 98 245z" />
    <glyph glyph-name="u0645" unicode="&#x645;" horiz-adv-x="1102" arabic-form="isolated" 
d="M823 599l-133.998 -172.001c-6.66699 -9.33301 -14.334 -14 -23.001 -14c-10 0 -22.667 6.33301 -38 19l-45 38c-12.667 10.667 -29 22 -49 34c-10.667 3.33301 -19.334 5 -26.001 5c-20.667 0 -37 -7.66699 -49 -23l17 -147c0 -37.333 -7.33301 -64 -22 -80l-49 -52
l-4 -2l-1 5l-59 482c0 32 14.667 59 44 81c27.333 20.667 57 30.334 89 29.001l21 -1l22 -5l31 55l10 16c9.33301 14 24.666 34 45.999 60c16.667 16 34 24 52 24c36.667 0 64.334 -11.333 83.001 -34c14 -17.333 24.333 -43 31 -77l16 -78c10 -94 22.333 -148.333 37 -163z
M591.002 764.999l100 -102.999l3 34l-1 30l-4 32c-0.666992 9.33301 -5 20.666 -13 33.999l-6 8l-19 6c-17.333 0 -37.333 -13.667 -60 -41zM1039 633l0.000976562 -32l-4 -27l-3 -21l-8 -27c-11.333 -38 -27.333 -72.333 -48 -103l-289 -424l-64 -123
c-24 -46 -41.333 -88.333 -52 -127c-18 -68 -36 -149.667 -54 -245l-76 -414l-7 -4c-2 -2 -5.66699 -3 -11 -3l-9 2c-4.66699 1.33301 -8.66699 3.66602 -12 6.99902s-7 11.333 -11 24v21l31 137l55 275c20 99.333 30 180 30 242c0 44.667 -11.667 87 -35 127l-45 81
c-22.667 40 -49.334 75.333 -80.001 106c-82 84.667 -131 139 -147 163l-80 120l-33 55l-26 56c-14.667 46.667 -22 91.334 -22 134.001c0 74.667 11.333 138 34 190c24.667 56 62.167 109.167 112.5 159.5s103.333 87.333 159 111s120.167 35.5 193.5 35.5
c138 0 255 -48 351 -144c100 -100.667 150 -218 150 -352zM985.003 633c0 120.667 -43.335 224.001 -130.002 310.001c-47.333 46.667 -96.166 80.334 -146.499 101.001s-107.166 31 -170.499 31c-122.667 0 -227 -42.667 -313 -128c-46.667 -46.667 -80.667 -95 -102 -145
c-7.33301 -18 -14.333 -43.833 -21 -77.5s-9.66699 -64.167 -9 -91.5l1 -34v-14c0 -6 1 -13 3 -21c7.33301 -43.333 30.666 -94.333 69.999 -153l72 -107c6 -11.333 22 -30.333 48 -57l105 -110c58.667 -60.667 103.334 -138.334 134.001 -233.001
c11.333 -34.667 17 -72.334 17 -113.001l30 79c21.333 56 43 106.667 65 152c16 34 35.333 66.333 58 97l109 149c16.667 29.333 44 69.333 82 120c65.333 86 98 167.667 98 245z" />
    <glyph glyph-name="u0646" unicode="&#x646;" horiz-adv-x="1110" arabic-form="isolated" 
d="M524 1082l76 -71l-71 -77l-77 69zM399 832l-9.00293 -34l-1 -25c-1.33301 -35.333 8.83398 -64.666 30.501 -87.999s50.167 -35 85.5 -35c38.667 0 81.667 16 129 48c15.333 11.333 31.333 24.666 48 39.999l-10 31l-13 28l-14 21l-15 21l-34 41l122 113
c24 -40.667 40.667 -83.667 50 -129l7 -36l5 -36l5 -73c4 -68.667 -10.667 -133.667 -44 -195c-35.333 -64.667 -83 -103 -143 -115l-41 -8l-39 -2c-33.333 -2.66699 -67.666 5.33301 -102.999 24s-61.333 45 -78 79l-15 32l-11 37l-6 38l-3 43c-2 38 3.33301 77.333 16 118
c11.333 37.333 25 67 41 89c6.66699 10 14.334 15 23.001 15c9.33301 0 16 -8.33301 20 -25l-2 -10zM1035 811v-32l-5 -27l-2 -20l-8 -27c-12 -38.667 -28.333 -73.334 -49 -104.001l-289 -424l-64 -123c-23.333 -46 -40.333 -88.333 -51 -127
c-18 -68 -36 -149.667 -54 -245l-77 -414l-7 -4c-1.33301 -2 -5 -3 -11 -3l-9 2c-4.66699 1.33301 -8.66699 3.83301 -12 7.5s-6.66602 11.5 -9.99902 23.5v21l31 137l54 275c20 99.333 30 180 30 242c0 44.667 -11.333 87 -34 127l-46 81c-22.667 40 -49 75.333 -79 106
c-82 84.667 -131.333 139 -148 163l-80 120l-32 55l-26 56c-15.333 46.667 -23 91.334 -23 134.001c0 74.667 11.333 138 34 190c25.333 56 63 109.167 113 159.5s103 87.333 159 111s120.667 35.5 194 35.5c139.333 0 256.666 -48.333 351.999 -145
c76 -76.667 122.667 -159.667 140 -249c6 -30 9 -64 9 -102zM980.997 811c0 121.333 -43.667 224.668 -131 310.001c-47.333 47.333 -96.166 81.166 -146.499 101.499s-106.833 30.5 -169.5 30.5c-122.667 0 -227 -42.667 -313 -128c-47.333 -46.667 -81.333 -95 -102 -145
c-7.33301 -18 -14.5 -43.833 -21.5 -77.5s-10.167 -64.167 -9.5 -91.5l1 -33v-14c0 -6.66699 1.33301 -14 4 -22c7.33301 -43.333 30.666 -94.333 69.999 -153l72 -107c6 -11.333 22 -30.333 48 -57l105 -110c44 -46 81 -104.333 111 -175c26 -60.667 39 -117.667 39 -171
l31 80c21.333 55.333 43 106 65 152c16 33.333 35 65.333 57 96l110 149c16 29.333 43.333 69.333 82 120c65.333 86 98 167.667 98 245z" />
    <glyph glyph-name="u0647" unicode="&#x647;" horiz-adv-x="1069" arabic-form="isolated" 
d="M383 1003l-10.002 3.00195c-2 2 -3 5.33301 -3 10v5l-1 101c0 5.33301 3.33301 10.333 10 15c10.667 4.66699 20.334 6.66699 29.001 6l11 -1l24 -1c28.667 -0.666992 62 -12.334 100 -35.001c88.667 -52 133 -111.333 133 -178c0 -100.667 -8 -159.334 -24 -176.001
c-44.667 -60 -101.667 -90 -171 -90c-47.333 0 -87.666 16.333 -120.999 49s-50 73 -50 121c0 57.333 24.333 114.333 73 171zM456.998 989.002c-10.667 -12 -22.001 -27 -34.001 -45l-8 -20l-4 -17c0 -12.667 4.33301 -22.667 13 -30l15 -8
c5.33301 -1.33301 12.333 -2 21 -2c14.667 0 31.667 3.66699 51 11c16 8.66699 36.333 21.667 61 39c-21.333 36 -59.666 60 -114.999 72zM998.997 949.002c0 -79.333 -21 -149.33 -63 -209.997l-290 -424l-64 -123c-23.333 -46 -40.333 -88.333 -51 -127
c-18 -68 -36 -149.667 -54 -245l-77 -414l-7 -4c-1.33301 -2 -5 -3 -11 -3l-9 2c-4.66699 1.33301 -8.66699 3.66602 -12 6.99902s-6.66602 11.333 -9.99902 24v21l31 137l54 275c20 99.333 30 180 30 242c0 44.667 -11.333 87 -34 127l-46 81
c-22.667 39.333 -49 74.666 -79 105.999c-82 84.667 -131.333 139 -148 163l-80 120l-33 56l-25 55c-15.333 47.333 -23 92 -23 134c0 74.667 11.333 137.667 34 189c25.333 56.667 63 110.167 113 160.5s103 87.166 159 110.499s120.667 35 194 35
c139.333 0 256.666 -48 351.999 -144c76 -76.667 122.667 -159.667 140 -249c6 -30.667 9 -64.667 9 -102zM944.997 949.005c0 120.667 -43.666 224 -130.999 310c-47.333 46.667 -96.166 80.167 -146.499 100.5s-106.833 30.5 -169.5 30.5
c-122.667 0 -227 -42.333 -313 -127c-47.333 -46.667 -81.333 -95 -102 -145c-7.33301 -18 -14.5 -43.833 -21.5 -77.5s-10.167 -64.167 -9.5 -91.5l1 -34v-14c0 -6 1.33301 -13 4 -21c7.33301 -43.333 30.666 -94.333 69.999 -153l72 -107c6 -11.333 22 -30.666 48 -57.999
l105 -109c44 -46 81 -104.333 111 -175c26 -61.333 39 -118.333 39 -171l31 79c21.333 55.333 43 106 65 152c16.667 35.333 43 77.333 79 126c49.333 66 78.666 106 87.999 120l30 46l20 31l33 42l41 60c22.667 33.333 39 72.666 49 117.999c4.66699 22 7 44.667 7 68z" />
    <glyph glyph-name="u0648" unicode="&#x648;" horiz-adv-x="1102" arabic-form="isolated" 
d="M644 1172c-10.667 -16.667 -27.6699 -35.333 -51.0029 -56c-17.333 -10.667 -35.333 -16 -54 -16c-30 0 -60.333 14.333 -91 43c-21.333 20.667 -36 47.667 -44 81v11c0 38.667 10 86 30 142l14 40l17 42c10 22.667 22.667 47 38 73c30.667 49.333 59 74 85 74
c36 0 69.333 -37 100 -111c32 -78 47 -160.333 45 -247v-43l-3 -22l-4 -34c0 -9.33301 -0.666992 -15.333 -2 -18l-10 -45l-10 -29c-16.667 -48.667 -37 -84.667 -61 -108c-32 -30 -68.333 -45 -109 -45h-19l-18 3c-11.333 2 -29.666 9.66699 -54.999 23l-15 7l-12 8l-30 22
l-49 35c-5.33301 3.33301 -9.66602 9 -12.999 17c0 6 5.33301 9 16 9l7 -1l9 -1l32 -5l32 -1l27 1c10.667 0 21.667 1.16699 33 3.5s20 4.5 26 6.5l26 12c60.667 27.333 98.334 70.333 113.001 129zM529.997 1439c0 -16 9.66699 -31.667 29 -47
c25.333 -14.667 50 -22 74 -22h5l15 1c-18.667 68 -49 102 -91 102c-21.333 0 -32 -11.333 -32 -34zM1056 1305v-32l-5 -27l-3 -20l-8 -27c-11.333 -38.667 -27.333 -73.334 -48 -104.001l-289 -424l-64 -123c-24 -46 -41 -88.333 -51 -127
c-18.667 -68 -36.667 -149.667 -54 -245l-77 -414l-7 -4c-2 -2 -5.66699 -3 -11 -3l-9 2c-10.667 0 -18 10.667 -22 32v20l30 137l55 275c20 99.333 30 180 30 242c0 44.667 -11.333 87 -34 127l-46 81c-22.667 40 -49 75.667 -79 107c-82.667 84 -132 138 -148 162l-80 120
l-33 55l-26 56c-14.667 46.667 -22 91.334 -22 134.001c0 74.667 11.333 138 34 190c24.667 56 62.167 109.167 112.5 159.5s103.5 87.333 159.5 111s120.333 35.5 193 35.5c138 0 255 -48 351 -144c100.667 -100 151 -217.333 151 -352zM1002 1305
c0 121.333 -43.6699 224.668 -131.003 310.001c-47.333 47.333 -96.166 81.166 -146.499 101.499s-107.166 30.5 -170.499 30.5c-122.667 0 -226.667 -42.667 -312 -128c-47.333 -46.667 -81.666 -95 -102.999 -145c-7.33301 -17.333 -14.333 -43 -21 -77
s-9.66699 -64.667 -9 -92l1 -33v-14c0 -6 1 -13 3 -21c7.33301 -43.333 31 -94.333 71 -153l72 -108c6 -11.333 21.667 -30.333 47 -57l106 -110c44 -46 81 -104.333 111 -175c26 -60.667 39 -117.667 39 -171l30 80c22 55.333 43.667 106 65 152
c16 33.333 35.333 65.333 58 96l110 149c16 29.333 43.333 69.333 82 120c65.333 86 98 167.667 98 245z" />
    <glyph glyph-name="u0649" unicode="&#x649;" horiz-adv-x="1061" arabic-form="isolated" 
d="M752 1309l-0.00195312 -5.99902c0 -19.333 -8 -32.333 -24 -39c-7.33301 0 -15.666 4 -24.999 12l-14 7l-22 5c-40 0 -80 -21 -120 -63c-16 -17.333 -24 -31.333 -24 -42c0 -6 4 -11.333 12 -16l17 -5l27 -3l100 -3l10 -4l26 -6c32.667 -8 49 -24.333 49 -49v-10l-1 -5
c-3.33301 -23.333 -9.33301 -54.333 -18 -93c-8.66699 -27.333 -18.667 -48.333 -30 -63c-52 -56 -103 -95 -153 -117l-36 -16l-42 -13c-21.333 -6.66699 -47.666 -10 -78.999 -10c-102.667 0 -173 28.333 -211 85c-24.667 36.667 -36.334 80 -35.001 130l1 32l6 42l12 69
l8 23c4 17.333 8 29.666 12 36.999c6.66699 12 16 20 28 24l8 -5l3 -6l2 -9v-3l-4 -56l-1 -23l1 -33l1 -11c0 -4.66699 0.666992 -7.66699 2 -9l5 -13c5.33301 -10 13.666 -20.667 24.999 -32c12.667 -13.333 34.334 -27.333 65.001 -42c25.333 -8.66699 53 -13 83 -13
c55.333 0 119 18 191 54l-27 5l-56 10c-24.667 4 -55 11 -91 21c-29.333 13.333 -44 33 -44 59l2 16c2.66699 29.333 22.334 71 59.001 125c29.333 42.667 63.666 82.667 102.999 120c53.333 51.333 97 77 131 77h5c20.667 0 35.334 -8 44.001 -24l14 -44
c3.33301 -18 5 -40.333 5 -67zM1031 1064v-31.999l-4 -27l-3 -20l-8 -27c-11.333 -38.667 -27.666 -73.334 -48.999 -104.001l-288 -424l-64 -123c-24 -46 -41.333 -88.333 -52 -127c-18 -68 -36 -149.667 -54 -245l-76 -414l-7 -4c-2 -2 -5.66699 -3 -11 -3l-9 2
c-4.66699 1.33301 -8.66699 3.66602 -12 6.99902s-7 11.333 -11 24v21l31 137l55 275c20 99.333 30 180 30 242c0 44.667 -11.667 87 -35 127l-46 81c-22 40 -48.333 75.333 -79 106c-82 84.667 -131 139 -147 163l-80 120l-33 55l-26 56
c-14.667 46.667 -22 91.334 -22 134.001c0 74.667 11.333 138 34 190c24.667 56 62.167 109.167 112.5 159.5s103.333 87.333 159 111s120.167 35.5 193.5 35.5c140 0 257.667 -48.333 353 -145c75.333 -76.667 121.666 -159.667 138.999 -249c6 -30.667 9 -64.667 9 -102z
M976.998 1064c0 120.667 -43.334 223.999 -130.001 309.999c-47.333 46.667 -96.166 80.334 -146.499 101.001s-107.166 31 -170.499 31c-122.667 0 -227 -42.667 -313 -128c-46.667 -46.667 -80.667 -95 -102 -145c-7.33301 -18 -14.5 -43.833 -21.5 -77.5
s-9.83301 -64.167 -8.5 -91.5v-34v-13c0 -6.66699 1.33301 -14 4 -22c7.33301 -43.333 30.666 -94.333 69.999 -153l72 -107c6 -11.333 22 -30.333 48 -57l105 -110c44 -46 81 -104.333 111 -175c26.667 -61.333 40 -118.333 40 -171l30 79c21.333 56 43 107 65 153
c16 33.333 35.333 65.333 58 96l109 149c16.667 29.333 44 69.333 82 120c65.333 86 98 167.667 98 245z" />
    </font>
</defs>
</svg>
