<?xml version="1.0" standalone="no"?>
<!DOCTYPE svg PUBLIC "-//W3C//DTD SVG 1.1//EN" "http://www.w3.org/Graphics/SVG/1.1/DTD/svg11.dtd" >
<svg>
<metadata>
Created by FontForge 20090914 at Wed Oct 19 01:57:26 2011
 By www-data
(c) by Abolfazl Seilsepour - +98 912 591 3420  -  seilsepor@yahoo.com
</metadata>
<defs>
<font id="FarTawfigOutline" horiz-adv-x="0" >
  <font-face 
    font-family="Far.Tawfig Outline"
    font-weight="400"
    font-stretch="normal"
    units-per-em="2048"
    panose-1="0 0 4 0 0 0 0 0 0 0"
    ascent="1638"
    descent="-410"
    bbox="-224 -906 1620 1705"
    underline-thickness="80"
    underline-position="-660"
    unicode-range="U+0020-U+FEFC"
  />
<missing-glyph horiz-adv-x="1024" 
d="M128 0v1384h768v-1384h-768zM256 128h512v1128h-512v-1128z" />
    <glyph glyph-name="uE818" unicode="&#x651;&#x64b;" 
d="M327 1107c-32 -48 -71.333 -72 -118 -72c-33.333 0 -57 14.667 -71 44c-10 21.333 -15 39.666 -15 54.999c0 19.333 6 44.333 18 75c14 35.333 28.667 53 44 53c11.333 0 17 -5.66699 17 -17c0 -4.66699 -3.33301 -18 -10 -40c-8 -18 -12 -33.333 -12 -46
c0 -22 16.667 -33 50 -33c31.333 5.33301 52.333 17 63 35l29 68c15.333 33.333 28.666 50 39.999 50c10 0 15 -5.66699 15 -17l-4 -20l-8 -49c0 -21.333 10.667 -33.666 32 -36.999c17.333 0 28.666 6.66699 33.999 20c2.66699 7.33301 5.33398 16.333 8.00098 27
c4 5.33301 8.66699 18.333 14 39c8 30.667 16.333 47 25 49c12.667 0 19 -8 19 -24c0 -11.333 -1.66699 -26.333 -5 -45l-7 -24l-2 -10c-22 -79.333 -54.667 -119 -98 -119c-23.333 0 -42.666 12.667 -57.999 38zM327 1124c7.33301 0 12.667 -3.33203 16 -9.99902
c10.667 -18.667 26 -28 46 -28c35.333 3.33301 61.666 39 78.999 107c10 40.667 15 67.667 15 81c-4 0 -10.667 -22.5 -20 -67.5s-30 -67.5 -62 -67.5c-34 0 -51 17.667 -51 53v21l2 5c0 1.33301 0.333008 3.33301 1 6c0.666992 0.666992 2 5 4 13l7 25
c-3.33301 0 -7.33301 -4 -12 -12l-4 -10l-5 -10c-1.33301 -3.33301 -4.66602 -12.333 -9.99902 -27c-22 -62.667 -55.667 -94 -101 -94c-44.667 0 -67 16.667 -67 50c0 12.667 3.66699 28.667 11 48s11 32 11 38c-4.66699 -2.66699 -13.667 -15 -27 -37
c-7.33301 -15.333 -12 -25.333 -14 -30c-3.33301 -10.667 -5 -24.667 -5 -42c1.33301 -10.667 5.33301 -27.334 12 -50.001c12 -22.667 30.667 -34 56 -34c40 0 74.667 21.333 104 64c4 5.33301 8.66699 8 14 8zM184.001 1407l320 125l-17 -76l-326 -124zM218.001 1581
l320 124l-17 -74l-328 -126zM200.001 1396l-12 -36l284 108l9 37zM232.001 1567l-12 -35l286 111l8 35z" />
    <glyph glyph-name="uFC5E" unicode="&#x651;&#x64c;" arabic-form="isolated" 
d="M349 1080c-32 -48 -71.334 -72.001 -118.001 -72.001c-33.333 0 -57 14.667 -71 44c-10 21.333 -15 40 -15 56c0 18.667 6 43.334 18 74.001c14 35.333 28.667 53 44 53c11.333 0 17 -5.33301 17 -16c0 -4.66699 -3.33301 -18.334 -10 -41.001c-8 -18 -12 -33 -12 -45
c0 -22.667 17 -34 51 -34c30.667 5.33301 51.334 17 62.001 35l30 68c14.667 33.333 27.667 50 39 50c10 0 15 -5.66699 15 -17l-3 -20l-9 -49c0 -21.333 10.667 -33.666 32 -36.999c17.333 0 28.666 7 33.999 21c2.66699 7.33301 5.33398 16.333 8.00098 27
c4 4.66699 8.66699 17.334 14 38.001c8 31.333 16.333 47.666 25 48.999c12.667 0 19 -8 19 -24c0 -11.333 -1.66699 -26.333 -5 -45l-7 -24l-2 -10c-22 -79.333 -54.333 -119 -97 -119c-24 0 -43.667 12.667 -59 38zM348.999 1097c7.33301 0 13 -3.33398 17 -10.001
c10 -18.667 25 -28 45 -28c36 3.33301 62.333 39 79 107c10 41.333 15 68.333 15 81c-4 0 -10.667 -22.333 -20 -67s-30 -67 -62 -67c-34 0 -51 17.333 -51 52v21l2 5c0 1.33301 0.333008 3 1 5s2 6.66699 4 14l7 25c-3.33301 0 -7.33301 -4 -12 -12l-3 -9l-5 -11
c-2 -3.33301 -5.66699 -12 -11 -26c-22 -63.333 -55.667 -95 -101 -95c-44.667 0 -67 17 -67 51c0 12 3.66699 27.667 11 47s11 32.333 11 39c-4 -3.33301 -13 -15.666 -27 -36.999c-7.33301 -15.333 -12 -25.666 -14 -30.999c-3.33301 -10.667 -5 -24.667 -5 -42
c1.33301 -10.667 5.33301 -27.334 12 -50.001c12 -22.667 30.667 -34 56 -34c40 0 74.667 21.333 104 64c4 5.33301 8.66699 8 14 8zM509.999 1672c34.667 0 52.001 -23 52.001 -69c0 -37.333 -13.333 -74 -40 -110c-48.667 -65.333 -143 -119 -283 -161
c-30 -9.33301 -52.333 -14 -67 -14c-18 0 -27 4.66699 -27 14c0 1.33301 19 16.333 57 45c23.333 17.333 36.666 27.333 39.999 30c27.333 22 41 41.333 41 58c0 13.333 -10.667 20 -32 20c-18.667 -2 -44 -7 -76 -15c0 28 14.333 51.833 43 71.5s53 29.5 73 29.5
c41.333 0 62 -19.667 62 -59c0 -22 -7 -50.667 -21 -86c6.66699 0 31.667 13.333 75 40s70 47 80 61c-32 13.333 -48 40.333 -48 81c0 42.667 23.667 64 71 64zM512 1655l-4.99805 0.000976562c-35.333 0 -53 -17.333 -53 -52c0 -24.667 13 -44.334 39 -59.001
c6 -6.66699 9.33301 -11.667 10 -15l-3 -11c-12 -14 -38.333 -34 -79 -60c-45.333 -29.333 -78.666 -44 -99.999 -44c-3.33301 3.33301 -5 10 -5 20c14 28 21 52.333 21 73c0 32 -17 48 -51 48c-12 -0.666992 -30.333 -8.33398 -55 -23.001s-37 -27 -37 -37
c3.33301 0.666992 8.66602 2.33398 15.999 5.00098c3.33301 1.33301 8.66602 2 15.999 2c18 2 26.333 3 25 3c22 0 37.667 -6.33301 47 -19c3.33301 -2.66699 5.66602 -9.33398 6.99902 -20.001c0 -8.66699 -2.33301 -17 -7 -25c-19.333 -34 -61.333 -68.667 -126 -104
c18 0 38.667 4 62 12c90 30 146 51 168 63c42 22.667 77.333 53 106 91c24.667 32.667 37 65.334 37 98.001c0 36 -11 54 -33 54z" />
    <glyph glyph-name="uFC5F" unicode="&#x651;&#x64d;" arabic-form="isolated" 
d="M298 1499c-32 -48.667 -71.333 -73 -118 -73c-33.333 0 -57 14.667 -71 44c-10 21.333 -15 40 -15 56c0 18.667 6 43.334 18 74.001c14 35.333 28.667 53 44 53c11.333 0 17 -5.33301 17 -16c0 -4.66699 -3.33301 -18.334 -10 -41.001c-8 -18 -12 -33 -12 -45
c0 -22.667 17 -34 51 -34c30.667 6 51.334 17.667 62.001 35l30 68c14.667 33.333 27.667 50 39 50c10 0 15 -5.66699 15 -17l-3 -20l-9 -49c0 -21.333 10.667 -33.666 32 -36.999c17.333 0 28.666 7 33.999 21c3.33301 7.33301 6 16.333 8 27c4 5.33301 8.66699 18 14 38
c8 31.333 16.333 47.666 25 48.999c12.667 0 19 -8 19 -24c0 -11.333 -1.66699 -26.333 -5 -45l-7 -24l-2 -10c-22 -79.333 -54.333 -119 -97 -119c-24 0 -43.667 13 -59 39zM298 1515c7.33301 0 12.999 -3.33398 16.999 -10.001c10 -18.667 25 -28 45 -28
c36 3.33301 62.333 39 79 107c10 41.333 15 68.333 15 81c-4 0 -10.667 -22.333 -20 -67s-30 -67 -62 -67c-34 0 -51 17.333 -51 52v22l2 4c0 1.33301 0.333008 3 1 5s2 6.66699 4 14l7 25c-3.33301 0 -7.33301 -3.66699 -12 -11l-3 -10l-5 -11
c-2 -3.33301 -5.66699 -12 -11 -26c-22 -63.333 -55.667 -95 -101 -95c-44.667 0 -67 17 -67 51c0 12 3.66699 27.667 11 47s11 32.333 11 39c-4 -3.33301 -13 -15.666 -27 -36.999c-7.33301 -15.333 -12 -25.666 -14 -30.999c-2.66699 -10.667 -4 -24.667 -4 -42
c0.666992 -10.667 4.33398 -27.334 11.001 -50.001c12 -22.667 30.667 -34 56 -34c40 0 74.667 21.333 104 64c4 5.33301 8.66699 8 14 8zM72.999 1096l320 124l-17 -75l-326 -125zM106.999 1269l319 125l-17 -74l-327 -126zM87.999 1084l-12 -35l284 108l9 37z
M119.999 1256l-12 -36l286 112l9 35z" />
    <glyph glyph-name="uFC60" unicode="&#x651;&#x64e;" arabic-form="isolated" 
d="M310 1103c-32 -48 -71.334 -72.001 -118.001 -72.001c-33.333 0 -57 14.667 -71 44c-10 21.333 -15 39.666 -15 54.999c0 18.667 6 43.334 18 74.001c14.667 36 29.667 54 45 54c10.667 0 16 -5.66699 16 -17c0 -4.66699 -3.33301 -18 -10 -40
c-8 -18 -12 -33.333 -12 -46c0 -22 17 -33 51 -33c30.667 5.33301 51.334 17 62.001 35l30 68c14.667 33.333 27.667 50 39 50c10 0 15 -5.66699 15 -17l-3 -20l-8 -49c0 -21.333 10.667 -33.666 32 -36.999c16.667 0 27.667 6.66699 33 20c3.33301 7.33301 6 16.333 8 27
c4 5.33301 8.66699 18.333 14 39c8 30.667 16.333 47 25 49c12.667 0 19 -8 19 -24c0 -11.333 -1.66699 -26.333 -5 -45l-7 -24l-2 -10c-22 -79.333 -54.333 -119 -97 -119c-24 0 -43.667 12.667 -59 38zM309.999 1120c7.33301 0 12.999 -3.33301 16.999 -10
c10 -19.333 25 -29 45 -29c36 4 62.333 40 79 108c10 40.667 15 67.667 15 81c-4 0 -10.667 -22.5 -20 -67.5s-30 -67.5 -62 -67.5c-34 0 -51 17.333 -51 52v22l2 5c0.666992 1.33301 1.16699 2.83301 1.5 4.5s1.5 6.5 3.5 14.5l7 25c-3.33301 0 -7.33301 -4 -12 -12l-3 -10
l-5 -10l-11 -27c-22 -62.667 -55.667 -94 -101 -94c-44.667 0 -67 16.667 -67 50c0 12 3.66699 27.833 11 47.5s11 32.5 11 38.5c-4 -2.66699 -13 -15 -27 -37c-7.33301 -15.333 -11.666 -25.333 -12.999 -30c-3.33301 -10.667 -5 -24.667 -5 -42
c0.666992 -10.667 4.66699 -27.667 12 -51c11.333 -22 29.666 -33 54.999 -33c40.667 0 75.334 21 104.001 63c4 6 8.66699 9 14 9zM151.998 1410l320 124l-17 -75l-327 -125zM166.998 1398l-11 -35l284 107l8 37z" />
    <glyph glyph-name="uFC61" unicode="&#x651;&#x64f;" arabic-form="isolated" 
d="M320 1096c-32 -48.667 -71.333 -72.999 -118 -72.999c-33.333 0 -57 14.667 -71 44c-10 21.333 -15 40 -15 56c0 18.667 6 43.334 18 74.001c14 36 28.667 54 44 54c11.333 0 17 -5.66699 17 -17c0 -4.66699 -3.33301 -18.334 -10 -41.001c-8 -18 -12 -33 -12 -45
c0 -22.667 16.667 -34 50 -34c31.333 6 52.333 17.667 63 35l29 68c15.333 33.333 28.666 50 39.999 50c10 0 15 -5.33301 15 -16l-4 -21l-8 -49c0 -21.333 10.667 -33.333 32 -36c17.333 0 28.666 6.66699 33.999 20c2.66699 7.33301 5.33398 16.333 8.00098 27
c4 5.33301 8.66699 18 14 38c8 31.333 16.333 47.666 25 48.999c12.667 0 19 -8 19 -24c0 -11.333 -1.66699 -26.333 -5 -45l-7 -24l-2 -9c-22 -80 -54.667 -120 -98 -120c-23.333 0 -42.666 13 -57.999 39zM320 1112c7.33301 0 12.6699 -3.33301 16.0029 -10
c10 -18.667 25.333 -28 46 -28c35.333 3.33301 61.666 39 78.999 107c10 41.333 15 68.333 15 81c-4.66699 0 -11.5 -22.333 -20.5 -67s-29.833 -67 -62.5 -67c-33.333 0 -50 17.333 -50 52v22l2 5c0 0.666992 0.166992 2 0.5 4s1.83301 6.66699 4.5 14l6 26
c-2.66699 0 -6.33398 -4 -11.001 -12l-4 -10l-5 -11l-10 -26c-22.667 -63.333 -56.334 -95 -101.001 -95s-67 17 -67 51c0 12 3.66699 27.667 11 47s11 32.333 11 39c-4.66699 -2.66699 -13.667 -15 -27 -37c-8 -15.333 -12.667 -25.666 -14 -30.999
c-3.33301 -10.667 -5 -24.667 -5 -42c1.33301 -10.667 5.33301 -27.334 12 -50.001c11.333 -22.667 30 -34 56 -34c40 0 74.667 21.333 104 64c4 5.33301 8.66699 8 14 8zM439.004 1660c34.667 0 52 -23.668 52 -71.001c0 -39.333 -16 -79.333 -48 -120
c-29.333 -38 -63 -65.667 -101 -83c-44.667 -20.667 -102.667 -42 -174 -64c-6.66699 -4.66699 -16.667 -7 -30 -7c-12.667 0 -19 3.33301 -19 10c0 14 27.667 33.667 83 59c51.333 23.333 95 46.333 131 69c48 30 75.667 50.667 83 62c-36 8.66699 -54 27.334 -54 56.001
c0 18.667 8.33301 38.167 25 58.5s34 30.5 52 30.5zM441.004 1643c-13.333 0 -27 -7.83301 -41 -23.5s-21 -32.5 -21 -50.5c0 -7.33301 3.16699 -14.166 9.5 -20.499s17.166 -11.833 32.499 -16.5c7.33301 -2 11 -7 11 -15c0 -6 -1 -10 -3 -12
c-11.333 -16.667 -45.666 -41.667 -102.999 -75c-48 -28 -87 -48.333 -117 -61l-62 -36c4 0 9.33301 1.66699 16 5c73.333 22 124.333 40 153 54c54.667 25.333 95.667 58.666 123 99.999c23.333 28 35 60 35 96c0 36.667 -11 55 -33 55z" />
    <glyph glyph-name="uFC62" unicode="&#x651;&#x650;" arabic-form="isolated" 
d="M327 1337c-32 -48 -71.333 -72.002 -118 -72.002c-33.333 0 -57 14.333 -71 43c-10 22 -15 40.667 -15 56c0 18.667 6 43.334 18 74.001c14 36 28.667 54 44 54c11.333 0 17 -5.66699 17 -17c0 -4.66699 -3.33301 -18 -10 -40c-8 -18.667 -12 -34 -12 -46
c0 -22.667 16.667 -34 50 -34c31.333 6 52.333 18 63 36l29 68c15.333 33.333 28.666 50 39.999 50c10 0 15 -5.66699 15 -17l-4 -20l-8 -49c0 -21.333 10.667 -33.666 32 -36.999c17.333 0 28.666 6.66699 33.999 20c2.66699 7.33301 5.33398 16.333 8.00098 27
c4 5.33301 8.66699 18.333 14 39c8 30.667 16.333 46.667 25 48c12.667 0 19 -7.66699 19 -23c0 -12 -1.66699 -27.333 -5 -46l-7 -23l-2 -10c-22 -80 -54.667 -120 -98 -120c-23.333 0 -42.666 13 -57.999 39zM327 1354c7.33301 0 12.667 -3.66699 16 -11
c10.667 -18.667 26 -28 46 -28c35.333 3.33301 61.666 39.333 78.999 108c10 40.667 15 67.667 15 81c-4 0 -10.667 -22.5 -20 -67.5s-30 -67.5 -62 -67.5c-34 0 -51 17.333 -51 52v22l2 5c0 1.33301 0.333008 2.83301 1 4.5s2 6.5 4 14.5l7 25
c-3.33301 0 -7.33301 -4 -12 -12l-4 -10l-5 -10c-1.33301 -4 -4.66602 -13 -9.99902 -27c-22 -63.333 -55.667 -95 -101 -95c-44.667 0 -67 17 -67 51c0 12 3.66699 27.833 11 47.5s11 32.5 11 38.5c-4.66699 -2.66699 -13.667 -15 -27 -37
c-7.33301 -15.333 -12 -25.666 -14 -30.999c-3.33301 -10.667 -5 -24.334 -5 -41.001c1.33301 -11.333 5.33301 -28.333 12 -51c12 -22.667 30.667 -34 56 -34c40 0 74.667 21.333 104 64c4 6 8.66699 9 14 9zM128.001 1133l321 124l-17 -76l-327 -124zM144.001 1121
l-12 -35l284 107l9 37z" />
    <glyph glyph-name="uFDF2" unicode="&#xfedf;&#xfee0;&#xfeea;" horiz-adv-x="1540" arabic-form="isolated" 
d="M1278 157l11.998 -9.00098l-10 -12h-81c-111.333 0 -179 112.333 -203 337c-6 56.667 -11.5 119.167 -16.5 187.5s-17.167 201.833 -36.5 400.5l-12 -5c-15.333 -20 -31 -44.333 -47 -73l42 -720c0.666992 -12.667 -2 -27.667 -8 -45c-53.333 -56 -116 -84 -188 -84
c-8 0 -13.167 1.83301 -15.5 5.5s-4.5 5.5 -6.5 5.5l-19 9l-5 3c62.667 0 104.334 3.33301 125.001 10c25.333 8 54.333 28.333 87 61c5.33301 21.333 8 65.666 8 132.999c0 114.667 -6 243 -18 385l-21 247c25.333 54 52 88.333 80 103l13 -5
c11.333 -37.333 23.333 -131.666 36 -282.999l13 -144c8.66699 -105.333 16.334 -182 23.001 -230c14.667 -117.333 40.667 -195.666 78 -234.999c20.667 -22 43.667 -35 69 -39c10 -2 43.667 -3 101 -3zM1278 -0.000976562h-97.998c-72.667 0 -120.334 22.333 -143.001 67
l-65 127l-80 -138c-29.333 -38.667 -79 -58 -149 -58c-26.667 0 -48 0.666992 -64 2l-13 10c2.66699 4 36 9.33301 100 16c46.667 5.33301 80 17 100 35c16 14 35.667 45.333 59 94c22 45.333 37.667 72.333 47 81l52 -106c25.333 -52 57.666 -84.667 96.999 -98
c22 -6.66699 74.333 -10 157 -10l10 -10zM1464 1044c-3.33301 -42.667 -6.66602 -69.335 -9.99902 -80.002c-8.66699 -30 -25 -49.667 -49 -59l-7 -23c16.667 -158 30.667 -366.667 42 -626c7.33301 -170.667 -54.334 -256 -185.001 -256h-98l-13 10l13 12
c111.333 -1.33301 181.333 10.667 210 36c32 27.333 48 90 48 188c0 71.333 -6.83301 178.333 -20.5 321s-20.5 249.667 -20.5 321c0 16.667 12 32 36 46c21.333 38 32 72.667 32 104c-36.667 35.333 -57 56 -61 62c-9.33301 15.333 -15.333 42.666 -18 81.999l-9 12
c-5.33301 -3.33301 -29 -52.666 -71 -147.999c-0.666992 -9.33301 3 -23 11 -41c8 -20 12.333 -33 13 -39c4.66699 -108.667 13 -222 25 -340l42 -422c2 -23.333 -5.16699 -41.166 -21.5 -53.499s-41.833 -17.166 -76.5 -14.499l-110 7l-14 2l10 12
c84.667 0 122 -0.333008 112 -1c52.667 4 77.667 19.333 75 46l-42 424c-2.66699 39.333 -7 109.333 -13 210c-8 109.333 -21 174 -39 194v14c20 46.667 53 106.667 99 180l7 4l11 -6c0.666992 -3.33301 3 -16 7 -38l7 -39c3.33301 -20 14 -38.333 32 -55
c28 -26 43.333 -41.333 46 -46zM825 9.99805l-91.0039 -9.99707c-8 -0.666992 -16 -1 -24 -1c-51.333 0 -88.666 16.667 -111.999 50c-8 11.333 -25.333 60.666 -52 147.999l-16 5c-44.667 -40.667 -70 -63.334 -76 -68.001c-30.667 -22 -61.667 -33 -93 -33h-85
c-104 0 -156 18 -156 54c0 67.333 49.667 133 149 197l207 132v88c0 59.333 15.667 104.666 47 135.999l6 2l10 -7c10.667 -16.667 30.334 -89 59.001 -217c30.667 -140.667 53.334 -233 68.001 -277c8.66699 -27.333 27.334 -43.666 56.001 -48.999
c8.66699 -2 42 -3 100 -3l9 2l-16 -8l-67 -15c-8 -2 -15.333 -3 -22 -3c-38 0 -64 19.667 -78 59c-20 55.333 -41.667 135.666 -65 240.999c-24.667 112.667 -44.667 193.667 -60 243c-19.333 -30 -27.333 -97.333 -24 -202c-10.667 -14 -39.334 -32.667 -86.001 -56
c-56 -28.667 -100.333 -56 -133 -82c-55.333 -44 -100.333 -97.333 -135 -160c-1.33301 -12.667 -2 -20.667 -2 -24c12.667 -16.667 51 -25 115 -25h79c46.667 0 85.667 14.333 117 43c38 35.333 67 56 87 62l15 -11c12 -38 34.667 -93.667 68 -167
c26.667 -21.333 93.334 -32 200.001 -32l14 -4zM529.996 268.001c-30.667 -16 -72 -24 -124 -24h-66c-40 0 -65 6.33301 -75 19c6 23.333 85 65.333 237 126c21.333 -24.667 32 -59.667 32 -105zM510.996 288.001l1 19.999c2 30.667 -4 48.334 -18 53.001
c-78.667 -29.333 -141 -59 -187 -89c12.667 -6 30 -9 52 -9c59.333 0 110 8.33301 152 25zM946.996 1287c-38 -58 -85.3311 -87 -141.998 -87c-40 0 -68.333 17.667 -85 53c-12 25.333 -18 47.333 -18 66c0 22.667 7.33301 52.667 22 90c16.667 42.667 34.334 64 53.001 64
c13.333 0 20 -6.66699 20 -20c0 -5.33301 -4 -21.666 -12 -48.999c-10 -21.333 -15 -39.333 -15 -54c0 -27.333 20.333 -41 61 -41c37.333 6.66699 62.666 21 75.999 43l35 81c18 40.667 34 61 48 61c12 0 18 -7 18 -21l-4 -24l-10 -59c0 -25.333 12.667 -40 38 -44
c20.667 0 34.334 8 41.001 24c3.33301 8.66699 6.66602 19.667 9.99902 33c5.33301 7.33301 8.66602 14.666 9.99902 21.999l6 24c10 37.333 20 57 30 59c15.333 0 23 -9.66699 23 -29c0 -14 -2 -32 -6 -54l-8 -29l-2 -12c-26.667 -96 -66 -144 -118 -144
c-28.667 0 -52.334 15.667 -71.001 47zM946.998 1307c9.33301 0 16.333 -3.99902 21 -11.999c12 -23.333 30 -35 54 -35c43.333 4.66699 75 48 95 130c12.667 49.333 19 82 19 98c-5.33301 0 -13.666 -27.167 -24.999 -81.5s-36.333 -81.5 -75 -81.5
c-40.667 0 -61 21 -61 63v26l2 6l2 6c0.666992 2 2 7.66699 4 17l9 30c-4 0 -9 -4.66699 -15 -14l-4 -12l-5 -12c-2 -4.66699 -6.33301 -15.334 -13 -32.001c-26.667 -76 -67.334 -114 -122.001 -114c-54 0 -81 20.333 -81 61c0 14 4.5 32.833 13.5 56.5
s13.5 39.167 13.5 46.5c-5.33301 -3.33301 -16.333 -18.333 -33 -45c-8.66699 -18 -14 -30 -16 -36c-4 -12.667 -6 -29.667 -6 -51c1.33301 -12.667 6 -33 14 -61c14 -26.667 36.333 -40 67 -40c48.667 0 90.667 25.667 126 77c4.66699 6.66699 10 10 16 10z" />
    <glyph glyph-name="uFEF5" unicode="&#xfedf;&#xfe82;" horiz-adv-x="1052" arabic-form="isolated" 
d="M815 1094c0 -23.333 -25.665 -55.668 -76.998 -97.001c-48 -38.667 -82.333 -58.334 -103 -59.001l-63 -2c-33.333 -1.33301 -83.666 4.33398 -150.999 17.001c-70.667 13.333 -122.334 20 -155.001 20c-18 0 -45.167 -8.16699 -81.5 -24.5s-63.833 -24.5 -82.5 -24.5
c-6.66699 0 -13.334 0.666992 -20.001 2l-8 20c2 28.667 31.333 63.334 88 104.001c55.333 38.667 98.333 58 129 58c36 0 89.167 -7.16699 159.5 -21.5s123.5 -21.5 159.5 -21.5c12 0 40.667 9 86 27c49.333 19.333 81.666 30.333 96.999 33c14.667 -4 22 -14.333 22 -31z
M795.002 1104h-23c-5.33301 0 -31 -9.5 -77 -28.5s-81 -28.5 -105 -28.5c-21.333 0 -120.333 13.333 -297 40c-28.667 4 -69.334 -12.5 -122.001 -49.5s-79 -69.5 -79 -97.5h16c16.667 0 42.5 8.83301 77.5 26.5s61.167 26.5 78.5 26.5c38.667 0 96.5 -6.16699 173.5 -18.5
s134.833 -18.5 173.5 -18.5c24 0 60.333 17.667 109 53s74.334 64.333 77.001 87zM1040 833.998c0 -14.667 -6.99902 -36.998 -20.999 -66.998c-14.667 -32.667 -28 -50 -40 -52c-19.333 -44.667 -36.666 -113 -51.999 -205c-16.667 -94.667 -33.334 -163 -50.001 -205
c2 -16 10 -47.333 24 -94c11.333 -38 17 -69.333 17 -94c0 -41.333 -6.83301 -70 -20.5 -86s-40.5 -26.333 -80.5 -31c-58 -6.66699 -127.667 -11.334 -209 -14.001l-26 4c-2.66699 2.66699 -6.33398 9.33398 -11.001 20.001c0 4.66699 -0.333008 11.167 -1 19.5
s-1 14.833 -1 19.5c0 28 3 54 9 78l8 8l47 -8c27.333 0 76.333 47 147 141l2 8c0 31.333 -51.333 96.666 -154 195.999c-86 83.333 -154 142.333 -204 177c-19.333 -6.66699 -34.333 -10 -45 -10c-44.667 0 -98 26 -160 78c-2.66699 11.333 -4 34.666 -4 69.999
c0 76 12 112.333 36 109l7 -1c50.667 -7.33301 125.667 -52.333 225 -135c84.667 -70.667 147.667 -133.667 189 -189l155 -202l15 18c11.333 48.667 25.666 175 42.999 379c0.666992 10 -1.16602 25 -5.49902 45s-6.5 34.333 -6.5 43c0 14 11.833 43.167 35.5 87.5
s41.167 66.5 52.5 66.5c12 0 18 -26 18 -78c0 -16.667 20.333 -48.667 61 -96zM1022 831c-42.667 49.333 -64.001 82.334 -64.001 99.001c0 23.333 -2 41.666 -6 54.999c-5.33301 -7.33301 -16.666 -31.666 -33.999 -72.999s-26 -65 -26 -71
c0 -8.66699 2.16699 -21.167 6.5 -37.5s6.5 -28.833 6.5 -37.5c0 -52 -5.33301 -122.333 -16 -211c-13.333 -111.333 -29 -178.333 -47 -201l-12 -7l-11 3l-223 284c-83.333 102.667 -178.333 174.667 -285 216c-25.333 10 -43.666 16.667 -54.999 20
c-16.667 0 -25 -37.333 -25 -112c0 -10.667 1.66699 -20.334 5 -29.001c50.667 -49.333 99 -74 145 -74c22 0 37.667 5 47 15c50 -34.667 120.667 -97.334 212 -188.001c107.333 -106 161 -175.333 161 -208l-2 -8c-78 -102 -138.667 -153 -182 -153
c-8 0 -15.667 1.33301 -23 4c-6.66699 -18 -10 -40 -10 -66c0 -14 2.66699 -29 8 -45c49.333 -3.33301 77.666 -5 84.999 -5c138.667 0 210 14 214 42l8 57c0 26.667 -5.66699 61.334 -17 104.001c-14 52.667 -22 87 -24 103c17.333 38.667 34 98.334 50 179.001
c18 89.333 32.667 150 44 182c2 5.33301 16 32.666 42 81.999c18.667 35.333 28 62.333 28 81zM866.002 137.001c-26.667 -4 -67 -11.999 -121 -23.999c6 41.333 31.333 80 76 116c30 -14.667 45 -45.334 45 -92.001zM850.002 150.002c0 17.333 -3.99902 33 -11.999 47
l-17 12c-31.333 -30.667 -49 -56.667 -53 -78c19.333 0.666992 46.666 7 81.999 19z" />
    <glyph glyph-name="uFEF6" unicode="&#xfee0;&#xfe82;" horiz-adv-x="1161" arabic-form="final" 
d="M1106 0c-70.667 0 -120.001 28.9961 -148.001 86.9961c-17.333 36 -28.666 96.833 -33.999 182.5s-15 143.834 -29 174.501c-23.333 -152.667 -76.333 -271.667 -159 -357c-90 -93.333 -209.667 -140 -359 -140c-54 0 -85.333 2.66699 -94 8
c3.33301 14 43.333 36.667 120 68c98 40 167.333 72.667 208 98c73.333 45.333 110 93 110 143c0 58.667 -40 142.334 -120 251.001c-76.667 104.667 -131.667 157 -165 157l-29 -13c-20.667 -9.33301 -34.667 -14 -42 -14c-18.667 0 -46.5 17.667 -83.5 53
s-55.5 62.333 -55.5 81c0 20 5.33301 44.333 16 73c12.667 33.333 26.667 50 42 50c3.33301 0 7.66602 -1 12.999 -3c144 -52.667 284 -179 420 -379c27.333 -40 45.666 -106 54.999 -198l6 -7c37.333 96.667 56.666 192.334 57.999 287.001c0 2.66699 -1.33301 40 -4 112
c-2.66699 62.667 13 127.667 47 195c23.333 46.667 41 70 53 70c14.667 0 22 -28.667 22 -86c0 -132 8.33301 -270.333 25 -415c24 -208 58.333 -322.333 103 -343c24.667 -4.66699 56.667 -6 96 -4l8 -12l-6 -6h-64c-51.333 0 -86.666 25 -105.999 75
c-6.66699 16.667 -16 65 -28 145c-20 130.667 -33.333 257.667 -40 381c-4 76.667 -9.33301 155.334 -16 236.001c-34 -51.333 -55.667 -113.333 -65 -186c-2 -15.333 -4.66699 -82 -8 -200c-2.66699 -18.667 -18.667 -88 -48 -208c-4.66699 -18 -13 -41 -25 -69l-10 -6
l-4 6c-15.333 98 -31.333 162.333 -48 193c-74 137.333 -172.667 245.666 -296 324.999c-71.333 46 -113.666 69 -126.999 69c-27.333 0 -41 -39.333 -41 -118c46 -57.333 82 -86 108 -86c10 0 24.167 4.16699 42.5 12.5s28.833 12.5 31.5 12.5c36 0 95.333 -56 178 -168
c84.667 -115.333 127 -203 127 -263c0 -71.333 -58.333 -134.666 -175 -189.999c-9.33301 -4.66699 -95.666 -41 -258.999 -109c13.333 -2.66699 31 -4 53 -4c250 0 412.667 127.667 488 383c30 100.667 47 152.667 51 156
c2.66699 -4.66699 5.33398 -10.334 8.00098 -17.001c7.33301 -76.667 15.666 -149 24.999 -217c16 -117.333 44 -189.666 84 -216.999c30 -20.667 84.667 -31 164 -31l13 -8c-4 -6.66699 -33 -10 -87 -10zM814.999 1094c0 -23.333 -25.665 -55.668 -76.998 -97.001
c-48 -38.667 -82.333 -58.334 -103 -59.001l-63 -2c-33.333 -1.33301 -83.666 4.33398 -150.999 17.001c-70.667 13.333 -122.334 20 -155.001 20c-18 0 -45.167 -8.16699 -81.5 -24.5s-63.833 -24.5 -82.5 -24.5c-6.66699 0 -13.334 0.666992 -20.001 2l-8 20
c2 28.667 31.333 63.334 88 104.001c55.333 38.667 98.333 58 129 58c36 0 89.167 -7.16699 159.5 -21.5s123.5 -21.5 159.5 -21.5c12 0 40.667 9 86 27c49.333 19.333 81.666 30.333 96.999 33c14.667 -4 22 -14.333 22 -31zM795.001 1103.99h-22.999
c-5.33301 0 -31 -9.5 -77 -28.5s-81 -28.5 -105 -28.5c-21.333 0 -120.333 13.333 -297 40c-28.667 4 -69.334 -12.5 -122.001 -49.5s-79 -69.5 -79 -97.5h16c16.667 0 42.5 8.83301 77.5 26.5s61.167 26.5 78.5 26.5c36.667 0 91 -6.16699 163 -18.5
s126.333 -18.5 163 -18.5c34 0 74.667 15 122 45c50 32 78.333 63.667 85 95z" />
    <glyph glyph-name="uFEF7" unicode="&#xfedf;&#xfe84;" horiz-adv-x="1060" arabic-form="isolated" 
d="M1040 834c0 -14.667 -7 -37 -21 -67c-14.667 -32.667 -28 -50 -40 -52c-19.333 -44.667 -36.666 -113 -51.999 -205c-16.667 -94.667 -33.334 -163 -50.001 -205c2 -16 10 -47.333 24 -94c11.333 -38 17 -69.333 17 -94c0 -41.333 -6.83301 -70 -20.5 -86
s-40.5 -26.333 -80.5 -31c-58 -6.66699 -127.667 -11.334 -209 -14.001l-26 4c-2.66699 2.66699 -6.33398 9.33398 -11.001 20.001c0.666992 10.667 0.666992 22.334 0 35.001c-1.33301 22 -2 33.667 -2 35c0 36.667 5.66699 55 17 55c4 0 10.167 -1.33301 18.5 -4
s14.5 -4 18.5 -4c20 0 51.667 20 95 60s65 69.667 65 89c0 30.667 -51.667 96 -155 196c-87.333 84.667 -155.333 143.667 -204 177c-19.333 -6.66699 -34.333 -10 -45 -10c-44.667 0 -98 26 -160 78c-2.66699 11.333 -4 34.666 -4 69.999c0 72.667 12.667 109 38 109
c10.667 0 40.334 -13.333 89.001 -40c104 -56.667 193.333 -130 268 -220l217 -267l15 18c11.333 48.667 25.666 175 42.999 379c0.666992 10 -1.16602 25 -5.49902 45s-6.5 34.333 -6.5 43c0 14 11.833 43.167 35.5 87.5s41.167 66.5 52.5 66.5c12 0 18 -26 18 -78
c0 -14.667 7.66699 -31.667 23 -51c2 -2.66699 14.667 -17.667 38 -45zM1022 831c-42.667 49.333 -64.001 82.335 -64.001 99.002c0 23.333 -2 41.666 -6 54.999c-5.33301 -7.33301 -16.666 -31.666 -33.999 -72.999s-26 -65 -26 -71c0 -8.66699 2.16699 -21.167 6.5 -37.5
s6.5 -28.833 6.5 -37.5c0 -52 -5.33301 -122.333 -16 -211c-13.333 -111.333 -29 -178.333 -47 -201l-12 -7l-11 3l-209 263c-73.333 90 -158 161.333 -254 214c-52 28.667 -85.333 43 -100 43c-16.667 0 -25 -37.333 -25 -112c0 -10.667 1.66699 -20.334 5 -29.001
c50.667 -49.333 99 -74 145 -74c22 0 37.667 5 47 15c50 -34.667 120.667 -97.334 212 -188.001c107.333 -106 161 -175.333 161 -208l-2 -8c-33.333 -44 -58.666 -75 -75.999 -93c-36 -36.667 -68.667 -57.334 -98 -62.001l-31 6c-6.66699 -34 -10 -56 -10 -66
c0 -14 2.66699 -29 8 -45c49.333 -3.33301 77.666 -5 84.999 -5c138.667 0 210 14 214 42l8 57c0 26.667 -5.66699 61.334 -17 104.001c-14 52.667 -22 87 -24 103c14 30.667 25.667 68.667 35 114c4 22 12.333 61.333 25 118c20 86.667 48.667 164 86 232
c12 22 18 42 18 60zM865.999 137.002c-26.667 -4 -67 -11.999 -121 -23.999c6 41.333 31.333 80 76 116c30 -14.667 45 -45.334 45 -92.001zM849.999 150.003c0 17.333 -3.99902 33 -11.999 47l-17 12c-31.333 -30.667 -49 -56.667 -53 -78
c19.333 0.666992 46.666 7 81.999 19zM504 1130c4 -8 6 -16.001 6 -24.001c0 -32 -11.667 -49 -35 -51c-56 -5.33301 -89.333 -9 -100 -11c-26.667 -5.33301 -58.667 -20.333 -96 -45l-9 2c-6 6 -8.66699 12.333 -8 19c4.66699 8.66699 13 19.667 25 33l2 16
c-1.33301 3.33301 -10 14 -26 32c-10 11.333 -15 24 -15 38c0 27.333 19.667 58.333 59 93s73 52 101 52c38 0 57 -17.667 57 -53c0 -29.333 -14.333 -46.666 -43 -51.999c-12.667 5.33301 -31.667 12.333 -57 21c-19.333 -5.33301 -32 -16.333 -38 -33
c10 -30 42.333 -45 97 -45c25.333 0 52 2.66699 80 8zM487 1114c-80 -6.66699 -112.668 -10.001 -98.001 -10.001l-28 3c-36.667 22 -55 42.333 -55 61l5 16c19.333 24.667 37.333 37 54 37c7.33301 0 18.833 -4 34.5 -12s24.834 -12 27.501 -12
c9.33301 0 15.333 11.667 18 35c-4.66699 22.667 -19.334 34 -44.001 34c-24 0 -52 -15.167 -84 -45.5s-48 -57.5 -48 -81.5c0 -7.33301 5.66699 -18.666 17 -33.999c12 -18 19 -30 21 -36c-3.33301 -12 -10.666 -25 -21.999 -39v-8h8c40 32.667 100 49 180 49
c10.667 6 16.667 17 18 33z" />
    <glyph glyph-name="uFEF8" unicode="&#xfee0;&#xfe84;" horiz-adv-x="1155" arabic-form="final" 
d="M1106 0c-70.667 0 -120.001 28.9961 -148.001 86.9961c-17.333 36 -28.666 96.833 -33.999 182.5s-15 143.834 -29 174.501c-23.333 -152.667 -76.333 -271.667 -159 -357c-90 -93.333 -209.667 -140 -359 -140c-54 0 -85.333 2.66699 -94 8
c3.33301 14 43.333 36.667 120 68c98 40 167.333 72.667 208 98c73.333 45.333 110 93 110 143c0 58.667 -40 142.334 -120 251.001c-76.667 104.667 -131.667 157 -165 157l-29 -13c-20.667 -9.33301 -34.667 -14 -42 -14c-18.667 0 -46.5 17.667 -83.5 53
s-55.5 62.333 -55.5 81c0 20 5.33301 44.333 16 73c12.667 33.333 26.667 50 42 50c3.33301 0 7.66602 -1 12.999 -3c144 -52.667 284 -179 420 -379c27.333 -40 45.666 -106 54.999 -198l6 -7c37.333 96.667 56.666 192.334 57.999 287.001c0 2.66699 -1.33301 40 -4 112
c-2.66699 62.667 13 127.667 47 195c23.333 46.667 41 70 53 70c14.667 0 22 -28.667 22 -86c0 -132 8.33301 -270.333 25 -415c24 -208 58.333 -322.333 103 -343c24.667 -4.66699 56.667 -6 96 -4l8 -12l-6 -6h-64c-51.333 0 -86.666 25 -105.999 75
c-6.66699 16.667 -16 65 -28 145c-20 130.667 -33.333 257.667 -40 381c-4 76.667 -9.33301 155.334 -16 236.001c-34 -51.333 -55.667 -113.333 -65 -186c-2 -15.333 -4.66699 -82 -8 -200c-2.66699 -18.667 -18.667 -88 -48 -208c-4.66699 -18 -13 -41 -25 -69l-10 -6
l-4 6c-15.333 98 -31.333 162.333 -48 193c-74 137.333 -172.667 245.666 -296 324.999c-71.333 46 -113.666 69 -126.999 69c-27.333 0 -41 -39.333 -41 -118c46 -57.333 82 -86 108 -86c10 0 24.167 4.16699 42.5 12.5s28.833 12.5 31.5 12.5c36 0 95.333 -56 178 -168
c84.667 -115.333 127 -203 127 -263c0 -71.333 -58.333 -134.666 -175 -189.999c-9.33301 -4.66699 -95.666 -41 -258.999 -109c13.333 -2.66699 31 -4 53 -4c250 0 412.667 127.667 488 383c30 100.667 47 152.667 51 156
c2.66699 -4.66699 5.33398 -10.334 8.00098 -17.001c7.33301 -76.667 15.666 -149 24.999 -217c16 -117.333 44 -189.666 84 -216.999c30 -20.667 84.667 -31 164 -31l13 -8c-4 -6.66699 -33 -10 -87 -10zM435.999 1128c4 -8 6.00195 -16.001 6.00195 -24.001
c0 -28.667 -16 -47.334 -48 -56.001c-28 -3.33301 -55.833 -7 -83.5 -11s-60.834 -17.333 -99.501 -40l-8 2c-6 6 -8.66699 12.333 -8 19c5.33301 8 13.333 19 24 33l2 16c-2 4.66699 -10.333 15.667 -25 33c-10.667 12.667 -16 25 -16 37c0 26.667 19.833 57.5 59.5 92.5
s73.167 52.5 100.5 52.5c38 0 57 -17.667 57 -53c0 -30 -14 -47.333 -42 -52c-6 0.666992 -15.333 4.33398 -28 11.001s-22.667 10 -30 10c-17.333 0 -30 -11 -38 -33c6.66699 -19.333 22 -33.666 46 -42.999c13.333 -1.33301 30.666 -2 51.999 -2c28.667 0 55 2.66699 79 8
zM420.001 1112c-80 -6.66699 -112.667 -10 -98 -10c-16 0 -34 6.83301 -54 20.5s-30 28.167 -30 43.5c11.333 35.333 31 53 59 53c12.667 0 31 -7.66699 55 -23c12 3.33301 20.667 14.666 26 33.999c-5.33301 22.667 -20 34 -44 34s-52 -15.167 -84 -45.5
s-48 -57.5 -48 -81.5c0 -7.33301 5.66699 -18.666 17 -33.999c12 -17.333 19 -29.333 21 -36c-3.33301 -11.333 -11 -24.333 -23 -39v-8h8c32.667 25.333 71 40 115 44l68 6c10 6.66699 15 17 15 31z" />
    <glyph glyph-name="uFEF9" unicode="&#xfedf;&#xfe88;" horiz-adv-x="1060" arabic-form="isolated" 
d="M1040 834c0 -16 -6.66602 -38.332 -19.999 -66.999c-15.333 -32.667 -29 -50 -41 -52c-19.333 -44.667 -36.666 -113 -51.999 -205c-16.667 -94.667 -33.334 -163 -50.001 -205c2 -16 10 -47.333 24 -94c11.333 -38 17 -69.333 17 -94c0 -41.333 -6.83301 -70 -20.5 -86
s-40.5 -26.333 -80.5 -31c-58 -6.66699 -127.667 -11.334 -209 -14.001l-26 4c-2.66699 2.66699 -6.33398 9.33398 -11.001 20.001c-1.33301 18.667 -2 31.667 -2 39c0 47.333 5.66699 76 17 86l37 -8c20 0 51.667 20 95 60s65 69.667 65 89c0 30.667 -51.667 96 -155 196
c-87.333 84.667 -155.333 143.667 -204 177c-19.333 -6.66699 -34.333 -10 -45 -10c-44.667 0 -98 26 -160 78c-2.66699 11.333 -4 34.666 -4 69.999c0 72.667 12.333 109 37 109l6 -1c52.667 -8.66699 128 -53.667 226 -135c83.333 -69.333 146 -132.333 188 -189l155 -202
l15 18c11.333 48.667 25.666 175 42.999 379c0.666992 10 -1.16602 25 -5.49902 45s-6.5 34.333 -6.5 43c0 14 11.833 43.167 35.5 87.5s41.167 66.5 52.5 66.5c12 0 18 -26 18 -78c0 -16.667 20.333 -48.667 61 -96zM1022 831.001
c-42.667 49.333 -64.002 82.3359 -64.002 99.0029c0 23.333 -2 41.666 -6 54.999c-5.33301 -7.33301 -16.666 -31.666 -33.999 -72.999s-26 -65 -26 -71c0 -8.66699 2.16699 -21.167 6.5 -37.5s6.5 -28.833 6.5 -37.5c0 -52 -5.33301 -122.333 -16 -211
c-13.333 -111.333 -29 -178.333 -47 -201l-12 -7l-11 3l-223 284c-83.333 102.667 -178.333 174.667 -285 216c-25.333 10 -43.666 16.667 -54.999 20c-16.667 0 -25 -37.333 -25 -112c0 -10.667 1.66699 -20.334 5 -29.001c50.667 -49.333 99 -74 145 -74
c22 0 37.667 5 47 15c50 -34.667 120.667 -97.334 212 -188.001c107.333 -106 161 -175.333 161 -208l-2 -8c-33.333 -44 -58.666 -75 -75.999 -93c-36 -36.667 -68.667 -57.334 -98 -62.001l-31 6c-6.66699 -14 -10 -38.333 -10 -73c0 -8.66699 2.66699 -21.334 8 -38.001
c49.333 -3.33301 77.666 -5 84.999 -5c138.667 0 210 14 214 42l8 57c0 26.667 -5.66699 61.334 -17 104.001c-14 52.667 -22 87 -24 103c17.333 38.667 34 98.334 50 179.001c18 89.333 32.667 150 44 182c2 5.33301 16 32.666 42 81.999c18.667 35.333 28 62.333 28 81z
M865.999 137.004c-26.667 -4 -67 -11.999 -121 -23.999c6 41.333 31.333 80 76 116c30 -14.667 45 -45.334 45 -92.001zM849.999 150.005c0 17.333 -3.99902 33 -11.999 47l-17 12c-31.333 -30.667 -49 -56.667 -53 -78c19.333 0.666992 46.666 7 81.999 19zM502 -153.995
c4 -8 6.00098 -16.002 6.00098 -24.002c0 -34 -11.667 -51 -35 -51c-67.333 0 -133 -18.667 -197 -56l-8 2c-6 6 -8.66699 12.333 -8 19c9.33301 14 17.666 25 24.999 33l2 16c-2.66699 4.66699 -11 15.334 -25 32.001c-10.667 12.667 -16 25.334 -16 38.001
c0 28 19.5 59.167 58.5 93.5s72.833 51.5 101.5 51.5c38 0 57 -17.667 57 -53c0 -27.333 -14.333 -45 -43 -53c-2.66699 0.666992 -12 5 -28 13c-12 6 -22 9 -30 9c-16 0 -28.333 -11 -37 -33c10 -30 34.667 -45 74 -45c11.333 0 28.5 1.33301 51.5 4s40.167 4 51.5 4z
M485.001 -169.997l-29.999 0.00195312c-8 0 -21.5 -2 -40.5 -6s-33.5 -5.33301 -43.5 -4c-38.667 19.333 -61 40.666 -67 63.999l5 16c19.333 24.667 37 37 53 37c7.33301 0 19 -4 35 -12s25.333 -12 28 -12c9.33301 0 15.333 11.667 18 35
c-4.66699 22.667 -19.334 34 -44.001 34s-52.834 -15.167 -84.501 -45.5s-47.5 -57.833 -47.5 -82.5c0 -6.66699 6 -18 18 -34s18.667 -27.667 20 -35c-3.33301 -12 -10.666 -25 -21.999 -39v-8h8c25.333 22.667 62 37 110 43c12.667 1.33301 36.667 3.66602 72 6.99902
c10 6.66699 15 17 15 31z" />
    <glyph glyph-name="uFEFA" unicode="&#xfee0;&#xfe88;" horiz-adv-x="1161" arabic-form="final" 
d="M1106 0c-70.667 0 -120.001 28.9961 -148.001 86.9961c-17.333 36 -28.666 96.833 -33.999 182.5s-15 143.834 -29 174.501c-23.333 -152.667 -76.333 -271.667 -159 -357c-90 -93.333 -209.667 -140 -359 -140c-54 0 -85.333 2.66699 -94 8
c3.33301 14 43.333 36.667 120 68c98 40 167.333 72.667 208 98c73.333 45.333 110 93 110 143c0 58.667 -40 142.334 -120 251.001c-76.667 104.667 -131.667 157 -165 157l-29 -13c-20.667 -9.33301 -34.667 -14 -42 -14c-18.667 0 -46.5 17.667 -83.5 53
s-55.5 62.333 -55.5 81c0 20 5.33301 44.333 16 73c12.667 33.333 26.667 50 42 50c3.33301 0 7.66602 -1 12.999 -3c144 -52.667 284 -179 420 -379c27.333 -40 45.666 -106 54.999 -198l6 -7c37.333 96.667 56.666 192.334 57.999 287.001c0 2.66699 -1.33301 40 -4 112
c-2.66699 62.667 13 127.667 47 195c23.333 46.667 41 70 53 70c14.667 0 22 -28.667 22 -86c0 -132 8.33301 -270.333 25 -415c24 -208 58.333 -322.333 103 -343c24.667 -4.66699 56.667 -6 96 -4l8 -12l-6 -6h-64c-51.333 0 -86.666 25 -105.999 75
c-6.66699 16.667 -16 65 -28 145c-20 130.667 -33.333 257.667 -40 381c-4 76.667 -9.33301 155.334 -16 236.001c-34 -51.333 -55.667 -113.333 -65 -186c-2 -15.333 -4.66699 -82 -8 -200c-2.66699 -18.667 -18.667 -88 -48 -208c-4.66699 -18 -13 -41 -25 -69l-10 -6
l-4 6c-15.333 98 -31.333 162.333 -48 193c-74 137.333 -172.667 245.666 -296 324.999c-71.333 46 -113.666 69 -126.999 69c-27.333 0 -41 -39.333 -41 -118c46 -57.333 82 -86 108 -86c10 0 24.167 4.16699 42.5 12.5s28.833 12.5 31.5 12.5c36 0 95.333 -56 178 -168
c84.667 -115.333 127 -203 127 -263c0 -71.333 -58.333 -134.666 -175 -189.999c-9.33301 -4.66699 -95.666 -41 -258.999 -109c13.333 -2.66699 31 -4 53 -4c250 0 412.667 127.667 488 383c30 100.667 47 152.667 51 156
c2.66699 -4.66699 5.33398 -10.334 8.00098 -17.001c7.33301 -76.667 15.666 -149 24.999 -217c16 -117.333 44 -189.666 84 -216.999c30 -20.667 84.667 -31 164 -31l13 -8c-4 -6.66699 -33 -10 -87 -10zM232.999 -252.004c4.66699 -8.66699 7.00098 -16.667 7.00098 -24
c0 -30 -24 -49 -72 -57c-68 -10.667 -107 -19 -117 -25l-43 -25l-8 2c-5.33301 6 -8 12.333 -8 19c4.66699 8 12.667 18.667 24 32l2 17l-25 32c-10.667 12.667 -16 25 -16 37c0 27.333 19.667 58.5 59 93.5s73 52.5 101 52.5c38.667 0 58 -18 58 -54
c0 -30 -14.333 -47.333 -43 -52c-6 0.666992 -15.333 4.5 -28 11.5s-22.667 10.5 -30 10.5c-10.667 0 -23 -9.66699 -37 -29c0.666992 -14 10 -26 28 -36c15.333 -8.66699 30.666 -13 45.999 -13c11.333 0 28.333 1.33301 51 4s39.667 4 51 4zM217 -268.004
l-30.998 0.000976562c-7.33301 0 -18.5 -1.83301 -33.5 -5.5s-26.167 -5.5 -33.5 -5.5c-16.667 0 -34.667 6.66699 -54 20s-29 28 -29 44c0 11.333 6.83301 23 20.5 35s26.167 18 37.5 18c14.667 0 33.334 -7.33301 56.001 -22c11.333 1.33301 19.666 12.666 24.999 33.999
c-4.66699 22 -19.334 33 -44.001 33c-24 0 -52 -14.667 -84 -44s-48 -56 -48 -80c0 -5.33301 5.33301 -17 16 -35l22 -37c-4.66699 -14.667 -12.334 -27.667 -23.001 -39v-8h9c41.333 32.667 101.333 49 180 49c11.333 6 17 16.667 17 32z" />
    <glyph glyph-name="uFEFB" unicode="&#xfedf;&#xfe8e;" horiz-adv-x="1064" arabic-form="isolated" 
d="M1040 834c0 -14.667 -6.99902 -37 -20.999 -67c-14.667 -32.667 -28 -50 -40 -52c-19.333 -44.667 -36.666 -113 -51.999 -205c-16.667 -94.667 -33.334 -163 -50.001 -205c2 -16 10 -47.333 24 -94c11.333 -38 17 -69.333 17 -94c0 -41.333 -6.83301 -70 -20.5 -86
s-40.5 -26.333 -80.5 -31c-58 -6.66699 -127.667 -11.334 -209 -14.001l-26 4c-2.66699 2.66699 -6.33398 9.33398 -11.001 20.001c0.666992 10.667 0.666992 22.334 0 35.001c-1.33301 22 -2 33.667 -2 35c0 36.667 5.66699 55 17 55c4 0 10.167 -1.33301 18.5 -4
s14.5 -4 18.5 -4c20 0 51.667 20 95 60s65 69.667 65 89c0 30.667 -51.667 96 -155 196c-87.333 84.667 -155.333 143.667 -204 177c-19.333 -6.66699 -34.333 -10 -45 -10c-44.667 0 -98 26 -160 78c-2.66699 11.333 -4 34.666 -4 69.999c0 72.667 12.667 109 38 109
c4 0 23.333 -8.66699 58 -26c122 -60.667 219 -135 291 -223l225 -278l15 18c11.333 48.667 25.666 175 42.999 379c0.666992 10 -1.16602 25 -5.49902 45s-6.5 34.333 -6.5 43c0 14 11.833 43.167 35.5 87.5s41.167 66.5 52.5 66.5c12 0 18 -26 18 -78
c0 -14.667 7.66699 -31.667 23 -51c2 -2.66699 14.667 -17.667 38 -45zM1022 831c-42.667 49.333 -64.001 82.335 -64.001 99.002c0 23.333 -2 41.666 -6 54.999c-5.33301 -7.33301 -16.666 -31.666 -33.999 -72.999s-26 -65 -26 -71c0 -8.66699 2.16699 -21.167 6.5 -37.5
s6.5 -28.833 6.5 -37.5c0 -52 -5.33301 -122.333 -16 -211c-13.333 -111.333 -29 -178.333 -47 -201l-12 -7l-11 3l-207 260c-72 87.333 -156 158.333 -252 213c-55.333 31.333 -90 47 -104 47c-16.667 0 -25 -37.333 -25 -112c0 -10.667 1.66699 -20.334 5 -29.001
c50.667 -49.333 99 -74 145 -74c22 0 37.667 5 47 15c50 -34.667 120.667 -97.334 212 -188.001c107.333 -106 161 -175.333 161 -208l-2 -8c-33.333 -44 -58.666 -75 -75.999 -93c-36 -36.667 -68.667 -57.334 -98 -62.001l-31 6c-6.66699 -34 -10 -56 -10 -66
c0 -14 2.66699 -29 8 -45c49.333 -3.33301 77.666 -5 84.999 -5c138.667 0 210 14 214 42l8 57c0 26.667 -5.66699 61.334 -17 104.001c-14 52.667 -22 87 -24 103c17.333 38.667 34 98.334 50 179.001c17.333 88 32 148.667 44 182c2 5.33301 16 32.666 42 81.999
c18.667 35.333 28 62.333 28 81zM866 137.002c-26.667 -4 -67 -11.999 -121 -23.999c6 41.333 31.333 80 76 116c30 -14.667 45 -45.334 45 -92.001zM850 150.003c0 17.333 -3.99902 33 -11.999 47l-17 12c-31.333 -30.667 -49 -56.667 -53 -78
c19.333 0.666992 46.666 7 81.999 19z" />
    <glyph glyph-name="uFEFC" unicode="&#xfee0;&#xfe8e;" horiz-adv-x="1157" arabic-form="final" 
d="M1106 0c-70.667 0 -120.001 28.9961 -148.001 86.9961c-17.333 36 -28.666 96.833 -33.999 182.5s-15 143.834 -29 174.501c-23.333 -152.667 -76.333 -271.667 -159 -357c-90 -93.333 -209.667 -140 -359 -140c-54 0 -85.333 2.66699 -94 8
c3.33301 14 43.333 36.667 120 68c98 40 167.333 72.667 208 98c73.333 45.333 110 93 110 143c0 58.667 -40 142.334 -120 251.001c-76.667 104.667 -131.667 157 -165 157l-29 -13c-20.667 -9.33301 -34.667 -14 -42 -14c-18.667 0 -46.5 17.667 -83.5 53
s-55.5 62.333 -55.5 81c0 20 5.33301 44.333 16 73c12.667 33.333 26.667 50 42 50c3.33301 0 7.66602 -1 12.999 -3c144 -52.667 284 -179 420 -379c27.333 -40 45.666 -106 54.999 -198l6 -7c37.333 96.667 56.666 192.334 57.999 287.001c0 2.66699 -1.33301 40 -4 112
c-2.66699 62.667 13 127.667 47 195c23.333 46.667 41 70 53 70c14.667 0 22 -28.667 22 -86c0 -132 8.33301 -270.333 25 -415c24 -208 58.333 -322.333 103 -343c24.667 -4.66699 56.667 -6 96 -4l8 -12l-6 -6h-64c-51.333 0 -86.666 25 -105.999 75
c-6.66699 16.667 -16 65 -28 145c-20 130.667 -33.333 257.667 -40 381c-4 76.667 -9.33301 155.334 -16 236.001c-34 -51.333 -55.667 -113.333 -65 -186c-2 -15.333 -4.66699 -82 -8 -200c-2.66699 -18.667 -18.667 -88 -48 -208c-4.66699 -18 -13 -41 -25 -69l-10 -6
l-4 6c-15.333 98 -31.333 162.333 -48 193c-74 137.333 -172.667 245.666 -296 324.999c-71.333 46 -113.666 69 -126.999 69c-27.333 0 -41 -39.333 -41 -118c46 -57.333 82 -86 108 -86c10 0 24.167 4.16699 42.5 12.5s28.833 12.5 31.5 12.5c36 0 95.333 -56 178 -168
c84.667 -115.333 127 -203 127 -263c0 -71.333 -58.333 -134.666 -175 -189.999c-9.33301 -4.66699 -95.666 -41 -258.999 -109c13.333 -2.66699 31 -4 53 -4c250 0 412.667 127.667 488 383c30 100.667 47 152.667 51 156
c2.66699 -4.66699 5.33398 -10.334 8.00098 -17.001c7.33301 -76.667 15.666 -149 24.999 -217c16 -117.333 44 -189.666 84 -216.999c30 -20.667 84.667 -31 164 -31l13 -8c-4 -6.66699 -33 -10 -87 -10z" />
    <glyph glyph-name="u0652_u064E.liga" unicode="&#x652;&#x64e;" horiz-adv-x="1" 
d="M88 819l-8 308l65 -37l6 -314zM104 828l29 -21l-4 274l-32 18z" />
    <glyph glyph-name="u0652_u064B.liga" unicode="&#x652;&#x64b;" horiz-adv-x="1" 
d="M163 643l-84 65l-62 -65l84 -68zM337 647l-82 66l-64 -68l82 -72zM177 657l76 82l114 -90l-90 -106l-98 86l-76 -82l-117 92l93 96z" />
    <glyph glyph-name="u0652_u064D.liga" unicode="&#x652;&#x64d;" horiz-adv-x="1" 
d="M349 -599l-84 65l-62 -65l84 -68zM523 -595l-82 66l-64 -68l82 -72zM363 -585l76 82l114 -90l-90 -106l-98 86l-76 -82l-117 92l93 96z" />
    <glyph glyph-name="u0622" unicode="&#x622;" horiz-adv-x="568" arabic-form="isolated" 
d="M276 147l-24 832c-34.667 -54 -51.667 -89.667 -51 -107l22 -608c3.33301 -86 8.33301 -163.667 15 -233l4 -2l13 15c14.667 36 21.667 70.333 21 103zM296 117c0.666992 -18.667 -5.66602 -42.333 -18.999 -71c-14.667 -32 -30 -48 -46 -48
c-8 4.66699 -13.667 43.667 -17 117l-34 757c-0.666992 17.333 8.66602 43.333 27.999 78c20 37.333 37.333 57.333 52 60c8.66699 -9.33301 20.667 -307 36 -893zM672 1257c0 -48 -59.999 -99.668 -179.999 -155.001l-54 -2c-28.667 -1.33301 -81.334 4 -158.001 16
c-73.333 11.333 -125.666 18.333 -156.999 21c-8 0.666992 -34.333 -7.16602 -79 -23.499s-75.334 -24.5 -92.001 -24.5c-4.66699 0 -9 0.333008 -13 1c-6.66699 2.66699 -10 7 -10 13c0 30 28.667 66.333 86 109c55.333 40 99.333 60 132 60
c36 0 89.333 -7.16699 160 -21.5s124 -21.5 160 -21.5c20 0 50.333 10 91 30s71 30 91 30c15.333 0 23 -10.667 23 -32zM651.001 1268l-22.002 -0.00195312c-96.667 -38.667 -157.667 -58 -183 -58c-42 0 -91.333 5 -148 15l-148 26c-26 4.66699 -66 -12.166 -120 -50.499
s-81 -70.5 -81 -96.5c18.667 0 48 8.83301 88 26.5s68 26.5 84 26.5c36.667 0 91.334 -6.16699 164.001 -18.5s127.334 -18.5 164.001 -18.5c30 0 70.667 16 122 48c54.667 34.667 82 65.334 82 92.001z" />
    <glyph glyph-name="u0623" unicode="&#x623;" horiz-adv-x="384" arabic-form="isolated" 
d="M360 1143c4.66699 -8.66699 7.00293 -17.002 7.00293 -25.002c0 -34 -11.667 -51 -35 -51c-70 0 -135.667 -18.333 -197 -55l-8 2c-4.66699 5.33301 -7.33398 11.333 -8.00098 18c4.66699 8 12.667 19 24 33l2 16c-0.666992 1.33301 -9.33398 12.333 -26.001 33
c-10 12.667 -15 25 -15 37c0 26.667 19.833 57.5 59.5 92.5s73.167 52.5 100.5 52.5c20 0 37 -9.33301 51 -28l7 -25c0 -25.333 -14.333 -42.666 -43 -51.999c-6 0.666992 -15.333 4.33398 -28 11.001s-22.667 10 -30 10c-10.667 0 -23 -9.33301 -37 -28l-2 -7
c0 -10.667 15.667 -24 47 -40c13.333 -1.33301 30.666 -2 51.999 -2c30.667 0 57 2.66699 79 8zM344.003 1126c-8 -0.666992 -24.332 -2.66699 -48.999 -6c-20 -2.66699 -36.333 -4 -49 -4l-28 3c-28.667 16 -47 36.333 -55 61c8 35.333 27.333 53 58 53
c20 0 38.333 -7.66699 55 -23c11.333 3.33301 20 14.666 26 33.999c-4.66699 22.667 -19.334 34 -44.001 34c-22 0 -49.5 -15.333 -82.5 -46s-49.5 -57 -49.5 -79c0 -7.33301 5 -19 15 -35c10 -7.33301 17.667 -19.666 23 -36.999c-3.33301 -11.333 -11 -24.333 -23 -39v-8
h9c30 32.667 90 49 180 49c11.333 6 17 16.667 17 32zM299.004 146.998l-25.001 832.001c-34.667 -44.667 -51.667 -80.334 -51 -107.001c6 -222.667 17.667 -478.667 35 -768c-1.33301 -16.667 -0.666016 -41 2.00098 -73l4 -2l13 13c16 34 23.333 69 22 105z
M319.003 139.999c0 -25.333 -5.33203 -53.334 -15.999 -84.001c-13.333 -38.667 -29.666 -58 -48.999 -58c-10.667 6.66699 -22 150 -34 430c-4 89.333 -9.66699 237.333 -17 444c-0.666992 17.333 8.66602 44 27.999 80s36.666 55.333 51.999 58
c4.66699 -5.33301 12 -140.666 22 -405.999c9.33301 -245.333 14 -400 14 -464z" />
    <glyph glyph-name="u0624" unicode="&#x624;" horiz-adv-x="704" arabic-form="isolated" 
d="M249 -337c-34 0 -76 10.666 -126 31.999c-52 22.667 -87.667 46.667 -107 72c-2 7.33301 -2.66699 12.333 -2 15l26 4c10 0 25 -1.33301 45 -4s35 -4 45 -4h80c56 0 117.667 27.333 185 82c57.333 46.667 103 98.334 137 155.001l-4 12c-12 0.666992 -28.667 0 -50 -2
c-24.667 -2 -41.667 -3 -51 -3c-73.333 0 -110 30.333 -110 91c0 35.333 18.333 78.666 55 129.999c39.333 54.667 75.333 82 108 82c19.333 0 44 -21.333 74 -64c24.667 -35.333 41 -63.666 49 -84.999c11.333 -31.333 17 -70 17 -116c0 -75.333 -42.667 -160 -128 -254
c-87.333 -95.333 -168.333 -143 -243 -143zM602 105.999c0 70 -38.999 136 -116.999 198l-7 2c-26.667 0 -57.667 -24.333 -93 -73c-33.333 -46 -50 -83 -50 -111c0 -54 35.333 -81 106 -81c9.33301 0 22.833 0.5 40.5 1.5s31.167 1.5 40.5 1.5c10.667 0 20 -2 28 -6l3 -12
c-12.667 -46.667 -55 -102 -127 -166s-131.667 -97.667 -179 -101c-36.667 -2.66699 -75.334 -4 -116.001 -4c4.66699 0 -23 3.33301 -83 10c74.667 -54.667 141.667 -82 201 -82c83.333 0 164 50.333 242 151c74 95.333 111 186 111 272zM517.001 104.999
c-27.333 -2 -44.667 -2.99902 -52 -2.99902c-41.333 0 -69.666 9.33301 -84.999 28l-5 16c0 17.333 7.83301 33.166 23.5 47.499s32.167 21.5 49.5 21.5c27.333 0 52.666 -27 75.999 -81l2 -21zM505 122c0 14.667 -6.16699 29.668 -18.5 45.001s-25.5 25 -39.5 29l-12 -2
c-25.333 -14.667 -38 -31.334 -38 -50.001c0 -6 8 -11.667 24 -17c14 -4.66699 25 -7 33 -7h23zM441 644.001c30.667 0 57.002 2.66504 79.002 7.99805c4.66699 -8.66699 7 -17 7 -25c0 -34 -11.667 -51 -35 -51c-70 0 -135.667 -18.333 -197 -55l-8 2
c-4.66699 5.33301 -7.33398 11.333 -8.00098 18c4.66699 8 12.667 19 24 33l2 16c-0.666992 1.33301 -9.33398 12.333 -26.001 33c-10 12.667 -15 25 -15 37c0 26.667 19.833 57.5 59.5 92.5s73.167 52.5 100.5 52.5c20 0 37 -9.33301 51 -28l7 -25
c0 -25.333 -14.333 -42.666 -43 -51.999c-6 0.666992 -15.333 4.33398 -28 11.001s-22.667 10 -30 10c-10.667 0 -23 -9.33301 -37 -28c0 -10 4.33301 -19 13 -27c31.333 -14.667 59.333 -22 84 -22zM504.002 634.999c-8 -0.666992 -24.332 -2.66699 -48.999 -6
c-20 -2.66699 -36.333 -4 -49 -4l-28 3c-28.667 16 -47 36.333 -55 61c8 35.333 27.333 53 58 53c20 0 38.333 -7.66699 55 -23c11.333 3.33301 20 14.666 26 33.999c-4.66699 22.667 -19.334 34 -44.001 34c-22 0 -49.5 -15.333 -82.5 -46s-49.5 -57 -49.5 -79
c0 -7.33301 5 -19 15 -35c10 -7.33301 17.667 -19.666 23 -36.999c-3.33301 -11.333 -11 -24.333 -23 -39v-8h9c30 32.667 90 49 180 49c11.333 6 17 16.667 17 32z" />
    <glyph glyph-name="u0625" unicode="&#x625;" horiz-adv-x="400" arabic-form="isolated" 
d="M299 147l-25.001 832.001c-34.667 -44.667 -51.667 -80.334 -51 -107.001c6 -222.667 17.667 -478.667 35 -768c-1.33301 -16.667 -0.666016 -41 2.00098 -73l4 -2l13 13c16 34 23.333 69 22 105zM318.999 140.001c0 -25.333 -5.33203 -53.334 -15.999 -84.001
c-13.333 -38.667 -29.666 -58 -48.999 -58c-10.667 6.66699 -22 150 -34 430c-4 89.333 -9.66699 237.333 -17 444c-0.666992 17.333 8.66602 44 27.999 80s36.666 55.333 51.999 58c4.66699 -5.33301 12 -140.666 22 -405.999c9.33301 -245.333 14 -400 14 -464zM304 -213
c30.667 0 57.002 2.66504 79.002 7.99805c4.66699 -8.66699 7 -17 7 -25c0 -34 -11.667 -51 -35 -51c-70 0 -135.667 -18.333 -197 -55l-8 2c-4.66699 5.33301 -7.33398 11.333 -8.00098 18c4.66699 8 12.667 19 24 33l2 16c-0.666992 1.33301 -9.33398 12.333 -26.001 33
c-10 12.667 -15 25 -15 37c0 26.667 19.833 57.5 59.5 92.5s73.167 52.5 100.5 52.5c20 0 37 -9.33301 51 -28l7 -25c0 -25.333 -14.333 -42.666 -43 -51.999c-6 0.666992 -15.333 4.33398 -28 11.001s-22.667 10 -30 10c-10.667 0 -23 -9.33301 -37 -28
c0 -10 4.33301 -19 13 -27c31.333 -14.667 59.333 -22 84 -22zM367.002 -222.002c-8 -0.666992 -24.332 -2.66699 -48.999 -6c-20 -2.66699 -36.333 -4 -49 -4l-28 3c-28.667 16 -47 36.333 -55 61c8 35.333 27.333 53 58 53c20 0 38.333 -7.66699 55 -23
c11.333 3.33301 20 14.666 26 33.999c-4.66699 22.667 -19.334 34 -44.001 34c-22 0 -49.5 -15.333 -82.5 -46s-49.5 -57 -49.5 -79c0 -7.33301 5 -19 15 -35c10 -7.33301 17.667 -19.666 23 -36.999c-3.33301 -11.333 -11 -24.333 -23 -39v-8h9c30 32.667 90 49 180 49
c11.333 6 17 16.667 17 32z" />
    <glyph glyph-name="u0626" unicode="&#x626;" horiz-adv-x="1104" arabic-form="isolated" 
d="M1039 468c0 -26 -10.998 -54.002 -32.998 -84.002l-12 -4c-8.66699 0 -25.334 5.5 -50.001 16.5s-43 16.5 -55 16.5c-28.667 0 -74.334 -23.167 -137.001 -69.5s-94 -83.166 -94 -110.499v-4c10 -37.333 44 -60.333 102 -69l150 -22c52 -14 78 -42.667 78 -86
c0 -96 -82.667 -179.333 -248 -250c-137.333 -58.667 -262.666 -88 -375.999 -88c-88.667 0 -161.334 27 -218.001 81c-58.667 54.667 -88 126 -88 214c0 35.333 14.333 84 43 146c30.667 66 60 105.667 88 119l10 -2l6 -13c-3.33301 -17.333 -15.333 -50 -36 -98
c-16.667 -38.667 -25 -72.667 -25 -102c0 -67.333 32.333 -119.666 97 -156.999c53.333 -30.667 116.666 -46 189.999 -46c72.667 0 158.334 14.333 257.001 43c108 31.333 184.667 68 230 110l2 11c-14.667 6 -35 9.33301 -61 10c-16 0.666992 -38 0 -66 -2
c-30.667 -2.66699 -52.667 -4 -66 -4c-36 0 -69 11.667 -99 35c-32 25.333 -48 55.333 -48 90c0 76.667 40.667 163 122 259c83.333 98.667 162.333 148 237 148c26.667 0 50 -8.16699 70 -24.5s30 -37.5 30 -63.5zM939.002 535.998c-68.667 0 -143.333 -46.667 -224 -140
c-78.667 -90.667 -118 -171 -118 -241c0 -75.333 70 -113 210 -113c14 0 43 1.33301 87 4c13.333 0.666992 26.666 -2.66602 39.999 -9.99902l4 -9c0 -47.333 -73.333 -93.333 -220 -138c-122.667 -37.333 -217 -56 -283 -56c-81.333 0 -151.333 17.667 -210 53
c-69.333 42 -104 101 -104 177c0 25.333 8.66699 56.333 26 93c20.667 44 32.667 73.667 36 89l-12 -6c-21.333 -22.667 -42.5 -58.667 -63.5 -108s-31.5 -89.333 -31.5 -120c0 -88 32 -156.667 96 -206c58 -45.333 132 -68 222 -68c102 0 219 29 351 87
c153.333 67.333 230 143.333 230 228c0 37.333 -23.667 60 -71 68c-26.667 3.33301 -75 10.666 -145 21.999c-58 10.667 -98.333 36.667 -121 78l-1 6c0 28.667 35.333 70.5 106 125.5s121.334 82.5 152.001 82.5c16 0 47.667 -12.333 95 -37c16 22.667 25.333 45 28 67
c-8.66699 48 -35 72 -79 72zM430.003 623.998c30.667 0 57.002 2.66504 79.002 7.99805c4.66699 -8.66699 7 -17 7 -25c0 -34 -11.667 -51 -35 -51c-70 0 -135.667 -18.333 -197 -55l-8 2c-4.66699 5.33301 -7.33398 11.333 -8.00098 18c4.66699 8 12.667 19 24 33l2 16
c-0.666992 1.33301 -9.33398 12.333 -26.001 33c-10 12.667 -15 25 -15 37c0 26.667 19.833 57.5 59.5 92.5s73.167 52.5 100.5 52.5c20 0 37 -9.33301 51 -28l7 -25c0 -25.333 -14.333 -42.666 -43 -51.999c-6 0.666992 -15.333 4.33398 -28 11.001s-22.667 10 -30 10
c-10.667 0 -23 -9.33301 -37 -28c0 -10 4.33301 -19 13 -27c31.333 -14.667 59.333 -22 84 -22zM493.005 614.996c-8 -0.666992 -24.332 -2.66699 -48.999 -6c-20 -2.66699 -36.333 -4 -49 -4l-28 3c-28.667 16 -47 36.333 -55 61c8 35.333 27.333 53 58 53
c20 0 38.333 -7.66699 55 -23c11.333 3.33301 20 14.666 26 33.999c-4.66699 22.667 -19.334 34 -44.001 34c-22 0 -49.5 -15.333 -82.5 -46s-49.5 -57 -49.5 -79c0 -7.33301 5 -19 15 -35c10 -7.33301 17.667 -19.666 23 -36.999c-3.33301 -11.333 -11 -24.333 -23 -39v-8
h9c30 32.667 90 49 180 49c11.333 6 17 16.667 17 32z" />
    <glyph glyph-name="u0627" unicode="&#x627;" horiz-adv-x="384" arabic-form="isolated" 
d="M299 147l-25.001 832.001c-34.667 -44.667 -51.667 -80.334 -51 -107.001c6 -222.667 17.667 -478.667 35 -768c-1.33301 -16.667 -0.666016 -41 2.00098 -73l4 -2l13 13c16 34 23.333 69 22 105zM318.999 140.001c0 -25.333 -5.33203 -53.334 -15.999 -84.001
c-13.333 -38.667 -29.666 -58 -48.999 -58c-10.667 6.66699 -22 150 -34 430c-4 89.333 -9.66699 237.333 -17 444c-0.666992 17.333 8.66602 44 27.999 80s36.666 55.333 51.999 58c4.66699 -5.33301 12 -140.666 22 -405.999c9.33301 -245.333 14 -400 14 -464z" />
    <glyph glyph-name="u0628" unicode="&#x628;" horiz-adv-x="1224" arabic-form="isolated" 
d="M445 -57c-97.333 0 -180.001 13.334 -248.001 40.001c-95.333 37.333 -143 97 -143 179c0 36 12.333 79.333 37 130c28 58 57 87.333 87 88l9 -3l2 -10c-2 -10.667 -10.333 -34.334 -25 -71.001c-12 -30 -18 -54.333 -18 -73c0 -50 45.333 -87 136 -111
c60.667 -16 128.667 -24 204 -24c92 0 191.333 8.66699 298 26c131.333 21.333 226 50.333 284 87l7 13c0 10 -12.333 26.333 -37 49c-30 27.333 -47.333 45.333 -52 54c0 16 6.66699 39.333 20 70c14.667 34 28.334 51 41.001 51h4c74 -61.333 111 -127.333 111 -198
c0 -104.667 -92.333 -180.667 -277 -228c-179.333 -46 -326 -69 -440 -69zM739.999 -271.999l-92 -97l-113 90l90 109zM457.999 70.001c-64 0 -128.332 9.33203 -192.999 27.999c-90 26 -135 63.667 -135 113c0 30.667 14.333 80.334 43 149.001l-17 -4
c-56 -58 -84 -122 -84 -192c0 -71.333 44 -125.333 132 -162c66 -27.333 141 -41 225 -41c145.333 0 284.666 17.333 417.999 52c197.333 51.333 296 128.333 296 231c0 55.333 -32.667 113.333 -98 174c-28.667 -22 -43 -53.333 -43 -94l6 -14c54.667 -48 82 -81 82 -99
c0 -46.667 -97 -84 -291 -112c-134 -19.333 -247.667 -29 -341 -29zM709 -272l-82 73l-63 -75l82 -66z" />
    <glyph glyph-name="u0629" unicode="&#x629;" horiz-adv-x="480" arabic-form="isolated" 
d="M192 -32c-68.667 0 -112.669 23.333 -132.002 70c0 4 -0.333008 10.167 -1 18.5s-1 14.5 -1 18.5c0 81.333 24 150.333 72 207l-4 8l-9 8c32.667 72 56.334 108 71.001 108c28.667 0 70.334 -27 125.001 -81c58 -56.667 87 -106 87 -148
c0 -139.333 -69.333 -209 -208 -209zM381.998 172c0 82 -62.332 153.334 -186.999 214.001c-24.667 -13.333 -44.334 -42 -59.001 -86c6 -4.66699 10.667 -10.667 14 -18c-47.333 -80.667 -71 -148.334 -71 -203.001c0 -60 46.333 -90 139 -90c109.333 0 164 61 164 183z
M338.999 149.001c-14 -45.333 -58.999 -68.002 -134.999 -68.002c-58 0 -87 19.667 -87 59c0 16.667 7 40.334 21 71.001c15.333 34.667 29.666 52 42.999 52c16.667 0 46.667 -15.167 90 -45.5s66 -53.166 68 -68.499zM180 242.999l-5.99902 -3
c-26.667 -36 -39 -68 -37 -96l1 -14c6 -12 17 -22.333 33 -31l39 -4c19.333 0 40.666 4 63.999 12c29.333 10 44 22.333 44 37c0 14 -20.333 34 -61 60c-37.333 24 -63 37 -77 39zM226.001 574.999c30.667 0 57.002 2.66504 79.002 7.99805c4.66699 -8.66699 7 -17 7 -25
c0 -34 -11.667 -51 -35 -51c-70 0 -135.667 -18.333 -197 -55l-8 2c-4.66699 5.33301 -7.33398 11.333 -8.00098 18c4.66699 8 12.667 19 24 33l2 16c-0.666992 1.33301 -9.33398 12.333 -26.001 33c-10 12.667 -15 25 -15 37c0 26.667 19.833 57.5 59.5 92.5
s73.167 52.5 100.5 52.5c20 0 37 -9.33301 51 -28l7 -25c0 -25.333 -14.333 -42.666 -43 -51.999c-6 0.666992 -15.333 4.33398 -28 11.001s-22.667 10 -30 10c-10.667 0 -23 -9.33301 -37 -28c0 -10 4.33301 -19 13 -27c31.333 -14.667 59.333 -22 84 -22zM289.003 565.997
c-8 -0.666992 -24.332 -2.66699 -48.999 -6c-20 -2.66699 -36.333 -4 -49 -4l-28 3c-28.667 16 -47 36.333 -55 61c8 35.333 27.333 53 58 53c20 0 38.333 -7.66699 55 -23c11.333 3.33301 20 14.666 26 33.999c-4.66699 22.667 -19.334 34 -44.001 34
c-22 0 -49.5 -15.333 -82.5 -46s-49.5 -57 -49.5 -79c0 -7.33301 5 -19 15 -35c10 -7.33301 17.667 -19.666 23 -36.999c-3.33301 -11.333 -11 -24.333 -23 -39v-8h9c30 32.667 90 49 180 49c11.333 6 17 16.667 17 32z" />
    <glyph glyph-name="u062A" unicode="&#x62a;" horiz-adv-x="1212" arabic-form="isolated" 
d="M609 542l-82 71l-63 -73l83 -68zM783 546l-80 69l-65 -71l82 -66zM624 555l79 89l111 -96l-90 -96l-98 77l-76 -81l-115 90l90 106zM440 -53c-99.333 0 -183.002 13.001 -251.002 39.001c-97.333 37.333 -146 97.333 -146 180c0 34 12.667 77.333 38 130
c28 58.667 56.667 88 86 88l9 -3l2 -10c-2 -10.667 -10.333 -34.334 -25 -71.001c-12 -30 -18 -54.333 -18 -73c0 -50 47 -87 141 -111c62.667 -16 132.334 -24 209.001 -24c86.667 0 185.334 9 296.001 27c135.333 22 227.333 50.667 276 86l7 13c0 8 -13 24.667 -39 50
c-29.333 29.333 -46 47 -50 53c0 16 6.66699 39.333 20 70c14 34 27.333 51 40 51h5c74 -61.333 111 -127.333 111 -198c0 -104 -98 -183.667 -294 -239c-137.333 -38.667 -276.333 -58 -417 -58zM448.998 73.001c-67.333 0 -132.668 8.99902 -196.001 26.999
c-89.333 25.333 -134 63.666 -134 114.999c0 30.667 14.333 80.334 43 149.001l-17 -4c-56 -58 -84 -122 -84 -192c0 -72.667 46 -127 138 -163c68 -26.667 145 -40 231 -40c144.667 0 282.334 17.333 413.001 52c192.667 51.333 289 128.333 289 231
c0 55.333 -32.667 113.333 -98 174c-28.667 -21.333 -43 -52.666 -43 -93.999l6 -14c54.667 -48 82 -81 82 -99c0 -47.333 -97.333 -85 -292 -113c-134 -19.333 -246.667 -29 -338 -29z" />
    <glyph glyph-name="u062B" unicode="&#x62b;" horiz-adv-x="1220" arabic-form="isolated" 
d="M613 534l-82 71l-63 -73l83 -68zM787 538l-80 69l-65 -71l82 -66zM628 547l79 89l111 -96l-90 -96l-98 77l-76 -81l-115 90l90 106zM444 -61c-99.333 0 -183.002 13.001 -251.002 39.001c-97.333 37.333 -146 97.333 -146 180c0 34 12.667 77.333 38 130
c28 58.667 56.667 88 86 88l9 -3l2 -10c-2 -10.667 -10.333 -34.334 -25 -71.001c-12 -30 -18 -54.333 -18 -73c0 -50 47 -87 141 -111c62.667 -16 132.334 -24 209.001 -24c86.667 0 185.334 9 296.001 27c135.333 22 227.333 50.667 276 86l7 13c0 8 -13 24.667 -39 50
c-29.333 29.333 -46 47 -50 53c0 16 6.66699 39.333 20 70c14 34 27.333 51 40 51h5c74 -61.333 111 -127.333 111 -198c0 -104 -98 -183.667 -294 -239c-137.333 -38.667 -276.333 -58 -417 -58zM452.998 65.001c-67.333 0 -132.668 8.99902 -196.001 26.999
c-89.333 25.333 -134 63.666 -134 114.999c0 30.667 14.333 80.334 43 149.001l-17 -4c-56 -58 -84 -122 -84 -192c0 -72.667 46 -127 138 -163c68 -26.667 145 -40 231 -40c144.667 0 282.334 17.333 413.001 52c192.667 51.333 289 128.333 289 231
c0 55.333 -32.667 113.333 -98 174c-28.667 -21.333 -43 -52.666 -43 -93.999l6 -14c54.667 -48 82 -81 82 -99c0 -47.333 -97.333 -85 -292 -113c-134 -19.333 -246.667 -29 -338 -29zM719.996 677l-92 -97l-113 90l90 109zM688.996 677l-82 73l-63 -75l82 -66z" />
    <glyph glyph-name="u062C" unicode="&#x62c;" horiz-adv-x="984" arabic-form="isolated" 
d="M1079 -525c-165.333 -30 -347.001 -44.999 -545.001 -44.999c-112 0 -203.667 19 -275 57c-92 48.667 -138 124.334 -138 227.001c0 106 40 204 120 294s173 143.667 279 161c58.667 9.33301 127 17.666 205 24.999c20.667 2 37.667 14.333 51 37c12 20 18 41 18 63
c0 6.66699 -4 10.667 -12 12c-52.667 -10.667 -125 -16 -217 -16c-7.33301 0 -76.333 4 -207 12c-56 3.33301 -111 -8 -165 -34c-64.667 -31.333 -97 -73.333 -97 -126l2 -12l64 40c38.667 24 78.667 36 120 36c26.667 0 45.334 -6.33301 56.001 -19l3 -9l-1 -9
c-6 -8 -14.333 -16.333 -25 -25c-69.333 -56 -127.666 -127.333 -174.999 -214c-51.333 -92.667 -77 -180.667 -77 -264c0 -134 49.667 -228.333 149 -283c75.333 -41.333 187 -62 335 -62c161.333 0 310.666 35 447.999 105c23.333 9.33301 51.333 25.666 84 48.999z
M1110 -506.999c-1.33301 -22 -49.666 -54.668 -144.999 -98.001c-84.667 -38.667 -147.667 -62.667 -189 -72c-58.667 -13.333 -137 -20 -235 -20c-104.667 0 -185 7.33301 -241 22c-79.333 20.667 -142 61.334 -188 122.001s-69 132 -69 214c0 102 43.333 223 130 363
c12.667 20.667 36.167 46.5 70.5 77.5s57.5 54.833 69.5 71.5l-4 8c-14 1.33301 -29.667 2 -47 2c-47.333 0 -104 -29.333 -170 -88c-10.667 6 -16 17.333 -16 34c0 63.333 30.333 112.666 91 147.999c50.667 29.333 109 44 175 44c27.333 0 68.666 -2.16699 123.999 -6.5
s96.666 -6.5 123.999 -6.5c85.333 0 154.333 6.33301 207 19c8.66699 -3.33301 15.334 -9 20.001 -17l1 -18c1.33301 -22 -5.16699 -45 -19.5 -69s-31.5 -39.5 -51.5 -46.5s-50.667 -10.5 -92 -10.5c-43.333 -0.666992 -74.333 -3 -93 -7
c-119.333 -27.333 -216.333 -77.333 -291 -150c-84 -81.333 -126 -179.666 -126 -294.999c0 -176 139.667 -264 419 -264h156c54 0 119.333 5.33301 196 16zM615.999 -208l-110 -98l-113 96l113 109zM585.999 -206l-80 78l-84 -80l82 -69z" />
    <glyph glyph-name="u062D" unicode="&#x62d;" horiz-adv-x="988" arabic-form="isolated" 
d="M1093 -526c-165.333 -30 -347.001 -45 -545.001 -45c-112 0 -203.667 19 -275 57c-92 48.667 -138 124.334 -138 227.001c0 106 40 204 120 294s173 143.667 279 161c58.667 9.33301 127 17.666 205 24.999c20.667 2 37.667 14.333 51 37c12 20 18 41 18 63
c0 6.66699 -4 10.667 -12 12c-52.667 -10.667 -125 -16 -217 -16c-24.667 0 -61.167 2 -109.5 6s-84.833 6 -109.5 6c-100.667 0 -173 -29 -217 -87c-22 -29.333 -33 -53.666 -33 -72.999l2 -12l64 40c38.667 24 78.667 36 120 36c26.667 0 45.334 -6.33301 56.001 -19l3 -9
l-1 -9c-6 -8 -14.333 -16.333 -25 -25c-69.333 -56 -127.666 -127.333 -174.999 -214c-51.333 -92.667 -77 -180.667 -77 -264c0 -134 49.667 -228.333 149 -283c75.333 -41.333 187 -62 335 -62c161.333 0 310.666 35 447.999 105c23.333 9.33301 51.333 25.666 84 48.999z
M1124 -508c-1.33301 -22 -49.666 -54.668 -144.999 -98.001c-84.667 -38.667 -147.667 -62.667 -189 -72c-58.667 -13.333 -137 -20 -235 -20c-104.667 0 -185 7.33301 -241 22c-79.333 20.667 -142 61.334 -188 122.001s-69 132 -69 214c0 102 43.333 223 130 363
c12.667 20.667 36.167 46.5 70.5 77.5s57.5 54.833 69.5 71.5l-4 8c-14 1.33301 -29.667 2 -47 2c-47.333 0 -104 -29.333 -170 -88c-10.667 6 -16 17.333 -16 34c0 63.333 30.333 112.666 91 147.999c50.667 29.333 109 44 175 44c27.333 0 68.666 -2.16699 123.999 -6.5
s96.666 -6.5 123.999 -6.5c85.333 0 154.333 6.33301 207 19c8.66699 -3.33301 15.334 -9 20.001 -17l1 -18c1.33301 -22 -5.16699 -45 -19.5 -69s-31.5 -39.5 -51.5 -46.5s-50.667 -10.5 -92 -10.5c-43.333 -0.666992 -74.333 -3 -93 -7
c-119.333 -27.333 -216.333 -77.333 -291 -150c-84 -81.333 -126 -179.666 -126 -294.999c0 -176 139.667 -264 419 -264h156c54 0 119.333 5.33301 196 16z" />
    <glyph glyph-name="u062E" unicode="&#x62e;" horiz-adv-x="1076" arabic-form="isolated" 
d="M571 663l-109 -98l-115 96l111 101zM540 661l-82 72l-80 -72l82 -69zM1109 -518c-165.333 -30 -347.001 -45 -545.001 -45c-112 0 -203.667 19 -275 57c-92 48.667 -138 124.334 -138 227.001c0 106 40 204 120 294s173 143.667 279 161
c58.667 9.33301 127 17.666 205 24.999c20.667 2 37.667 14.333 51 37c12 20 18 41 18 63c0 6.66699 -4 10.667 -12 12c-52.667 -10.667 -125 -16 -217 -16c-24.667 0 -61.167 2 -109.5 6s-84.833 6 -109.5 6c-100.667 0 -173 -29 -217 -87
c-22 -29.333 -33 -53.666 -33 -72.999l2 -12l64 40c38.667 24 78.667 36 120 36c26.667 0 45.334 -6.33301 56.001 -19l3 -9l-1 -9c-6 -8 -14.333 -16.333 -25 -25c-69.333 -56 -127.666 -127.333 -174.999 -214c-51.333 -92.667 -77 -180.667 -77 -264
c0 -134 49.667 -228.333 149 -283c75.333 -41.333 187 -62 335 -62c161.333 0 310.666 35 447.999 105c23.333 9.33301 51.333 25.666 84 48.999zM1140 -500c-1.33301 -22 -50.002 -55.0029 -146.002 -99.0029c-81.333 -37.333 -144 -61 -188 -71
c-58 -13.333 -136.333 -20 -235 -20c-104.667 0 -185 7.33301 -241 22c-79.333 20.667 -142 61.334 -188 122.001s-69 132 -69 214c0 102 43.333 223 130 363c12.667 20.667 36.167 46.5 70.5 77.5s57.5 54.833 69.5 71.5l-4 8c-14 1.33301 -29.667 2 -47 2
c-47.333 0 -104 -29.333 -170 -88c-10.667 6 -16 17.333 -16 34c0 62 30.667 111.333 92 148c54.667 32.667 113.334 47.334 176.001 44.001l246 -13c70 -4 139 2.33301 207 19c8.66699 -3.33301 15.334 -9 20.001 -17l1 -18c1.33301 -22 -5.16699 -45 -19.5 -69
s-31.5 -39.5 -51.5 -46.5s-50.667 -10.5 -92 -10.5c-43.333 -0.666992 -74.333 -3 -93 -7c-119.333 -27.333 -216.333 -77.333 -291 -150c-84 -81.333 -126 -179.666 -126 -294.999c0 -176 139.667 -264 419 -264h156c54 0 119.333 5.33301 196 16z" />
    <glyph glyph-name="u062F" unicode="&#x62f;" horiz-adv-x="696" arabic-form="isolated" 
d="M606 215c0 65.333 -25.333 127.001 -76 185.001c-46.667 54.667 -102.667 92.667 -168 114c-1.33301 -14.667 -6.66602 -35.667 -15.999 -63l2 -29c51.333 -22.667 96.666 -54.334 135.999 -95.001c47.333 -48.667 71 -97 71 -145c-52.667 -44.667 -144 -67 -274 -67
c-32 0 -59.333 8.66699 -82 26c-15.333 -13.333 -23 -40 -23 -80c0 -8 2 -19.333 6 -34c13.333 -12 49.333 -18 108 -18c210.667 0 316 68.667 316 206zM243 -6.99902c-40.667 0 -65.666 6.33398 -74.999 19.001c-5.33301 20 -8 35.667 -8 47c0 46 11.667 81 35 105
c28.667 -22 56.667 -33 84 -33c127.333 0 211.666 17.667 252.999 53l1 24c2 45.333 -23.333 85.666 -76 120.999l-129 83v28c0 10 3 25 9 45s9 35 9 45l12 5c72 -17.333 134.167 -58.833 186.5 -124.5s78.5 -135.5 78.5 -209.5c0 -138.667 -126.667 -208 -380 -208z" />
    <glyph glyph-name="u0630" unicode="&#x630;" horiz-adv-x="688" arabic-form="isolated" 
d="M444 899l-116 -108l-115 108l121 107zM414 899l-82 78l-90 -80l86 -80zM606 215c0 65.333 -25.333 127.001 -76 185.001c-46.667 54.667 -102.667 92.667 -168 114c-1.33301 -14.667 -6.66602 -35.667 -15.999 -63l2 -29c51.333 -22.667 96.666 -54.334 135.999 -95.001
c47.333 -48.667 71 -97 71 -145c-52.667 -44.667 -144 -67 -274 -67c-32 0 -59.333 8.66699 -82 26c-15.333 -13.333 -23 -40 -23 -80c0 -8 2 -19.333 6 -34c13.333 -12 49.333 -18 108 -18c210.667 0 316 68.667 316 206zM243 -6.99902
c-40.667 0 -65.666 6.33398 -74.999 19.001c-5.33301 20 -8 35.667 -8 47c0 46 11.667 81 35 105c28.667 -22 56.667 -33 84 -33c127.333 0 211.666 17.667 252.999 53l1 24c2 45.333 -23.333 85.666 -76 120.999l-129 83v28c0 10 3 25 9 45s9 35 9 45l12 5
c72 -17.333 134.167 -58.833 186.5 -124.5s78.5 -135.5 78.5 -209.5c0 -138.667 -126.667 -208 -380 -208z" />
    <glyph glyph-name="u0631" unicode="&#x631;" horiz-adv-x="640" arabic-form="isolated" 
d="M569 128c-7.33301 52 -19.667 92.001 -37 120.001c-14.667 24 -43.334 55 -86.001 93c-18.667 -28 -25.667 -60 -21 -96c73.333 -72.667 110 -116.667 110 -132c0 -74.667 -55.333 -149.667 -166 -225c-103.333 -70.667 -194.666 -106 -273.999 -106
c-19.333 0 -37 2 -53 6l-8 -2l-4 -8c34 -34 101 -51 201 -51c66.667 0 137.667 43.667 213 131c70 81.333 110.333 157 121 227c0 9.33301 1.33301 23.666 4 42.999zM218.999 -293.999c-41.333 0 -82.667 5.66992 -124 17.0029c-56 15.333 -88 37 -96 65
c7.33301 10.667 21 17 41 19c14 1.33301 32.333 1 55 -1c28 -2 46 -3 54 -3c56.667 0 130.667 37.333 222 112c94 77.333 141 143 141 197l-1 8c-8.66699 14 -44 52.333 -106 115v28c0 15.333 3.66699 34.666 11 57.999c8.66699 27.333 18 43.666 28 48.999h4
c48.667 -46.667 82 -84.334 100 -113.001c26 -41.333 39 -88 39 -140c0 -79.333 -41.333 -167 -124 -263c-84.667 -98.667 -166 -148 -244 -148z" />
    <glyph glyph-name="u0632" unicode="&#x632;" horiz-adv-x="648" arabic-form="isolated" 
d="M461 649l-114 -98l-111 100l119 103zM430 649l-77 76l-86 -76l80 -72zM570 143c-7.33301 52 -19.667 92.001 -37 120.001c-14.667 24 -43.334 55 -86.001 93c-18.667 -28 -25.667 -60 -21 -96c73.333 -72.667 110 -116.667 110 -132
c0 -74.667 -55.333 -149.667 -166 -225c-103.333 -70.667 -194.666 -106 -273.999 -106c-19.333 0 -37 2 -53 6l-8 -2l-4 -8c34 -34 101 -51 201 -51c66.667 0 137.667 43.667 213 131c70 81.333 110.333 157 121 227c0 9.33301 1.33301 23.666 4 42.999zM219.999 -278.999
c-41.333 0 -82.667 5.66992 -124 17.0029c-56 15.333 -88 37 -96 65c7.33301 10.667 21 17 41 19c14 1.33301 32.333 1 55 -1c28 -2 46 -3 54 -3c56.667 0 130.667 37.333 222 112c94 77.333 141 143 141 197l-1 8c-8.66699 14 -44 52.333 -106 115v28
c0 15.333 3.66699 34.666 11 57.999c8.66699 27.333 18 43.666 28 48.999h4c48.667 -46.667 82 -84.334 100 -113.001c26 -41.333 39 -88 39 -140c0 -79.333 -41.333 -167 -124 -263c-84.667 -98.667 -166 -148 -244 -148z" />
    <glyph glyph-name="u0633" unicode="&#x633;" horiz-adv-x="1420" arabic-form="isolated" 
d="M1348 305c-24.667 -18.667 -38.6631 -36.666 -41.9961 -53.999c0.666992 3.33301 1 -19.334 1 -68.001c0 -15.333 -2.66699 -28.666 -8 -39.999l-11 -8c-4 -0.666992 -16.667 -1 -38 -1c-50.667 0 -99.334 18.667 -146.001 56l-10 27l4 51l-4 12
c-24 -54.667 -49.333 -93.334 -76 -116.001c-32.667 -27.333 -76.334 -41 -131.001 -41c-46.667 0 -97.334 34 -152.001 102c-6.66699 -3.33301 -15.334 -15.5 -26.001 -36.5s-16 -35.833 -16 -44.5l1 -9c44 -48 66 -120.333 66 -217c0 -64 -56 -111.333 -168 -142
c-78 -21.333 -160.667 -32 -248 -32c-60 0 -115.333 15 -166 45c-58.667 34.667 -88 80.334 -88 137.001c0 38 18.667 99.333 56 184c-28 -30 -51.833 -69.5 -71.5 -118.5s-29.5 -94.167 -29.5 -135.5c0 -72 37.667 -126.333 113 -163
c58.667 -28.667 128.334 -43 209.001 -43c164 0 287.333 49 370 147c26 30.667 44.667 99.667 56 207l9 13l17 6c5.33301 0 13.5 -0.833008 24.5 -2.5s19.167 -2.5 24.5 -2.5c28 0 58.333 10.333 91 31c7.33301 4.66699 33.666 24.334 78.999 59.001c74 -46 141 -69 201 -69
c40 0 70.667 30 92 90c15.333 43.333 23 88.666 23 135.999c0 15.333 -2 28.666 -6 39.999zM1348 325.001l6.99902 -5.00195c8.66699 -26.667 13 -48 13 -64c0 -40 -7.33301 -81.333 -22 -124c-16.667 -49.333 -38.667 -83.333 -66 -102l-37 -10
c-70.667 2 -139.667 23.333 -207 64c-13.333 -5.33301 -39.333 -24 -78 -56c-22.667 -18.667 -64.667 -28 -126 -28c-20.667 0 -31 -24 -31 -72c0 -58 -21 -110.667 -63 -158c-38 -43.333 -86 -75.333 -144 -96c-80.667 -28.667 -170 -43 -268 -43
c-76.667 0 -143 18 -199 54c-64 42 -96 99.667 -96 173c0 42 11.667 91.333 35 148c24.667 60.667 52 102.334 82 125.001c5.33301 2 9.33301 2.66699 12 2l2 -8c-2.66699 -14.667 -13 -47.334 -31 -98.001c-14 -40 -21 -73.667 -21 -101c0 -52.667 31.333 -94.667 94 -126
c50.667 -25.333 105 -38 163 -38c132.667 0 252.667 34.333 360 103c11.333 7.33301 17 29 17 65c0 66.667 -10.333 110.334 -31 131.001c-4 16 -16.333 37.333 -37 64v8c0 34 19 73.667 57 119c20 -23.333 53 -55.666 99 -96.999c30.667 -9.33301 49 -14 55 -14
c72.667 0 127.334 28 164.001 84c8 19.333 23 45.333 45 78l10 -6c4 -4.66699 6 -13 6 -25s-2 -27 -6 -45l10 -20c50 -36 102.333 -54 157 -54l11 2l8 15c0 7.33301 -1.33301 17.833 -4 31.5s-4 24.167 -4 31.5c0 14.667 7.16699 32.5 21.5 53.5s28.5 33.833 42.5 38.5z" />
    <glyph glyph-name="u0634" unicode="&#x634;" horiz-adv-x="1460" arabic-form="isolated" 
d="M1058 516l-82 72l-64 -74l82 -65zM1232 520l-82 66l-63 -68l81 -65zM1072 533l76 82l115 -93l-93 -96l-96 78l-78 -82l-112 90l90 107zM1150 680l-82 74l-63 -76l82 -66zM1181 682l-92 -96l-113 90l90 109zM1351 289c-24.667 -18.667 -38.6621 -36.666 -41.9951 -53.999
c0.666992 3.33301 1 -19.334 1 -68.001c0 -15.333 -2.66699 -28.666 -8 -39.999l-11 -8c-4 -0.666992 -16.667 -1 -38 -1c-50.667 0 -99.334 18.667 -146.001 56l-10 27l4 51l-4 12c-24 -54.667 -49.333 -93.334 -76 -116.001c-32.667 -27.333 -76.334 -41 -131.001 -41
c-46.667 0 -97.334 34 -152.001 102c-6.66699 -3.33301 -15.334 -15.5 -26.001 -36.5s-16 -35.833 -16 -44.5l1 -9c44 -47.333 66 -111 66 -191c0 -50.667 -7 -82.667 -21 -96c-36.667 -34.667 -99.334 -61.667 -188.001 -81c-70.667 -15.333 -139.667 -23 -207 -23
c-60 0 -115.333 15 -166 45c-58.667 34.667 -88 80.334 -88 137.001c0 38 18.667 99.333 56 184c-28 -30 -51.833 -69.5 -71.5 -118.5s-29.5 -94.167 -29.5 -135.5c0 -72 37.667 -126.333 113 -163c58.667 -28.667 128.334 -43 209.001 -43c164 0 287.333 49 370 147
c26 30.667 44.667 99.667 56 207l9 13l17 6c5.33301 0 13.5 -0.833008 24.5 -2.5s19.167 -2.5 24.5 -2.5c28 0 58.333 10.333 91 31c7.33301 4.66699 33.666 24.334 78.999 59.001c74 -46 141 -69 201 -69c40 0 70.667 30 92 90c15.333 43.333 23 88.666 23 135.999
c0 15.333 -2 28.666 -6 39.999zM1351 309.001l7 -5.00098c8.66699 -26.667 13 -48 13 -64c0 -40 -7.33301 -81.333 -22 -124c-16.667 -49.333 -38.667 -83.333 -66 -102l-37 -10c-70.667 2 -139.667 23.333 -207 64c-13.333 -5.33301 -39.333 -24 -78 -56
c-22.667 -18.667 -64.667 -28 -126 -28c-20.667 0 -31 -24 -31 -72c0 -58 -21 -110.667 -63 -158c-38 -43.333 -86 -75.333 -144 -96c-80.667 -28.667 -170 -43 -268 -43c-76.667 0 -143 18 -199 54c-64 42 -96 99.667 -96 173c0 42 11.667 91.333 35 148
c24.667 60.667 52 102.334 82 125.001c5.33301 2 9.33301 2.66699 12 2l2 -8c-2.66699 -14.667 -13 -47.334 -31 -98.001c-14 -40 -21 -73.667 -21 -101c0 -52.667 31.333 -94.667 94 -126c50.667 -25.333 105 -38 163 -38c71.333 0 145.666 11.333 222.999 34
c102.667 30 154 71.333 154 124c0 78 -22.667 146.333 -68 205v8c0 34 19 73.667 57 119c20 -23.333 53 -55.666 99 -96.999c30.667 -9.33301 49 -14 55 -14c72.667 0 127.334 28 164.001 84c8 19.333 23 45.333 45 78l10 -6c4 -4.66699 6 -13 6 -25s-2 -27 -6 -45l10 -20
c50 -36 102.333 -54 157 -54l11 2l8 15c0 7.33301 -1.33301 17.833 -4 31.5s-4 24.167 -4 31.5c0 14.667 7.16699 32.5 21.5 53.5s28.5 33.833 42.5 38.5z" />
    <glyph glyph-name="u0635" unicode="&#x635;" horiz-adv-x="1676" arabic-form="isolated" 
d="M1593 368c0 65.333 -57.6699 98 -173.003 98c-63.333 0 -157.333 -51 -282 -153l-227 -195h-14c-46.667 0 -98 24.333 -154 73c-24.667 -24.667 -36 -49.334 -34 -74.001l1 -12c48 -64.667 72 -135.667 72 -213c-0.666992 -4 -2.66699 -10 -6 -18
c-92.667 -94 -234.667 -141 -426 -141c-152.667 0 -229 65 -229 195c0 16.667 5.83301 40 17.5 70s17.834 52.667 18.501 68c-18.667 -13.333 -38 -47.666 -58 -102.999c-18.667 -52 -28 -92 -28 -120c0 -68 37 -122 111 -162c60.667 -32.667 128.334 -49 203.001 -49
c124 0 222.667 26.333 296 79c84 60 126 149.667 126 269c4.66699 10 13.334 24.333 26.001 43c28.667 -10.667 84 -16 166 -16c118 0 235.667 28.333 353 85c138 66.667 217 150.334 237 251.001c2.66699 13.333 4 21.666 4 24.999zM970.997 -17
c-55.333 0 -95.667 4.66992 -121 14.0029l-27 -41c0 -228 -158 -342 -474 -342c-81.333 0 -149 19.333 -203 58c-60.667 44 -91 105.333 -91 184c0 35.333 13.667 82.666 41 141.999c28 62.667 56 102 84 118l4 -7c-28.667 -95.333 -43 -160 -43 -194
c0 -69.333 36 -116 108 -140c40 -13.333 105 -20 195 -20c36 0 96 14.333 180 43c91.333 31.333 135 57.333 131 78l5 33c0 59.333 -23.333 122 -70 188l-3 15c0 43.333 16.667 78.666 50 105.999l79 -50c26.667 -16.667 58.334 -26.667 95.001 -30
c124.667 112 203.334 181 236.001 207c117.333 94 202.666 141 255.999 141c51.333 0 95.666 -7.66699 132.999 -23c52 -21.333 78 -53 78 -95c0 -6 -1.66699 -15.667 -5 -29c-28.667 -114.667 -114 -205.334 -256 -272.001c-118.667 -56 -246 -84 -382 -84zM1040 101.003
c-11.333 0 -23 1.99902 -35 5.99902c-5.33301 6 -8 13 -8 21c0 22 48.667 66.667 146 134c102 70.667 175.667 106 221 106c26.667 0 58 -5.33301 94 -16c45.333 -13.333 68 -30 68 -50c0 -13.333 -19 -31.666 -57 -54.999c-158.667 -97.333 -301.667 -146 -429 -146z
M1501 304.002c0 30 -42.334 44.999 -127.001 44.999c-44 0 -110.667 -27.333 -200 -82s-141.333 -101.667 -156 -141l4 -6l18 -2c54.667 0 142.334 21.333 263.001 64c132 46.667 198 87.334 198 122.001z" />
    <glyph glyph-name="u0636" unicode="&#x636;" horiz-adv-x="1664" arabic-form="isolated" 
d="M1188 684l-92 -96l-113 90l90 109zM1157 682l-82 74l-63 -76l82 -66zM1587 361c0 65.333 -57.6699 98 -173.003 98c-63.333 0 -157.333 -51 -282 -153l-227 -195h-14c-46.667 0 -98 24.333 -154 73c-24.667 -24.667 -36 -49.334 -34 -74.001l1 -12
c48 -64.667 72 -135.667 72 -213c-0.666992 -4 -2.66699 -10 -6 -18c-92.667 -94 -234.667 -141 -426 -141c-152.667 0 -229 65 -229 195c0 16.667 5.83301 40 17.5 70s17.834 52.667 18.501 68c-18.667 -13.333 -38 -47.666 -58 -102.999c-18.667 -52 -28 -92 -28 -120
c0 -68 37 -122 111 -162c60.667 -32.667 128.334 -49 203.001 -49c124 0 222.667 26.333 296 79c84 60 126 149.667 126 269c4.66699 10 13.334 24.333 26.001 43c28.667 -10.667 84 -16 166 -16c118 -0 235.667 28.333 353 85c138 66.667 217 150.334 237 251.001
c2.66699 13.333 4 21.666 4 24.999zM964.997 -24c-55.333 0 -95.666 4.66895 -120.999 14.002l-27 -41c0 -228 -158 -342 -474 -342c-81.333 0 -149 19.333 -203 58c-60.667 44 -91 105.333 -91 184c0 35.333 13.667 82.666 41 141.999c28 62.667 56 102 84 118l4 -7
c-28.667 -95.333 -43 -160 -43 -194c0 -69.333 36 -116 108 -140c40 -13.333 105 -20 195 -20c36 0 96 14.333 180 43c91.333 31.333 135 57.333 131 78l5 33c0 59.333 -23.333 122 -70 188l-3 15c0 43.333 16.667 78.666 50 105.999c12 -4 35 -19.333 69 -46
c24.667 -19.333 59.667 -30.666 105 -33.999c124.667 112 203.334 181 236.001 207c117.333 94 202.666 141 255.999 141c51.333 0 95.666 -7.66699 132.999 -23c52 -21.333 78 -53 78 -95c0 -6 -1.66699 -15.667 -5 -29c-28.667 -114.667 -114 -205.334 -256 -272.001
c-118.667 -56 -246 -84 -382 -84zM1027 94.002c-24 0 -35.999 8.99902 -35.999 26.999c0 22.667 49 67.667 147 135c101.333 70 174.666 105 219.999 105c26.667 0 58 -5.33301 94 -16c45.333 -13.333 68 -30 68 -50c0 -25.333 -50.333 -60.666 -151 -105.999
c-80.667 -36.667 -141 -60 -181 -70c-66 -16.667 -116.667 -25 -152 -25h-9zM1495 297.001c0 30 -42.333 44.999 -127 44.999c-44 0 -110.333 -27 -199 -81c-90.667 -55.333 -143 -102.666 -157 -141.999l4 -6c7.33301 -1.33301 25.333 -2 54 -2c39.333 0 117 22 233 66
c128 48.667 192 88.667 192 120z" />
    <glyph glyph-name="u0637" unicode="&#x637;" horiz-adv-x="1072" arabic-form="isolated" 
d="M1021 361c0 -62 -32.3291 -124.336 -96.9961 -187.003c-54 -52.667 -114.667 -92.334 -182 -119.001c-115.333 -46 -238.333 -68 -369 -66l-69 1c-39.333 0.666992 -89.333 16.334 -150 47.001c-66 33.333 -102 67 -108 101l12 8c13.333 0 33.166 -0.5 59.499 -1.5
s46.166 -1.5 59.499 -1.5c143.333 0 218.666 32.667 225.999 98c2.66699 23.333 4 55 4 95c0 10 -1.33301 24.5 -4 43.5s-4.33398 32.167 -5.00098 39.5l-15 226c-9.33301 70 -29.333 142.667 -60 218c0 18 10.333 49 31 93c22.667 48.667 43 73 61 73
c16 0 24 -28.667 24 -86c0 -16 9.66699 -31.333 29 -46c26 -20 41 -32 45 -36c0 -31.333 -8.83301 -66.666 -26.5 -105.999s-26.5 -64.333 -26.5 -75c0 -27.333 3.66699 -68.166 11 -122.499s11 -95.166 11 -122.499c0 -86 -4 -140 -12 -162l8 2l163 129
c68 54 127.333 81 178 81c32 0 72.333 -13 121 -39c54 -28.667 81 -57 81 -85zM809.004 465.997c-48.667 0 -112.333 -33.332 -191 -99.999c-91.333 -77.333 -146 -119 -164 -125v14c8 63.333 12 121.333 12 174c0 40.667 -8.33301 138.334 -25 293.001
c-2 16.667 2.33301 27.667 13 33c22 0 35 32 39 96c-25.333 19.333 -40.666 31.666 -45.999 36.999c-18 18 -27.667 34 -29 48c-2.66699 30 -6.33398 49.333 -11.001 58c-25.333 -18.667 -46.666 -64.334 -63.999 -137.001c54.667 -91.333 82 -286 82 -584
c0 -100.667 -67.667 -151 -203 -151c-16.667 0 -41.167 1 -73.5 3s-56.833 3 -73.5 3v-8c78 -74 164 -111 258 -111c257.333 0 445.666 54.667 564.999 164c68.667 63.333 103 125.333 103 186c0 28.667 -26.333 54.667 -79 78c-44 19.333 -81.667 29 -113 29z
M929.005 270.998c-48.667 -43.333 -121.333 -79 -218 -107c-87.333 -25.333 -168.333 -38 -243 -38c-32.667 0 -49 4.66699 -49 14c0 24 46.667 66.667 140 128c91.333 60.667 151.666 91 180.999 91c28.667 0 65.334 -7 110.001 -21c54.667 -17.333 82 -36 82 -56z
M912.006 277.998l-3.99902 14c-54 31.333 -110 47 -168 47c-30.667 0 -84.334 -26.667 -161.001 -80c-70 -48.667 -117.333 -87.667 -142 -117l19 -4c58 0 139.333 14 244 42c119.333 32 190 64.667 212 98z" />
    <glyph glyph-name="u0638" unicode="&#x638;" horiz-adv-x="1096" arabic-form="isolated" 
d="M820 728l-100 -117l-129 95l104 116zM789 724l-92 70l-78 -86l97 -70zM1029 359c0 -62 -32.3291 -124.335 -96.9961 -187.002c-54 -52.667 -114.667 -92.334 -182 -119.001c-114.667 -46 -237.667 -68 -369 -66l-69 1c-39.333 0.666992 -89.333 16.334 -150 47.001
c-66 33.333 -102 67 -108 101l12 8c13.333 0 33.166 -0.5 59.499 -1.5s46.166 -1.5 59.499 -1.5c143.333 0 218.666 32.667 225.999 98c2.66699 24 4 55.667 4 95c0 10 -1.33301 24.5 -4 43.5s-4.33398 32.167 -5.00098 39.5l-15 226c-9.33301 70 -29.333 142.667 -60 218
c0 18 10.333 49 31 93c22.667 48.667 43 73 61 73c16 0 24 -28.667 24 -86c0 -16 9.66699 -31.333 29 -46c26 -20 41 -32 45 -36c0 -31.333 -8.83301 -66.666 -26.5 -105.999s-26.5 -64.333 -26.5 -75c0 -27.333 3.66699 -68.166 11 -122.499s11 -95.166 11 -122.499
c0 -86 -4 -140 -12 -162l8 2c164.667 140.667 276.667 211 336 211c32.667 0 74 -13 124 -39c55.333 -28.667 83 -57.334 83 -86.001zM818.004 463.998c-48 0 -166.668 -74.999 -356.001 -224.999v14c8 63.333 12 121.333 12 174c0 40.667 -8.33301 138.334 -25 293.001
c-2 16.667 2.33301 27.667 13 33c22 0 35 32 39 96c-25.333 19.333 -40.666 31.666 -45.999 36.999c-18 18 -27.667 34 -29 48c-2.66699 30 -6.33398 49.333 -11.001 58c-25.333 -18.667 -46.666 -64.334 -63.999 -137.001c54.667 -91.333 82 -286 82 -584
c0 -100.667 -67.667 -151 -203 -151c-16.667 0 -41.167 1 -73.5 3s-56.833 3 -73.5 3v-8c78 -74 164 -111 258 -111c257.333 0 445.666 54.667 564.999 164c68.667 63.333 103 125.333 103 186c0 28.667 -26.333 54.667 -79 78c-43.333 19.333 -80.666 29 -111.999 29z
M937.003 268.999c-48.667 -43.333 -121.333 -79 -218 -107c-87.333 -25.333 -168.333 -38 -243 -38c-32.667 0 -49 4.66699 -49 14c0 24 46.667 66.667 140 128c91.333 60.667 151.666 91 180.999 91c28.667 0 65.334 -7 110.001 -21c54.667 -17.333 82 -36 82 -56z
M920.004 275.999l-3.99902 14c-54 31.333 -110 47 -168 47c-30.667 0 -84.334 -26.667 -161.001 -80c-70 -48.667 -117.333 -87.667 -142 -117l19 -4c58 0 139.333 14 244 42c119.333 32 190 64.667 212 98z" />
    <glyph glyph-name="u0639" unicode="&#x639;" horiz-adv-x="904" arabic-form="isolated" 
d="M1008 -544c-175.333 -16 -340.332 -23.999 -494.999 -23.999c-2.66699 0.666992 -8.33398 2 -17.001 4c-255.333 62 -383 181.333 -383 358c0 145.333 107.667 278.666 323 399.999l227 126l25 78l-160 -86c-79.333 -42.667 -134 -64 -164 -64
c-41.333 0 -89 14.667 -143 44c-60 32.667 -90 67.334 -90 104.001s32.667 70 98 100c56.667 26 106.667 39 150 39c9.33301 -1.33301 35.333 -5.33301 78 -12c-14.667 15.333 -41 29.833 -79 43.5s-68.667 20.5 -92 20.5c-48.667 0 -85 -11.333 -109 -34
c-16.667 -16 -34 -50 -52 -102c-22 -64 -33 -100 -33 -108c0 -37.333 23.167 -79.833 69.5 -127.5s69.5 -70.834 69.5 -69.501c0 -7.33301 -17.667 -37 -53 -89c-74 -108.667 -111 -227 -111 -355c0 -132.667 55.333 -230 166 -292c86.667 -48.667 202 -73 346 -73
c48.667 0 128.667 12.667 240 38c125.333 28.667 188.333 55.667 189 81zM1018 -526.999c9.33301 0 18.001 -1.67188 26.001 -5.00488c-2.66699 -32.667 -56.667 -65.667 -162 -99c-88 -28 -152 -42.667 -192 -44l-180 -7c-134 -5.33301 -245 28.667 -333 102
s-132 179 -132 317c0 66.667 14.333 132.334 43 197.001c18 40.667 44.667 86 80 136c29.333 41.333 44.333 66 45 74c-1.33301 5.33301 -26.333 26 -75 62c-44 32.667 -66 73.667 -66 123c0 68 17 129 51 183c40 63.333 91 95 153 95c32 0 71.667 -9 119 -27
c56 -21.333 85.333 -44.333 88 -69l-6 -8c-26.667 8 -60.334 12 -101.001 12c-34.667 0 -79 -11.667 -133 -35c-62.667 -27.333 -94 -56.666 -94 -87.999c0 -35.333 31.667 -65.666 95 -90.999c53.333 -21.333 101 -32 143 -32c11.333 0 119.333 51.333 324 154
c-1.33301 -19.333 -11.666 -56.333 -30.999 -111l-227 -126c-212 -121.333 -318 -255.333 -318 -402c0 -105.333 51.667 -189.666 155 -252.999c90.667 -55.333 191.334 -81.666 302.001 -78.999l298 8c13.333 0.666992 34.666 3 63.999 7c27.333 4 48.666 6 63.999 6z" />
    <glyph glyph-name="u063A" unicode="&#x63a;" horiz-adv-x="996" arabic-form="isolated" 
d="M399 881l-90 -96l-115 90l90 109zM368 879l-82 74l-63 -76l82 -65zM1020 -540c-175.333 -16 -340.332 -23.999 -494.999 -23.999c-2.66699 0.666992 -8.33398 2 -17.001 4c-255.333 62 -383 181.333 -383 358c0 145.333 107.667 278.666 323 399.999l227 126l25 78
l-160 -86c-79.333 -42.667 -134 -64 -164 -64c-41.333 0 -89 14.667 -143 44c-60 32.667 -90 67.334 -90 104.001s32.667 70 98 100c56.667 26 106.667 39 150 39c9.33301 -1.33301 35.333 -5.33301 78 -12c-14.667 15.333 -41 29.833 -79 43.5s-68.667 20.5 -92 20.5
c-48.667 0 -85 -11.333 -109 -34c-16.667 -16 -34 -50 -52 -102c-22 -64 -33 -100 -33 -108c0 -37.333 23.167 -79.833 69.5 -127.5s69.5 -70.834 69.5 -69.501c0 -7.33301 -17.667 -37 -53 -89c-74 -108.667 -111 -227 -111 -355c0 -132.667 55.333 -230 166 -292
c86.667 -48.667 202 -73 346 -73c48.667 0 128.667 12.667 240 38c125.333 28.667 188.333 55.667 189 81zM1030 -522.999c9.33301 0 18.001 -1.67188 26.001 -5.00488c-2.66699 -32.667 -56.667 -65.667 -162 -99c-88 -28 -152 -42.667 -192 -44l-180 -7
c-134 -5.33301 -245 28.667 -333 102s-132 179 -132 317c0 66.667 14.333 132.334 43 197.001c18 40.667 44.667 86 80 136c29.333 41.333 44.333 66 45 74c-1.33301 5.33301 -26.333 26 -75 62c-44 32.667 -66 73.667 -66 123c0 68 17 129 51 183c40 63.333 91 95 153 95
c32 0 71.667 -9 119 -27c56 -21.333 85.333 -44.333 88 -69l-6 -8c-26.667 8 -60.334 12 -101.001 12c-34.667 0 -79 -11.667 -133 -35c-62.667 -27.333 -94 -56.666 -94 -87.999c0 -35.333 31.667 -65.666 95 -90.999c53.333 -21.333 101 -32 143 -32
c11.333 0 119.333 51.333 324 154c-1.33301 -19.333 -11.666 -56.333 -30.999 -111l-227 -126c-212 -121.333 -318 -255.333 -318 -402c0 -105.333 51.667 -189.666 155 -252.999c90.667 -55.333 191.334 -81.666 302.001 -78.999l298 8c13.333 0.666992 34.666 3 63.999 7
c27.333 4 48.666 6 63.999 6z" />
    <glyph glyph-name="u0641" unicode="&#x641;" horiz-adv-x="1152" arabic-form="isolated" 
d="M982 805l-90 -96l-114 90l90 106zM415 -41c-92 0 -172.004 13 -240.004 39c-96.667 36.667 -145 93.334 -145 170.001c0 40 12.667 82.667 38 128c28.667 50.667 61 79.667 97 87l6 -16c-24.667 -72.667 -37 -115.667 -37 -129c0 -97.333 95.667 -146 287 -146
c319.333 0 520 35.667 602 107c6 7.33301 9 19.333 9 36c0 15.333 -2.33301 27.666 -7 36.999l-6 2c-30.667 -44.667 -77 -67 -139 -67c-26 0 -47 13 -63 39c-14 22 -21 47 -21 75c0 43.333 17.667 90.666 53 141.999c38.667 56 78.334 84 119.001 84
c44.667 0 79.334 -44.667 104.001 -134c18 -64.667 27 -128 27 -190c0 -83.333 -54.333 -145.666 -163 -186.999c-49.333 -18.667 -135.666 -37.667 -258.999 -57c-85.333 -13.333 -172.666 -20 -261.999 -20zM1083 272c0 44.667 -9.33301 94.334 -28 149.001
c-24 70 -53 105 -87 105c-36 0 -71 -25.667 -105 -77c-31.333 -47.333 -47 -90 -47 -128c0 -64 28.667 -96 86 -96c44.667 0 83.667 24.667 117 74l6 3l11 -5c9.33301 -10.667 14 -33.334 14 -68.001l-6 -37c-29.333 -42.667 -124 -75 -284 -97
c-112 -15.333 -225 -23 -339 -23c-73.333 0 -137.333 10.667 -192 32c-75.333 29.333 -113 75.333 -113 138c0 18 4 37.333 12 58l21 54l-15 -4c-22.667 -16 -42.667 -43.167 -60 -81.5s-26 -71.833 -26 -100.5c0 -67.333 50.333 -118.333 151 -153
c73.333 -25.333 152.333 -38 237 -38c90 0 198 12 324 36c158 30 254.333 67.333 289 112c22.667 28.667 34 77.667 34 147zM951.996 803l-82 71l-64 -73l82 -66zM929.996 314c-52.667 0 -79 19.668 -79 59.001c0 13.333 7.83301 26.166 23.5 38.499s30.5 18.5 44.5 18.5
c16 0 32.333 -7.5 49 -22.5s25 -30.167 25 -45.5c0 -32 -21 -48 -63 -48zM974.996 368.001c0 8 -7.16699 17.002 -21.5 27.002s-25.833 15 -34.5 15c-32.667 0 -49 -13 -49 -39c0 -10.667 6.33301 -19.834 19 -27.501s24.667 -11.5 36 -11.5c10 0 20.833 3.66699 32.5 11
s17.5 15.666 17.5 24.999z" />
    <glyph glyph-name="u0642" unicode="&#x642;" horiz-adv-x="932" arabic-form="isolated" 
d="M346 -296c-90.667 0 -163.332 21.9971 -217.999 65.9971c-58.667 48 -88 116.333 -88 205c0 40 16.333 95.667 49 167c36 78.667 71.333 119 106 121v-18c0 -4 -11.667 -33.167 -35 -87.5s-35 -95.5 -35 -123.5c0 -61.333 31 -108.333 93 -141
c50.667 -26.667 109.667 -40 177 -40c51.333 0 127.333 16.667 228 50c110.667 36.667 174 72 190 106c1.33301 21.333 2 34 2 38c0 24.667 -4.66699 47 -14 67l-14 8c-11.333 -17.333 -31 -32.666 -59 -45.999s-53 -20 -75 -20c-30 0 -55 14.667 -75 44
c-18 26.667 -27 55.667 -27 87c0 44.667 10.667 90.334 32 137.001c25.333 56 57.666 84 96.999 84c50.667 0 98.667 -42.667 144 -128c40 -75.333 60 -142 60 -200c0 -46 -8 -90.667 -24 -134c-24 -65.333 -98.667 -123.666 -224 -174.999
c-109.333 -44.667 -206 -67 -290 -67zM864.002 63.9971c0 60 -16.334 126 -49.001 198c-38.667 85.333 -83.667 128 -135 128c-32.667 0 -60.334 -25.667 -83.001 -77c-18.667 -42.667 -28 -82.667 -28 -120c0 -77.333 31 -116 93 -116c36 0 78.333 22.333 127 67
c14.667 0 26.334 -18 35.001 -54c6.66699 -27.333 10 -52.333 10 -75c-18.667 -45.333 -87.667 -88.333 -207 -129c-104 -35.333 -189 -53 -255 -53c-70 0 -129 14.667 -177 44c-57.333 34.667 -86 85 -86 151c0 37.333 21 103.333 63 198
c-24 -7.33301 -49.333 -42 -76 -104c-24 -56 -36 -99.667 -36 -131c0 -87.333 26.667 -154.333 80 -201c50 -44 119.333 -66 208 -66c89.333 0 190.333 25.333 303 76c130.667 58.667 200.334 125.667 209.001 201c2.66699 23.333 4 44.333 4 63zM666.001 178.997
c-23.333 0 -41.332 6.99902 -53.999 20.999c-3.33301 10 -5 17 -5 21c0 14 5.83301 29 17.5 45s24.167 24 37.5 24c15.333 0 31.666 -8.16699 48.999 -24.5s26 -32.166 26 -47.499c0 -26 -23.667 -39 -71 -39zM662.002 194.996c35.333 0 53 9 53 27
c0 9.33301 -6.66699 19.5 -20 30.5s-25 16.5 -35 16.5c-22.667 0 -34 -16 -34 -48c0 -17.333 12 -26 36 -26zM641.002 637.996l-82 72l-63 -76l82 -64zM815.002 641.996l-80 68l-65 -70l82 -66zM655.002 651.996l80 86l111 -94l-90 -96l-98 78l-76 -82l-115 88l90 108z" />
    <glyph glyph-name="u0643" unicode="&#x643;" horiz-adv-x="996" arabic-form="isolated" 
d="M1050 1005l7.99902 -3c4.66699 -10 7 -17 7 -21c0 -36 -9 -66.667 -27 -92l-336 -170c-91.333 -46 -137 -80.333 -137 -103l8 -14c207.333 -136 311 -263 311 -381c0 -138.667 -95.333 -215.667 -286 -231c-125.333 -10 -231 -15 -317 -15c-38.667 0 -79 4 -121 12
c-62.667 12 -95 28.667 -97 50c-2.66699 28.667 -4 51.334 -4 68.001c0 16 2 33 6 51l13 11l16 -5c77.333 -32.667 159.333 -49 246 -49c95.333 0 190 6.33301 284 19c144 19.333 216 48.666 216 87.999c0 37.333 -43.667 88 -131 152c-14 10 -69.667 45.667 -167 107
c-16.667 10.667 -25 39 -25 85c0 80.667 22 141.667 66 183c28.667 27.333 184.334 113.333 467.001 258zM1036 979c-136.667 -68 -225.996 -113.999 -267.996 -137.999c-131.333 -74 -205.333 -131.667 -222 -173c-8 -20 -12 -49.333 -12 -88c0 -47.333 7 -75.333 21 -84
c202.667 -127.333 304 -218 304 -272c0 -67.333 -126 -109.333 -378 -126c-40.667 -2.66699 -93.334 -4 -158.001 -4c-118.667 0 -196.334 16.333 -233.001 49l-9 -10l-2 -33c-0.666992 -14 1.66602 -35 6.99902 -63c2.66699 -12.667 37 -23.334 103 -32.001
c46 -6 87 -9 123 -9c159.333 0 272.666 7.33301 339.999 22c144 31.333 216 99 216 203c0 60 -27.667 120.667 -83 182c-30.667 34 -82.667 78.333 -156 133c-55.333 41.333 -83 67.333 -83 78c0 27.333 70.667 78 212 152l272 139c10 21.333 16 42 18 62z" />
    <glyph glyph-name="u0644" unicode="&#x644;" horiz-adv-x="752" arabic-form="isolated" 
d="M692 791c-4.66699 10.667 -18.333 23.667 -41 39c-15.333 10 -24.666 38.667 -27.999 86l-6 6c-9.33301 -8 -30 -47 -62 -117c9.33301 -30.667 19.666 -80.334 30.999 -149.001l35 -680c2 -37.333 -41 -70.333 -129 -99c-72 -23.333 -132.333 -35 -181 -35
c-54.667 0 -103.667 17 -147 51c-46.667 36 -70 80.667 -70 134c0 20 7 44 21 72c16.667 34 26.334 57 29.001 69c-22.667 -11.333 -44.667 -45.333 -66 -102c-19.333 -51.333 -29 -91 -29 -119c0 -64 24 -114.333 72 -151c43.333 -33.333 98 -50 164 -50
c75.333 0 153.666 23.667 234.999 71c92 53.333 138 115.666 138 186.999v70c0 60.667 -4 151.834 -12 273.501s-12 212.834 -12 273.501c0 27.333 1 49 3 65l16 4c22 23.333 35 57 39 101zM713.001 791c-2 -52.667 -20.334 -93 -55.001 -121l-9 -2v-39
c0 -9.33301 1.66699 -27.666 5 -54.999c16 -130.667 24 -322 24 -574c0 -76.667 -49 -143.667 -147 -201c-86 -50 -170.667 -75 -254 -75c-69.333 0 -126.666 20 -171.999 60c-48 41.333 -72 96.333 -72 165c0 38.667 11.333 85 34 139c26 61.333 54.333 96 85 104l6 -3
c2.66699 -8.66699 4 -16.334 4 -23.001c0 -5.33301 -7.83301 -24.5 -23.5 -57.5s-23.5 -58.167 -23.5 -75.5c0 -48.667 21 -89.667 63 -123c38.667 -31.333 83 -47 133 -47c52.667 0 105 8 157 24c63.333 19.333 107.333 46 132 80c2.66699 12 4 33 4 63
c0 219.333 -15 453 -45 701c-6.66699 15.333 -14.667 40 -24 74l37 79c18.667 40.667 35 63.334 49 68.001l12 -9c5.33301 -26.667 11 -53.334 17 -80.001c6.66699 -8.66699 27.667 -32.667 63 -72z" />
    <glyph glyph-name="u0645" unicode="&#x645;" horiz-adv-x="564" arabic-form="isolated" 
d="M509 245l0.999023 -10.002c2 -18.667 -7 -41.667 -27 -69c-17.333 -24 -35.333 -42 -54 -54h-119c-119.333 0 -180 -16.667 -182 -50l-2 -30c-1.33301 -20 -2 -37.333 -2 -52c0 -52.667 7.16699 -131.167 21.5 -235.5s21.5 -182.833 21.5 -235.5
c0 -63.333 -9.66699 -121.333 -29 -174l-14 -14l-6 -2c-12 2 -18.333 26.667 -19 74c0 18 -0.666992 50.333 -2 97c-0.666992 8.66699 -16.334 161.334 -47.001 458.001c-0.666992 6.66699 -1 14.334 -1 23.001c0 50 12.667 97.333 38 142
c27.333 49.333 63.333 81.666 108 96.999c26.667 4 62.334 16.333 107.001 37c-5.33301 18.667 -26.666 28 -63.999 28c-6 0 -17.333 -3.66699 -34 -11s-29 -11 -37 -11c-11.333 0 -17 7.33301 -17 22c0 22.667 15 51.334 45 86.001s56 52 78 52c68 0 146.667 -56 236 -168z
M491.999 238.998c-26 35.333 -57.667 67.666 -95 96.999c-47.333 37.333 -88.666 56 -123.999 56c-38 0 -72.667 -34 -104 -102l4 -17l16 2c24 12.667 41 19 51 19c16.667 0 33.667 -4.66699 51 -14c20 -10.667 30 -23.667 30 -39l-1 -9l-156 -71
c-45.333 -21.333 -74 -59.666 -86 -114.999c-5.33301 -24.667 -8 -75.334 -8 -152.001c0 -60 7.33301 -147 22 -261l34 -265c13.333 24.667 20 96.667 20 216c0 64 -5 139.667 -15 227l-26 227c-5.33301 47.333 40 77 136 89c36.667 4.66699 98 6.33398 184 5.00098
c13.333 6 28.166 21.333 44.499 46s23.833 44 22.5 58v3z" />
    <glyph glyph-name="u0646" unicode="&#x646;" horiz-adv-x="764" arabic-form="isolated" 
d="M420 468l-90 -96l-115 90l94 102zM641 -28c0 32.667 -34.001 101.001 -102.001 205.001l-2 21c12.667 56.667 35 94 67 112c26.667 -27.333 50.667 -74.333 72 -141c20.667 -62.667 31 -115.334 31 -158.001c0 -102 -50 -180 -150 -234
c-80 -43.333 -176.333 -65 -289 -65c-150 0 -225 65 -225 195c0 44 8 90.333 24 139c18.667 55.333 42.667 95 72 119l7 -4l3 -10c0.666992 -4.66699 -7.33301 -30.167 -24 -76.5s-25 -76.833 -25 -91.5c0 -48 27 -85 81 -111c42.667 -20.667 90.334 -31 143.001 -31
c51.333 0 112.333 11 183 33c89.333 28 134 60.667 134 98zM327.999 -176.999c-60.667 0 -113 10.665 -157 31.998c-58 28 -87 69.333 -87 124c0 24.667 15.667 75 47 151l-2 10c-20.667 -24 -38 -60 -52 -108c-13.333 -44 -20 -83.667 -20 -119
c0 -121.333 69 -182 207 -182c106.667 0 199 19.333 277 58c99.333 49.333 149 121.333 149 216c0 88 -28.667 181 -86 279c-10 -5.33301 -20.667 -17.166 -32 -35.499s-17 -33.166 -17 -44.499l2 -17c65.333 -98 98 -173 98 -225c0 -41.333 -45.667 -76.333 -137 -105
c-72 -22.667 -135.333 -34 -190 -34zM388.999 465.999l-80 70l-65 -72l82 -66z" />
    <glyph glyph-name="u0647" unicode="&#x647;" horiz-adv-x="444" arabic-form="isolated" 
d="M184 -21c-68.667 0 -112.669 23.333 -132.002 70c0 4 -0.333008 10.167 -1 18.5s-1 14.5 -1 18.5c0 81.333 24 150.333 72 207l-4 8l-9 8c32.667 72 56.334 108 71.001 108c28.667 0 70.334 -27 125.001 -81c58 -56.667 87 -106 87 -148
c0 -139.333 -69.333 -209 -208 -209zM373.998 183c0 24 -15.666 56.668 -46.999 98.001c-38 50 -84.667 88.667 -140 116c-24.667 -13.333 -44.334 -42 -59.001 -86c6 -4.66699 10.667 -10.667 14 -18c-47.333 -80.667 -71 -148.334 -71 -203.001c0 -60 46.333 -90 139 -90
c109.333 0 164 61 164 183zM330.999 160.001c-14 -45.333 -58.999 -68.002 -134.999 -68.002c-58 0 -87 19.667 -87 59c0 16.667 7 40.334 21 71.001c15.333 34.667 29.666 52 42.999 52c16.667 0 46.667 -15.167 90 -45.5s66 -53.166 68 -68.499zM172 253.999l-5.99902 -3
c-26.667 -36 -39 -68 -37 -96l1 -14c6 -12 17 -22.333 33 -31l39 -4c19.333 0 40.666 4 63.999 12c29.333 10 44 22.333 44 37c0 14 -20.333 34 -61 60c-37.333 24 -63 37 -77 39z" />
    <glyph glyph-name="u0648" unicode="&#x648;" horiz-adv-x="660" arabic-form="isolated" 
d="M237 -353c-34 0 -76 10.666 -126 31.999c-52 22.667 -87.667 46.667 -107 72c-2 7.33301 -2.66699 12.333 -2 15l26 4c10 0 25 -1.33301 45 -4s35 -4 45 -4h80c56 0 117.667 27.333 185 82c57.333 46.667 103 98.334 137 155.001l-4 12c-12 0.666992 -28.667 0 -50 -2
c-24.667 -2 -41.667 -3 -51 -3c-73.333 0 -110 30.333 -110 91c0 35.333 18.333 78.666 55 129.999c39.333 54.667 75.333 82 108 82c19.333 0 44 -21.333 74 -64c24.667 -35.333 41 -63.666 49 -84.999c11.333 -31.333 17 -70 17 -116c0 -75.333 -42.667 -160 -128 -254
c-87.333 -95.333 -168.333 -143 -243 -143zM590 89.999c0 70 -38.999 136 -116.999 198l-7 2c-26.667 0 -57.667 -24.333 -93 -73c-33.333 -46 -50 -83 -50 -111c0 -54 35.333 -81 106 -81c9.33301 0 22.833 0.5 40.5 1.5s31.167 1.5 40.5 1.5c10.667 0 20 -2 28 -6l3 -12
c-12.667 -46.667 -55 -102 -127 -166s-131.667 -97.667 -179 -101c-36.667 -2.66699 -75.334 -4 -116.001 -4c4.66699 0 -23 3.33301 -83 10c74.667 -54.667 141.667 -82 201 -82c83.333 0 164 50.333 242 151c74 95.333 111 186 111 272zM505.001 88.999
c-27.333 -2 -44.667 -2.99902 -52 -2.99902c-41.333 0 -69.666 9.33301 -84.999 28l-5 16c0 17.333 7.83301 33.166 23.5 47.499s32.167 21.5 49.5 21.5c27.333 0 52.666 -27 75.999 -81l2 -21zM493 106c0 14.667 -6.16699 29.668 -18.5 45.001s-25.5 25 -39.5 29l-12 -2
c-25.333 -14.667 -38 -31.334 -38 -50.001c0 -6 8 -11.667 24 -17c14 -4.66699 25 -7 33 -7h23z" />
    <glyph glyph-name="u0649" unicode="&#x649;" horiz-adv-x="1076" arabic-form="isolated" 
d="M1019 482c0 -26 -10.998 -54.002 -32.998 -84.002l-12 -4c-8.66699 0 -25.334 5.5 -50.001 16.5s-43 16.5 -55 16.5c-28.667 0 -74.334 -23.167 -137.001 -69.5s-94 -83.166 -94 -110.499v-4c10 -37.333 44 -60.333 102 -69l150 -22c52 -14 78 -42.667 78 -86
c0 -96 -82.667 -179.333 -248 -250c-137.333 -58.667 -262.666 -88 -375.999 -88c-88.667 0 -161.334 27 -218.001 81c-58.667 54.667 -88 126 -88 214c0 35.333 14.333 84 43 146c30.667 66 60 105.667 88 119l10 -2l6 -13c-3.33301 -17.333 -15.333 -50 -36 -98
c-16.667 -38.667 -25 -72.667 -25 -102c0 -67.333 32.333 -119.666 97 -156.999c53.333 -30.667 116.666 -46 189.999 -46c72.667 0 158.334 14.333 257.001 43c108 31.333 184.667 68 230 110l2 11c-14.667 6 -35 9.33301 -61 10c-16 0.666992 -38 0 -66 -2
c-30.667 -2.66699 -52.667 -4 -66 -4c-36 0 -69 11.667 -99 35c-32 25.333 -48 55.333 -48 90c0 76.667 40.667 163 122 259c83.333 98.667 162.333 148 237 148c26.667 0 50 -8.16699 70 -24.5s30 -37.5 30 -63.5zM919.002 549.998c-68.667 0 -143.333 -46.667 -224 -140
c-78.667 -90.667 -118 -171 -118 -241c0 -75.333 70 -113 210 -113c14 0 43 1.33301 87 4c13.333 0.666992 26.666 -2.66602 39.999 -9.99902l4 -9c0 -47.333 -73.333 -93.333 -220 -138c-122.667 -37.333 -217 -56 -283 -56c-81.333 0 -151.333 17.667 -210 53
c-69.333 42 -104 101 -104 177c0 25.333 8.66699 56.333 26 93c20.667 44 32.667 73.667 36 89l-12 -6c-21.333 -22.667 -42.5 -58.667 -63.5 -108s-31.5 -89.333 -31.5 -120c0 -88 32 -156.667 96 -206c58 -45.333 132 -68 222 -68c102 0 219 29 351 87
c153.333 67.333 230 143.333 230 228c0 37.333 -23.667 60 -71 68c-26.667 3.33301 -75 10.666 -145 21.999c-58 10.667 -98.333 36.667 -121 78l-1 6c0 28.667 35.333 70.5 106 125.5s121.334 82.5 152.001 82.5c16 0 47.667 -12.333 95 -37c16 22.667 25.333 45 28 67
c-8.66699 48 -35 72 -79 72z" />
    <glyph glyph-name="u064A" unicode="&#x64a;" horiz-adv-x="1096" arabic-form="isolated" 
d="M1044 468c0 -26 -10.999 -54.001 -32.999 -84.001l-12 -4c-8.66699 0 -25.334 5.5 -50.001 16.5s-43 16.5 -55 16.5c-28.667 0 -74.334 -23.167 -137.001 -69.5s-94 -83.166 -94 -110.499v-4c10 -36.667 44 -59.667 102 -69l151 -22c51.333 -14 77 -42.667 77 -86
c0 -96 -82.667 -179.333 -248 -250c-137.333 -58.667 -262.666 -88 -375.999 -88c-88.667 0 -161.334 27 -218.001 81c-58.667 54.667 -88 126 -88 214c0 35.333 14.333 84 43 146c30.667 66 60 105.667 88 119l10 -2l6 -13c-3.33301 -17.333 -15.333 -50 -36 -98
c-16.667 -38.667 -25 -72.667 -25 -102c0 -70.667 31.667 -124 95 -160c51.333 -28.667 115.333 -43 192 -43c72.667 0 158.334 14.333 257.001 43c108 31.333 184.667 68 230 110l2 11c-14.667 6 -35 9.33301 -61 10c-16 0.666992 -38 0 -66 -2
c-30.667 -2.66699 -52.667 -4 -66 -4c-36 0 -69 11.667 -99 35c-32 25.333 -48 55.333 -48 90c0 76.667 40.667 163 122 259c83.333 98.667 162.333 148 237 148c26.667 0 50 -8.16699 70 -24.5s30 -37.5 30 -63.5zM944.001 535.999c-68.667 0 -143.333 -46.667 -224 -140
c-78.667 -90.667 -118 -171 -118 -241c0 -75.333 70 -113 210 -113c14 0 43 1.33301 87 4c13.333 0.666992 26.666 -2.66602 39.999 -9.99902l4 -9c0 -47.333 -73.333 -93.333 -220 -138c-122.667 -37.333 -217 -56 -283 -56c-81.333 0 -151.333 17.667 -210 53
c-69.333 42 -104 101 -104 177c0 25.333 8.66699 56.333 26 93c20.667 44 32.667 73.667 36 89l-12 -6c-21.333 -22.667 -42.5 -58.667 -63.5 -108s-31.5 -89.333 -31.5 -120c0 -88 32 -156.667 96 -206c58 -45.333 132 -68 222 -68c102 0 219 29 351 87
c153.333 67.333 230 143.333 230 228c0 37.333 -23.667 60 -71 68c-26.667 3.33301 -75 10.666 -145 21.999c-58 10.667 -98.333 36.667 -121 78l-1 6c0 28.667 35.333 70.5 106 125.5s121.334 82.5 152.001 82.5c16 0 47.667 -12.333 95 -37c16 22.667 25.333 45 28 67
c-8.66699 48 -35 72 -79 72z" />
    <glyph glyph-name="u067E" unicode="&#x67e;" horiz-adv-x="1252" arabic-form="isolated" 
d="M820 -211l-90 -109l-99 86l-75 -81l-115 92l90 96l98 -78l76 82zM728 -375l-91 -108l-114 100l90 96zM791 -213l-82 63l-63 -67l82 -72zM617 -219l-84 65l-61 -65l84 -68zM699 -377l-82 64l-63 -68l81 -72zM449 -57c-97.333 0 -180.334 13.335 -249.001 40.002
c-96 37.333 -144 97 -144 179c0 34 12.667 77.333 38 130c28 58.667 56.667 88 86 88l9 -3l2 -10c-2 -10.667 -10.333 -34.334 -25 -71.001c-12 -30 -18 -54.333 -18 -73c0 -50 45.333 -87 136 -111c60.667 -16 128.667 -24 204 -24c92 0 191.333 8.66699 298 26
c131.333 21.333 226 50.333 284 87l7 13c0 9.33301 -12.667 25.666 -38 48.999c-28.667 26.667 -45.667 44.667 -51 54c0 16 6.66699 39.333 20 70c14.667 34 28.334 51 41.001 51h4c74 -61.333 111 -127.333 111 -198c0 -104.667 -92.333 -180.667 -277 -228
c-179.333 -46 -325.333 -69 -438 -69zM461.999 70.002c-66 0 -130.668 8.99805 -194.001 26.998c-90.667 26 -136 64 -136 114c0 30.667 14.333 80.334 43 149.001l-17 -4c-56 -58 -84 -122 -84 -192c0 -72.667 46 -127 138 -163c68 -26.667 145 -40 231 -40
c144.667 0 282.334 17.333 413.001 52c192.667 51.333 289 128.333 289 231c0 55.333 -32.667 113.333 -98 174c-28.667 -21.333 -43 -52.666 -43 -93.999l6 -14c54.667 -48 82 -81 82 -99c0 -54 -140.333 -97.667 -421 -131c-56 -6.66699 -125.667 -10 -209 -10z" />
    <glyph glyph-name="u0686" unicode="&#x686;" horiz-adv-x="980" arabic-form="isolated" 
d="M1058 -518c-165.333 -30 -347 -44.998 -545 -44.998c-111.333 0 -203 19.333 -275 58c-92 49.333 -138 124.666 -138 225.999c0 106 40 204 120 294s173 143.667 279 161c60 10 128.333 18.333 205 25c46 4 69 37.333 69 100c0 6.66699 -4 10.667 -12 12
c-52.667 -10.667 -125 -16 -217 -16c-26 0 -65.333 2.16699 -118 6.5s-92 6.5 -118 6.5c-51.333 0 -101 -13.667 -149 -41c-56 -32 -84 -72 -84 -120l2 -12l64 40c38.667 24 78.667 36 120 36c36 0 55.667 -9.33301 59 -28l-1 -9c-6 -8 -14.333 -16.333 -25 -25
c-71.333 -58 -130.333 -130.333 -177 -217c-50 -92 -75 -181.333 -75 -268c0 -225.333 161.333 -338 484 -338c156.667 0 306 35 448 105c35.333 17.333 63.333 33.666 84 48.999zM1089 -499.998c-1.33301 -21.333 -50 -54.333 -146 -99
c-87.333 -40.667 -150 -64.334 -188 -71.001c-76 -13.333 -154.333 -20 -235 -20c-332 0 -498 119.333 -498 358c0 94.667 31.333 196.334 94 305.001c18.667 32 45 66 79 102c50 52.667 79 83.667 87 93l10 12l-4 8c-14 1.33301 -29.667 2 -47 2
c-47.333 0 -104 -29.333 -170 -88c-10.667 6 -16 16.667 -16 32c0 61.333 29.333 110.333 88 147c50.667 31.333 108.334 47 173.001 47c28 0 70.167 -2.16699 126.5 -6.5s98.5 -6.5 126.5 -6.5c23.333 0 57.833 3.16699 103.5 9.5s80.167 9.5 103.5 9.5
c14 0 21 -12.667 21 -38s-8.66699 -50.333 -26 -75c-18.667 -27.333 -40.334 -41 -65.001 -41c-151.333 0 -282.333 -37.333 -393 -112c-126 -85.333 -189 -201 -189 -347c0 -176 138.667 -264 416 -264h159c54 0 119.333 5.33301 196 16zM603 -296.998l-81 65l-64 -67
l82 -74zM634 -294.998l-90 -109l-115 103l91 96zM724 -130.998l-90 -109l-98 86l-76 -82l-115 93l91 96l98 -78l76 82zM696 -132.998l-82 63l-64 -67l82 -72zM522 -138.998l-84 65l-62 -65l84 -68z" />
    </font>
</defs>
</svg>
