<?xml version="1.0" standalone="no"?>
<!DOCTYPE svg PUBLIC "-//W3C//DTD SVG 1.1//EN" "http://www.w3.org/Graphics/SVG/1.1/DTD/svg11.dtd" >
<svg>
<metadata>
Created by FontForge 20090914 at Wed Oct 19 01:59:46 2011
 By www-data
(c) by Abolfazl Seilsepour - +98 912 591 3420  -  seilsepor@yahoo.com
</metadata>
<defs>
<font id="Far.TrafficBold" horiz-adv-x="0" >
  <font-face 
    font-family="Far.Traffic"
    font-weight="700"
    font-stretch="normal"
    units-per-em="2048"
    panose-1="0 0 7 0 0 0 0 0 0 0"
    ascent="1638"
    descent="-410"
    bbox="-183 -1357 2673 2372"
    underline-thickness="100"
    underline-position="-670"
    unicode-range="U+0020-U+FEFC"
  />
<missing-glyph horiz-adv-x="1024" 
d="M128 0v1278h768v-1278h-768zM256 128h512v1022h-512v-1022z" />
    <glyph glyph-name="uE818" unicode="&#x651;&#x64b;" 
d="M629 1672c0 -45.333 -12.3359 -83.332 -37.0029 -113.999c-26 -33.333 -61 -50 -105 -50c-71.333 0 -125.666 26.667 -162.999 80c-41.333 -97.333 -105 -146 -191 -146c-95.333 0 -143 54.333 -143 163c0 48 21 116.667 63 206l89 -45
c-24.667 -64.667 -37 -103 -37 -115c0 -46.667 16 -70 48 -70c46.667 0 77.334 24.667 92.001 74c8 27.333 11 71 9 131l114 60c0 -132.667 30.333 -199 91 -199c32.667 0 47.667 20 45 60c-1.33301 22 -18.666 60 -51.999 114l90 66c24.667 -32.667 46 -73.334 64 -122.001
c15.333 -41.333 23 -72.333 23 -93zM594.997 2232l-560 -139l-31 115l563 143zM601.997 2021l-560 -139l-31 115l563 143z" />
    <glyph glyph-name="uFC5E" unicode="&#x651;&#x64c;" arabic-form="isolated" 
d="M621 1675c0 -44 -12.002 -81.3311 -36.002 -111.998c-25.333 -32.667 -59.666 -49 -102.999 -49c-70 0 -123.333 26 -160 78c-40 -95.333 -102.333 -143 -187 -143c-93.333 0 -140 53.333 -140 160c0 47.333 20.667 114.666 62 201.999l87 -45
c-24 -62.667 -36 -100 -36 -112c0 -45.333 15.667 -68 47 -68c46 0 76 23.667 90 71c8 27.333 11 70.666 9 129.999l111 58c0 -130 30 -195 90 -195c32 0 46.667 19.667 44 59c-1.33301 22.667 -7.66602 43 -18.999 61l-32 50l88 65c24 -31.333 45 -71 63 -119
c14.667 -40.667 22 -71 22 -91zM638.998 2183c0 -104 -63.333 -171.001 -190 -201.001l-402 -95l-38 102l38 18c40.667 18.667 61 46.667 61 84.001c0 22 -8.33301 33 -25 33c-14 0 -33 -8.66699 -57 -26l-44 65c35.333 48.667 74 72.334 116 71
c68.667 -1.33301 103 -35.666 103 -103c0 -38 -10.667 -73 -32 -105l109 41c-20 34 -30 71.333 -30 112c0 52 22.667 96.333 68 133c40 32.667 79.667 49 119 49c51.333 0 97.333 -16.667 138 -50c44 -35.333 66 -78 66 -128zM529.998 2183c0 41.333 -29.333 62 -88 62
c-20 0 -38.667 -6.5 -56 -19.5s-26 -29.5 -26 -49.5c0 -21.333 8.66699 -40 26 -56s37 -23.333 59 -22c56.667 4 85 32.333 85 85z" />
    <glyph glyph-name="uFC5F" unicode="&#x651;&#x64d;" arabic-form="isolated" 
d="M586 1825l-560 -139l-31 115l563 143zM607 2156c0 -45.333 -12.333 -83.333 -37 -114c-26 -33.333 -61 -50 -105 -50c-70.667 0 -125 26.667 -163 80c-41.333 -96.667 -105 -145 -191 -145c-95.333 0 -143 54.333 -143 163c0 47.333 21 115.666 63 205l90 -45
c-25.333 -64.667 -38 -103 -38 -115c0 -46 16 -69 48 -69c48 0 79 24.333 93 73c7.33301 26 10.333 69.667 9 131c22.667 13.333 60.334 33.333 113.001 60c0 -132.667 30.333 -199 91 -199c33.333 0 48.666 20 45.999 60c-1.33301 24.667 -19 62.667 -53 114l90 67
c58 -77.333 87 -149.333 87 -216zM606 1595l-560 -139l-31 115l563 143z" />
    <glyph glyph-name="uFC60" unicode="&#x651;&#x64e;" arabic-form="isolated" 
d="M632 1641c0 -44 -12.002 -81.3311 -36.002 -111.998c-25.333 -32.667 -59.666 -49 -102.999 -49c-70 0 -123.333 26 -160 78c-40 -95.333 -102.333 -143 -187 -143c-93.333 0 -140 53.333 -140 160c0 47.333 20.667 114.666 62 201.999l87 -45
c-24 -62.667 -36 -100 -36 -112c0 -45.333 15.667 -68 47 -68c46 0 76 23.667 90 71c8 27.333 11 70.666 9 129.999l111 58c0 -130 30 -195 90 -195c32 0 46.667 19.667 44 59c-1.33301 22.667 -7.66602 43 -18.999 61l-32 50l88 65c24 -31.333 45 -71 63 -119
c14.667 -40.667 22 -71 22 -91zM579.998 2016l-549 -137l-31 113l552 140z" />
    <glyph glyph-name="uFC61" unicode="&#x651;&#x64f;" arabic-form="isolated" 
d="M643 1640c0 -45.333 -12.333 -83.333 -37 -114c-26 -33.333 -61 -50 -105 -50c-70.667 0 -125 26.667 -163 80c-41.333 -97.333 -105 -146 -191 -146c-95.333 0 -143 54.333 -143 163c0 48 21 116.667 63 206l90 -45c-25.333 -64.667 -38 -103 -38 -115
c0 -46.667 16 -70 48 -70c48 0 79 24.667 93 74c7.33301 26 10.333 69.667 9 131c22.667 12.667 60.334 32.667 113.001 60c0 -132.667 30.333 -199 91 -199c33.333 0 48.666 20 45.999 60c-1.33301 24.667 -19 62.667 -53 114l90 66c26 -34 47.667 -74.667 65 -122
c14.667 -40 22 -71 22 -93zM526 2146c0 41.333 -30.001 62 -90.001 62c-21.333 0 -40.666 -6.66699 -57.999 -20c-19.333 -14.667 -29 -32.334 -29 -53c0 -22 9.5 -40.5 28.5 -55.5s39.5 -21.833 61.5 -20.5c58 4 87 33 87 87zM269.999 2031
c-21.333 34 -32.002 69.667 -32.002 107c0 52.667 23 98.334 69 137c40.667 34 81.334 51 122.001 51c52.667 0 99.667 -16.667 141 -50c44.667 -35.333 67 -78.666 67 -130c0 -107.333 -64.667 -176 -194 -206l-399 -93l-28 108c64.667 18 149.334 43.333 254.001 76z" />
    <glyph glyph-name="uFC62" unicode="&#x651;&#x650;" arabic-form="isolated" 
d="M614 1595l-560 -139l-31 115l563 143zM635 1926c0 -45.333 -12.333 -83.332 -37 -113.999c-26 -33.333 -61 -50 -105 -50c-70.667 0 -125 26.667 -163 80c-41.333 -96.667 -105 -145 -191 -145c-95.333 0 -143 54.333 -143 163c0 47.333 21 115.666 63 204.999l90 -45
c-25.333 -64.667 -38 -103 -38 -115c0 -46 16 -69 48 -69c48 0 79 24.333 93 73c7.33301 26 10.333 69.667 9 131c22.667 13.333 60.334 33.333 113.001 60c0 -132.667 30.333 -199 91 -199c33.333 0 48.666 20 45.999 60c-1.33301 24.667 -19 62.667 -53 114l90 67
c58 -77.333 87 -149.333 87 -216z" />
    <glyph glyph-name="uFDF2" unicode="&#xfedf;&#xfee0;&#xfeea;" horiz-adv-x="1798" arabic-form="isolated" 
d="M1796 403c0 -60.667 -5.66699 -118.334 -17 -173.001c-32 -153.333 -131.667 -230 -299 -230c-55.333 0 -106.666 14.333 -153.999 43c-50.667 30 -85 70 -103 120c-18 -55.333 -51.667 -98.666 -101 -129.999c-46 -29.333 -99.333 -44 -160 -44c-144 0 -240 71 -288 213
c-56.667 -12 -106.667 -18 -150 -18c-87.333 0 -162.333 18 -225 54c-74.667 42 -117.667 103 -129 183c-8 28.667 -4.66699 54 10 76c48 72.667 171 156 369 250l-21 122l184 58l87 -493c19.333 -111.333 73.666 -167 162.999 -167c76.667 0 115 63.667 115 191v550h237
v-407c0 -215.333 42.667 -323 128 -323c53.333 0 88.333 15 105 45c12.667 22.667 19 67.667 19 135v550h230v-605zM615 396l-39 191.001c-68 -26.667 -140.667 -59 -218 -97c-9.33301 -12.667 -14 -24 -14 -34c0 -40.667 52 -64 156 -70
c46 -2.66699 84.333 0.666016 115 9.99902zM1240 1647l-28 -219h-37l-22 219h87zM1195 1181c-2.66699 -6.66699 -7.33203 -14.665 -13.999 -23.998c-38.667 -44 -84 -66 -136 -66c-41.333 0 -74.166 13.833 -98.499 41.5s-36.5 62.5 -36.5 104.5c0 70.667 21 126 63 166
l72 -48l-28 -55c-6 -14.667 -9 -32.334 -9 -53.001c0 -25.333 13.667 -38 41 -38c20.667 0 33.667 1 39 3c43.333 16 65 67.333 65 154h80c0 -84.667 22 -136 66 -154c4.66699 -2 18.667 -3 42 -3c19.333 0 30.666 8 33.999 24c4 37.333 -10.667 75.666 -44 114.999l83 55
c28 -40 44 -64 48 -72c12 -24 18 -55.333 18 -94c0 -97.333 -46.333 -146 -139 -146c-44.667 0 -87.667 22 -129 66c-6.66699 7.33301 -12.334 15.333 -17.001 24z" />
    <glyph glyph-name="uFEF5" unicode="&#xfedf;&#xfe82;" horiz-adv-x="1211" arabic-form="isolated" 
d="M1206 632c0 -192 -55.3311 -345.334 -165.998 -460.001s-261.334 -172 -452.001 -172c-106 0 -220.667 37 -344 111v156h459l-428 849l195 121l420 -837c19.333 18.667 37.666 53.334 54.999 104.001c16.667 48 25 87.333 25 118v611h236v-601zM923.002 1526
c-141.333 -85.333 -296.668 -128 -466.001 -128c-42 0 -103.333 11.5 -184 34.5s-114 34.5 -100 34.5c-10.667 0 -27 -21 -49 -63l-139 77l52 124c26 49.333 54 74 84 74c14 0 34 -7.33301 60 -22c34.667 -19.333 66.334 -33.333 95.001 -42c51.333 -15.333 114 -23 188 -23
c135.333 0 288.333 41.667 459 125v-191z" />
    <glyph glyph-name="uFEF6" unicode="&#xfee0;&#xfe82;" horiz-adv-x="1433" arabic-form="final" 
d="M1461 268l0.000976562 -267h-58c-166.667 0 -270.334 87 -311.001 261c-108.667 -174 -276.667 -261 -504 -261c-106 0 -220.667 37 -344 111v156h459l-428 849l195 121l428 -855c24 24 43.667 63.667 59 119c13.333 48.667 20 93.667 20 135v597h236v-601
c0 -154 21.667 -257.667 65 -311c29.333 -36 78.333 -54 147 -54h36zM923.001 1526c-141.333 -85.333 -296.668 -128 -466.001 -128c-42 0 -103.333 11.5 -184 34.5s-114 34.5 -100 34.5c-10.667 0 -27 -21 -49 -63l-139 77l52 124c26 49.333 54 74 84 74
c14 0 34 -7.33301 60 -22c34.667 -19.333 66.334 -33.333 95.001 -42c51.333 -15.333 114 -23 188 -23c135.333 0 288.333 41.667 459 125v-191z" />
    <glyph glyph-name="uFEF7" unicode="&#xfedf;&#xfe84;" horiz-adv-x="1130" arabic-form="isolated" 
d="M1129 632c0 -192 -55.3301 -345.333 -165.997 -460s-261.334 -172 -452.001 -172c-106.667 0 -221.334 37 -344.001 111v156h458l-427 849l195 121l420 -837c19.333 19.333 37.666 54.333 54.999 105c16.667 48 25 87 25 117v611h236v-601zM623.003 1438l-515 -125.001
l-31 111l181 45c-39.333 45.333 -59 90.333 -59 135c0 50.667 22.667 91.334 68 122.001c40 27.333 86.333 41 139 41c38 0 72 -8 102 -24v-96c-30 6.66699 -59.667 10 -89 10c-77.333 0 -116 -22 -116 -66c0 -24 9.66699 -43.5 29 -58.5s41 -22.5 65 -22.5
c20 0 85 15.333 195 46z" />
    <glyph glyph-name="uFEF8" unicode="&#xfee0;&#xfe84;" horiz-adv-x="1355" arabic-form="final" 
d="M1384 268l0.000976562 -267.001h-58c-166.667 0 -270.667 87 -312 261c-108 -174 -275.667 -261 -503 -261c-106.667 0 -221.334 37 -344.001 111v156h458l-427 849l195 121l427 -855c24 23.333 43.667 63.333 59 120c13.333 48.667 20 93.334 20 134.001v597h237v-601
c0 -154 21.667 -257.667 65 -311c29.333 -36 78 -54 146 -54h37zM623.001 1438l-515 -125.001l-31 111l181 45c-39.333 45.333 -59 90.333 -59 135c0 50.667 22.667 91.334 68 122.001c40 27.333 86.333 41 139 41c38 0 72 -8 102 -24v-96c-30 6.66699 -59.667 10 -89 10
c-77.333 0 -116 -22 -116 -66c0 -24 9.66699 -43.5 29 -58.5s41 -22.5 65 -22.5c20 0 85 15.333 195 46z" />
    <glyph glyph-name="uFEF9" unicode="&#xfedf;&#xfe88;" horiz-adv-x="1130" arabic-form="isolated" 
d="M1129 632c0 -192 -55.3301 -345.333 -165.997 -460s-261.334 -172 -452.001 -172c-106.667 0 -221.334 37 -344.001 111v156h458l-427 849l195 121l420 -837c19.333 19.333 37.666 54.333 54.999 105c16.667 48 25 87 25 117v611h236v-601zM738.003 -434l-514 -126.001
l-31 111l181 46c-39.333 45.333 -59 90.333 -59 135c0 50.667 22.667 91.334 68 122.001c40 27.333 86.333 41 139 41c38 0 71.667 -8 101 -24v-97c-29.333 7.33301 -58.666 11 -87.999 11c-77.333 0 -116 -22.333 -116 -67c0 -23.333 9.66699 -42.5 29 -57.5
s40.666 -22.5 63.999 -22.5c20 0 85 15 195 45z" />
    <glyph glyph-name="uFEFA" unicode="&#xfee0;&#xfe88;" horiz-adv-x="1355" arabic-form="final" 
d="M1384 268l0.000976562 -267.001h-58c-166.667 0 -270.667 87 -312 261c-108 -174 -275.667 -261 -503 -261c-106.667 0 -221.334 37 -344.001 111v156h458l-427 849l195 121l427 -855c24 23.333 43.667 63.333 59 120c13.333 48.667 20 93.334 20 134.001v597h237v-601
c0 -154 21.667 -257.667 65 -311c29.333 -36 78 -54 146 -54h37zM738.001 -434.001l-514 -126.001l-31 111l181 46c-39.333 45.333 -59 90.333 -59 135c0 50.667 22.667 91.334 68 122.001c40 27.333 86.333 41 139 41c38 0 71.667 -8 101 -24v-97
c-29.333 7.33301 -58.666 11 -87.999 11c-77.333 0 -116 -22.333 -116 -67c0 -23.333 9.66699 -42.5 29 -57.5s40.666 -22.5 63.999 -22.5c20 0 85 15 195 45z" />
    <glyph glyph-name="uFEFB" unicode="&#xfedf;&#xfe8e;" horiz-adv-x="1130" arabic-form="isolated" 
d="M1129 632c0 -192 -55.3301 -345.333 -165.997 -460s-261.334 -172 -452.001 -172c-106.667 0 -221.334 37 -344.001 111v156h458l-427 849l195 121l420 -837c19.333 19.333 37.666 54.333 54.999 105c16.667 48 25 87 25 117v611h236v-601z" />
    <glyph glyph-name="uFEFC" unicode="&#xfee0;&#xfe8e;" horiz-adv-x="1355" arabic-form="final" 
d="M1384 268l0.000976562 -267.001h-58c-166.667 0 -270.667 87 -312 261c-108 -174 -275.667 -261 -503 -261c-106.667 0 -221.334 37 -344.001 111v156h458l-427 849l195 121l427 -855c24 23.333 43.667 63.333 59 120c13.333 48.667 20 93.334 20 134.001v597h237v-601
c0 -154 21.667 -257.667 65 -311c29.333 -36 78 -54 146 -54h37z" />
    <glyph glyph-name="u0652_u064E.liga" unicode="&#x652;&#x64e;" horiz-adv-x="1" 
d="M185 1360v-300l-81 -1l-1 302z" />
    <glyph glyph-name="u0652_u064B.liga" unicode="&#x652;&#x64b;" horiz-adv-x="1" 
d="M643 1146h-211v213h211v-213zM358 1146h-211v213h211v-213z" />
    <glyph glyph-name="u0652_u064D.liga" unicode="&#x652;&#x64d;" horiz-adv-x="1" 
d="M941 -840h-211v213h211v-213zM656 -840h-211v213h211v-213z" />
    <glyph glyph-name="u0622" unicode="&#x622;" horiz-adv-x="878" arabic-form="isolated" 
d="M645 1h-237v1233h237v-1233zM984 1402c-141.333 -85.333 -296.333 -128 -465 -128c-42 0 -103.333 11.5 -184 34.5s-114 34.5 -100 34.5c-11.333 0 -28 -20.667 -50 -62l-139 76l53 124c21.333 50 49 75 83 75c14 0 34.333 -7.66699 61 -23
c34 -19.333 65.667 -33.333 95 -42c50 -14.667 112.667 -22 188 -22c135.333 0 288 41.333 458 124v-191z" />
    <glyph glyph-name="u0623" unicode="&#x623;" horiz-adv-x="618" arabic-form="isolated" 
d="M519 1h-236v1233h236v-1233zM661 1380l-514.002 -125.001l-31 111l180 45c-39.333 45.333 -59 90.333 -59 135c0 50.667 22.667 91.334 68 122.001c40 27.333 86.333 41 139 41c38.667 0 72.667 -8 102 -24v-96c-29.333 6.66699 -58.666 10 -87.999 10
c-77.333 0 -116 -22 -116 -66c0 -24 9.33301 -43.333 28 -58s40.334 -22 65.001 -22c20 0 85 15 195 45z" />
    <glyph glyph-name="u0624" unicode="&#x624;" horiz-adv-x="901" arabic-form="isolated" 
d="M686 932l-514 -125l-31 111l180 45c-38.667 45.333 -58 90.333 -58 135c0 50.667 22.333 91.667 67 123c40 27.333 86.333 41 139 41c38.667 0 72.667 -8.33301 102 -25v-96c-29.333 7.33301 -58.666 11 -87.999 11c-77.333 0 -116 -22.333 -116 -67
c0 -23.333 9.66699 -42.5 29 -57.5s40.666 -22.5 63.999 -22.5c20 0 85 15 195 45zM899 222c0 -180 -87.3359 -347.333 -262.003 -502c-130 -115.333 -289 -209.666 -477 -282.999l-108 212c160.667 78 261.334 129.667 302.001 155c172 108.667 268.333 219 289 331
c-46.667 -15.333 -92.667 -23 -138 -23c-103.333 0 -185.666 34 -246.999 102c-58.667 65.333 -88 150.333 -88 255c0 83.333 27.667 155.666 83 216.999c56.667 64 126.334 96 209.001 96c90.667 0 179.667 -41.333 267 -124c113.333 -106.667 170 -252 170 -436z
M635.997 372c-2 54 -24.002 98 -66.002 132c-33.333 27.333 -65.666 41 -96.999 41c-19.333 0 -38.666 -9 -57.999 -27s-29 -36.667 -29 -56c0 -56.667 30 -89 90 -97c58.667 -8 112 -5.66699 160 7z" />
    <glyph glyph-name="u0625" unicode="&#x625;" horiz-adv-x="618" arabic-form="isolated" 
d="M500 1h-237v1233h237v-1233zM661 -434l-514 -126.001l-31 111l180 46c-39.333 45.333 -59 90.333 -59 135c0 50.667 22.667 91.334 68 122.001c40 27.333 86.333 41 139 41c38.667 0 72.667 -8 102 -24v-97c-29.333 7.33301 -58.666 11 -87.999 11
c-77.333 0 -116 -22.333 -116 -67c0 -23.333 9.66699 -42.5 29 -57.5s40.666 -22.5 63.999 -22.5c20 0 85 15 195 45z" />
    <glyph glyph-name="u0626" unicode="&#x626;" horiz-adv-x="1515" arabic-form="isolated" 
d="M1508 730l-105.001 -187.999c-88.667 39.333 -141.667 59 -159 59c-103.333 0 -192.333 -53.333 -267 -160c-4 -6 -6.33301 -13.667 -7 -23c-0.666992 -10 1.66602 -16 6.99902 -18c31.333 -13.333 76.333 -22 135 -26l177 -13c68 -4.66699 122 -25.667 162 -63
c42.667 -39.333 64 -92.333 64 -159c0 -124 -68.667 -239.667 -206 -347c-157.333 -123.333 -356.333 -185 -597 -185c-195.333 0 -339.666 61 -432.999 183c-74.667 98 -112 226 -112 384c0 86 19.667 188 59 306l212 -63c-23.333 -99.333 -35 -173.333 -35 -222
c0 -134 37.333 -225.667 112 -275c48.667 -32 122.334 -48 221.001 -48c95.333 0 193.333 15.667 294 47c141.333 44 224.333 107 249 189c-225.333 7.33301 -367.333 22.666 -426 45.999c-75.333 30 -113 99 -113 207c0 118.667 59.333 228.667 178 330
c108 92.667 211 139 309 139c95.333 0 189 -33.333 281 -100zM660.999 753.001l-514 -126.001l-31 111l180 46c-39.333 45.333 -59 90.333 -59 135c0 50.667 22.667 91.334 68 122.001c40 27.333 86.333 41 139 41c38.667 0 72.667 -8 102 -24v-97
c-29.333 7.33301 -58.666 11 -87.999 11c-77.333 0 -116 -22.333 -116 -67c0 -23.333 9.66699 -42.5 29 -57.5s40.666 -22.5 63.999 -22.5c20 0 85 15.333 195 46z" />
    <glyph glyph-name="u0627" unicode="&#x627;" horiz-adv-x="404" arabic-form="isolated" 
d="M403 1h-236v1233h236v-1233z" />
    <glyph glyph-name="u0628" unicode="&#x628;" horiz-adv-x="2000" arabic-form="isolated" 
d="M1136 -417h-237v237h237v-237zM514 1c-231.333 0 -346.999 120.332 -346.999 360.999v150h236v-111c0 -51.333 14 -87 42 -107c23.333 -17.333 61.666 -26 114.999 -26h1104c54.667 0 82 18.333 82 55c0 18 -6.33301 39 -19 63l-108 206l205 141
c116 -190 174 -325.333 174 -406c0 -97.333 -23.333 -174.666 -70 -231.999c-50.667 -62.667 -123.667 -94 -219 -94h-1195z" />
    <glyph glyph-name="u0629" unicode="&#x629;" horiz-adv-x="1028" arabic-form="isolated" 
d="M1025 313c0 -111.333 -47.666 -194.333 -142.999 -249c-74.667 -42.667 -168.334 -64 -281.001 -64c-136.667 0 -243.167 36.667 -319.5 110s-114.5 178 -114.5 314c0 92.667 27.667 176 83 250c60.667 80.667 136 121 226 121c104.667 0 220 -50 346 -150
c135.333 -107.333 203 -218 203 -332zM761.001 334c0 49.333 -36 98.333 -108 147c-63.333 42.667 -115.333 64 -156 64c-28 0 -51.667 -14.667 -71 -44c-17.333 -26.667 -26 -54.667 -26 -84c0 -51.333 20.667 -92 62 -122c36.667 -27.333 81.667 -41 135 -41
c109.333 0 164 26.667 164 80zM777.001 1015l-514 -125.001l-31 111l180 45c-39.333 45.333 -59 90.333 -59 135c0 50.667 22.667 91.334 68 122.001c40 27.333 86.333 41 139 41c38.667 0 72.667 -8 102 -24v-97c-29.333 7.33301 -58.666 11 -87.999 11
c-77.333 0 -116 -22.333 -116 -67c0 -23.333 9.66699 -42.5 29 -57.5s40.666 -22.5 63.999 -22.5c20 0 85 15.333 195 46z" />
    <glyph glyph-name="u062A" unicode="&#x62a;" horiz-adv-x="1999" arabic-form="isolated" 
d="M1274 675h-211v212h211v-212zM989 675h-211v212h211v-212zM514 1c-231.333 0 -346.999 120.332 -346.999 360.999v150h236v-111c0 -51.333 14 -87 42 -107c23.333 -17.333 61.666 -26 114.999 -26h1104c54.667 0 82 18.333 82 55c0 18 -6.33301 39 -19 63l-108 206
l205 141c116 -190 174 -325.333 174 -406c0 -97.333 -23.333 -174.666 -70 -231.999c-50.667 -62.667 -123.667 -94 -219 -94h-1195z" />
    <glyph glyph-name="u062B" unicode="&#x62b;" horiz-adv-x="1999" arabic-form="isolated" 
d="M1238 852h-211v-215h211v215zM975 852h-209v-215h209v215zM1103 1103h-215v-212h215v212zM514 1c-231.333 0 -346.999 120.332 -346.999 360.999v150h236v-111c0 -51.333 14 -87 42 -107c23.333 -17.333 61.666 -26 114.999 -26h1104c54.667 0 82 18.333 82 55
c0 18 -6.33301 39 -19 63l-108 206l205 141c116 -190 174 -325.333 174 -406c0 -97.333 -23.333 -174.666 -70 -231.999c-50.667 -62.667 -123.667 -94 -219 -94h-1195z" />
    <glyph glyph-name="u062C" unicode="&#x62c;" horiz-adv-x="1430" arabic-form="isolated" 
d="M977 -183h-237v236h237v-236zM793 349c-248.667 -183.333 -373.003 -341.999 -373.003 -475.999c0 -90 33.667 -168.333 101 -235c76.667 -75.333 179.667 -113 309 -113c105.333 0 194.333 13 267 39l175 65l114 -219c-186 -101.333 -368.667 -152 -548 -152
c-175.333 0 -319.666 36 -432.999 108c-158.667 100.667 -238 263.667 -238 489c0 177.333 87.333 343.666 262 498.999c114 101.333 237 180 369 236c-5.33301 0 -56.666 1.66699 -153.999 5c-75.333 2.66699 -126 1.66699 -152 -3
c-73.333 -12.667 -132.666 -33 -177.999 -61l-120 196c86 91.333 177.667 135.333 275 132l959 -35l-25 -254h-89c-147.333 0 -321 -73.667 -521 -221z" />
    <glyph glyph-name="u062D" unicode="&#x62d;" horiz-adv-x="1428" arabic-form="isolated" 
d="M793 349c-248.667 -183.333 -373.003 -341.999 -373.003 -475.999c0 -90 33.667 -168.333 101 -235c76.667 -75.333 179.667 -113 309 -113c105.333 0 194.333 13 267 39l175 65l114 -219c-186 -101.333 -368.667 -152 -548 -152c-175.333 0 -319.666 36 -432.999 108
c-158.667 100.667 -238 263.667 -238 489c0 177.333 87.333 343.666 262 498.999c114 101.333 237 180 369 236c-5.33301 0 -56.666 1.66699 -153.999 5c-75.333 2.66699 -126 1.66699 -152 -3c-73.333 -12.667 -132.666 -33 -177.999 -61l-120 196
c86 91.333 177.667 135.333 275 132l959 -35l-25 -254h-89c-147.333 0 -321 -73.667 -521 -221z" />
    <glyph glyph-name="u062E" unicode="&#x62e;" horiz-adv-x="1430" arabic-form="isolated" 
d="M846 996h-236v236h236v-236zM793 349c-248.667 -183.333 -373.003 -341.999 -373.003 -475.999c0 -90 33.667 -168.333 101 -235c76.667 -75.333 179.667 -113 309 -113c105.333 0 194.333 13 267 39l175 65l114 -219c-186 -101.333 -368.667 -152 -548 -152
c-175.333 0 -319.666 36 -432.999 108c-158.667 100.667 -238 263.667 -238 489c0 177.333 87.333 343.666 262 498.999c114 101.333 237 180 369 236c-5.33301 0 -56.666 1.66699 -153.999 5c-75.333 2.66699 -126 1.66699 -152 -3
c-73.333 -12.667 -132.666 -33 -177.999 -61l-120 196c86 91.333 177.667 135.333 275 132l959 -35l-25 -254h-89c-147.333 0 -321 -73.667 -521 -221z" />
    <glyph glyph-name="u062F" unicode="&#x62f;" horiz-adv-x="1181" arabic-form="isolated" 
d="M930 338c0 26 -9.33398 50.334 -28.001 73.001l-382 459l181 173l386 -465c62 -74.667 93 -153.334 93 -236.001c0 -227.333 -128.667 -341 -386 -341h-256c-136 0 -261.333 73 -376 219l163 163c0 -7.33301 20 -27 60 -59c46.667 -37.333 88.334 -56 125.001 -56h295
c83.333 0 125 23.333 125 70z" />
    <glyph glyph-name="u0630" unicode="&#x630;" horiz-adv-x="1183" arabic-form="isolated" 
d="M693 1094h-236v237h236v-237zM930 338c0 26 -9.33398 50.334 -28.001 73.001l-382 459l181 173l386 -465c62 -74.667 93 -153.334 93 -236.001c0 -227.333 -128.667 -341 -386 -341h-256c-136 0 -261.333 73 -376 219l163 163c0 -7.33301 20 -27 60 -59
c46.667 -37.333 88.334 -56 125.001 -56h295c83.333 0 125 23.333 125 70z" />
    <glyph glyph-name="u0631" unicode="&#x631;" horiz-adv-x="952" arabic-form="isolated" 
d="M865 97c-74 -126 -304.332 -301.001 -690.999 -525.001l-118 220c334.667 177.333 540.667 330 618 458c17.333 28.667 26 63.667 26 105c0 32 -6.33301 60.667 -19 86c-18.667 51.333 -60.334 137.333 -125.001 258l219 128l132 -264
c30.667 -61.333 46 -123.666 46 -186.999c0 -86.667 -29.333 -179.667 -88 -279z" />
    <glyph glyph-name="u0632" unicode="&#x632;" horiz-adv-x="953" arabic-form="isolated" 
d="M727 903h-237v237h237v-237zM865 97c-74 -126 -304.332 -301.001 -690.999 -525.001l-118 220c334.667 177.333 540.667 330 618 458c17.333 28.667 26 63.667 26 105c0 32 -6.33301 60.667 -19 86c-18.667 51.333 -60.334 137.333 -125.001 258l219 128l132 -264
c30.667 -61.333 46 -123.666 46 -186.999c0 -86.667 -29.333 -179.667 -88 -279z" />
    <glyph glyph-name="u0633" unicode="&#x633;" horiz-adv-x="2463" arabic-form="isolated" 
d="M2141 1c-112 0 -208.332 55.668 -288.999 167.001c-37.333 -54.667 -65.333 -90.334 -84 -107.001c-42 -37.333 -94 -56 -156 -56c-56.667 0 -104 14.667 -142 44c0 -126.667 -18.667 -233 -56 -319c-104 -240.667 -309 -361 -615 -361c-220 0 -386 72 -498 216
c-89.333 114.667 -134 254.667 -134 420c0 25.333 6.66699 69.333 20 132c15.333 73.333 32.666 131 51.999 173l206 -73c-34.667 -84.667 -52 -163.334 -52 -236.001c0 -129.333 47 -224.333 141 -285c71.333 -46 162 -69 272 -69c282.667 0 424 129.667 424 389
c0 132.667 -64.667 305 -194 517l201 129c42 -80 82.667 -153.333 122 -220c70 -119.333 139.333 -179 208 -179c78.667 0 118 52 118 156v250h219c0 -126.667 6.66699 -213.667 20 -261c27.333 -96.667 85.333 -145 174 -145c76.667 0 115 37 115 111
c0 30 -37 111 -111 243l202 124c30.667 -53.333 63 -115.666 97 -186.999c39.333 -82 59 -151.333 59 -208c0 -101.333 -27.333 -186 -82 -254c-58.667 -74 -137.667 -111 -237 -111z" />
    <glyph glyph-name="u0634" unicode="&#x634;" horiz-adv-x="2464" arabic-form="isolated" 
d="M2029 1027h-212v-215h212v215zM1765 1027h-208v-215h208v215zM1894 1278h-216v-212h216v212zM2141 1c-112 0 -208.332 55.668 -288.999 167.001c-37.333 -54.667 -65.333 -90.334 -84 -107.001c-42 -37.333 -94 -56 -156 -56c-56.667 0 -104 14.667 -142 44
c0 -126.667 -18.667 -233 -56 -319c-104 -240.667 -309 -361 -615 -361c-220 0 -386 72 -498 216c-89.333 114.667 -134 254.667 -134 420c0 25.333 6.66699 69.333 20 132c15.333 73.333 32.666 131 51.999 173l206 -73c-34.667 -84.667 -52 -163.334 -52 -236.001
c0 -129.333 47 -224.333 141 -285c71.333 -46 162 -69 272 -69c282.667 0 424 129.667 424 389c0 132.667 -64.667 305 -194 517l201 129c42 -80 82.667 -153.333 122 -220c70 -119.333 139.333 -179 208 -179c78.667 0 118 52 118 156v250h219
c0 -126.667 6.66699 -213.667 20 -261c27.333 -96.667 85.333 -145 174 -145c76.667 0 115 37 115 111c0 30 -37 111 -111 243l202 124c30.667 -53.333 63 -115.666 97 -186.999c39.333 -82 59 -151.333 59 -208c0 -101.333 -27.333 -186 -82 -254
c-58.667 -74 -137.667 -111 -237 -111z" />
    <glyph glyph-name="u0635" unicode="&#x635;" horiz-adv-x="2464" arabic-form="isolated" 
d="M2026 268c138.667 0 208 57.999 208 173.999c0 41.333 -15.333 75.333 -46 102c-29.333 24.667 -65 37 -107 37c-61.333 0 -126.333 -30 -195 -90c-48 -41.333 -115 -115.666 -201 -222.999h341zM2050 0.999023h-433.998c-71.333 0 -116.333 15 -135 45
c0 -244 -94.667 -427.667 -284 -551c-118.667 -77.333 -253.667 -116 -405 -116c-222 0 -387.667 74.333 -497 223c-85.333 116 -128 258.333 -128 427c0 25.333 6.66699 69.666 20 132.999c15.333 74 32.666 131.667 51.999 173l206 -73
c-34.667 -84.667 -52 -163.667 -52 -237c0 -129.333 47 -224.333 141 -285c71.333 -46 162 -69 272 -69c132.667 0 236 31.667 310 95c78 68 117 167.333 117 298c0 71.333 -20.667 160 -62 266c-34.667 88.667 -76.334 171.334 -125.001 248.001l215 131
c104 -231.333 180.333 -356 229 -374c211.333 328.667 420 493 626 493c93.333 0 174.666 -39.667 244 -119c66.667 -76 100 -161.333 100 -256c0 -152 -44.333 -268.667 -133 -350c-74.667 -68 -167 -102 -277 -102z" />
    <glyph glyph-name="u0636" unicode="&#x636;" horiz-adv-x="2464" arabic-form="isolated" 
d="M2195 1000h-237v236h237v-236zM2026 268c138.667 0 208 57.999 208 173.999c0 41.333 -15.333 75.333 -46 102c-29.333 24.667 -65 37 -107 37c-61.333 0 -126.333 -30 -195 -90c-48 -41.333 -115 -115.666 -201 -222.999h341zM2050 0.999023h-433.998
c-71.333 0 -116.333 15 -135 45c0 -244 -94.667 -427.667 -284 -551c-118.667 -77.333 -253.667 -116 -405 -116c-222 0 -387.667 74.333 -497 223c-85.333 116 -128 258.333 -128 427c0 25.333 6.66699 69.666 20 132.999c15.333 74 32.666 131.667 51.999 173l206 -73
c-34.667 -84.667 -52 -163.667 -52 -237c0 -129.333 47 -224.333 141 -285c71.333 -46 162 -69 272 -69c132.667 0 236 31.667 310 95c78 68 117 167.333 117 298c0 71.333 -20.667 160 -62 266c-34.667 88.667 -76.334 171.334 -125.001 248.001l215 131
c104 -231.333 180.333 -356 229 -374c211.333 328.667 420 493 626 493c93.333 0 174.666 -39.667 244 -119c66.667 -76 100 -161.333 100 -256c0 -152 -44.333 -268.667 -133 -350c-74.667 -68 -167 -102 -277 -102z" />
    <glyph glyph-name="u0637" unicode="&#x637;" horiz-adv-x="1609" arabic-form="isolated" 
d="M514 394l0.000976562 840h237v-736c68.667 90 142.334 164 221.001 222c101.333 74.667 197.666 111.667 288.999 111c97.333 -0.666992 180.666 -42.334 249.999 -125.001c65.333 -78.667 98 -167.667 98 -267c0 -151.333 -53.333 -267.666 -160 -348.999
c-78 -59.333 -157 -89 -237 -89h-698c-109.333 0 -225 42.667 -347 128v139h271c50.667 0 76 42 76 126zM1390 442c0 41.333 -16.333 74.666 -49 99.999c-30 24 -66 36 -108 36c-102.667 0 -237 -103.333 -403 -310h373c55.333 0 100.333 15.333 135 46
s52 73.334 52 128.001z" />
    <glyph glyph-name="u0638" unicode="&#x638;" horiz-adv-x="1612" arabic-form="isolated" 
d="M1309 998h-237v236h237v-236zM514 394l0.000976562 840h237v-736c68.667 90 142.334 164 221.001 222c101.333 74.667 197.666 111.667 288.999 111c97.333 -0.666992 180.666 -42.334 249.999 -125.001c65.333 -78.667 98 -167.667 98 -267
c0 -151.333 -53.333 -267.666 -160 -348.999c-78 -59.333 -157 -89 -237 -89h-698c-109.333 0 -225 42.667 -347 128v139h271c50.667 0 76 42 76 126zM1390 442c0 41.333 -16.333 74.666 -49 99.999c-30 24 -66 36 -108 36c-102.667 0 -237 -103.333 -403 -310h373
c55.333 0 100.333 15.333 135 46s52 73.334 52 128.001z" />
    <glyph glyph-name="u0639" unicode="&#x639;" horiz-adv-x="1175" arabic-form="isolated" 
d="M1292 -601c-50.667 -35.333 -118.001 -66.334 -202.001 -93.001c-110.667 -35.333 -222.667 -53 -336 -53c-160.667 0 -296 43 -406 129c-120.667 94 -181 219 -181 375c0 180.667 96.333 345 289 493c-110 109.333 -165 219.333 -165 330c0 96.667 37 179 111 247
c67.333 61.333 151 99.333 251 114c67.333 10 146.333 10.667 237 2v-221c-92 10.667 -165 6 -219 -14c-102.667 -38 -154 -93.333 -154 -166c0 -42.667 19 -76.667 57 -102c33.333 -22.667 72.333 -34 117 -34c41.333 0 170 47.667 386 143l94 -195l-264 -110
c-138 -57.333 -250.333 -120.333 -337 -189c-111.333 -88 -167 -179.333 -167 -274c0 -97.333 44.333 -168.666 133 -213.999c68 -35.333 155.667 -53 263 -53c64.667 0 131.334 9.33301 200.001 28c13.333 3.33301 76.333 25 189 65z" />
    <glyph glyph-name="u063A" unicode="&#x63a;" horiz-adv-x="1172" arabic-form="isolated" 
d="M895 1037h-237v236h237v-236zM1292 -601c-50.667 -35.333 -118.001 -66.334 -202.001 -93.001c-110.667 -35.333 -222.667 -53 -336 -53c-160.667 0 -296 43 -406 129c-120.667 94 -181 219 -181 375c0 180.667 96.333 345 289 493c-110 109.333 -165 219.333 -165 330
c0 96.667 37 179 111 247c67.333 61.333 151 99.333 251 114c67.333 10 146.333 10.667 237 2v-221c-92 10.667 -165 6 -219 -14c-102.667 -38 -154 -93.333 -154 -166c0 -42.667 19 -76.667 57 -102c33.333 -22.667 72.333 -34 117 -34c41.333 0 170 47.667 386 143
l94 -195l-264 -110c-138 -57.333 -250.333 -120.333 -337 -189c-111.333 -88 -167 -179.333 -167 -274c0 -97.333 44.333 -168.666 133 -213.999c68 -35.333 155.667 -53 263 -53c64.667 0 131.334 9.33301 200.001 28c13.333 3.33301 76.333 25 189 65z" />
    <glyph glyph-name="u0641" unicode="&#x641;" horiz-adv-x="2013" arabic-form="isolated" 
d="M1765 592c-6.66699 39.333 -22.001 73 -46.001 101c-27.333 32 -59.666 48 -96.999 48c-64.667 0 -97 -25.333 -97 -76c0 -65.333 45.333 -98 136 -98c53.333 0 88 8.33301 104 25zM166.999 512l236 0.000976562v-101c0 -95.333 55.333 -143 166 -143h1050
c25.333 0 50.333 5 75 15c50.667 20.667 76.667 57.667 78 111c-35.333 -16 -85.333 -24 -150 -24c-84 0 -151.167 25.167 -201.5 75.5s-76.5 117.833 -78.5 202.5c-2 80 18 152 60 216c48 73.333 110 110 186 110c136.667 0 244 -66 322 -198
c65.333 -110.667 98 -239.334 98 -386.001c0 -134 -31.833 -232.333 -95.5 -295s-162.5 -94 -296.5 -94h-1112c-224.667 0 -337 127.333 -337 382v129zM1713 1041h-236v237h236v-237z" />
    <glyph glyph-name="u0642" unicode="&#x642;" horiz-adv-x="1513" arabic-form="isolated" 
d="M1511 334c0 -199.333 -67.333 -359.002 -202 -479.002c-128.667 -114.667 -294 -172 -496 -172s-359.333 53.667 -472 161c-116 109.333 -174 264.333 -174 465c0 54 13.667 130.667 41 230l220 -59c-16.667 -60 -25 -115.667 -25 -167c0 -236.667 130.667 -355 392 -355
c120 0 220 24.333 300 73c92.667 56 147 139.667 163 251c-68 -18.667 -118 -28 -150 -28c-217.333 0 -326 115.667 -326 347c0 80.667 28.5 151.834 85.5 213.501s125.5 92.5 205.5 92.5c132 0 240.667 -64.667 326 -194c74.667 -113.333 112 -239.666 112 -378.999z
M1255 503.998c-8 38.667 -27.333 75.333 -58 110c-34 38 -69.333 57 -106 57c-64.667 0 -97 -28 -97 -84c0 -74 49.667 -111 149 -111c52.667 0 90 9.33301 112 28zM1293 1018h-211v213h211v-213zM1009 1018h-212v213h212v-213z" />
    <glyph glyph-name="u0643" unicode="&#x643;" horiz-adv-x="2210" arabic-form="isolated" 
d="M167 383v128.999h236v-111c0 -88.667 51 -133 153 -133h955c84.667 0 127 22.667 127 68c0 23.333 -8.66699 52 -26 86l-181 357c-24.667 48.667 -37 94.667 -37 138c0 82.667 46.333 137.667 139 165l652 194l95 -202l-578 -148
c-35.333 -9.33301 -53 -24.666 -53 -45.999c0 -11.333 5 -26.333 15 -45l181 -341c28 -52.667 42 -110.667 42 -174c0 -102 -38.333 -182 -115 -240c-68.667 -52.667 -155.667 -79 -261 -79h-1011c-222 0 -333 127.333 -333 382z" />
    <glyph glyph-name="u0644" unicode="&#x644;" horiz-adv-x="1277" arabic-form="isolated" 
d="M1275 187c0 -158.667 -43 -288.333 -129 -389c-102 -120 -253.667 -180 -455 -180c-165.333 0 -295 53.667 -389 161c-90 102.667 -135 237.667 -135 405c0 34 6.66699 83 20 147c14.667 71.333 32 126.666 52 165.999l185 -67
c-30.667 -133.333 -46 -210.666 -46 -231.999c0 -210.667 113.667 -316 341 -316c82 0 153 17 213 51c85.333 48 128 122.333 128 223v1077h215v-1046z" />
    <glyph glyph-name="u0645" unicode="&#x645;" horiz-adv-x="1183" arabic-form="isolated" 
d="M1181 334c0 -97.333 -34.667 -176 -104 -236c-65.333 -56 -147.666 -84 -246.999 -84c-40 0 -99.667 6.16699 -179 18.5s-139 18.5 -179 18.5c-60 0 -90 -24 -90 -72v-790h-215v755c0 230 99.333 345 298 345c15.333 73.333 43.666 140.333 84.999 201
c68 99.333 156.667 149 266 149c94.667 0 177.667 -26.667 249 -80c77.333 -58 116 -133 116 -225zM980 334c0 38 -18.002 67.332 -54.002 87.999c-30 17.333 -65.333 26 -106 26c-31.333 0 -63.666 -12 -96.999 -36c-42.667 -31.333 -71.667 -74.666 -87 -129.999
c80.667 -18.667 145.334 -28 194.001 -28c100 0 150 26.667 150 80z" />
    <glyph glyph-name="u0646" unicode="&#x646;" horiz-adv-x="1386" arabic-form="isolated" 
d="M1386 267c0 -138 -40.332 -266.666 -120.999 -385.999c-116.667 -172.667 -293 -259 -529 -259c-167.333 0 -304 54 -410 162s-159 246 -159 414c0 46.667 13.667 127.667 41 243l209 -52c-11.333 -54 -17 -113 -17 -177c0 -97.333 34.667 -176.333 104 -237
c66 -57.333 148.333 -86 247 -86c119.333 0 215.666 35.167 288.999 105.5s110 164.833 110 283.5c0 73.333 -32.333 179.666 -97 318.999l205 133c85.333 -120.667 128 -275 128 -463zM825.001 535.001h-236v236h236v-236z" />
    <glyph glyph-name="u0647" unicode="&#x647;" horiz-adv-x="1027" arabic-form="isolated" 
d="M1025 313c0 -111.333 -47.666 -194.333 -142.999 -249c-74.667 -42.667 -168.334 -64 -281.001 -64c-136.667 0 -243.167 36.667 -319.5 110s-114.5 178 -114.5 314c0 92.667 27.667 176 83 250c60.667 80.667 136 121 226 121c104.667 0 220 -50 346 -150
c135.333 -107.333 203 -218 203 -332zM761.001 334c0 49.333 -36 98.333 -108 147c-63.333 42.667 -115.333 64 -156 64c-28 0 -51.667 -14.667 -71 -44c-17.333 -26.667 -26 -54.667 -26 -84c0 -51.333 20.667 -92 62 -122c36.667 -27.333 81.667 -41 135 -41
c109.333 0 164 26.667 164 80z" />
    <glyph glyph-name="u0648" unicode="&#x648;" horiz-adv-x="903" arabic-form="isolated" 
d="M899 222c0 -180 -87.3359 -347.333 -262.003 -502c-130 -115.333 -289 -209.666 -477 -282.999l-108 212c160.667 78 261.334 129.667 302.001 155c172 108.667 268.333 219 289 331c-46.667 -15.333 -92.667 -23 -138 -23c-103.333 0 -185.666 34 -246.999 102
c-58.667 65.333 -88 150.333 -88 255c0 83.333 27.667 155.666 83 216.999c56.667 64 126.334 96 209.001 96c90.667 0 179.667 -41.333 267 -124c113.333 -106.667 170 -252 170 -436zM635.997 372c-2 54 -24.002 98 -66.002 132c-33.333 27.333 -65.666 41 -96.999 41
c-19.333 0 -38.666 -9 -57.999 -27s-29 -36.667 -29 -56c0 -56.667 30 -89 90 -97c58.667 -8 112 -5.66699 160 7z" />
    <glyph glyph-name="u0649" unicode="&#x649;" horiz-adv-x="1515" arabic-form="isolated" 
d="M1508 730l-105.001 -187.999c-88.667 39.333 -141.667 59 -159 59c-103.333 0 -192.333 -53.333 -267 -160c-4 -6 -6.33301 -13.667 -7 -23c-0.666992 -10 1.66602 -16 6.99902 -18c31.333 -13.333 76.333 -22 135 -26l177 -13c68 -4.66699 122 -25.667 162 -63
c42.667 -39.333 64 -92.333 64 -159c0 -124 -68.667 -239.667 -206 -347c-157.333 -123.333 -356.333 -185 -597 -185c-195.333 0 -339.666 61 -432.999 183c-74.667 98 -112 226 -112 384c0 86 19.667 188 59 306l212 -63c-23.333 -99.333 -35 -173.333 -35 -222
c0 -134 37.333 -225.667 112 -275c48.667 -32 122.334 -48 221.001 -48c95.333 0 193.333 15.667 294 47c141.333 44 224.333 107 249 189c-225.333 7.33301 -367.333 22.666 -426 45.999c-75.333 30 -113 99 -113 207c0 118.667 59.333 228.667 178 330
c108 92.667 211 139 309 139c95.333 0 189 -33.333 281 -100z" />
    <glyph glyph-name="u064A" unicode="&#x64a;" horiz-adv-x="1515" arabic-form="isolated" 
d="M1508 730l-105.001 -187.999c-88.667 39.333 -141.667 59 -159 59c-103.333 0 -192.333 -53.333 -267 -160c-4 -6 -6.33301 -13.667 -7 -23c-0.666992 -10 1.66602 -16 6.99902 -18c31.333 -13.333 76.333 -22 135 -26l177 -13c68 -4.66699 122 -25.667 162 -63
c42.667 -39.333 64 -92.333 64 -159c0 -124 -68.667 -239.667 -206 -347c-157.333 -123.333 -356.333 -185 -597 -185c-195.333 0 -339.666 61 -432.999 183c-74.667 98 -112 226 -112 384c0 86 19.667 188 59 306l212 -63c-23.333 -99.333 -35 -173.333 -35 -222
c0 -134 37.333 -225.667 112 -275c48.667 -32 122.334 -48 221.001 -48c95.333 0 193.333 15.667 294 47c141.333 44 224.333 107 249 189c-225.333 7.33301 -367.333 22.666 -426 45.999c-75.333 30 -113 99 -113 207c0 118.667 59.333 228.667 178 330
c108 92.667 211 139 309 139c95.333 0 189 -33.333 281 -100z" />
    <glyph glyph-name="u067E" unicode="&#x67e;" horiz-adv-x="2001" arabic-form="isolated" 
d="M1260 -346h-211v215h211v-215zM997 -346h-208v215h208v-215zM1125 -597h-215v212h215v-212zM514 1c-231.333 0 -346.999 120.332 -346.999 360.999v150h236v-111c0 -51.333 14 -87 42 -107c23.333 -17.333 61.666 -26 114.999 -26h1104c54.667 0 82 18.333 82 55
c0 18 -6.33301 39 -19 63l-108 206l205 141c116 -190 174 -325.333 174 -406c0 -97.333 -23.333 -174.666 -70 -231.999c-50.667 -62.667 -123.667 -94 -219 -94h-1195z" />
    <glyph glyph-name="u0686" unicode="&#x686;" horiz-adv-x="1430" arabic-form="isolated" 
d="M1090 -122h-212v216h212v-216zM826 -122h-208v216h208v-216zM955 -373h-216v213h216v-213zM793 349c-248.667 -183.333 -373.003 -341.999 -373.003 -475.999c0 -90 33.667 -168.333 101 -235c76.667 -75.333 179.667 -113 309 -113c105.333 0 194.333 13 267 39l175 65
l114 -219c-186 -101.333 -368.667 -152 -548 -152c-175.333 0 -319.666 36 -432.999 108c-158.667 100.667 -238 263.667 -238 489c0 177.333 87.333 343.666 262 498.999c114 101.333 237 180 369 236c-5.33301 0 -56.666 1.66699 -153.999 5
c-75.333 2.66699 -126 1.66699 -152 -3c-73.333 -12.667 -132.666 -33 -177.999 -61l-120 196c86 91.333 177.667 135.333 275 132l959 -35l-25 -254h-89c-147.333 0 -321 -73.667 -521 -221z" />
    <glyph glyph-name="u0698" unicode="&#x698;" horiz-adv-x="952" arabic-form="isolated" 
d="M876 1089h-211v-216h211v216zM613 1089h-209v-216h209v216zM741 1340h-215v-213h215v213zM865 97c-74 -126 -304.332 -301.001 -690.999 -525.001l-118 220c334.667 177.333 540.667 330 618 458c17.333 28.667 26 63.667 26 105c0 32 -6.33301 60.667 -19 86
c-18.667 51.333 -60.334 137.333 -125.001 258l219 128l132 -264c30.667 -61.333 46 -123.666 46 -186.999c0 -86.667 -29.333 -179.667 -88 -279z" />
    <glyph glyph-name="u06AF" unicode="&#x6af;" horiz-adv-x="2210" arabic-form="isolated" 
d="M1426 1251l671 187l55 -125l-663 -188zM167 383v128.999h236v-111c0 -88.667 51 -133 153 -133h955c84.667 0 127 23.333 127 70c0 22 -8.66699 50 -26 84l-181 357c-26 51.333 -39 97 -39 137c0 77.333 47 129.333 141 156l652 185l95 -183l-578 -148
c-35.333 -9.33301 -53 -24.666 -53 -45.999c0 -11.333 5 -26.333 15 -45l181 -341c28 -52.667 42 -110.667 42 -174c0 -102 -38.333 -182 -115 -240c-68.667 -52.667 -155.667 -79 -261 -79h-1011c-222 0 -333 127.333 -333 382z" />
    <glyph glyph-name="uFB57" unicode="&#x67e;" horiz-adv-x="2293" arabic-form="final" 
d="M1260 -346h-211v215h211v-215zM997 -346h-208v215h208v-215zM1125 -597h-215v212h215v-212zM1699 1h-1185c-231.333 0 -347 120.333 -347 361v150h236v-111c0 -51.333 14 -87 42 -107c23.333 -17.333 61.666 -26 114.999 -26h1104c54.667 0 82 18.333 82 55
c0 18 -6.33301 39 -19 63l-108 206l201 135c7.33301 -12 37.666 -68.667 90.999 -170c101.333 -192.667 223 -289 365 -289h46v-267h-50c-131.333 0 -241.333 62.333 -330 187c-22.667 -124.667 -103.667 -187 -243 -187z" />
    <glyph glyph-name="uFB58" unicode="&#x67e;" horiz-adv-x="487" arabic-form="initial" 
d="M488 -346h-211v215h211v-215zM225 -346h-209v215h209v-215zM353 -597h-215v212h215v-212zM-29 268v-266.999h231c189.333 0 284 108.667 284 326c0 83.333 -56.333 218.666 -169 405.999l-213 -141l115 -206c10.667 -19.333 16 -37.333 16 -54
c0 -42.667 -28.333 -64 -85 -64h-179z" />
    <glyph glyph-name="uFB59" unicode="&#x67e;" horiz-adv-x="622" arabic-form="medial" 
d="M546 -346h-211v215h211v-215zM283 -346h-209v215h209v-215zM411 -597h-215v212h215v-212zM650 1h-55c-50.667 0 -99.167 14.5 -145.5 43.5s-80.5 66.5 -102.5 112.5c-48.667 -104 -132 -156 -250 -156h-126v267h46c95.333 0 143 53.667 143 161v263h236v-135
c0 -192.667 69.333 -289 208 -289h46v-267z" />
    <glyph glyph-name="uFB7B" unicode="&#x686;" horiz-adv-x="1467" arabic-form="final" 
d="M1010 -149h-212v216h212v-216zM746 -149h-208v216h208v-216zM874 -400h-215v213h215v-213zM424 -131c0 -110.667 40.9971 -197.33 122.997 -259.997c74 -56 168.333 -84 283 -84c105.333 0 194.333 13 267 39l175 65l114 -219c-186 -101.333 -368.667 -152 -548 -152
c-175.333 0 -319.666 36 -432.999 108c-158.667 100.667 -238 263.667 -238 489c0 180 90 348.333 270 505c102.667 89.333 223.334 166.666 362.001 231.999c-100 5.33301 -201.333 5.66602 -304 0.999023c-52.667 -2 -112.667 -22.333 -180 -61l-120 195
c26 32.667 61.667 61.667 107 87c56.667 32 112.334 47 167.001 45l959 -35l-25 -254h-89c-54.667 0 -114.334 -11.667 -179.001 -35c-52 -18.667 -93.333 -39 -124 -61c40.667 -60 76 -102.667 106 -128c62 -52 137 -78 225 -78h153v-267h-196
c-116.667 0 -208.667 29.667 -276 89c-51.333 45.333 -115.666 138.666 -192.999 279.999c-96 -59.333 -181.333 -129 -256 -209c-100 -106.667 -150 -204 -150 -292z" />
    <glyph glyph-name="uFB7C" unicode="&#x686;" horiz-adv-x="988" arabic-form="initial" 
d="M546 -346h-211v215h211v-215zM283 -346h-209v215h209v-215zM411 -597h-215v212h215v-212zM986 185l-135 -184h-880v267h606l-247 244c-35.333 34.667 -76 52 -122 52h-160v243h206c74 0 135.333 -24.333 184 -73z" />
    <glyph glyph-name="uFB7D" unicode="&#x686;" horiz-adv-x="1286" arabic-form="medial" 
d="M778 -346h-211v215h211v-215zM514 -346h-208v215h208v-215zM643 -597h-215v212h215v-212zM851 431c45.333 -50.667 86.667 -87.001 124 -109.001c60.667 -36 133 -54 217 -54h123v-267h-227c-95.333 0 -173 29 -233 87c-30 28.667 -81 100.334 -153 215.001
c-110 -96.667 -192.667 -163 -248 -199c-105.333 -68.667 -203.333 -103 -294 -103h-189v267h55c104 0 194.333 14.333 271 43c62 23.333 125.667 60 191 110l197 154c-218 6 -346 7.33301 -384 4c-38.667 -3.33301 -96.667 -23.333 -174 -60l-114 195
c78.667 91.333 174.667 135 288 131l943 -34l-28 -255h-87c-52.667 0 -104 -13.333 -154 -40c-24 -12.667 -65.333 -41 -124 -85z" />
    <glyph glyph-name="uFB8B" unicode="&#x698;" horiz-adv-x="1210" arabic-form="final" 
d="M876 1002h-211v-215h211v215zM613 1002h-209v-215h209v215zM741 1253h-215v-213h215v213zM925 129c-5.33301 -22.667 -26.332 -65.334 -62.999 -128.001c-74 -126.667 -305.667 -300.334 -695 -521.001l-119 215c95.333 52 183.333 103.667 264 155
c187.333 120 305.666 221 354.999 303c17.333 28.667 26 63 26 103c0 32.667 -6.33301 62.334 -19 89.001c-18.667 50.667 -60.334 136.334 -125.001 257.001l215 129l135 -265c31.333 -62 58.333 -104 81 -126c48.667 -48 118.334 -72 209.001 -72h59v-267h-58
c-110.667 0 -199 42.667 -265 128z" />
    <glyph glyph-name="uFEDA" unicode="&#x6a9;" horiz-adv-x="2228" arabic-form="final" 
d="M1855 175c-60.667 -116 -175.333 -174.001 -344 -174.001h-1011c-222 0 -333 127.333 -333 382v129h236v-111c0 -88.667 51 -133 153 -133h955c26.667 0 51.667 4.66699 75 14c31.333 12.667 47 30.334 47 53.001c0 30.667 -7 59.667 -21 87l-182 357
c-22 43.333 -33 85.333 -33 126c0 89.333 45.333 148.333 136 177l611 194l93 -205l-535 -153c-34.667 -10 -52 -25.333 -52 -46c0 -12 4.66699 -26.667 14 -44l177 -334c80 -150.667 206.333 -226 379 -226h36v-267h-58c-66.667 0 -131 15.333 -193 46
c-65.333 32 -115.333 74.667 -150 128z" />
    <glyph glyph-name="uFEDB" unicode="&#x6a9;" horiz-adv-x="898" arabic-form="initial" 
d="M-29 0l0.000976562 267h224c82.667 0 124 22 124 66c0 20.667 -9.33301 50 -28 88l-176 357c-25.333 51.333 -38 97.666 -38 138.999c0 82 46 136.667 138 164l654 194l93 -202l-576 -148c-35.333 -9.33301 -53 -24.666 -53 -45.999c0 -12 4.66699 -27 14 -45l178 -341
c29.333 -56 44 -114 44 -174c0 -101.333 -38 -181.333 -114 -240c-68.667 -52.667 -155.334 -79 -260.001 -79h-224z" />
    <glyph glyph-name="uFEDC" unicode="&#x6a9;" horiz-adv-x="903" arabic-form="medial" 
d="M-29 1l0.000976562 267h216c79.333 0 119 26 119 78c0 22.667 -7 48 -21 76l-177 357c-26 52.667 -39 98.667 -39 138c0 80.667 46.333 135.667 139 165l612 194l94 -202l-536 -152c-34 -9.33301 -51 -25 -51 -47c0 -11.333 4.66699 -26 14 -44l173 -337
c36 -70 87.667 -125.167 155 -165.5s140.666 -60.5 219.999 -60.5h42v-267h-59c-156 0 -270.667 58 -344 174c-58 -116 -171.667 -174 -341 -174h-216z" />
    <glyph glyph-name="uFB93" unicode="&#x6af;" horiz-adv-x="2228" arabic-form="final" 
d="M1855 175c-60.667 -116 -175.333 -174 -344 -174h-1011c-222 0 -333 127.333 -333 382v129h236v-111c0 -88.667 51 -133 153 -133h955c26.667 0 51.667 4.66699 75 14c31.333 12.667 47 30.334 47 53.001c0 30.667 -7 59.667 -21 87l-182 357
c-24.667 48.667 -37 93 -37 133c0 80 46.667 133.333 140 160l613 175l91 -181l-535 -141c-35.333 -9.33301 -53 -26.333 -53 -51c0 -12 5 -27.333 15 -46l177 -334c80 -150.667 206.333 -226 379 -226h65v-267h-64c-82.667 0 -161.667 19.667 -237 59
c-67.333 35.333 -110.333 73.666 -129 114.999zM1398 1241l670 187l55 -125l-663 -187z" />
    <glyph glyph-name="uFB94" unicode="&#x6af;" horiz-adv-x="907" arabic-form="initial" 
d="M-29 1v266.999h228c84 0 126 23.333 126 70c0 21.333 -8.66699 49.333 -26 84l-180 357c-26 51.333 -39 97 -39 137c0 77.333 46.667 129.333 140 156l652 185l95 -183l-577 -148c-35.333 -9.33301 -53 -24.666 -53 -45.999c0 -12.667 4.66699 -27.667 14 -45l182 -341
c27.333 -51.333 41 -109.333 41 -174c0 -102.667 -38 -182.667 -114 -240c-68.667 -52.667 -155.667 -79 -261 -79h-228zM114 1251l671 187l55 -125l-663 -188z" />
    <glyph glyph-name="uFB95" unicode="&#x6af;" horiz-adv-x="915" arabic-form="medial" 
d="M189 268c26.667 0 51.667 4.66602 75 13.999c31.333 12.667 47 30.334 47 53.001c0 30.667 -7 59.667 -21 87l-182 357c-24.667 48.667 -37 93 -37 133c0 80 46.333 133.333 139 160l614 175l91 -181l-535 -141c-35.333 -9.33301 -53 -26.333 -53 -51
c0 -12 5 -27.333 15 -46l177 -334c80 -150.667 203 -226 369 -226h56v-267h-57c-69.333 0 -136.666 14 -201.999 42c-75.333 32.667 -126 76.667 -152 132c-60.667 -116 -175.334 -174 -344.001 -174h-218v267h218zM75 1241l671 187l55 -125l-663 -187z" />
    <glyph glyph-name="uFE94" unicode="&#x6c0;" horiz-adv-x="1259" arabic-form="final" 
d="M1287 1h-58.999c-144 0 -267.333 57.667 -370 173c-71.333 -23.333 -164 -35 -278 -35c-160.667 0 -276 44 -346 132c-44.667 56.667 -67 122.667 -67 198c0 108.667 89 209.667 267 303l122 62l-52 128l202 122l219 -576c31.333 -82 65.333 -139.667 102 -173
c49.333 -44.667 118.666 -67 207.999 -67h52v-267zM733.001 382c-37.333 95.333 -71.998 177.667 -103.998 247c-120.667 -60 -198.334 -108.667 -233.001 -146c-2 -5.33301 -3 -20.333 -3 -45c11.333 -42 77.333 -63 198 -63c37.333 0 84.666 2.33301 141.999 7z
M717.003 1195l-514 -125.001l-31 111l180 45c-39.333 45.333 -59 90.333 -59 135c0 50.667 22.667 91.334 68 122.001c40 27.333 86.333 41 139 41c38.667 0 72.667 -8 102 -24v-97c-29.333 7.33301 -58.666 11 -87.999 11c-77.333 0 -116 -22.333 -116 -67
c0 -23.333 9.66699 -42.5 29 -57.5s40.666 -22.5 63.999 -22.5c20 0 85 15.333 195 46z" />
    <glyph glyph-name="uFEF2" unicode="&#x6cc;" horiz-adv-x="1553" arabic-form="final" 
d="M1582 1l-67 0.000976562c0 -66.667 -11 -123.334 -33 -170.001c-58 -122 -169.333 -217.667 -334 -287c-140 -58.667 -286.667 -88 -440 -88c-360.667 0 -541 192 -541 576c0 87.333 21 189.333 63 306l208 -66c-23.333 -78 -35 -152.333 -35 -223
c0 -222 113.333 -333 340 -333c246.667 0 416 54 508 162c8 9.33301 12 19.333 12 30c0 14 -8.66699 24 -26 30c-56.667 20.667 -199 57.667 -427 111l62 219h710v-267z" />
    <glyph glyph-name="uFEF3" unicode="&#x6cc;" horiz-adv-x="506" arabic-form="initial" 
d="M502 -397h-211v213h211v-213zM217 -397h-211v213h211v-213zM-29 268v-266.999h231c189.333 0 284 108.667 284 326c0 83.333 -56.333 218.666 -169 405.999l-213 -141l115 -206c10.667 -19.333 16 -37.333 16 -54c0 -42.667 -28.333 -64 -85 -64h-179z" />
    <glyph glyph-name="uFEF4" unicode="&#x6cc;" horiz-adv-x="622" arabic-form="medial" 
d="M550 -397h-211v213h211v-213zM265 -397h-211v213h211v-213zM650 1h-55c-50.667 0 -99.167 14.5 -145.5 43.5s-80.5 66.5 -102.5 112.5c-48.667 -104 -132 -156 -250 -156h-126v267h46c95.333 0 143 53.667 143 161v263h236v-135c0 -192.667 69.333 -289 208 -289h46v-267
z" />
    <glyph glyph-name="Hcircumflex" unicode="&#x622;" horiz-adv-x="849" arabic-form="final" 
d="M978 1403c-141.333 -85.333 -296.667 -128 -466 -128c-42 0 -103.333 11.5 -184 34.5s-114 34.5 -100 34.5c-10.667 0 -27 -20.667 -49 -62c-24.667 12.667 -71 38 -139 76l52 124c20.667 50 48.667 75 84 75c13.333 0 33.333 -7.66699 60 -23
c34 -19.333 65.667 -33.333 95 -42c50 -14.667 112.667 -22 188 -22c135.333 0 288.333 41.333 459 124v-191zM877.999 1l-206.001 -0.00195312c-105.333 0 -184.666 46.667 -237.999 140c-42.667 74.667 -64 169.334 -64 284.001v810h236v-726
c0 -79.333 8.66699 -135.666 26 -168.999c24.667 -48 72.667 -72 144 -72h102v-267z" />
    <glyph glyph-name="uFE84" unicode="&#x623;" horiz-adv-x="724" arabic-form="final" 
d="M630 1381l-514.001 -125.001l-31 111l180 45c-38.667 45.333 -58 90.333 -58 135c0 50.667 22.333 91.334 67 122.001c39.333 27.333 85.666 41 138.999 41c38.667 0 72.667 -8 102 -24v-96c-29.333 6.66699 -58.666 10 -87.999 10c-77.333 0 -116 -22 -116 -66
c0 -24 9.33301 -43.5 28 -58.5s40.334 -22.5 65.001 -22.5c20 0 85 15.333 195 46zM752.999 0.999023l-207.001 -0.000976562c-104.667 0 -183.667 47 -237 141c-43.333 76 -65 170.333 -65 283v810h237v-726c0 -79.333 8.66699 -135.666 26 -168.999
c24.667 -48 72.334 -72 143.001 -72h103v-267z" />
    <glyph glyph-name="uFE86" unicode="&#x624;" horiz-adv-x="1084" arabic-form="final" 
d="M709 859l-514 -126.001l-31 111l181 46c-39.333 45.333 -59 90.333 -59 135c0 50.667 22.667 91.334 68 122.001c40 27.333 86.333 41 139 41c38 0 72 -8 102 -24v-97c-30 7.33301 -59.667 11 -89 11c-77.333 0 -116 -22.333 -116 -67c0 -23.333 9.66699 -42.5 29 -57.5
s41 -22.5 65 -22.5c20 0 84.667 15.333 194 46zM170 375.999c0 84 27.834 157.167 83.501 219.5s125.167 93.5 208.5 93.5s163 -29 239 -87c98.667 -75.333 162.667 -186.666 192 -333.999h220v-267h-220c-28 -118 -102.667 -234.667 -224 -350
c-134.667 -128 -305.667 -231.333 -513 -310l-108 219c117.333 52 187 83.667 209 95c78.667 39.333 143 80.666 193 123.999c77.333 66.667 135.666 146.334 174.999 239.001c-20 -2 -40.333 -3 -61 -3c-107.333 0 -197 28 -269 84
c-83.333 65.333 -125 157.666 -125 276.999zM636.001 278.999c-2 54 -24.001 98 -66.001 132c-34 28 -66.333 42 -97 42c-19.333 0 -38.666 -9.16699 -57.999 -27.5s-29 -36.833 -29 -55.5c0 -57.333 30 -90 90 -98c58.667 -8 112 -5.66699 160 7z" />
    <glyph glyph-name="uFE88" unicode="&#x625;" horiz-adv-x="772" arabic-form="final" 
d="M801 1h-206.002c-105.333 0 -184.666 46.667 -237.999 140c-43.333 76 -65 170.667 -65 284v810h237v-726c0 -78 9 -134.333 27 -169c24.667 -48 72.334 -72 143.001 -72h102v-267zM728.998 -434l-515 -126.001l-31 111l181 46c-39.333 45.333 -59 90.333 -59 135
c0 50.667 22.667 91.334 68 122.001c40 27.333 86.333 41 139 41c38.667 0 72.667 -8 102 -24v-97c-29.333 7.33301 -59 11 -89 11c-77.333 0 -116 -22.333 -116 -67c0 -23.333 9.66699 -42.5 29 -57.5s41 -22.5 65 -22.5c20 0 85 15 195 45z" />
    <glyph glyph-name="uFE8A" unicode="&#x626;" horiz-adv-x="1553" arabic-form="final" 
d="M1582 1l-67 0.000976562c0 -66.667 -11 -123.334 -33 -170.001c-58 -122 -169.333 -217.667 -334 -287c-140 -58.667 -286.667 -88 -440 -88c-360.667 0 -541 192 -541 576c0 87.333 21 189.333 63 306l208 -66c-23.333 -78 -35 -152.333 -35 -223
c0 -222 113.333 -333 340 -333c246.667 0 416 54 508 162c8 9.33301 12 19.333 12 30c0 14 -8.66699 24 -26 30c-56.667 20.667 -199 57.667 -427 111l62 219h710v-267zM661 627.001l-514 -125l-31 111l180 45c-39.333 46 -59 91 -59 135c0 50 22.667 90.667 68 122
c40 28 86.333 42 139 42c38.667 0 72.667 -8.33301 102 -25v-96c-29.333 7.33301 -58.666 11 -87.999 11c-77.333 0 -116 -22.333 -116 -67c0 -23.333 9.66699 -42.5 29 -57.5s40.666 -22.5 63.999 -22.5c20 0 85 15 195 45z" />
    <glyph glyph-name="uFE8B" unicode="&#x626;" horiz-adv-x="517" arabic-form="initial" 
d="M561 890l-515 -126.001l-31 111l181 46c-39.333 45.333 -59 90.333 -59 135c0 50.667 22.667 91.334 68 122.001c40 27.333 86.333 41 139 41c38.667 0 72.667 -8 102 -24v-97c-29.333 7.33301 -59 11 -89 11c-77.333 0 -116 -22.333 -116 -67
c0 -23.333 9.66699 -42.5 29 -57.5s41 -22.5 65 -22.5c20 0 85 15.333 195 46zM-29 267.999v-266.999h231c189.333 0 284 108.667 284 326c0 83.333 -56.333 218.666 -169 405.999l-213 -141l115 -206c10.667 -19.333 16 -37.333 16 -54c0 -42.667 -28.333 -64 -85 -64h-179
z" />
    <glyph glyph-name="uFE8C" unicode="&#x626;" horiz-adv-x="622" arabic-form="medial" 
d="M576 882l-514.002 -125.001l-31 111l180 45c-39.333 45.333 -59 90.333 -59 135c0 50.667 22.667 91.334 68 122.001c40 27.333 86.333 41 139 41c38.667 0 72.667 -8 102 -24v-96c-29.333 6.66699 -58.666 10 -87.999 10c-77.333 0 -116 -22 -116 -66
c0 -24 9.33301 -43.333 28 -58s40.334 -22 65.001 -22c20 0 85 15 195 45zM649.998 0.999023h-55c-50.667 0 -99.167 14.5 -145.5 43.5s-80.5 66.5 -102.5 112.5c-48.667 -104 -132 -156 -250 -156h-126v267h46c95.333 0 143 53.667 143 161v263h236v-135
c0 -192.667 69.333 -289 208 -289h46v-267z" />
    <glyph glyph-name="uFE8E" unicode="&#x627;" horiz-adv-x="647" arabic-form="final" 
d="M676 1l-207.001 -0.00195312c-105.333 0 -184.666 46.667 -237.999 140c-42.667 74.667 -64 169.334 -64 284.001v810h236v-726c0 -79.333 8.66699 -135.666 26 -168.999c24.667 -48 72.667 -72 144 -72h103v-267z" />
    <glyph glyph-name="uFE90" unicode="&#x628;" horiz-adv-x="2293" arabic-form="final" 
d="M1136 -417h-237v237h237v-237zM1699 1h-1185c-231.333 0 -347 120.333 -347 361v150h236v-111c0 -51.333 14 -87 42 -107c23.333 -17.333 61.666 -26 114.999 -26h1104c54.667 0 82 18.333 82 55c0 18 -6.33301 39 -19 63l-108 206l201 135
c7.33301 -12 37.666 -68.667 90.999 -170c101.333 -192.667 223 -289 365 -289h46v-267h-50c-131.333 0 -241.333 62.333 -330 187c-22.667 -124.667 -103.667 -187 -243 -187z" />
    <glyph glyph-name="uFE91" unicode="&#x628;" horiz-adv-x="488" arabic-form="initial" 
d="M359 -413h-236v236h236v-236zM-29 268v-266.999h231c189.333 0 284 108.667 284 326c0 83.333 -56.333 218.666 -169 405.999l-213 -141l115 -206c10.667 -19.333 16 -37.333 16 -54c0 -42.667 -28.333 -64 -85 -64h-179z" />
    <glyph glyph-name="uFE92" unicode="&#x628;" horiz-adv-x="622" arabic-form="medial" 
d="M402 -412h-236v236h236v-236zM650 1h-55c-50.667 0 -99.167 14.5 -145.5 43.5s-80.5 66.5 -102.5 112.5c-48.667 -104 -132 -156 -250 -156h-126v267h46c95.333 0 143 53.667 143 161v263h236v-135c0 -192.667 69.333 -289 208 -289h46v-267z" />
    <glyph glyph-name="uFE96" unicode="&#x62a;" horiz-adv-x="2293" arabic-form="final" 
d="M1274 675h-211v212h211v-212zM989 675h-211v212h211v-212zM1699 1h-1185c-231.333 0 -347 120.333 -347 361v150h236v-111c0 -51.333 14 -87 42 -107c23.333 -17.333 61.666 -26 114.999 -26h1104c54.667 0 82 18.333 82 55c0 18 -6.33301 39 -19 63l-108 206l201 135
c7.33301 -12 37.666 -68.667 90.999 -170c101.333 -192.667 223 -289 365 -289h46v-267h-50c-131.333 0 -241.333 62.333 -330 187c-22.667 -124.667 -103.667 -187 -243 -187z" />
    <glyph glyph-name="uFE97" unicode="&#x62a;" horiz-adv-x="540" arabic-form="initial" 
d="M537 852h-212v213h212v-213zM252 852h-211v213h211v-213zM-29 268v-266.999h231c189.333 0 284 108.667 284 326c0 83.333 -56.333 218.666 -169 405.999l-213 -141l115 -206c10.667 -19.333 16 -37.333 16 -54c0 -42.667 -28.333 -64 -85 -64h-179z" />
    <glyph glyph-name="uFE98" unicode="&#x62a;" horiz-adv-x="622" arabic-form="medial" 
d="M550 852h-211v213h211v-213zM265 852h-211v213h211v-213zM650 1h-55c-50.667 0 -99.167 14.5 -145.5 43.5s-80.5 66.5 -102.5 112.5c-48.667 -104 -132 -156 -250 -156h-126v267h46c95.333 0 143 53.667 143 161v263h236v-135c0 -192.667 69.333 -289 208 -289h46v-267z
" />
    <glyph glyph-name="uFE9A" unicode="&#x62b;" horiz-adv-x="2293" arabic-form="final" 
d="M1238 852h-211v-215h211v215zM975 852h-209v-215h209v215zM1103 1103h-215v-212h215v212zM1699 1h-1185c-231.333 0 -347 120.333 -347 361v150h236v-111c0 -51.333 14 -87 42 -107c23.333 -17.333 61.666 -26 114.999 -26h1104c54.667 0 82 18.333 82 55
c0 18 -6.33301 39 -19 63l-108 206l201 135c7.33301 -12 37.666 -68.667 90.999 -170c101.333 -192.667 223 -289 365 -289h46v-267h-50c-131.333 0 -241.333 62.333 -330 187c-22.667 -124.667 -103.667 -187 -243 -187z" />
    <glyph glyph-name="uFE9B" unicode="&#x62b;" horiz-adv-x="489" arabic-form="initial" 
d="M489 1000h-211v-215h211v215zM226 1000h-209v-215h209v215zM354 1251h-215v-213h215v213zM-29 268v-266.999h231c189.333 0 284 108.667 284 326c0 83.333 -56.333 218.666 -169 405.999l-213 -141l115 -206c10.667 -19.333 16 -37.333 16 -54
c0 -42.667 -28.333 -64 -85 -64h-179z" />
    <glyph glyph-name="uFE9C" unicode="&#x62b;" horiz-adv-x="622" arabic-form="medial" 
d="M545 996h-211v-215h211v215zM282 996h-209v-215h209v215zM410 1247h-215v-212h215v212zM650 1h-55c-50.667 0 -99.167 14.5 -145.5 43.5s-80.5 66.5 -102.5 112.5c-48.667 -104 -132 -156 -250 -156h-126v267h46c95.333 0 143 53.667 143 161v263h236v-135
c0 -192.667 69.333 -289 208 -289h46v-267z" />
    <glyph glyph-name="uFE9E" unicode="&#x62c;" horiz-adv-x="1467" arabic-form="final" 
d="M898 -250h-237v236h237v-236zM424 -131c0 -110.667 40.9971 -197.33 122.997 -259.997c74 -56 168.333 -84 283 -84c105.333 0 194.333 13 267 39l175 65l114 -219c-186 -101.333 -368.667 -152 -548 -152c-175.333 0 -319.666 36 -432.999 108
c-158.667 100.667 -238 263.667 -238 489c0 180 90 348.333 270 505c102.667 89.333 223.334 166.666 362.001 231.999c-100 5.33301 -201.333 5.66602 -304 0.999023c-52.667 -2 -112.667 -22.333 -180 -61l-120 195c26 32.667 61.667 61.667 107 87
c56.667 32 112.334 47 167.001 45l959 -35l-25 -254h-89c-54.667 0 -114.334 -11.667 -179.001 -35c-52 -18.667 -93.333 -39 -124 -61c40.667 -60 76 -102.667 106 -128c62 -52 137 -78 225 -78h153v-267h-196c-116.667 0 -208.667 29.667 -276 89
c-51.333 45.333 -115.666 138.666 -192.999 279.999c-96 -59.333 -181.333 -129 -256 -209c-100 -106.667 -150 -204 -150 -292z" />
    <glyph glyph-name="uFE9F" unicode="&#x62c;" horiz-adv-x="988" arabic-form="initial" 
d="M402 -417h-236v237h236v-237zM986 185l-135 -184h-880v267h606l-247 244c-35.333 34.667 -76 52 -122 52h-160v243h206c74 0 135.333 -24.333 184 -73z" />
    <glyph glyph-name="uFEA0" unicode="&#x62c;" horiz-adv-x="1286" arabic-form="medial" 
d="M653 -417h-236v237h236v-237zM851 431c45.333 -50.667 86.667 -87.001 124 -109.001c60.667 -36 133 -54 217 -54h123v-267h-227c-95.333 0 -173 29 -233 87c-30 28.667 -81 100.334 -153 215.001c-110 -96.667 -192.667 -163 -248 -199
c-105.333 -68.667 -203.333 -103 -294 -103h-189v267h55c104 0 194.333 14.333 271 43c62 23.333 125.667 60 191 110l197 154c-218 6 -346 7.33301 -384 4c-38.667 -3.33301 -96.667 -23.333 -174 -60l-114 195c78.667 91.333 174.667 135 288 131l943 -34l-28 -255h-87
c-52.667 0 -104 -13.333 -154 -40c-24 -12.667 -65.333 -41 -124 -85z" />
    <glyph glyph-name="uFEA2" unicode="&#x62d;" horiz-adv-x="1466" arabic-form="final" 
d="M424 -131c0 -110.667 40.9971 -197.33 122.997 -259.997c74 -56 168.333 -84 283 -84c105.333 0 194.333 13 267 39l175 65l114 -219c-186 -101.333 -368.667 -152 -548 -152c-175.333 0 -319.666 36 -432.999 108c-158.667 100.667 -238 263.667 -238 489
c0 180 90 348.333 270 505c102.667 89.333 223.334 166.666 362.001 231.999c-100 5.33301 -201.333 5.66602 -304 0.999023c-52.667 -2 -112.667 -22.333 -180 -61l-120 195c26 32.667 61.667 61.667 107 87c56.667 32 112.334 47 167.001 45l959 -35l-25 -254h-89
c-54.667 0 -114.334 -11.667 -179.001 -35c-52 -18.667 -93.333 -39 -124 -61c40.667 -60 76 -102.667 106 -128c62 -52 137 -78 225 -78h153v-267h-196c-116.667 0 -208.667 29.667 -276 89c-51.333 45.333 -115.666 138.666 -192.999 279.999
c-96 -59.333 -181.333 -129 -256 -209c-100 -106.667 -150 -204 -150 -292z" />
    <glyph glyph-name="uFEA3" unicode="&#x62d;" horiz-adv-x="986" arabic-form="initial" 
d="M986 185l-135 -184h-880v267h606l-247 244c-35.333 34.667 -76 52 -122 52h-160v243h206c74 0 135.333 -24.333 184 -73z" />
    <glyph glyph-name="uFEA4" unicode="&#x62d;" horiz-adv-x="1286" arabic-form="medial" 
d="M851 431c45.333 -50.667 86.667 -87.001 124 -109.001c60.667 -36 133 -54 217 -54h123v-267h-227c-95.333 0 -173 29 -233 87c-30 28.667 -81 100.334 -153 215.001c-110 -96.667 -192.667 -163 -248 -199c-105.333 -68.667 -203.333 -103 -294 -103h-189v267h55
c104 0 194.333 14.333 271 43c62 23.333 125.667 60 191 110l197 154c-218 6 -346 7.33301 -384 4c-38.667 -3.33301 -96.667 -23.333 -174 -60l-114 195c78.667 91.333 174.667 135 288 131l943 -34l-28 -255h-87c-52.667 0 -104 -13.333 -154 -40
c-24 -12.667 -65.333 -41 -124 -85z" />
    <glyph glyph-name="uFEA6" unicode="&#x62e;" horiz-adv-x="1467" arabic-form="final" 
d="M846 996h-236v236h236v-236zM424 -131c0 -110.667 40.9971 -197.33 122.997 -259.997c74 -56 168.333 -84 283 -84c105.333 0 194.333 13 267 39l175 65l114 -219c-186 -101.333 -368.667 -152 -548 -152c-175.333 0 -319.666 36 -432.999 108
c-158.667 100.667 -238 263.667 -238 489c0 180 90 348.333 270 505c102.667 89.333 223.334 166.666 362.001 231.999c-100 5.33301 -201.333 5.66602 -304 0.999023c-52.667 -2 -112.667 -22.333 -180 -61l-120 195c26 32.667 61.667 61.667 107 87
c56.667 32 112.334 47 167.001 45l959 -35l-25 -254h-89c-54.667 0 -114.334 -11.667 -179.001 -35c-52 -18.667 -93.333 -39 -124 -61c40.667 -60 76 -102.667 106 -128c62 -52 137 -78 225 -78h153v-267h-196c-116.667 0 -208.667 29.667 -276 89
c-51.333 45.333 -115.666 138.666 -192.999 279.999c-96 -59.333 -181.333 -129 -256 -209c-100 -106.667 -150 -204 -150 -292z" />
    <glyph glyph-name="uFEA7" unicode="&#x62e;" horiz-adv-x="986" arabic-form="initial" 
d="M287 996h-237v236h237v-236zM986 185l-135 -184h-880v267h606l-247 244c-35.333 34.667 -76 52 -122 52h-160v243h206c74 0 135.333 -24.333 184 -73z" />
    <glyph glyph-name="uFEA8" unicode="&#x62e;" horiz-adv-x="1286" arabic-form="medial" 
d="M692 996h-236v236h236v-236zM851 431c45.333 -50.667 86.667 -87.001 124 -109.001c60.667 -36 133 -54 217 -54h123v-267h-227c-95.333 0 -173 29 -233 87c-30 28.667 -81 100.334 -153 215.001c-110 -96.667 -192.667 -163 -248 -199
c-105.333 -68.667 -203.333 -103 -294 -103h-189v267h55c104 0 194.333 14.333 271 43c62 23.333 125.667 60 191 110l197 154c-218 6 -346 7.33301 -384 4c-38.667 -3.33301 -96.667 -23.333 -174 -60l-114 195c78.667 91.333 174.667 135 288 131l943 -34l-28 -255h-87
c-52.667 0 -104 -13.333 -154 -40c-24 -12.667 -65.333 -41 -124 -85z" />
    <glyph glyph-name="uFEAA" unicode="&#x62f;" horiz-adv-x="1524" arabic-form="final" 
d="M855 1h-316.001c-125.333 0 -250.666 73 -375.999 219l163 163c69.333 -76.667 131 -115 185 -115h316c94 0 141 19.333 141 58c0 16 -6.33301 36.333 -19 61l-268 521l209 135l281 -556c38.667 -76.667 81.667 -131.667 129 -165c52 -36 119.333 -54 202 -54h51v-267
h-59c-121.333 0 -227.666 52 -318.999 156c-47.333 -60 -83.333 -97.667 -108 -113c-46.667 -28.667 -117.334 -43 -212.001 -43z" />
    <glyph glyph-name="uFEAC" unicode="&#x630;" horiz-adv-x="1518" arabic-form="final" 
d="M876 1094h-236v237h236v-237zM855 1h-316.001c-125.333 0 -250.666 73 -375.999 219l163 163c69.333 -76.667 131 -115 185 -115h316c94 0 141 19.333 141 58c0 16 -6.33301 36.333 -19 61l-268 521l209 135l281 -556c38.667 -76.667 81.667 -131.667 129 -165
c52 -36 119.333 -54 202 -54h51v-267h-59c-121.333 0 -227.666 52 -318.999 156c-47.333 -60 -83.333 -97.667 -108 -113c-46.667 -28.667 -117.334 -43 -212.001 -43z" />
    <glyph glyph-name="uFEAE" unicode="&#x631;" horiz-adv-x="1219" arabic-form="final" 
d="M925 129c-5.33301 -22.667 -26.332 -65.334 -62.999 -128.001c-74 -126.667 -305.667 -300.334 -695 -521.001l-119 215c95.333 52 183.333 103.667 264 155c187.333 120 305.666 221 354.999 303c17.333 28.667 26 63 26 103c0 32.667 -6.33301 62.334 -19 89.001
c-18.667 50.667 -60.334 136.334 -125.001 257.001l215 129l135 -265c31.333 -62 58.333 -104 81 -126c48.667 -48 118.334 -72 209.001 -72h59v-267h-58c-110.667 0 -199 42.667 -265 128z" />
    <glyph glyph-name="uFEB0" unicode="&#x632;" horiz-adv-x="1210" arabic-form="final" 
d="M727 807h-237v236h237v-236zM925 129c-5.33301 -22.667 -26.332 -65.334 -62.999 -128.001c-74 -126.667 -305.667 -300.334 -695 -521.001l-119 215c95.333 52 183.333 103.667 264 155c187.333 120 305.666 221 354.999 303c17.333 28.667 26 63 26 103
c0 32.667 -6.33301 62.334 -19 89.001c-18.667 50.667 -60.334 136.334 -125.001 257.001l215 129l135 -265c31.333 -62 58.333 -104 81 -126c48.667 -48 118.334 -72 209.001 -72h59v-267h-58c-110.667 0 -199 42.667 -265 128z" />
    <glyph glyph-name="uFEB2" unicode="&#x633;" horiz-adv-x="2644" arabic-form="final" 
d="M1685 684l239.002 0.00195312c0 -280 55.667 -420 167 -420c68 0 102 51 102 153v271h235c0 -176.667 16.333 -294 49 -352c25.333 -45.333 72.666 -68 141.999 -68h54v-267h-57c-66 0 -118 11 -156 33c-35.333 21.333 -71.333 60.666 -108 117.999
c-64.667 -106 -151.667 -159 -261 -159c-88.667 0 -170.667 48.667 -246 146c-48.667 -92.667 -120.667 -139 -216 -139c-64.667 0 -117.667 16 -159 48c0 -126.667 -18.667 -233 -56 -319c-48 -111.333 -113 -195 -195 -251c-104 -71.333 -246.333 -107 -427 -107
c-220 0 -385 71.667 -495 215c-86.667 112.667 -130 252 -130 418c0 25.333 6.66699 69.333 20 132c15.333 73.333 32.666 131 51.999 173l206 -73c-34.667 -84.667 -52 -163.334 -52 -236.001c0 -130 46.667 -225.667 140 -287c72 -47.333 162 -71 270 -71
c130 0 232.667 32.333 308 97c79.333 69.333 119 168 119 296c0 132.667 -64.667 305 -194 517l201 129c42 -80 82.667 -153.333 122 -220c70 -119.333 139.333 -179 208 -179c78.667 0 118 52 118 156v246z" />
    <glyph glyph-name="uFEB3" unicode="&#x633;" horiz-adv-x="1431" arabic-form="initial" 
d="M890 685c0 -270.667 62.334 -406 187.001 -406c74 0 111 31.667 111 95c0 61.333 -34.667 152.666 -104 273.999l195 117c101.333 -164.667 152 -296.334 152 -395.001c0 -105.333 -25.667 -190 -77 -254c-55.333 -69.333 -134.666 -104 -237.999 -104
c-128 0 -225.667 50.667 -293 152c-56.667 -108.667 -143.334 -163 -260.001 -163c-50 0 -98.667 14.833 -146 44.5s-83.333 66.834 -108 111.501c-58.667 -104 -152 -156 -280 -156h-58v267h38c46 0 78.667 7.33301 98 22c28.667 22 43 66 43 132v267h236
c0 -139.333 10 -238.666 30 -297.999c25.333 -74.667 72 -112 140 -112c37.333 0 66.666 18 87.999 54c18 30.667 27 66 27 106v246h219z" />
    <glyph glyph-name="uFEB4" unicode="&#x633;" horiz-adv-x="1639" arabic-form="medial" 
d="M309 157c-56.667 -104 -149.999 -156 -279.999 -156h-58v267h40c46 0 78.333 7.33301 97 22c28 22 42 66 42 132v267h236c0 -278 59 -417 177 -417c72 0 108 55.667 108 167v250h243c0 -118 5 -202.333 15 -253c22.667 -114 70.667 -171 144 -171c68 0 102 51 102 153
v271h236c0 -176 18 -293.667 54 -353c27.333 -45.333 76.666 -68 147.999 -68h55v-267h-57c-109.333 0 -198.333 50.667 -267 152c-57.333 -101.333 -136 -152 -236 -152c-112 0 -205.667 46.333 -281 139c-22 -44.667 -59.333 -79.667 -112 -105
c-47.333 -22.667 -98 -34 -152 -34c-52.667 0 -102.667 14 -150 42c-49.333 28.667 -84 66.667 -104 114z" />
    <glyph glyph-name="uFEB6" unicode="&#x634;" horiz-adv-x="2644" arabic-form="final" 
d="M2029 1027h-212v-215h212v215zM1765 1027h-208v-215h208v215zM1894 1278h-216v-212h216v212zM1685 684l239.002 0.00195312c0 -280 55.667 -420 167 -420c68 0 102 51 102 153v271h235c0 -176.667 16.333 -294 49 -352c25.333 -45.333 72.666 -68 141.999 -68h54v-267
h-57c-66 0 -118 11 -156 33c-35.333 21.333 -71.333 60.666 -108 117.999c-64.667 -106 -151.667 -159 -261 -159c-88.667 0 -170.667 48.667 -246 146c-48.667 -92.667 -120.667 -139 -216 -139c-64.667 0 -117.667 16 -159 48c0 -126.667 -18.667 -233 -56 -319
c-48 -111.333 -113 -195 -195 -251c-104 -71.333 -246.333 -107 -427 -107c-220 0 -385 71.667 -495 215c-86.667 112.667 -130 252 -130 418c0 25.333 6.66699 69.333 20 132c15.333 73.333 32.666 131 51.999 173l206 -73c-34.667 -84.667 -52 -163.334 -52 -236.001
c0 -130 46.667 -225.667 140 -287c72 -47.333 162 -71 270 -71c130 0 232.667 32.333 308 97c79.333 69.333 119 168 119 296c0 132.667 -64.667 305 -194 517l201 129c42 -80 82.667 -153.333 122 -220c70 -119.333 139.333 -179 208 -179c78.667 0 118 52 118 156v246z
" />
    <glyph glyph-name="uFEB7" unicode="&#x634;" horiz-adv-x="1433" arabic-form="initial" 
d="M1025 1027h-211v-215h211v215zM761 1027h-208v-215h208v215zM890 1278h-215v-212h215v212zM890 685c0 -270.667 62.334 -406 187.001 -406c74 0 111 31.667 111 95c0 61.333 -34.667 152.666 -104 273.999l195 117c101.333 -164.667 152 -296.334 152 -395.001
c0 -105.333 -25.667 -190 -77 -254c-55.333 -69.333 -134.666 -104 -237.999 -104c-128 0 -225.667 50.667 -293 152c-56.667 -108.667 -143.334 -163 -260.001 -163c-50 0 -98.667 14.833 -146 44.5s-83.333 66.834 -108 111.501c-58.667 -104 -152 -156 -280 -156h-58v267
h38c46 0 78.667 7.33301 98 22c28.667 22 43 66 43 132v267h236c0 -139.333 10 -238.666 30 -297.999c25.333 -74.667 72 -112 140 -112c37.333 0 66.666 18 87.999 54c18 30.667 27 66 27 106v246h219z" />
    <glyph glyph-name="uFEB8" unicode="&#x634;" horiz-adv-x="1629" arabic-form="medial" 
d="M1044 1027h-211v-215h211v215zM781 1027h-209v-215h209v215zM909 1278h-215v-212h215v212zM309 157c-56.667 -104 -149.999 -156 -279.999 -156h-58v267h40c46 0 78.333 7.33301 97 22c28 22 42 66 42 132v267h236c0 -278 59 -417 177 -417c72 0 108 55.667 108 167v250
h243c0 -118 5 -202.333 15 -253c22.667 -114 70.667 -171 144 -171c68 0 102 51 102 153v271h236c0 -176 18 -293.667 54 -353c27.333 -45.333 76.666 -68 147.999 -68h55v-267h-57c-109.333 0 -198.333 50.667 -267 152c-57.333 -101.333 -136 -152 -236 -152
c-112 0 -205.667 46.333 -281 139c-22 -44.667 -59.333 -79.667 -112 -105c-47.333 -22.667 -98 -34 -152 -34c-52.667 0 -102.667 14 -150 42c-49.333 28.667 -84 66.667 -104 114z" />
    <glyph glyph-name="uFEBA" unicode="&#x635;" horiz-adv-x="2641" arabic-form="final" 
d="M2026 268c138.667 0 208 57.999 208 173.999c0 41.333 -15.333 75.333 -46 102c-29.333 24.667 -65 37 -107 37c-61.333 0 -126.333 -30 -195 -90c-48 -41.333 -115 -115.666 -201 -222.999h341zM1481 45.999c0 -244 -94.665 -427.667 -283.998 -551
c-118.667 -77.333 -253.667 -116 -405 -116c-222 0 -387.667 74.333 -497 223c-85.333 116 -128 258.333 -128 427c0 25.333 6.66699 69.666 20 132.999c15.333 74 32.666 131.667 51.999 173l206 -73c-34.667 -84.667 -52 -163.667 -52 -237
c0 -129.333 47 -224.333 141 -285c71.333 -46 162 -69 272 -69c132.667 0 236 31.667 310 95c78 68 117 167.333 117 298c0 71.333 -20.667 160 -62 266c-34.667 88.667 -76.334 171.334 -125.001 248.001l215 131c104 -231.333 180.333 -356 229 -374
c211.333 328.667 420 493 626 493c90 0 172.667 -38.667 248 -116c71.333 -72.667 107 -147.667 107 -225c0 -90 -7.33301 -151.333 -22 -184c31.333 -23.333 87 -35 167 -35h53v-267h-58c-48 0 -96.333 11 -145 33c-54 24 -92 54.667 -114 92
c-56 -83.333 -156.667 -125 -302 -125h-434c-71.333 0 -116.333 15 -135 45z" />
    <glyph glyph-name="uFEBB" unicode="&#x635;" horiz-adv-x="1491" arabic-form="initial" 
d="M485 309c234 349.333 453.333 523.999 658 523.999c94.667 0 176.667 -39.667 246 -119c66.667 -76 100 -162 100 -258c0 -153.333 -44.667 -270.666 -134 -351.999c-75.333 -68.667 -168.333 -103 -279 -103h-440c-150 0 -251.333 52.333 -304 157
c-26 -52 -55 -88.667 -87 -110c-47.333 -31.333 -119 -47 -215 -47h-59v267h43c88.667 0 133 39 133 117v280h241v-203c0 -28 9.83301 -57.5 29.5 -88.5s42.167 -52.5 67.5 -64.5zM1052 269.999c139.333 0 209 58.333 209 175c0 42 -15.5 75.667 -46.5 101
s-67.833 38 -110.5 38c-60 0 -124.333 -30 -193 -90c-50.667 -44 -118 -118.667 -202 -224h343z" />
    <glyph glyph-name="uFEBC" unicode="&#x635;" horiz-adv-x="1640" arabic-form="medial" 
d="M1046 268c139.333 0 209 58 209 174c0 42 -15.5 75.667 -46.5 101s-67.833 38 -110.5 38c-60 0 -124 -30 -192 -90c-49.333 -44 -116 -118.333 -200 -223h340zM1459 303c35.333 -23.333 86.667 -34.999 154 -34.999h56v-267h-58c-109.333 0 -194.666 38.333 -255.999 115
c-69.333 -76.667 -164.333 -115 -285 -115h-438c-148.667 0 -249.334 52 -302.001 156c-36 -55.333 -60.667 -88.333 -74 -99c-48 -38 -123 -57 -225 -57h-60v267h48c84.667 0 127 38.333 127 115v278h240v-202c0 -70.667 30 -120.334 90 -149.001
c231.333 345.333 451.333 518 660 518c97.333 0 180 -38.667 248 -116c64.667 -74 97 -160.333 97 -259c0 -37.333 -7.33301 -87.333 -22 -150z" />
    <glyph glyph-name="uFEBE" unicode="&#x636;" horiz-adv-x="2641" arabic-form="final" 
d="M2195 1000h-237v236h237v-236zM2026 268c138.667 0 208 57.999 208 173.999c0 41.333 -15.333 75.333 -46 102c-29.333 24.667 -65 37 -107 37c-61.333 0 -126.333 -30 -195 -90c-48 -41.333 -115 -115.666 -201 -222.999h341zM1481 45.999
c0 -244 -94.665 -427.667 -283.998 -551c-118.667 -77.333 -253.667 -116 -405 -116c-222 0 -387.667 74.333 -497 223c-85.333 116 -128 258.333 -128 427c0 25.333 6.66699 69.666 20 132.999c15.333 74 32.666 131.667 51.999 173l206 -73
c-34.667 -84.667 -52 -163.667 -52 -237c0 -129.333 47 -224.333 141 -285c71.333 -46 162 -69 272 -69c132.667 0 236 31.667 310 95c78 68 117 167.333 117 298c0 71.333 -20.667 160 -62 266c-34.667 88.667 -76.334 171.334 -125.001 248.001l215 131
c104 -231.333 180.333 -356 229 -374c211.333 328.667 420 493 626 493c90 0 172.667 -38.667 248 -116c71.333 -72.667 107 -147.667 107 -225c0 -90 -7.33301 -151.333 -22 -184c31.333 -23.333 87 -35 167 -35h53v-267h-58c-48 0 -96.333 11 -145 33
c-54 24 -92 54.667 -114 92c-56 -83.333 -156.667 -125 -302 -125h-434c-71.333 0 -116.333 15 -135 45z" />
    <glyph glyph-name="uFEBF" unicode="&#x636;" horiz-adv-x="1491" arabic-form="initial" 
d="M1230 1000h-237v236h237v-236zM485 309c234 349.333 453.333 523.999 658 523.999c94.667 0 176.667 -39.667 246 -119c66.667 -76 100 -162 100 -258c0 -153.333 -44.667 -270.666 -134 -351.999c-75.333 -68.667 -168.333 -103 -279 -103h-440
c-150 0 -251.333 52.333 -304 157c-26 -52 -55 -88.667 -87 -110c-47.333 -31.333 -119 -47 -215 -47h-59v267h43c88.667 0 133 39 133 117v280h241v-203c0 -28 9.83301 -57.5 29.5 -88.5s42.167 -52.5 67.5 -64.5zM1052 269.999c139.333 0 209 58.333 209 175
c0 42 -15.5 75.667 -46.5 101s-67.833 38 -110.5 38c-60 0 -124.333 -30 -193 -90c-50.667 -44 -118 -118.667 -202 -224h343z" />
    <glyph glyph-name="uFEC0" unicode="&#x636;" horiz-adv-x="1640" arabic-form="medial" 
d="M1230 1000h-237v236h237v-236zM1046 268c139.333 0 209 58 209 174c0 42 -15.5 75.667 -46.5 101s-67.833 38 -110.5 38c-60 0 -124 -30 -192 -90c-49.333 -44 -116 -118.333 -200 -223h340zM1459 303c35.333 -23.333 86.667 -34.999 154 -34.999h56v-267h-58
c-109.333 0 -194.666 38.333 -255.999 115c-69.333 -76.667 -164.333 -115 -285 -115h-438c-148.667 0 -249.334 52 -302.001 156c-36 -55.333 -60.667 -88.333 -74 -99c-48 -38 -123 -57 -225 -57h-60v267h48c84.667 0 127 38.333 127 115v278h240v-202
c0 -70.667 30 -120.334 90 -149.001c231.333 345.333 451.333 518 660 518c97.333 0 180 -38.667 248 -116c64.667 -74 97 -160.333 97 -259c0 -37.333 -7.33301 -87.333 -22 -150z" />
    <glyph glyph-name="uFEC2" unicode="&#x637;" horiz-adv-x="1789" arabic-form="final" 
d="M1397 442c0 40.667 -15.668 73.999 -47.001 99.999c-29.333 24 -64.666 36 -105.999 36c-106 0 -241.333 -103.333 -406 -310h371c55.333 0 100.5 15.333 135.5 46s52.5 73.334 52.5 128.001zM166.999 122.999l0.00195312 151.999h243c31.333 0 57.666 12 78.999 36
s32 51.667 32 83v840h237v-736c68 89.333 141.667 163.333 221 222c101.333 74.667 197.666 111.667 288.999 111c98.667 -0.666992 184 -39.667 256 -117c70 -75.333 105 -162.666 105 -261.999c0 -45.333 -5.66699 -95 -17 -149c27.333 -23.333 78 -35 152 -35h54v-267
h-58c-64 0 -121 14.333 -171 43c-37.333 21.333 -64.333 45.333 -81 72c-72.667 -76.667 -168.667 -115 -288 -115h-695c-46 0 -108 14.333 -186 43c-66 24 -123.333 50.333 -172 79z" />
    <glyph glyph-name="uFEC3" unicode="&#x637;" horiz-adv-x="1270" arabic-form="initial" 
d="M1049 442c0 40 -15.167 72.668 -45.5 98.001s-65.833 38 -106.5 38c-106 0 -241.667 -103.333 -407 -310h372c56 0 101.167 15.167 135.5 45.5s51.5 73.166 51.5 128.499zM872 1.00098h-901.001v267h41c108 0 162 42 162 126v840h236v-736
c68.667 90 142.334 164 221.001 222c101.333 74.667 198 111.667 290 111c97.333 -0.666992 180.333 -42.334 249 -125.001c65.333 -78.667 98 -167.667 98 -267c0 -151.333 -53.333 -267.666 -160 -348.999c-77.333 -59.333 -156 -89 -236 -89z" />
    <glyph glyph-name="uFEC4" unicode="&#x637;" horiz-adv-x="1442" arabic-form="medial" 
d="M1471 1h-58c-120.667 0 -205 38.333 -253 115c-72 -76.667 -168 -115 -288 -115h-901v267h41c53.333 0 92 7.33301 116 22c30.667 19.333 46 54 46 104v840h236v-736c68.667 90 142.334 164 221.001 222c101.333 74.667 198 111.667 290 111
c97.333 -0.666992 182.333 -39.667 255 -117c70.667 -76 106 -163 106 -261c0 -46 -6 -96 -18 -150c27.333 -23.333 81.666 -35 162.999 -35h44v-267zM1049 442c0 40 -15.167 72.668 -45.5 98.001s-65.833 38 -106.5 38c-106 0 -241.667 -103.333 -407 -310h372
c56 0 101.167 15.167 135.5 45.5s51.5 73.166 51.5 128.499z" />
    <glyph glyph-name="uFEC6" unicode="&#x638;" horiz-adv-x="1789" arabic-form="final" 
d="M1309 998h-237v236h237v-236zM1397 442c0 40.667 -15.668 73.999 -47.001 99.999c-29.333 24 -64.666 36 -105.999 36c-106 0 -241.333 -103.333 -406 -310h371c55.333 0 100.5 15.333 135.5 46s52.5 73.334 52.5 128.001zM166.999 122.999l0.00195312 151.999h243
c31.333 0 57.666 12 78.999 36s32 51.667 32 83v840h237v-736c68 89.333 141.667 163.333 221 222c101.333 74.667 197.666 111.667 288.999 111c98.667 -0.666992 184 -39.667 256 -117c70 -75.333 105 -162.666 105 -261.999c0 -45.333 -5.66699 -95 -17 -149
c27.333 -23.333 78 -35 152 -35h54v-267h-58c-64 0 -121 14.333 -171 43c-37.333 21.333 -64.333 45.333 -81 72c-72.667 -76.667 -168.667 -115 -288 -115h-695c-46 0 -108 14.333 -186 43c-66 24 -123.333 50.333 -172 79z" />
    <glyph glyph-name="uFEC7" unicode="&#x638;" horiz-adv-x="1270" arabic-form="initial" 
d="M963 998h-236v236h236v-236zM1049 442c0 40 -15.167 72.668 -45.5 98.001s-65.833 38 -106.5 38c-106 0 -241.667 -103.333 -407 -310h372c56 0 101.167 15.167 135.5 45.5s51.5 73.166 51.5 128.499zM872 1.00098h-901.001v267h41c108 0 162 42 162 126v840h236v-736
c68.667 90 142.334 164 221.001 222c101.333 74.667 198 111.667 290 111c97.333 -0.666992 180.333 -42.334 249 -125.001c65.333 -78.667 98 -167.667 98 -267c0 -151.333 -53.333 -267.666 -160 -348.999c-77.333 -59.333 -156 -89 -236 -89z" />
    <glyph glyph-name="uFEC8" unicode="&#x638;" horiz-adv-x="1442" arabic-form="medial" 
d="M963 998h-236v236h236v-236zM1471 1h-58c-120.667 0 -205 38.333 -253 115c-72 -76.667 -168 -115 -288 -115h-901v267h41c53.333 0 92 7.33301 116 22c30.667 19.333 46 54 46 104v840h236v-736c68.667 90 142.334 164 221.001 222c101.333 74.667 198 111.667 290 111
c97.333 -0.666992 182.333 -39.667 255 -117c70.667 -76 106 -163 106 -261c0 -46 -6 -96 -18 -150c27.333 -23.333 81.666 -35 162.999 -35h44v-267zM1049 442c0 40 -15.167 72.668 -45.5 98.001s-65.833 38 -106.5 38c-106 0 -241.667 -103.333 -407 -310h372
c56 0 101.167 15.167 135.5 45.5s51.5 73.166 51.5 128.499z" />
    <glyph glyph-name="uFECA" unicode="&#x639;" horiz-adv-x="1210" arabic-form="final" 
d="M1227 -655c-162.667 -65.333 -318.001 -98.0039 -466.001 -98.0039c-160 0 -296 42 -408 126c-124 92.667 -186 216.334 -186 371.001c0 106 38 205.667 114 299c64 78.667 138.333 142.334 223 191.001l156 90l-122 119c-60 59.333 -90 111 -90 155
c0 44.667 30 86.334 90 125.001c72 46.667 167 70 285 70c70 0 137.667 -18.667 203 -56c71.333 -40.667 107 -88 107 -142c0 -81.333 -46.333 -171.666 -139 -270.999c26.667 -21.333 48 -35 64 -41c26 -10 66 -15 120 -15h61v-267h-60
c-115.333 0 -231.666 56.667 -348.999 170c-11.333 0 -50.333 -20 -117 -60c-206.667 -123.333 -310 -241 -310 -353c0 -93.333 46.333 -161 139 -203c68 -31.333 155 -47 261 -47c102 0 217.667 19.667 347 59z" />
    <glyph glyph-name="uFECB" unicode="&#x639;" horiz-adv-x="932" arabic-form="initial" 
d="M931 1h-959.999v267h147c-34.667 56 -52 129 -52 219c0 88.667 34 165 102 229c76 72 177.667 108 305 108c142 0 283.333 -45 424 -135c-22.667 -36 -55.334 -96 -98.001 -180c-36 23.333 -86.667 43 -152 59c-54.667 13.333 -99 20 -133 20c-48 0 -90 -13.333 -126 -40
c-40 -29.333 -60.667 -67 -62 -113c-1.33301 -56 26 -99.333 82 -130c45.333 -24.667 98.333 -37 159 -37h364v-267z" />
    <glyph glyph-name="uFECC" unicode="&#x639;" horiz-adv-x="838" arabic-form="medial" 
d="M867 1h-82c-64 0 -134.667 23 -212 69c-49.333 29.333 -86.333 56.333 -111 81c-93.333 -100 -199.666 -150 -318.999 -150h-172v267h75c100 0 175 10.667 225 32c-70.667 58 -116.667 98.333 -138 121c-56.667 57.333 -85 107 -85 149c0 60 54 108.667 162 146
c83.333 28.667 161.666 43 234.999 43s136.333 -14 189 -42c66 -35.333 99 -86.333 99 -153c0 -38 -6.33301 -70 -19 -96c-14.667 -30 -50 -81.333 -106 -154c34 -30.667 85 -46 153 -46h106v-267z" />
    <glyph glyph-name="uFECE" unicode="&#x63a;" horiz-adv-x="1211" arabic-form="final" 
d="M927 900h-237v237h237v-237zM1227 -655c-162.667 -65.333 -318.001 -98.0039 -466.001 -98.0039c-160 0 -296 42 -408 126c-124 92.667 -186 216.334 -186 371.001c0 106 38 205.667 114 299c64 78.667 138.333 142.334 223 191.001l156 90l-122 119
c-60 59.333 -90 111 -90 155c0 44.667 30 86.334 90 125.001c72 46.667 167 70 285 70c70 0 137.667 -18.667 203 -56c71.333 -40.667 107 -88 107 -142c0 -81.333 -46.333 -171.666 -139 -270.999c26.667 -21.333 48 -35 64 -41c26 -10 66 -15 120 -15h61v-267h-60
c-115.333 0 -231.666 56.667 -348.999 170c-11.333 0 -50.333 -20 -117 -60c-206.667 -123.333 -310 -241 -310 -353c0 -93.333 46.333 -161 139 -203c68 -31.333 155 -47 261 -47c102 0 217.667 19.667 347 59z" />
    <glyph glyph-name="uFECF" unicode="&#x63a;" horiz-adv-x="935" arabic-form="initial" 
d="M589 935h-237v237h237v-237zM931 1h-959.999v267h147c-34.667 56 -52 129 -52 219c0 88.667 34 165 102 229c76 72 177.667 108 305 108c142 0 283.333 -45 424 -135c-22.667 -36 -55.334 -96 -98.001 -180c-36 23.333 -86.667 43 -152 59c-54.667 13.333 -99 20 -133 20
c-48 0 -90 -13.333 -126 -40c-40 -29.333 -60.667 -67 -62 -113c-1.33301 -56 26 -99.333 82 -130c45.333 -24.667 98.333 -37 159 -37h364v-267z" />
    <glyph glyph-name="uFED0" unicode="&#x63a;" horiz-adv-x="838" arabic-form="medial" 
d="M525 862h-236v236h236v-236zM867 1h-82c-64 0 -134.667 23 -212 69c-49.333 29.333 -86.333 56.333 -111 81c-93.333 -100 -199.666 -150 -318.999 -150h-172v267h75c100 0 175 10.667 225 32c-70.667 58 -116.667 98.333 -138 121c-56.667 57.333 -85 107 -85 149
c0 60 54 108.667 162 146c83.333 28.667 161.666 43 234.999 43s136.333 -14 189 -42c66 -35.333 99 -86.333 99 -153c0 -38 -6.33301 -70 -19 -96c-14.667 -30 -50 -81.333 -106 -154c34 -30.667 85 -46 153 -46h106v-267z" />
    <glyph glyph-name="uFED2" unicode="&#x641;" horiz-adv-x="2150" arabic-form="final" 
d="M1835 498c0 28.667 -12.667 51.332 -38 67.999c-21.333 14.667 -47 22 -77 22c-76.667 0 -115 -30 -115 -90c0 -32 14.333 -63 43 -93c22.667 -24 46.667 -40.667 72 -50c22.667 7.33301 46 23.333 70 48c30 30.667 45 62.334 45 95.001zM504 0.998047
c-108.667 0 -193.333 37.332 -254 111.999c-55.333 68.667 -83 158.667 -83 270v129h236v-101c0 -95.333 55.333 -143 166 -143h942c-76 64 -114 143 -114 237c0 96 29.667 170.333 89 223c56.667 50.667 133.334 76 230.001 76c218 0 327 -99.667 327 -299
c0 -52 -15.667 -103.667 -47 -155c-26 -43.333 -50.667 -70.666 -74 -81.999h257v-267h-160c-47.333 0 -106 15.333 -176 46c-60.667 26.667 -101.667 50.667 -123 72c-100.667 -78.667 -206.334 -118 -317.001 -118h-899zM1834 910.997h-237v237h237v-237z" />
    <glyph glyph-name="uFED3" unicode="&#x641;" horiz-adv-x="821" arabic-form="initial" 
d="M580 591c-6.66699 39.333 -22 73 -46 101c-26.667 32 -58.667 48 -96 48c-64.667 0 -97 -25.333 -97 -76c0 -64.667 45 -97 135 -97c54 0 88.667 8 104 24zM-29 0v267.001h463c25.333 0 50.333 5 75 15c50.667 20.667 76.667 57.667 78 111
c-34.667 -16 -84.334 -24 -149.001 -24c-84.667 0 -152.167 25.167 -202.5 75.5s-76.833 117.833 -79.5 202.5c-2 78 18.333 150 61 216c48 73.333 110 110 186 110c137.333 0 244.333 -66 321 -198c64 -110 96 -238.667 96 -386c0 -114.667 -27 -206.334 -81 -275.001
c-59.333 -76 -144.666 -114 -255.999 -114h-512zM521 1041h-236v237h236v-237z" />
    <glyph glyph-name="uFED4" unicode="&#x641;" horiz-adv-x="872" arabic-form="medial" 
d="M556 498c0 28.667 -12.667 51.333 -38 68c-21.333 14.667 -47 22 -77 22c-76.667 0 -115 -30 -115 -90c0 -32 14.667 -63 44 -93c23.333 -24 47 -40.667 71 -50c23.333 7.33301 47 23.333 71 48c29.333 30 44 61.667 44 95zM-29 0.999023l-0.000976562 266.999h262
c-76.667 70.667 -115 149.667 -115 237c0 96 29.667 170.333 89 223c56.667 50.667 133.667 76 231 76c217.333 0 326 -99.667 326 -299c0 -52 -15.333 -103.667 -46 -155c-26 -44 -51 -71.333 -75 -82h258v-267h-161c-46.667 0 -105 15.333 -175 46
c-61.333 26.667 -102.666 50.667 -123.999 72c-31.333 -25.333 -74 -49.666 -128 -72.999c-70 -30 -132.667 -45 -188 -45h-154zM554.999 910.998h-237v237h237v-237z" />
    <glyph glyph-name="uFED6" unicode="&#x642;" horiz-adv-x="1634" arabic-form="final" 
d="M1663 1l-162.001 -0.000976562c-25.333 -182.667 -104.666 -324.334 -237.999 -425.001c-125.333 -96 -282.333 -144 -471 -144c-124.667 0 -234.334 22 -329.001 66c-110 50.667 -188 127.334 -234 230.001c-41.333 92 -62 200.333 -62 325c0 61.333 13.667 138 41 230
l220 -56c-16.667 -63.333 -25 -122.666 -25 -177.999c0 -231.333 127.667 -347 383 -347c270.667 0 424.334 99.667 461.001 299h-118c-107.333 0 -190.833 29.333 -250.5 88s-89.5 141.667 -89.5 249c0 85.333 25.667 158.333 77 219c54 64.667 123 97 207 97
c126 0 230 -58.667 312 -176c41.333 -59.333 74 -129.333 98 -210h180v-267zM1255 243.999c-8 43.333 -26.334 82.667 -55.001 118c-33.333 40 -70.666 60 -111.999 60c-62.667 0 -94 -26.667 -94 -80c0 -65.333 45 -98 135 -98h126zM1297 794h-211v213h211v-213zM1012 794
h-211v213h211v-213z" />
    <glyph glyph-name="uFED7" unicode="&#x642;" horiz-adv-x="822" arabic-form="initial" 
d="M652 1074h-211v213h211v-213zM368 1074h-212v213h212v-213zM580 591c-6.66699 39.333 -22 73 -46 101c-26.667 32 -58.667 48 -96 48c-64.667 0 -97 -25.333 -97 -76c0 -64.667 45 -97 135 -97c54 0 88.667 8 104 24zM-29 0v267.001h463c25.333 0 50.333 5 75 15
c50.667 20.667 76.667 57.667 78 111c-34.667 -16 -84.334 -24 -149.001 -24c-84.667 0 -152.167 25.167 -202.5 75.5s-76.833 117.833 -79.5 202.5c-2 78 18.333 150 61 216c48 73.333 110 110 186 110c137.333 0 244.333 -66 321 -198c64 -110 96 -238.667 96 -386
c0 -114.667 -27 -206.334 -81 -275.001c-59.333 -76 -144.666 -114 -255.999 -114h-512z" />
    <glyph glyph-name="uFED8" unicode="&#x642;" horiz-adv-x="872" arabic-form="medial" 
d="M683 906h-211v213h211v-213zM399 906h-212v213h212v-213zM556 498c0 28.667 -12.667 51.333 -38 68c-21.333 14.667 -47 22 -77 22c-76.667 0 -115 -30 -115 -90c0 -32 14.667 -63 44 -93c23.333 -24 47 -40.667 71 -50c23.333 7.33301 47 23.333 71 48
c29.333 30 44 61.667 44 95zM-29 0.999023l-0.000976562 266.999h262c-76.667 70.667 -115 149.667 -115 237c0 96 29.667 170.333 89 223c56.667 50.667 133.667 76 231 76c217.333 0 326 -99.667 326 -299c0 -52 -15.333 -103.667 -46 -155c-26 -44 -51 -71.333 -75 -82
h258v-267h-161c-46.667 0 -105 15.333 -175 46c-61.333 26.667 -102.666 50.667 -123.999 72c-31.333 -25.333 -74 -49.666 -128 -72.999c-70 -30 -132.667 -45 -188 -45h-154z" />
    <glyph glyph-name="uFEDE" unicode="&#x644;" horiz-adv-x="1522" arabic-form="final" 
d="M1275 5c0 -143.333 -42.999 -265.333 -128.999 -366c-104.667 -122 -256.334 -183 -455.001 -183c-165.333 0 -295 53.667 -389 161c-90 102.667 -135 237.667 -135 405c0 36 6.66699 86 20 150c14.667 71.333 32 126.666 52 165.999l185 -70
c-30.667 -129.333 -46 -206.666 -46 -231.999c0 -208.667 113.667 -313 341 -313c82 0 153 17 213 51c85.333 48 128 122.333 128 223v1237h219v-688c0 -92 12.333 -158.333 37 -199c32 -52.667 91 -79 177 -79h58v-267h-58c-44 0 -85.667 8.66699 -125 26
c-46 20 -77 47.333 -93 82v-104z" />
    <glyph glyph-name="uFEDF" unicode="&#x644;" horiz-adv-x="409" arabic-form="initial" 
d="M406 365c0 -242.667 -112.333 -364 -337 -364h-98v267h62c56.667 0 94.667 13.333 114 40c15.333 21.333 23 60 23 116v809h236v-868z" />
    <glyph glyph-name="uFEE0" unicode="&#x644;" horiz-adv-x="653" arabic-form="medial" 
d="M682 1h-57c-132 0 -221 50.333 -267 151c-42.667 -100.667 -152 -151 -328 -151h-59v267h43c55.333 0 94 8 116 24c26.667 18.667 40 54.667 40 108v833h236v-719c0 -164 78.333 -246 235 -246h41v-267z" />
    <glyph glyph-name="uFEE2" unicode="&#x645;" horiz-adv-x="1366" arabic-form="final" 
d="M980 334c0 38 -18.002 67.332 -54.002 87.999c-30 17.333 -65.333 26 -106 26c-31.333 0 -63.666 -12 -96.999 -36c-42.667 -31.333 -71.667 -74.666 -87 -129.999c80.667 -18.667 145.334 -28 194.001 -28c100 0 150 26.667 150 80zM1098 114.999
c-32.667 -67.333 -121.998 -101 -267.998 -101c-40 0 -99.667 6.16699 -179 18.5s-139 18.5 -179 18.5c-60 0 -90 -24 -90 -72v-790h-215v755c0 230 99.333 345 298 345c15.333 73.333 43.666 140.333 84.999 201c68 99.333 156.667 149 266 149c160 0 270.667 -51 332 -153
c31.333 -52 47 -111 47 -177c39.333 -27.333 93.666 -41 162.999 -41h37v-267h-58c-36.667 0 -80 11.667 -130 35c-52 24 -88.333 50.333 -109 79z" />
    <glyph glyph-name="uFEE3" unicode="&#x645;" horiz-adv-x="897" arabic-form="initial" 
d="M671 279c0 36 -22.167 74 -66.5 114s-84.833 60 -121.5 60c-20 0 -43 -18.333 -69 -55c-11.333 -18 -29 -44.667 -53 -80c94 -72.667 169.333 -109 226 -109c56 0 84 23.333 84 70zM587 -30c-69.333 0 -136 16.332 -200 48.999c-27.333 14 -73 44 -137 90
c-69.333 -72 -143 -108 -221 -108h-58v267h39c50 0 99.333 35.667 148 107l132 197c58 70.667 121.333 106 190 106c86.667 0 176 -39.333 268 -118c99.333 -85.333 149 -177.666 149 -276.999c0 -87.333 -29.833 -161.333 -89.5 -222s-133.167 -91 -220.5 -91z" />
    <glyph glyph-name="uFEE4" unicode="&#x645;" horiz-adv-x="1081" arabic-form="medial" 
d="M667 272c0 29.333 -5.66602 52.667 -16.999 70c-8 12.667 -25.667 30 -53 52c-45.333 36.667 -83.333 55 -114 55c-21.333 0 -45 -18.667 -71 -56l-54 -83c93.333 -71.333 169.666 -107 228.999 -107c53.333 0 80 23 80 69zM834.001 88.001
c-54.667 -81.333 -132.332 -122.001 -232.999 -122.001c-78.667 0 -149.667 18.333 -213 55l-138 80c-62.667 -66.667 -136 -100 -220 -100h-59v267h48c48 0 87.333 22.333 118 67c13.333 26.667 38.333 74 75 142c73.333 134 160.333 201 261 201
c105.333 0 203.666 -44.667 294.999 -134c82.667 -81.333 127.667 -162.666 135 -243.999c38 -21.333 93 -32 165 -32h42v-267h-57c-88 0 -161 29 -219 87z" />
    <glyph glyph-name="uFEE6" unicode="&#x646;" horiz-adv-x="1650" arabic-form="final" 
d="M1679 1l-0.00292969 266.999h-58c-59.333 0 -104.666 10 -135.999 30c-47.333 30 -93 92 -137 186l-93 198l-219 -132c129.333 -224 194 -395.333 194 -514c0 -259.333 -141.333 -389 -424 -389c-110 0 -200.667 23 -272 69c-94 60.667 -141 155.667 -141 285
c0 72.667 17.333 151.334 52 236.001l-206 73c-19.333 -42 -36.666 -99.667 -51.999 -173c-13.333 -62.667 -20 -106.667 -20 -132c0 -165.333 44.667 -305.333 134 -420c112 -144 278 -216 498 -216c306 0 511 120.333 615 361c37.333 86 56 192.333 56 319
c34.667 -32 85.334 -48 152.001 -48h57zM824.997 394.999h-236v236h236v-236z" />
    <glyph glyph-name="uFEE7" unicode="&#x646;" horiz-adv-x="488" arabic-form="initial" 
d="M340 800h-237v237h237v-237zM-29 268v-266.999h231c189.333 0 284 108.667 284 326c0 83.333 -56.333 218.666 -169 405.999l-213 -141l115 -206c10.667 -19.333 16 -37.333 16 -54c0 -42.667 -28.333 -64 -85 -64h-179z" />
    <glyph glyph-name="uFEE8" unicode="&#x646;" horiz-adv-x="622" arabic-form="medial" 
d="M398 800h-237v237h237v-237zM650 1h-55c-50.667 0 -99.167 14.5 -145.5 43.5s-80.5 66.5 -102.5 112.5c-48.667 -104 -132 -156 -250 -156h-126v267h46c95.333 0 143 53.667 143 161v263h236v-135c0 -192.667 69.333 -289 208 -289h46v-267z" />
    <glyph glyph-name="uFEEA" unicode="&#x647;" horiz-adv-x="1258" arabic-form="final" 
d="M1287 1h-58.999c-144 0 -267.333 57.667 -370 173c-71.333 -23.333 -164 -35 -278 -35c-160.667 0 -276 44 -346 132c-44.667 56.667 -67 122.667 -67 198c0 108.667 89 209.667 267 303l122 62l-52 128l202 122l219 -576c31.333 -82 65.333 -139.667 102 -173
c49.333 -44.667 118.666 -67 207.999 -67h52v-267zM733.001 382c-37.333 95.333 -71.998 177.667 -103.998 247c-120.667 -60 -198.334 -108.667 -233.001 -146c-2 -5.33301 -3 -20.333 -3 -45c11.333 -42 77.333 -63 198 -63c37.333 0 84.666 2.33301 141.999 7z" />
    <glyph glyph-name="uFEEB" unicode="&#x647;" horiz-adv-x="1103" arabic-form="initial" 
d="M1101 222c0 -92 -25.999 -166.669 -77.999 -224.002c-53.333 -59.333 -125.666 -89 -216.999 -89c-68 0 -142 21.333 -222 64c-16.667 8.66699 -59.334 36.334 -128.001 83.001c-64.667 -37.333 -140 -56 -226 -56h-259v268h52c100 0 166.333 5.66699 199 17
c-34 28 -62.167 65.667 -84.5 113s-33.5 93 -33.5 137c0 103.333 71.667 198.333 215 285c-18.667 16.667 -46.334 37.334 -83.001 62.001l146 174c46 -32.667 90.333 -66 133 -100c105.333 -83.333 210.333 -175 315 -275c87.333 -84 148.333 -150.667 183 -200
c58.667 -84.667 88 -171 88 -259zM897.001 235.998c0 34.667 -24.667 76.334 -74 125.001l-80 67c-6 -94.667 -46.333 -163.334 -121 -206.001c92.667 -48 153 -72 181 -72c23.333 0 44.833 8.5 64.5 25.5s29.5 37.167 29.5 60.5zM580.001 520.998
c0 32 -12.499 59.667 -37.499 83s-53.833 35 -86.5 35c-31.333 0 -59.666 -9.33301 -84.999 -28c-27.333 -20.667 -41 -46 -41 -76c0 -36 11 -73.667 33 -113c23.333 -42.667 50.666 -69.667 81.999 -81c37.333 4 69.666 26 96.999 66c25.333 36.667 38 74.667 38 114z" />
    <glyph glyph-name="uFEEC" unicode="&#x647;" horiz-adv-x="841" arabic-form="medial" 
d="M870 1h-57.999c-54 0 -103.667 -7.66699 -149 -23c-64 -22 -96 -54.667 -96 -98c0 -36 31.667 -70 95 -102c19.333 -9.33301 66.333 -27.666 141 -54.999l-77 -236c-289.333 78.667 -473.333 263.667 -552 555c-28 -27.333 -75.667 -41 -143 -41h-60v267h41
c96 0 144 42 144 126v315h237v-454c0 -84.667 10.667 -152.334 32 -203.001c31.333 66 78.666 118.5 141.999 157.5s132 58.5 206 58.5h97v-267z" />
    <glyph glyph-name="uFEEE" unicode="&#x648;" horiz-adv-x="1084" arabic-form="final" 
d="M170 376c0 84 27.834 157.167 83.501 219.5s125.167 93.5 208.5 93.5s163 -29 239 -87c98.667 -75.333 162.667 -186.666 192 -333.999h220v-267h-220c-28 -118 -102.667 -234.667 -224 -350c-134.667 -128 -305.667 -231.333 -513 -310l-108 219
c117.333 52 187 83.667 209 95c78.667 39.333 143 80.666 193 123.999c77.333 66.667 135.666 146.334 174.999 239.001c-20 -2 -40.333 -3 -61 -3c-107.333 0 -197 28 -269 84c-83.333 65.333 -125 157.666 -125 276.999zM636.001 279c-2 54 -24.001 98 -66.001 132
c-34 28 -66.333 42 -97 42c-19.333 0 -38.666 -9.16699 -57.999 -27.5s-29 -36.833 -29 -55.5c0 -57.333 30 -90 90 -98c58.667 -8 112 -5.66699 160 7z" />
    <glyph glyph-name="uFEF0" unicode="&#x649;" horiz-adv-x="1553" arabic-form="final" 
d="M1582 1l-67 0.000976562c0 -66.667 -11 -123.334 -33 -170.001c-58 -122 -169.333 -217.667 -334 -287c-140 -58.667 -286.667 -88 -440 -88c-360.667 0 -541 192 -541 576c0 87.333 21 189.333 63 306l208 -66c-23.333 -78 -35 -152.333 -35 -223
c0 -222 113.333 -333 340 -333c246.667 0 416 54 508 162c8 9.33301 12 19.333 12 30c0 14 -8.66699 24 -26 30c-56.667 20.667 -199 57.667 -427 111l62 219h710v-267z" />
    <glyph glyph-name=".notdef" horiz-adv-x="1024" 
d="M128 0v1278h768v-1278h-768zM256 128h512v1022h-512v-1022z" />
    <glyph glyph-name="space" unicode=" " horiz-adv-x="434" 
 />
    <glyph glyph-name="exclam" unicode="!" horiz-adv-x="426" 
d="M422 1202l-67 -901h-128l-60 901h255zM408 -29h-225v225h225v-225z" />
    <glyph glyph-name="percent" unicode="%" horiz-adv-x="1018" 
d="M296 1123h-211v216h211v-216zM838 1394l-532 -1525h-131l525 1525h138zM931 -93h-215v216h215v-216z" />
    <glyph glyph-name="parenleft" unicode="(" horiz-adv-x="681" 
d="M354 612c0 255.333 109 516 327 782l-121 124c-262 -261.333 -393 -567 -393 -917c0 -338 132 -639 396 -903l118 118c-218 220.667 -327 486 -327 796z" />
    <glyph glyph-name="parenright" unicode=")" horiz-adv-x="681" 
d="M493 612c0 255.333 -109 516 -327 782l122 124c261.333 -261.333 392 -567 392 -917c0 -338 -131.667 -639 -395 -903l-119 118c218 220.667 327 486 327 796z" />
    <glyph glyph-name="asterisk" unicode="*" horiz-adv-x="1237" 
d="M938 484l299 170l-118 202l-292 -163v333h-247v-333l-295 163l-118 -202l302 -167l-302 -173l118 -202l295 164v-334h247v334l292 -164l118 202z" />
    <glyph glyph-name="plus" unicode="+" horiz-adv-x="1086" 
d="M1010 400h-382v-400h-132v400h-399v139h399v395h132v-395h382v-139z" />
    <glyph glyph-name="comma" unicode="," horiz-adv-x="444" 
d="M156 -258c71.333 14 118.333 49.667 141 107c12 30.667 18 79.667 18 147h-148v254h263v-219c0 -207.333 -91.333 -318.333 -274 -333v44z" />
    <glyph glyph-name="hyphen" unicode="-" horiz-adv-x="1086" 
d="M1010 400h-913v139h913v-139z" />
    <glyph glyph-name="period" unicode="." horiz-adv-x="432" 
d="M430 0h-263v261h263v-261z" />
    <glyph glyph-name="slash" unicode="/" horiz-adv-x="803" 
d="M739 1391l-531 -1536h-128l521 1536h138z" />
    <glyph glyph-name="zero" unicode="0" horiz-adv-x="632" 
d="M504 275h-379v378h379v-378z" />
    <glyph glyph-name="zero" unicode="&#x6f0;" horiz-adv-x="632" 
d="M504 275h-379v378h379v-378z" />
    <glyph glyph-name="zero" unicode="&#x660;" horiz-adv-x="632" 
d="M504 275h-379v378h379v-378z" />
    <glyph glyph-name="one" unicode="1" horiz-adv-x="702" 
d="M608 -112l-257 0.000976562c0 105.333 -5.66699 221 -17 347c-22.667 252.667 -71.667 468.334 -147 647.001c-41.333 99.333 -81.666 169.666 -120.999 210.999c-6 4.66699 53 91.667 177 261c56.667 -52.667 109 -132.334 157 -239.001
c112.667 -251.333 179.667 -569 201 -953c3.33301 -60 5.66602 -151.333 6.99902 -274z" />
    <glyph glyph-name="one" unicode="&#x6f1;" horiz-adv-x="702" 
d="M608 -112l-257 0.000976562c0 105.333 -5.66699 221 -17 347c-22.667 252.667 -71.667 468.334 -147 647.001c-41.333 99.333 -81.666 169.666 -120.999 210.999c-6 4.66699 53 91.667 177 261c56.667 -52.667 109 -132.334 157 -239.001
c112.667 -251.333 179.667 -569 201 -953c3.33301 -60 5.66602 -151.333 6.99902 -274z" />
    <glyph glyph-name="one" unicode="&#x661;" horiz-adv-x="702" 
d="M608 -112l-257 0.000976562c0 105.333 -5.66699 221 -17 347c-22.667 252.667 -71.667 468.334 -147 647.001c-41.333 99.333 -81.666 169.666 -120.999 210.999c-6 4.66699 53 91.667 177 261c56.667 -52.667 109 -132.334 157 -239.001
c112.667 -251.333 179.667 -569 201 -953c3.33301 -60 5.66602 -151.333 6.99902 -274z" />
    <glyph glyph-name="two" unicode="2" horiz-adv-x="1094" 
d="M955 1358c45.333 -113.333 67.999 -226.002 67.999 -338.002c0 -120.667 -34 -217.667 -102 -291c-28 -22.667 -48.667 -38 -62 -46c-26 -15.333 -51.667 -25.666 -77 -30.999c-64.667 -12.667 -138.667 -9 -222 11c18.667 -72 34.667 -159 48 -261
c11.333 -88.667 18 -226.667 20 -414l1 -100h-257c-1.33301 54 -6 157 -14 309c-15.333 249.333 -65.333 473 -150 671c-15.333 36.667 -55.666 116.667 -120.999 240l180 253c19.333 -30 44.333 -78.833 75 -146.5s57 -117.167 79 -148.5c10.667 -22.667 29 -44.667 55 -66
c42 -35.333 108 -55 198 -59c74 -3.33301 111 24.334 111 83.001c0 25.333 -15 85.333 -45 180z" />
    <glyph glyph-name="two" unicode="&#x6f2;" horiz-adv-x="1094" 
d="M955 1358c45.333 -113.333 67.999 -226.002 67.999 -338.002c0 -120.667 -34 -217.667 -102 -291c-28 -22.667 -48.667 -38 -62 -46c-26 -15.333 -51.667 -25.666 -77 -30.999c-64.667 -12.667 -138.667 -9 -222 11c18.667 -72 34.667 -159 48 -261
c11.333 -88.667 18 -226.667 20 -414l1 -100h-257c-1.33301 54 -6 157 -14 309c-15.333 249.333 -65.333 473 -150 671c-15.333 36.667 -55.666 116.667 -120.999 240l180 253c19.333 -30 44.333 -78.833 75 -146.5s57 -117.167 79 -148.5c10.667 -22.667 29 -44.667 55 -66
c42 -35.333 108 -55 198 -59c74 -3.33301 111 24.334 111 83.001c0 25.333 -15 85.333 -45 180z" />
    <glyph glyph-name="two" unicode="&#x662;" horiz-adv-x="1094" 
d="M955 1358c45.333 -113.333 67.999 -226.002 67.999 -338.002c0 -120.667 -34 -217.667 -102 -291c-28 -22.667 -48.667 -38 -62 -46c-26 -15.333 -51.667 -25.666 -77 -30.999c-64.667 -12.667 -138.667 -9 -222 11c18.667 -72 34.667 -159 48 -261
c11.333 -88.667 18 -226.667 20 -414l1 -100h-257c-1.33301 54 -6 157 -14 309c-15.333 249.333 -65.333 473 -150 671c-15.333 36.667 -55.666 116.667 -120.999 240l180 253c19.333 -30 44.333 -78.833 75 -146.5s57 -117.167 79 -148.5c10.667 -22.667 29 -44.667 55 -66
c42 -35.333 108 -55 198 -59c74 -3.33301 111 24.334 111 83.001c0 25.333 -15 85.333 -45 180z" />
    <glyph glyph-name="three" unicode="3" horiz-adv-x="1268" 
d="M1150 1378c25.333 -76.667 38.0029 -153.998 38.0029 -231.998c0 -234 -92.667 -351 -278 -351c-46 0 -94.667 25.667 -146 77c-18.667 -34.667 -33 -57.334 -43 -68.001c-26.667 -28.667 -60.667 -45.667 -102 -51c-15.333 -2 -41 -3 -77 -3
c19.333 -60 35.666 -131.667 48.999 -215c17.333 -108 28.666 -252 33.999 -432c2.66699 -88.667 4 -160.334 4 -215.001h-257c0 72 -4.66699 176.333 -14 313c-16.667 245.333 -73.667 478 -171 698c-22 50.667 -56.667 120.334 -104 209.001
c17.333 25.333 78.666 108.666 183.999 249.999c32 -33.333 61.333 -76.666 88 -129.999c33.333 -66 54 -105 62 -117c29.333 -42 70 -63 122 -63c37.333 0 62.666 15 75.999 45c9.33301 21.333 14 58.333 14 111v126h170c0 -102 1.33301 -162.333 4 -181
c11.333 -78.667 48.333 -118 111 -118c68.667 0 105.667 33.667 111 101c2.66699 35.333 -7.66602 82.666 -30.999 141.999z" />
    <glyph glyph-name="three" unicode="&#x6f3;" horiz-adv-x="1268" 
d="M1150 1378c25.333 -76.667 38.0029 -153.998 38.0029 -231.998c0 -234 -92.667 -351 -278 -351c-46 0 -94.667 25.667 -146 77c-18.667 -34.667 -33 -57.334 -43 -68.001c-26.667 -28.667 -60.667 -45.667 -102 -51c-15.333 -2 -41 -3 -77 -3
c19.333 -60 35.666 -131.667 48.999 -215c17.333 -108 28.666 -252 33.999 -432c2.66699 -88.667 4 -160.334 4 -215.001h-257c0 72 -4.66699 176.333 -14 313c-16.667 245.333 -73.667 478 -171 698c-22 50.667 -56.667 120.334 -104 209.001
c17.333 25.333 78.666 108.666 183.999 249.999c32 -33.333 61.333 -76.666 88 -129.999c33.333 -66 54 -105 62 -117c29.333 -42 70 -63 122 -63c37.333 0 62.666 15 75.999 45c9.33301 21.333 14 58.333 14 111v126h170c0 -102 1.33301 -162.333 4 -181
c11.333 -78.667 48.333 -118 111 -118c68.667 0 105.667 33.667 111 101c2.66699 35.333 -7.66602 82.666 -30.999 141.999z" />
    </font>
</defs>
</svg>
