<?xml version="1.0" standalone="no"?>
<!DOCTYPE svg PUBLIC "-//W3C//DTD SVG 1.1//EN" "http://www.w3.org/Graphics/SVG/1.1/DTD/svg11.dtd" >
<svg>
<metadata>
Created by FontForge 20090914 at Wed Oct 19 00:52:50 2011
 By www-data
(c) by Abolfazl Seilsepour - +98 912 591 3420  -  seilsepor@yahoo.com
</metadata>
<defs>
<font id="FarBadr" horiz-adv-x="0" >
  <font-face 
    font-family="Far.Badr"
    font-weight="400"
    font-stretch="normal"
    units-per-em="2010"
    panose-1="0 0 4 0 0 0 0 0 0 0"
    ascent="1608"
    descent="-402"
    bbox="-177 -1266 2042 2024"
    underline-thickness="60"
    underline-position="-880"
    unicode-range="U+0020-U+FEFC"
  />
<missing-glyph horiz-adv-x="1005" 
d="M126 0v1181h753v-1181h-753zM251 126h503v929h-503v-929z" />
    <glyph glyph-name="uE818" unicode="&#x651;&#x64b;" 
d="M392 1485c0 -110 -34 -165 -102 -165c-22.667 0 -43.667 7 -63 21c-5.33301 -22.667 -18 -42.5 -38 -59.5s-41.333 -25.5 -64 -25.5c-53.333 0 -80 35.333 -80 106c0 14.667 7 47.667 21 99l23 4c0 -72.667 12.667 -109 38 -109c42 0 71.667 53 89 159l17 6
c15.333 -64 34.333 -96 57 -96c38 0 60 48 66 144l22 10c9.33301 -36 14 -67.333 14 -94zM400 1955c0 -44 -11.332 -72.333 -33.999 -85l-297 -169c3.33301 43.333 24.666 76.333 63.999 99zM400.001 1810c0 -43.333 -11.332 -71.333 -33.999 -84l-297 -169
c3.33301 43.333 24.666 76.333 63.999 99z" />
    <glyph glyph-name="uFC5E" unicode="&#x651;&#x64c;" arabic-form="isolated" 
d="M439 1519c0 -110 -34 -165 -102 -165c-22.667 0 -43.667 7 -63 21c-5.33301 -22.667 -18 -42.5 -38 -59.5s-41.333 -25.5 -64 -25.5c-53.333 0 -80 35.333 -80 106c0 14.667 7 47.667 21 99l23 4c0 -72.667 12.667 -109 38 -109c42 0 71.667 53 89 159l17 6
c15.333 -64 34.333 -96 57 -96c38 0 60 48 66 144l22 10c9.33301 -36 14 -67.333 14 -94zM483 1765c0 -23.333 -0.667969 -42.667 -2.00098 -58c-26 13.333 -56 32.666 -90 57.999c-81.333 -84.667 -159.666 -132.334 -234.999 -143.001c28 60 42 102.333 42 127
c0 36 -16 54 -48 54c-28 0 -44 -25 -48 -75c-6.66699 20.667 -10 37.667 -10 51c0 27.333 6.66699 51.333 20 72c15.333 24 36 36 62 36c48.667 0 70.667 -32.667 66 -98l-6 -90c42.667 16 83.334 45.333 122.001 88c-43.333 28.667 -65 59.334 -65 92.001
s11.667 64.334 35 95.001c25.333 33.333 53.666 50 84.999 50c16 0 31.167 -9 45.5 -27s21.5 -35.333 21.5 -52c0 -19.333 -3.66699 -38.333 -11 -57l-22 -55c25.333 -19.333 38 -42 38 -68zM408.999 1906c0 34.667 -13.333 52 -40 52c-17.333 0 -26 -7.66699 -26 -23
c0 -16 20.667 -38.333 62 -67c2.66699 7.33301 4 20 4 38z" />
    <glyph glyph-name="uFC5F" unicode="&#x651;&#x64d;" arabic-form="isolated" 
d="M410 1786c0 -110 -34 -165 -102 -165c-22.667 0 -43.667 7 -63 21c-5.33301 -22.667 -18 -42.5 -38 -59.5s-41.333 -25.5 -64 -25.5c-53.333 0 -80 35.333 -80 106c0 14.667 7 47.667 21 99l23 4c0 -72.667 12.667 -109 38 -109c42 0 71.667 53 89 159l17 6
c15.333 -64 34.333 -96 57 -96c38 0 60 48 66 144l22 10c9.33301 -36 14 -67.333 14 -94zM422 1581c0 -44 -11.332 -72.333 -33.999 -85l-297 -169c3.33301 43.333 24.666 76.333 63.999 99zM422.001 1436c0 -43.333 -11.332 -71.333 -33.999 -84l-297 -169
c3.33301 43.333 24.666 76.333 63.999 99z" />
    <glyph glyph-name="uFC60" unicode="&#x651;&#x64e;" arabic-form="isolated" 
d="M440 1492c0 -110 -34 -165 -102 -165c-22.667 0 -43.667 7 -63 21c-5.33301 -22.667 -18 -42.5 -38 -59.5s-41.333 -25.5 -64 -25.5c-53.333 0 -80 35.333 -80 106c0 14.667 7 47.667 21 99l23 4c0 -72.667 12.667 -109 38 -109c42 0 71.667 53 89 159l17 6
c15.333 -64 34.333 -96 57 -96c38 0 60 48 66 144l22 10c9.33301 -36 14 -67.333 14 -94zM432 1834c0 -43.333 -11.332 -71.333 -33.999 -84l-297 -169c3.33301 43.333 24.666 76.333 63.999 99z" />
    <glyph glyph-name="uFC61" unicode="&#x651;&#x64f;" arabic-form="isolated" 
d="M425 1483c0 -110 -34 -165 -102 -165c-22.667 0 -43.667 7 -63 21c-5.33301 -22.667 -18 -42.5 -38 -59.5s-41.333 -25.5 -64 -25.5c-53.333 0 -80 35.333 -80 106c0 14.667 7 47.667 21 99l23 4c0 -72.667 12.667 -109 38 -109c42 0 71.667 53 89 159l17 6
c15.333 -64 34.333 -96 57 -96c38 0 60 48 66 144l22 10c9.33301 -36 14 -67.333 14 -94zM369 1762l-8 -97.999l-78 51c-78.667 -94 -143 -141 -193 -141c-12.667 0 -32 4 -58 12c66.667 37.333 136.334 88.333 209.001 153c-40 29.333 -60 58.666 -60 87.999
c0 39.333 14.667 80.333 44 123c19.333 28 42.666 42 69.999 42c44 0 66 -28.667 66 -86c0 -31.333 -10 -69.666 -30 -114.999c9.33301 -6.66699 22 -16.334 38 -29.001zM301 1848c0 14.667 -5.16699 28.333 -15.5 41s-22.5 19 -36.5 19c-12 0 -18 -6.66699 -18 -20
c0 -20 21.333 -44.333 64 -73c4 12.667 6 23.667 6 33z" />
    <glyph glyph-name="uFC62" unicode="&#x651;&#x650;" arabic-form="isolated" 
d="M402 1639c0 -110 -34 -164.999 -102 -164.999c-22.667 0 -43.667 7 -63 21c-5.33301 -22.667 -18 -42.334 -38 -59.001c-36 -30.667 -57.333 -46 -64 -46c-53.333 0 -80 42 -80 126c0 14.667 7 47.667 21 99l23 4c0 -72.667 12.667 -109 38 -109c42 0 71.667 53 89 159
l17 6c15.333 -64 34.333 -96 57 -96c38 0 60 48 66 144l22 10c9.33301 -36 14 -67.333 14 -94zM410 1429c0 -44 -11.332 -72.333 -33.999 -85l-297 -169c3.33301 43.333 24.666 76.333 63.999 99z" />
    <glyph glyph-name="uFDF2" unicode="&#xfedf;&#xfee0;&#xfeea;" horiz-adv-x="1115" arabic-form="isolated" 
d="M844 1309c0 -33.333 -12.998 -77.001 -38.998 -131.001c-4.66699 -9.33301 -9.33398 -14 -14.001 -14c-6.66699 0 -8.33398 6.33301 -5.00098 19c4 15.333 6 32.666 6 51.999c0 54.667 -13.667 103.334 -41 146.001l41 76c34.667 -29.333 52 -78.666 52 -147.999z
M978.002 1047c0 -105.333 -35.668 -158.003 -107.001 -158.003c-35.333 0 -58.666 8 -69.999 24c-34 -37.333 -73.667 -56 -119 -56c-49.333 0 -73 23 -71 69c1.33301 36 15.333 78.333 42 127c6 10.667 12.667 16 20 16c7.33301 -1.33301 10 -8.66602 8 -21.999
c-1.33301 -7.33301 -4.33301 -18.333 -9 -33s-7 -27 -7 -37c0 -25.333 13 -38 39 -38c39.333 0 65.666 15.333 78.999 46c1.33301 2.66699 7.33301 26.667 18 72c6 24 15.667 36 29 36c5.33301 0 8 -8 8 -24c0 -7.33301 -0.333008 -18.666 -1 -33.999l-1 -23
c-1.33301 -30 14.667 -45 48 -45c18.667 0 33.334 8 44.001 24c13.333 20.667 11.333 53.334 -6 98.001l38 43c12 -20.667 18 -49 18 -85zM1184 207.996c0 -38 -10.3311 -79.335 -30.998 -124.002c-25.333 -55.333 -57 -83 -95 -83c-48 0 -91.333 16.667 -130 50
c-27.333 23.333 -46.666 48 -57.999 74c-42.667 -105.333 -107.667 -158 -195 -158c-96 0 -149.667 71 -161 213c-0.666992 12 -5.33398 12.667 -14.001 2c-28.667 -36 -62.334 -58.667 -101.001 -68c-18 -4 -52.333 -3.33301 -103 2c-48 5.33301 -82.667 11.333 -104 18
c-9.33301 4 -10 14.667 -2 32c39.333 84.667 146.666 184 321.999 298c8.66699 48 17.667 83.667 27 107l29 40c2.66699 -83.333 8.66699 -191.333 18 -324c4 -56 11.667 -96.333 23 -121c16 -34.667 44.333 -52 85 -52c35.333 0 67.333 12.5 96 37.5
s44.334 54.833 47.001 89.5c1.33301 17.333 -6.66699 77.333 -24 180l-27 160c0 50.667 16 96 48 136c6.66699 -22 23.667 -106 51 -252l29 -155c16.667 -61.333 44 -103.666 82 -126.999c26.667 -16.667 53 -25 79 -25c21.333 0 32 9 32 27s-15.333 81.333 -46 190
c-36.667 130 -58.334 210.667 -65.001 242c15.333 38.667 33.333 79.334 54 122.001c12.667 -36 31 -97 55 -183c52.667 -188.667 79 -304.667 79 -348zM513.003 381.994c-91.333 -52.667 -152.333 -94 -183 -124c20 -10 51.333 -13.667 94 -11c48.667 2.66699 78 10 88 22z
" />
    <glyph glyph-name="uFEF5" unicode="&#xfedf;&#xfe82;" horiz-adv-x="1240" arabic-form="isolated" 
d="M1228 1028c0 -17.333 -7.83398 -44 -23.501 -80s-26.5 -52.667 -32.5 -50c-15.333 6 -23.333 5.33301 -24 -2c-13.333 -130 -25.666 -224.333 -36.999 -283c-14 -71.333 -38.333 -154.333 -73 -249c4 -5.33301 13.667 -25.666 29 -60.999c21.333 -48.667 32 -105 32 -169
c0 -54.667 -7.33301 -90 -22 -106c-8 -8.66699 -32.667 -15.334 -74 -20.001c-69.333 -8 -134.333 -12 -195 -12c-36 0 -57.667 1 -65 3c-20.667 5.33301 -32.667 19.666 -36 42.999c-4 27.333 -4 61.333 0 102c1.33301 13.333 5 20 11 20c2.66699 0 9 -4.16699 19 -12.5
s20.333 -12.5 31 -12.5c42.667 0 88 36 136 108c36 54 54 85.667 54 95c0 2 -0.333008 3.33301 -1 4c-122.667 188 -261.334 339 -416.001 453c-5.33301 4 -10.666 6 -15.999 6c-4 0 -12.667 -3.5 -26 -10.5s-23.333 -10.5 -30 -10.5s-14.334 2.33301 -23.001 7
c-111.333 62 -167 110.667 -167 146c0 16.667 4 40.334 12 71.001c11.333 43.333 24.333 65 39 65c43.333 0 115.333 -43 216 -129c74 -63.333 136.333 -124 187 -182c14.667 -16.667 104.334 -126.667 269.001 -330c19.333 38 35.666 108.333 48.999 211
c12.667 96 19 184 19 264c0 58 -4.33301 91 -13 99c-6 6 -8.66699 14.667 -8 26c1.33301 22 21.333 73.333 60 154c12.667 26.667 25 37.334 37 32.001c4 -2 3.33301 -29.667 -2 -83c-1.33301 -13.333 12.334 -32.833 41.001 -58.5s43 -41.834 43 -48.501zM1045 168
c-4 39.333 -21.333 74.667 -52 106c-38 -64.667 -67.333 -104.667 -88 -120c35.333 0 82 4.66699 140 14zM630.999 1339c-26.667 -81.333 -65.332 -121.998 -115.999 -121.998c-33.333 0 -82.833 6.66699 -148.5 20s-115.167 20 -148.5 20c-16 0 -36 -9.66699 -60 -29
l-36 -28c-4 0 -4.33301 8.66699 -1 26c5.33301 25.333 17.666 49.666 36.999 72.999c27.333 32.667 62.333 49 105 49c25.333 0 64 -6.83301 116 -20.5s91.667 -20.5 119 -20.5c53.333 0 94.333 17.333 123 52v0c2.66699 3.33301 5.66699 5.66602 9 6.99902
s5.33301 0.333008 6 -3c0.666992 -4 -1 -12 -5 -24z" />
    <glyph glyph-name="uFEF6" unicode="&#xfee0;&#xfe82;" horiz-adv-x="1330" arabic-form="final" 
d="M1360 1l-63.0029 -0.00195312c-111.333 0 -181.333 95.333 -210 286l-47 319l-38 -172c-26.667 -114 -62.667 -213.667 -108 -299c-73.333 -138 -229.666 -219.667 -468.999 -245c-12.667 -1.33301 -22 -2 -28 -2c-26.667 0 -40 5 -40 15c0 12.667 18.667 25 56 37
c142.667 46 267.334 124.667 374.001 236c48 50 72 89 72 117c0 94 -40.333 193 -121 297c-18.667 24 -59 64 -121 120c-68 61.333 -110 92 -126 92c-9.33301 0 -24.166 -4.66699 -44.499 -14s-34.833 -14 -43.5 -14c-18.667 0 -51.167 21.167 -97.5 63.5
s-69.5 72.833 -69.5 91.5c0 12.667 4.66699 36 14 70c11.333 40.667 22.333 61 33 61c26.667 0 66.667 -14.667 120 -44c88.667 -48.667 187.667 -128.667 297 -240c131.333 -133.333 199.333 -276.333 204 -429c26.667 42.667 47.667 112.334 63 209.001
c12.667 80 19 153.333 19 220c0 62.667 -6.33301 138.667 -19 228c-4 27.333 14 82.333 54 165c10 20.667 17 31 21 31c4.66699 0 9 -16.667 13 -50c18 -151.333 40.333 -317.666 67 -498.999c16 -108 37 -228.667 63 -362c16.667 -86.667 61 -130 133 -130h42v-158z
M630.997 1339c-26.667 -81.333 -65.332 -121.998 -115.999 -121.998c-33.333 0 -82.833 6.66699 -148.5 20s-115.167 20 -148.5 20c-16 0 -36 -9.66699 -60 -29l-36 -28c-4 0 -4.33301 8.66699 -1 26c5.33301 25.333 17.666 49.666 36.999 72.999
c27.333 32.667 62.333 49 105 49c25.333 0 64 -6.83301 116 -20.5s91.667 -20.5 119 -20.5c53.333 0 94.333 17.333 123 52v0c2.66699 3.33301 5.66699 5.66602 9 6.99902s5.33301 0.333008 6 -3c0.666992 -4 -1 -12 -5 -24z" />
    <glyph glyph-name="uFEF7" unicode="&#xfedf;&#xfe84;" horiz-adv-x="1060" arabic-form="isolated" 
d="M1058 1028c0 -17.333 -7.83398 -44 -23.501 -80s-26.5 -52.667 -32.5 -50c-15.333 6 -23.333 5.33301 -24 -2c-13.333 -130 -25.666 -224.333 -36.999 -283c-14 -71.333 -38.333 -154.333 -73 -249c4 -5.33301 13.667 -25.666 29 -60.999c21.333 -48.667 32 -105 32 -169
c0 -54.667 -7.33301 -90 -22 -106c-8 -8.66699 -32.667 -15.334 -74 -20.001c-69.333 -8 -134.333 -12 -195 -12c-36 0 -57.667 1 -65 3c-20.667 5.33301 -32.667 19.666 -36 42.999c-4 27.333 -4 61.333 0 102c1.33301 13.333 5 20 11 20c2.66699 0 9 -4.16699 19 -12.5
s20.333 -12.5 31 -12.5c42.667 0 88 36 136 108c36 54 54 85.667 54 95c0 2 -0.333008 3.33301 -1 4c-122.667 188 -261.334 339 -416.001 453c-5.33301 4 -10.666 6 -15.999 6c-4 0 -12.667 -3.5 -26 -10.5s-23.333 -10.5 -30 -10.5s-14.334 2.33301 -23.001 7
c-111.333 62 -167 110.667 -167 146c0 16.667 4 40.334 12 71.001c11.333 43.333 24.333 65 39 65c43.333 0 115.333 -43 216 -129c74 -63.333 136.333 -124 187 -182c14.667 -16.667 104.334 -126.667 269.001 -330c19.333 38 35.666 108.333 48.999 211
c12.667 96 19 184 19 264c0 58 -4.33301 91 -13 99c-6 6 -8.66699 14.667 -8 26c1.33301 22 21.333 73.333 60 154c12.667 26.667 25 37.334 37 32.001c4 -2 3.33301 -29.667 -2 -83c-1.33301 -13.333 12.334 -32.833 41.001 -58.5s43 -41.834 43 -48.501zM874.999 168
c-4 39.333 -21.333 74.667 -52 106c-38 -64.667 -67.333 -104.667 -88 -120c36 0 82.667 4.66699 140 14zM408.999 1357c4.66699 1.33301 6.99805 -1.66602 6.99805 -8.99902c0 -6.66699 -2.33301 -17.667 -7 -33c-4.66699 -17.333 -9 -26.333 -13 -27
c-37.333 -8.66699 -87 -22.334 -149 -41.001c-32.667 -10 -70.334 -29 -113.001 -57c-12 -8 -22.333 -12 -31 -12c-9.33301 0 -14 3.66699 -14 11c0 10 15.333 28.333 46 55c22.667 20 35.334 32.333 38.001 37c-46 26 -69 50.333 -69 73c0 30.667 21 66 63 106
c46.667 44 95.334 66 146.001 66c26 0 39 -16.667 39 -50c0 -32 -13.333 -48 -40 -48c-1.33301 0 -9.66602 3.83301 -24.999 11.5s-29 11.5 -41 11.5c-11.333 0 -24.333 -4.33301 -39 -13c-16.667 -9.33301 -25 -19.333 -25 -30c0 -46 34.667 -69 104 -69
c35.333 0 76.333 6 123 18z" />
    <glyph glyph-name="uFEF8" unicode="&#xfee0;&#xfe84;" horiz-adv-x="1190" arabic-form="final" 
d="M1220 1l-63.0029 -0.00195312c-111.333 0 -181.333 95.333 -210 286l-47 319l-38 -172c-26.667 -114 -62.667 -213.667 -108 -299c-73.333 -138 -229.666 -219.667 -468.999 -245c-12.667 -1.33301 -22 -2 -28 -2c-26.667 0 -40 5 -40 15c0 12.667 18.667 25 56 37
c142.667 46 267.334 124.667 374.001 236c48 50 72 89 72 117c0 94 -40.333 193 -121 297c-18.667 24 -59 64 -121 120c-68 61.333 -110 92 -126 92c-9.33301 0 -24.166 -4.66699 -44.499 -14s-34.833 -14 -43.5 -14c-18.667 0 -51.167 21.167 -97.5 63.5
s-69.5 72.833 -69.5 91.5c0 12.667 4.66699 36 14 70c11.333 40.667 22.333 61 33 61c26.667 0 66.667 -14.667 120 -44c88.667 -48.667 187.667 -128.667 297 -240c131.333 -133.333 199.333 -276.333 204 -429c26.667 42.667 47.667 112.334 63 209.001
c12.667 80 19 153.333 19 220c0 62.667 -6.33301 138.667 -19 228c-4 27.333 14 82.333 54 165c10 20.667 17 31 21 31c4.66699 0 9 -16.667 13 -50c18 -151.333 40.333 -317.666 67 -498.999c16 -108 37 -228.667 63 -362c16.667 -86.667 61 -130 133 -130h42v-158z
M408.997 1357c4.66699 1.33301 6.99805 -1.66602 6.99805 -8.99902c0 -6.66699 -2.33301 -17.667 -7 -33c-4.66699 -17.333 -9 -26.333 -13 -27c-37.333 -8.66699 -87 -22.334 -149 -41.001c-32.667 -10 -70.334 -29 -113.001 -57c-12 -8 -22.333 -12 -31 -12
c-9.33301 0 -14 3.66699 -14 11c0 10 15.333 28.333 46 55c22.667 20 35.334 32.333 38.001 37c-46 26 -69 50.333 -69 73c0 30.667 21 66 63 106c46.667 44 95.334 66 146.001 66c26 0 39 -16.667 39 -50c0 -32 -13.333 -48 -40 -48
c-1.33301 0 -9.66602 3.83301 -24.999 11.5s-29 11.5 -41 11.5c-11.333 0 -24.333 -4.33301 -39 -13c-16.667 -9.33301 -25 -19.333 -25 -30c0 -46 34.667 -69 104 -69c35.333 0 76.333 6 123 18z" />
    <glyph glyph-name="uFEF9" unicode="&#xfedf;&#xfe88;" horiz-adv-x="1060" arabic-form="isolated" 
d="M1058 1028c0 -17.333 -7.83398 -44 -23.501 -80s-26.5 -52.667 -32.5 -50c-15.333 6 -23.333 5.33301 -24 -2c-13.333 -130 -25.666 -224.333 -36.999 -283c-14 -71.333 -38.333 -154.333 -73 -249c4 -5.33301 13.667 -25.666 29 -60.999c21.333 -48.667 32 -105 32 -169
c0 -54.667 -7.33301 -90 -22 -106c-8 -8.66699 -32.667 -15.334 -74 -20.001c-69.333 -8 -134.333 -12 -195 -12c-36 0 -57.667 1 -65 3c-20.667 5.33301 -32.667 19.666 -36 42.999c-4 27.333 -4 61.333 0 102c1.33301 13.333 5 20 11 20c2.66699 0 9 -4.16699 19 -12.5
s20.333 -12.5 31 -12.5c42.667 0 88 36 136 108c36 54 54 85.667 54 95c0 2 -0.333008 3.33301 -1 4c-122.667 188 -261.334 339 -416.001 453c-5.33301 4 -10.666 6 -15.999 6c-4 0 -12.667 -3.5 -26 -10.5s-23.333 -10.5 -30 -10.5s-14.334 2.33301 -23.001 7
c-111.333 62 -167 110.667 -167 146c0 16.667 4 40.334 12 71.001c11.333 43.333 24.333 65 39 65c43.333 0 115.333 -43 216 -129c74 -63.333 136.333 -124 187 -182c14.667 -16.667 104.334 -126.667 269.001 -330c19.333 38 35.666 108.333 48.999 211
c12.667 96 19 184 19 264c0 58 -4.33301 91 -13 99c-6 6 -8.66699 14.667 -8 26c1.33301 22 21.333 73.333 60 154c12.667 26.667 25 37.334 37 32.001c4 -2 3.33301 -29.667 -2 -83c-1.33301 -13.333 12.334 -32.833 41.001 -58.5s43 -41.834 43 -48.501zM874.999 168
c-4 39.333 -21.333 74.667 -52 106c-38 -64.667 -67.333 -104.667 -88 -120c36 0 82.667 4.66699 140 14zM654.999 -260.999c4.66699 1.33301 6.99805 -1.66602 6.99805 -8.99902c0 -6.66699 -2.33301 -17.667 -7 -33c-4.66699 -17.333 -9 -26.333 -13 -27
c-37.333 -8.66699 -87 -22.334 -149 -41.001c-32.667 -10 -70.334 -29 -113.001 -57c-12 -8 -22.333 -12 -31 -12c-9.33301 0 -14 3.66699 -14 11c0 10 15.333 28.333 46 55c22.667 20 35.334 32.333 38.001 37c-46 26 -69 50.333 -69 73c0 30.667 21 66 63 106
c46.667 44 95.334 66 146.001 66c26 0 39 -16.667 39 -50c0 -32 -13.333 -48 -40 -48c-1.33301 0 -9.66602 3.83301 -24.999 11.5s-29 11.5 -41 11.5c-11.333 0 -24.333 -4.33301 -39 -13c-16.667 -9.33301 -25 -19.333 -25 -30c0 -46 34.667 -69 104 -69
c35.333 0 76.333 6 123 18z" />
    <glyph glyph-name="uFEFA" unicode="&#xfee0;&#xfe88;" horiz-adv-x="1190" arabic-form="final" 
d="M1220 1l-63.0029 -0.00195312c-111.333 0 -181.333 95.333 -210 286l-47 319l-38 -172c-26.667 -114 -62.667 -213.667 -108 -299c-73.333 -138 -229.666 -219.667 -468.999 -245c-12.667 -1.33301 -22 -2 -28 -2c-26.667 0 -40 5 -40 15c0 12.667 18.667 25 56 37
c142.667 46 267.334 124.667 374.001 236c48 50 72 89 72 117c0 94 -40.333 193 -121 297c-18.667 24 -59 64 -121 120c-68 61.333 -110 92 -126 92c-9.33301 0 -24.166 -4.66699 -44.499 -14s-34.833 -14 -43.5 -14c-18.667 0 -51.167 21.167 -97.5 63.5
s-69.5 72.833 -69.5 91.5c0 12.667 4.66699 36 14 70c11.333 40.667 22.333 61 33 61c26.667 0 66.667 -14.667 120 -44c88.667 -48.667 187.667 -128.667 297 -240c131.333 -133.333 199.333 -276.333 204 -429c26.667 42.667 47.667 112.334 63 209.001
c12.667 80 19 153.333 19 220c0 62.667 -6.33301 138.667 -19 228c-4 27.333 14 82.333 54 165c10 20.667 17 31 21 31c4.66699 0 9 -16.667 13 -50c18 -151.333 40.333 -317.666 67 -498.999c16 -108 37 -228.667 63 -362c16.667 -86.667 61 -130 133 -130h42v-158z
M664.997 -341.002c4.66699 1.33301 6.99805 -1.66602 6.99805 -8.99902c0 -6.66699 -2.33301 -17.667 -7 -33c-4.66699 -17.333 -9 -26.333 -13 -27c-37.333 -8.66699 -87 -22.334 -149 -41.001c-32.667 -10 -70.334 -29 -113.001 -57c-12 -8 -22.333 -12 -31 -12
c-9.33301 0 -14 3.66699 -14 11c0 10 15.333 28.333 46 55c22.667 20 35.334 32.333 38.001 37c-46 26 -69 50.333 -69 73c0 30.667 21 66 63 106c46.667 44 95.334 66 146.001 66c26 0 39 -16.667 39 -50c0 -32 -13.333 -48 -40 -48
c-1.33301 0 -9.66602 3.83301 -24.999 11.5s-29 11.5 -41 11.5c-11.333 0 -24.333 -4.33301 -39 -13c-16.667 -9.33301 -25 -19.333 -25 -30c0 -46 34.667 -69 104 -69c35.333 0 76.333 6 123 18z" />
    <glyph glyph-name="uFEFB" unicode="&#xfedf;&#xfe8e;" horiz-adv-x="1060" arabic-form="isolated" 
d="M1058 1028c0 -17.333 -7.83398 -44 -23.501 -80s-26.5 -52.667 -32.5 -50c-15.333 6 -23.333 5.33301 -24 -2c-13.333 -130 -25.666 -224.333 -36.999 -283c-14 -71.333 -38.333 -154.333 -73 -249c4 -5.33301 13.667 -25.666 29 -60.999c21.333 -48.667 32 -105 32 -169
c0 -54.667 -7.33301 -90 -22 -106c-8 -8.66699 -32.667 -15.334 -74 -20.001c-69.333 -8 -134.333 -12 -195 -12c-36 0 -57.667 1 -65 3c-20.667 5.33301 -32.667 19.666 -36 42.999c-4 27.333 -4 61.333 0 102c1.33301 13.333 5 20 11 20c2.66699 0 9 -4.16699 19 -12.5
s20.333 -12.5 31 -12.5c42.667 0 88 36 136 108c36 54 54 85.667 54 95c0 2 -0.333008 3.33301 -1 4c-122.667 188 -261.334 339 -416.001 453c-5.33301 4 -10.666 6 -15.999 6c-4 0 -12.667 -3.5 -26 -10.5s-23.333 -10.5 -30 -10.5s-14.334 2.33301 -23.001 7
c-111.333 62 -167 110.667 -167 146c0 16.667 4 40.334 12 71.001c11.333 43.333 24.333 65 39 65c43.333 0 115.333 -43 216 -129c74 -63.333 136.333 -124 187 -182c14.667 -16.667 104.334 -126.667 269.001 -330c19.333 38 35.666 108.333 48.999 211
c12.667 96 19 184 19 264c0 58 -4.33301 91 -13 99c-6 6 -8.66699 14.667 -8 26c1.33301 22 21.333 73.333 60 154c12.667 26.667 25 37.334 37 32.001c4 -2 3.33301 -29.667 -2 -83c-1.33301 -13.333 12.334 -32.833 41.001 -58.5s43 -41.834 43 -48.501zM874.999 168
c-4 39.333 -21.333 74.667 -52 106c-38 -64.667 -67.333 -104.667 -88 -120c36 0 82.667 4.66699 140 14z" />
    <glyph glyph-name="uFEFC" unicode="&#xfee0;&#xfe8e;" horiz-adv-x="1190" arabic-form="final" 
d="M1220 1l-63.0029 -0.00195312c-111.333 0 -181.333 95.333 -210 286l-47 319l-38 -172c-26.667 -114 -62.667 -213.667 -108 -299c-73.333 -138 -229.666 -219.667 -468.999 -245c-12.667 -1.33301 -22 -2 -28 -2c-26.667 0 -40 5 -40 15c0 12.667 18.667 25 56 37
c142.667 46 267.334 124.667 374.001 236c48 50 72 89 72 117c0 94 -40.333 193 -121 297c-18.667 24 -59 64 -121 120c-68 61.333 -110 92 -126 92c-9.33301 0 -24.166 -4.66699 -44.499 -14s-34.833 -14 -43.5 -14c-18.667 0 -51.167 21.167 -97.5 63.5
s-69.5 72.833 -69.5 91.5c0 12.667 4.66699 36 14 70c11.333 40.667 22.333 61 33 61c26.667 0 66.667 -14.667 120 -44c88.667 -48.667 187.667 -128.667 297 -240c131.333 -133.333 199.333 -276.333 204 -429c26.667 42.667 47.667 112.334 63 209.001
c12.667 80 19 153.333 19 220c0 62.667 -6.33301 138.667 -19 228c-4 27.333 14 82.333 54 165c10 20.667 17 31 21 31c4.66699 0 9 -16.667 13 -50c18 -151.333 40.333 -317.666 67 -498.999c16 -108 37 -228.667 63 -362c16.667 -86.667 61 -130 133 -130h42v-158z" />
    <glyph glyph-name="u0622" unicode="&#x622;" horiz-adv-x="570" arabic-form="isolated" 
d="M450 266c0 -108 -14.333 -191 -43 -249c-10.667 -21.333 -18 -32 -22 -32c-3.33301 0 -4.66602 11.333 -3.99902 34c2.66699 98 -8.33301 277.667 -33 539c-26.667 284 -40.334 455 -41.001 513c0 14 20 63 60 147c4 8 7.33301 12.333 10 13c6.66699 0 11.667 -26 15 -78
l8 -144l32 -402c12 -151.333 18 -265 18 -341zM611 1549c-26.667 -81.333 -65.332 -121.998 -115.999 -121.998c-33.333 0 -82.833 6.66699 -148.5 20s-115.167 20 -148.5 20c-16 0 -36 -9.66699 -60 -29l-36 -28c-4 0 -4.33301 8.66699 -1 26
c5.33301 25.333 17.666 49.666 36.999 72.999c27.333 32.667 62.333 49 105 49c25.333 0 64 -6.83301 116 -20.5s91.667 -20.5 119 -20.5c53.333 0 94.333 17.333 123 52v0c2.66699 3.33301 5.66699 5.66602 9 6.99902s5.33301 0.333008 6 -3c0.666992 -4 -1 -12 -5 -24z
" />
    <glyph glyph-name="u0623" unicode="&#x623;" horiz-adv-x="431" arabic-form="isolated" 
d="M393 266c0 -108 -14.333 -191 -43 -249c-10.667 -21.333 -18 -32 -22 -32c-3.33301 0 -4.66602 11.333 -3.99902 34c2.66699 98 -8.33301 277.667 -33 539c-26.667 284 -40.334 455 -41.001 513c0 14 20 63 60 147c4 8 7.33301 12.333 10 13c6.66699 0 11.667 -26 15 -78
l8 -144l32 -402c12 -151.333 18 -265 18 -341zM453 1525c4.66699 1.33301 6.99902 -1.66602 6.99902 -8.99902c0 -6.66699 -2.33301 -17.667 -7 -33c-4.66699 -17.333 -9 -26.333 -13 -27c-37.333 -8.66699 -87 -22.334 -149 -41.001c-32.667 -10 -70.334 -29 -113.001 -57
c-12 -8 -22.333 -12 -31 -12c-9.33301 0 -14 3.66699 -14 11c0 9.33301 15.333 27.333 46 54c22 19.333 34.667 32 38 38c-46 26 -69 50.333 -69 73c0 30.667 21 66 63 106c46.667 44 95.334 66 146.001 66c26 0 39 -16.667 39 -50c0 -32 -13.333 -48 -40 -48
c-1.33301 0 -9.66602 3.83301 -24.999 11.5s-29 11.5 -41 11.5c-11.333 0 -24.333 -4.33301 -39 -13c-16.667 -9.33301 -25 -19.333 -25 -30c0 -46 34.667 -69 104 -69c35.333 0 76.333 6 123 18z" />
    <glyph glyph-name="u0624" unicode="&#x624;" horiz-adv-x="750" arabic-form="isolated" 
d="M748 157c0 -73.333 -24.001 -153.668 -72.001 -241.001c-40 -72.667 -85.333 -133.667 -136 -183c-66 -64 -136 -96 -210 -96c-61.333 0 -135.333 26.667 -222 80c-8 4.66699 -12 10.667 -12 18c0 8.66699 7.33301 12.334 22 11.001c36 -3.33301 67 -5 93 -5
c76.667 0 149 18 217 54c41.333 22 93.333 67.667 156 137c66 73.333 102.667 129.666 110 168.999c0 24.667 -7 44.334 -21 59.001c-8.66699 -24.667 -23.667 -48 -45 -70c-27.333 -28 -56.666 -42 -87.999 -42c-36.667 0 -67 13.167 -91 39.5s-36 58.166 -36 95.499
c0 46 15 102.333 45 169c34 77.333 70.667 116 110 116c38 0 76.667 -31.333 116 -94c42.667 -67.333 64 -139.666 64 -216.999zM625.999 236.998c0 14 -8.83398 31.833 -26.501 53.5s-33.5 32.5 -47.5 32.5c-12 0 -25 -7.5 -39 -22.5s-21 -28.5 -21 -40.5
c0 -50 20.667 -75 62 -75c16.667 0 32.834 4.83301 48.501 14.5s23.5 22.167 23.5 37.5zM672.998 848.998c4.66699 1.33301 6.99805 -1.66602 6.99805 -8.99902c0 -6.66699 -2.33301 -17.667 -7 -33c-4.66699 -17.333 -9 -26.333 -13 -27
c-37.333 -8.66699 -87 -22.334 -149 -41.001c-32.667 -10 -70.334 -29 -113.001 -57c-12 -8 -22.333 -12 -31 -12c-9.33301 0 -14 3.66699 -14 11c0 10 15.333 28.333 46 55c22.667 20 35.334 32.333 38.001 37c-46 26 -69 50.333 -69 73c0 30.667 21 66 63 106
c46.667 44 95.334 66 146.001 66c26 0 39 -16.667 39 -50c0 -32 -13.333 -48 -40 -48c-1.33301 0 -9.66602 3.83301 -24.999 11.5s-29 11.5 -41 11.5c-11.333 0 -24.333 -4.33301 -39 -13c-16.667 -9.33301 -25 -19.333 -25 -30c0 -46 34.667 -69 104 -69
c35.333 0 76.333 6 123 18z" />
    <glyph glyph-name="u0625" unicode="&#x625;" horiz-adv-x="492" arabic-form="isolated" 
d="M413 266c0 -108 -14.333 -191 -43 -249c-10.667 -21.333 -18 -32 -22 -32c-3.33301 0 -4.66602 11.333 -3.99902 34c2.66699 98 -8.33301 277.667 -33 539c-26.667 284 -40.334 455 -41.001 513c0 14 20 63 60 147c4 8 7.33301 12.333 10 13c6.66699 0 11.667 -26 15 -78
l8 -144l32 -402c12 -151.333 18 -265 18 -341zM491 -279c4.66699 1.33301 6.99902 -1.66602 6.99902 -8.99902c0 -6.66699 -2.33301 -17.667 -7 -33c-4.66699 -17.333 -9 -26.333 -13 -27c-37.333 -8.66699 -87 -22.334 -149 -41.001c-32.667 -10 -70.334 -29 -113.001 -57
c-12 -8 -22.333 -12 -31 -12c-9.33301 0 -14 3.66699 -14 11c0 9.33301 15.333 27.333 46 54c22 19.333 34.667 32 38 38c-46 26 -69 50.333 -69 73c0 30.667 21 66 63 106c46.667 44 95.334 66 146.001 66c26 0 39 -16.667 39 -50c0 -32 -13.333 -48 -40 -48
c-1.33301 0 -9.66602 3.83301 -24.999 11.5s-29 11.5 -41 11.5c-11.333 0 -24.333 -4.33301 -39 -13c-16.667 -9.33301 -25 -19.333 -25 -30c0 -46 34.667 -69 104 -69c35.333 0 76.333 6 123 18z" />
    <glyph glyph-name="u0626" unicode="&#x626;" horiz-adv-x="1243" arabic-form="isolated" 
d="M1241 579c0 -8 -8.33008 -28.501 -24.9971 -61.501s-26.667 -49.5 -30 -49.5c17.333 0 7.83301 7.66699 -28.5 23s-60.5 23 -72.5 23c-36 0 -91.333 -30 -166 -90c-75.333 -62 -113 -110 -113 -144c0 -41.333 25 -71 75 -89c30 -10.667 80.667 -19.667 152 -27
c66 -6.66699 105 -13.667 117 -21c27.333 -16.667 41 -48 41 -94c0 -125.333 -98.667 -234 -296 -326c-112.667 -52.667 -235.667 -79 -369 -79c-112.667 0 -199 34.667 -259 104c-57.333 65.333 -86 155 -86 269c0 54.667 14.333 116 43 184c20 46.667 39 81.667 57 105
c8 10 15 15 21 15c4.66699 0 7 -3 7 -9c0 -3.33301 -1.66699 -8 -5 -14c-41.333 -75.333 -62 -149.333 -62 -222c0 -90 35.333 -160 106 -210c62 -43.333 140 -65 234 -65c112 0 208.333 15 289 45c135.333 50 218.666 101 249.999 153c3.33301 6 3.33301 10.333 0 13
c-4 4 -12.333 5.66699 -25 5c-52.667 -1.33301 -104.334 1 -155.001 7c-133.333 16.667 -200 68.334 -200 155.001c0 91.333 49.333 197 148 317c26 31.333 62.333 65 109 101c59.333 45.333 105.666 68 138.999 68c19.333 0 41.5 -9.66699 66.5 -29s37.5 -38.333 37.5 -57z
M522.003 630.999c4.66699 1.33301 6.99902 -1.66602 6.99902 -8.99902c0 -6.66699 -2.33301 -17.667 -7 -33c-4.66699 -17.333 -9 -26.333 -13 -27c-37.333 -8.66699 -87 -22.334 -149 -41.001c-32.667 -10 -70.334 -29 -113.001 -57c-12 -8 -22.333 -12 -31 -12
c-9.33301 0 -14 3.66699 -14 11c0 9.33301 15.333 27.333 46 54c22 19.333 34.667 32 38 38c-46 26 -69 50.333 -69 73c0 30.667 21 66 63 106c46.667 44 95.334 66 146.001 66c26 0 39 -16.667 39 -50c0 -32 -13.333 -48 -40 -48c-1.33301 0 -9.66602 3.83301 -24.999 11.5
s-29 11.5 -41 11.5c-11.333 0 -24.333 -4.33301 -39 -13c-16.667 -9.33301 -25 -19.333 -25 -30c0 -46 34.667 -69 104 -69c35.333 0 76.333 6 123 18z" />
    <glyph glyph-name="u0627" unicode="&#x627;" horiz-adv-x="325" arabic-form="isolated" 
d="M324 266c0 -108 -14.333 -191 -43 -249c-10.667 -21.333 -18 -32 -22 -32c-3.33301 0 -4.66602 11.333 -3.99902 34c2.66699 98 -8.33301 277.667 -33 539c-26.667 284 -40.334 455 -41.001 513c0 14 20 63 60 147c4 8 7.33301 12.333 10 13c6.66699 0 11.667 -26 15 -78
l8 -144l32 -402c12 -151.333 18 -265 18 -341z" />
    <glyph glyph-name="u0628" unicode="&#x628;" horiz-adv-x="1432" arabic-form="isolated" 
d="M1431 318c0 -67.333 -16.001 -121.667 -48.001 -163c-52 -67.333 -156.333 -121 -313 -161c-125.333 -32 -244.333 -48 -357 -48h-132c-103.333 0 -190.666 17.667 -261.999 53c-92 45.333 -138 114.666 -138 207.999c0 39.333 8.66699 81.333 26 126
c18 48 40.667 84 68 108c9.33301 8 16.666 12 21.999 12s8 -3 8 -9c0 -5.33301 -2 -11.666 -6 -18.999c-26.667 -50.667 -40 -98 -40 -142c0 -69.333 61 -120 183 -152c79.333 -20.667 167.333 -31 264 -31c220.667 0 412 32.333 574 97c60 24 90 41.333 90 52
c0 20.667 -40.333 71.334 -121 152.001l50 116c4.66699 10.667 11.334 12 20.001 4c74.667 -70.667 112 -138.334 112 -203.001zM897.999 -305.001l-100 -120l-125 99l100 120z" />
    <glyph glyph-name="u0629" unicode="&#x629;" horiz-adv-x="568" arabic-form="isolated" 
d="M573 794l-97 -89l-98 87l98 90zM359 792l-98 -91l-97 89l98 91zM564 237c0 -80 -9.66699 -134 -29 -162c-34.667 -49.333 -94 -74 -178 -74c-104 0 -156 44 -156 132c0 98 30 178.333 90 241l-23 14c2 11.333 11.5 35.833 28.5 73.5s27.5 56.5 31.5 56.5
c24 0 64.667 -23.667 122 -71c76 -62.667 114 -132.667 114 -210zM502 201c0 23.333 -21.667 51.333 -65 84c-33.333 25.333 -68.333 46.333 -105 63c-34.667 -43.333 -52 -89.333 -52 -138c0 -37.333 24.333 -56 73 -56c99.333 0 149 15.667 149 47z" />
    <glyph glyph-name="u062A" unicode="&#x62a;" horiz-adv-x="1432" arabic-form="isolated" 
d="M953 707l-98 -90l-97 88l98 89zM740 705l-100 -91l-96 88l99 91zM1431 318c0 -67.333 -16.001 -121.667 -48.001 -163c-52 -67.333 -156.333 -121 -313 -161c-125.333 -32 -244.333 -48 -357 -48h-132c-103.333 0 -190.666 17.667 -261.999 53
c-92 45.333 -138 114.666 -138 207.999c0 39.333 8.66699 81.333 26 126c18 48 40.667 84 68 108c9.33301 8 16.666 12 21.999 12s8 -3 8 -9c0 -5.33301 -2 -11.666 -6 -18.999c-26.667 -50.667 -40 -98 -40 -142c0 -69.333 61 -120 183 -152
c79.333 -20.667 167.333 -31 264 -31c220.667 0 412 32.333 574 97c60 24 90 41.333 90 52c0 20.667 -40.333 71.334 -121 152.001l50 116c4.66699 10.667 11.334 12 20.001 4c74.667 -70.667 112 -138.334 112 -203.001z" />
    <glyph glyph-name="u062B" unicode="&#x62b;" horiz-adv-x="1430" arabic-form="isolated" 
d="M884 809l-89 -83l-91 83l91 82zM997 659l-88 -83l-90 83l90 83zM781 659l-90 -83l-89 83l89 83zM1431 318c0 -67.333 -16.001 -121.667 -48.001 -163c-52 -67.333 -156.333 -121 -313 -161c-125.333 -32 -244.333 -48 -357 -48h-132
c-103.333 0 -190.666 17.667 -261.999 53c-92 45.333 -138 114.666 -138 207.999c0 39.333 8.66699 81.333 26 126c18 48 40.667 84 68 108c9.33301 8 16.666 12 21.999 12s8 -3 8 -9c0 -5.33301 -2 -11.666 -6 -18.999c-26.667 -50.667 -40 -98 -40 -142
c0 -69.333 61 -120 183 -152c79.333 -20.667 167.333 -31 264 -31c220.667 0 412 32.333 574 97c60 24 90 41.333 90 52c0 20.667 -40.333 71.334 -121 152.001l50 116c4.66699 10.667 11.334 12 20.001 4c74.667 -70.667 112 -138.334 112 -203.001z" />
    <glyph glyph-name="u062C" unicode="&#x62c;" horiz-adv-x="1145" arabic-form="isolated" 
d="M797 -277l-100 -120l-125 99l100 120zM1314 -675c-2.66699 -0.666992 -84.0029 -35.998 -244.003 -105.998c-72 -31.333 -162.667 -47 -272 -47c-411.333 0 -617 147.667 -617 443c0 118.667 30.667 234.667 92 348c37.333 68 90.333 131.333 159 190l121 96l-123 9
c-70.667 5.33301 -124.667 -18.334 -162 -71.001c-19.333 -27.333 -33.333 -41 -42 -41c-4.66699 0 -7 4 -7 12c0 12.667 5 33 15 61c44.667 124.667 124.334 187 239.001 187c36.667 0 91.834 -3.5 165.501 -10.5s128.834 -10.5 165.501 -10.5c82 0 157.667 4.33301 227 13
c25.333 3.33301 38 1 38 -7c-0.666992 -4.66699 -3 -12.667 -7 -24c-14.667 -41.333 -32.334 -85 -53.001 -131c-269.333 0 -466.666 -70.333 -591.999 -211c-92 -103.333 -138 -222 -138 -356c0 -226.667 192.667 -340 578 -340c177.333 0 325 7.66699 443 23
c27.333 3.33301 41 1 41 -7c0 -6.66699 -9 -13.334 -27 -20.001z" />
    <glyph glyph-name="u062D" unicode="&#x62d;" horiz-adv-x="1126" arabic-form="isolated" 
d="M1314 -675c-2.66699 -0.666992 -84.0029 -35.998 -244.003 -105.998c-72 -31.333 -162.667 -47 -272 -47c-411.333 0 -617 147.667 -617 443c0 118.667 30.667 234.667 92 348c37.333 68 90.333 131.333 159 190l121 96l-123 9
c-70.667 5.33301 -124.667 -18.334 -162 -71.001c-19.333 -27.333 -33.333 -41 -42 -41c-4.66699 0 -7 4 -7 12c0 12.667 5 33 15 61c44.667 124.667 124.334 187 239.001 187c36.667 0 91.834 -3.5 165.501 -10.5s128.834 -10.5 165.501 -10.5c82 0 157.667 4.33301 227 13
c25.333 3.33301 38 1 38 -7c-0.666992 -4.66699 -3 -12.667 -7 -24c-14.667 -41.333 -32.334 -85 -53.001 -131c-269.333 0 -466.666 -70.333 -591.999 -211c-92 -103.333 -138 -222 -138 -356c0 -226.667 192.667 -340 578 -340c177.333 0 325 7.66699 443 23
c27.333 3.33301 41 1 41 -7c0 -6.66699 -9 -13.334 -27 -20.001z" />
    <glyph glyph-name="u062E" unicode="&#x62e;" horiz-adv-x="1145" arabic-form="isolated" 
d="M747 783l-100 -120l-125 99l100 120zM1314 -675c-2.66699 -0.666992 -84.0029 -35.998 -244.003 -105.998c-72 -31.333 -162.667 -47 -272 -47c-411.333 0 -617 147.667 -617 443c0 118.667 30.667 234.667 92 348c37.333 68 90.333 131.333 159 190l121 96l-123 9
c-70.667 5.33301 -124.667 -18.334 -162 -71.001c-19.333 -27.333 -33.333 -41 -42 -41c-4.66699 0 -7 4 -7 12c0 12 5 32 15 60c44.667 125.333 124.334 188 239.001 188c36.667 0 91.834 -3.5 165.501 -10.5s128.834 -10.5 165.501 -10.5c82 0 157.667 4.33301 227 13
c25.333 3.33301 38 1 38 -7c-0.666992 -4.66699 -3 -12.667 -7 -24c-14.667 -41.333 -32.334 -85 -53.001 -131c-269.333 0 -466.666 -70.333 -591.999 -211c-92 -103.333 -138 -222 -138 -356c0 -226.667 192.667 -340 578 -340c177.333 0 325 7.66699 443 23
c27.333 3.33301 41 1 41 -7c0 -6.66699 -9 -13.334 -27 -20.001z" />
    <glyph glyph-name="u062F" unicode="&#x62f;" horiz-adv-x="683" arabic-form="isolated" 
d="M682 295c0 -30.667 -4.33398 -68.332 -13.001 -112.999c-10 -52.667 -22.667 -87.334 -38 -104.001c-24 -26.667 -74.667 -47 -152 -61c-58 -10.667 -114.333 -16 -169 -16c-86 0 -129 27.333 -129 82c0 24.667 5.66699 61 17 109c4.66699 20 13 23 25 9
c15.333 -18 24.333 -27.667 27 -29c15.333 -8.66699 47 -13 95 -13c34.667 0 85.334 5 152.001 15c79.333 12.667 119 25.334 119 38.001c0 66 -32.333 130.667 -97 194c-66.667 64 -119.667 99.667 -159 107c20 101.333 32 152 36 152c35.333 -2 88 -37.667 158 -107
c85.333 -84.667 128 -172.334 128 -263.001z" />
    <glyph glyph-name="u0630" unicode="&#x630;" horiz-adv-x="683" arabic-form="isolated" 
d="M682 295c0 -30.667 -4.33398 -68.332 -13.001 -112.999c-10 -52.667 -22.667 -87.334 -38 -104.001c-24 -26.667 -74.667 -47 -152 -61c-58 -10.667 -114.333 -16 -169 -16c-86 0 -129 27.333 -129 82c0 24.667 5.66699 61 17 109c4.66699 20 13 23 25 9
c15.333 -18 24.333 -27.667 27 -29c15.333 -8.66699 47 -13 95 -13c34.667 0 85.334 5 152.001 15c79.333 12.667 119 25.334 119 38.001c0 66 -32.333 130.667 -97 194c-66.667 64 -119.667 99.667 -159 107c20 101.333 32 152 36 152c35.333 -2 88 -37.667 158 -107
c85.333 -84.667 128 -172.334 128 -263.001zM491.999 1013l-100 -120l-125 99l100 120z" />
    <glyph glyph-name="u0631" unicode="&#x631;" horiz-adv-x="742" arabic-form="isolated" 
d="M740 154c0 -110.667 -39.668 -220.999 -119.001 -330.999c-86 -118.667 -182.333 -178 -289 -178c-67.333 0 -142.666 22 -225.999 66c-6.66699 3.33301 -9.66699 9 -9 17c0 8 3 12 9 12h76c136 0 255.333 53.333 358 160c94.667 98.667 142 177.667 142 237
c0 34 -45.333 87.333 -136 160c5.33301 33.333 14.333 81.666 27 144.999c40 -22.667 75 -55 105 -97c41.333 -57.333 62 -121 62 -191z" />
    <glyph glyph-name="u0632" unicode="&#x632;" horiz-adv-x="744" arabic-form="isolated" 
d="M617 758l-100 -120l-125 99l100 120zM740 154c0 -110.667 -39.668 -220.999 -119.001 -330.999c-86 -118.667 -182.333 -178 -289 -178c-67.333 0 -142.666 22 -225.999 66c-6.66699 3.33301 -9.66699 9 -9 17c0 8 3 12 9 12h76c136 0 255.333 53.333 358 160
c94.667 98.667 142 177.667 142 237c0 34 -45.333 87.333 -136 160c5.33301 33.333 14.333 81.666 27 144.999c40 -22.667 75 -55 105 -97c41.333 -57.333 62 -121 62 -191z" />
    <glyph glyph-name="u0633" unicode="&#x633;" horiz-adv-x="1691" arabic-form="isolated" 
d="M1690 286c0 -56.667 -8.66992 -108.995 -26.0029 -156.995c-24 -66 -59 -99 -105 -99c-88.667 0 -165.667 23 -231 69c-75.333 -72 -141.666 -108 -198.999 -108c-18 0 -37.667 3 -59 9c0 -96 -19 -180.667 -57 -254c-23.333 -44.667 -70 -89.334 -140 -134.001
c-97.333 -62 -208 -93 -332 -93c-88.667 0 -165.334 19 -230.001 57c-86.667 51.333 -130 129.666 -130 234.999c0 127.333 34.333 231.666 103 312.999c6 7.33301 11 11.666 15 12.999c4 2 6.33301 0.666992 7 -4c0.666992 -5.33301 -11.333 -41 -36 -107
c-16 -42.667 -24 -82.334 -24 -119.001c0 -153.333 111.333 -230 334 -230c70 0 150.333 12.667 241 38c118.667 33.333 178 75 178 125c0 87.333 -16 162 -48 224l-54 84l59 116c8 16 16 19 24 9l70 -87c26.667 -24.667 62.334 -37 107.001 -37
c54.667 0 105.667 22.667 153 68c6 10 16.667 34.667 32 74c13.333 34 27.333 51 42 51c7.33301 0 9 -14.667 5 -44c-4.66699 -32 -4 -50.667 2 -56c20 -17.333 49.833 -33.5 89.5 -48.5s72.834 -22.5 99.501 -22.5c24.667 0 41.334 5.33301 50.001 16c2 2 3 5.33301 3 10
c0 18 -8.66699 49.333 -26 94c-2 2.66699 6.33301 16.667 25 42c17.333 23.333 30.333 39.333 39 48c12.667 -28 19 -59.667 19 -95z" />
    <glyph glyph-name="u0634" unicode="&#x634;" horiz-adv-x="1692" arabic-form="isolated" 
d="M1475 774l-89 -82l-91 82l91 83zM1589 625l-89 -82l-90 82l90 83zM1372 625l-90 -82l-88 82l88 83zM1690 286c0 -56.667 -8.6709 -108.995 -26.0039 -156.995c-24 -66 -59 -99 -105 -99c-88.667 0 -165.667 23 -231 69c-75.333 -72 -141.666 -108 -198.999 -108
c-18 0 -37.667 3 -59 9c0 -96 -19 -180.667 -57 -254c-23.333 -44.667 -70 -89.334 -140 -134.001c-97.333 -62 -208 -93 -332 -93c-88 0 -164.333 19 -229 57c-87.333 51.333 -131 129.666 -131 234.999c0 127.333 34.333 231.666 103 312.999
c6 7.33301 11 11.666 15 12.999c4 2 6.33301 0.666992 7 -4c0.666992 -5.33301 -11.333 -41 -36 -107c-16 -42.667 -24 -82.334 -24 -119.001c0 -153.333 111.333 -230 334 -230c70 0 150.333 12.667 241 38c118.667 33.333 178 75 178 125c0 87.333 -16 162 -48 224l-54 84
l59 116c8 16 16 19 24 9l70 -87c26.667 -24.667 62.334 -37 107.001 -37c54.667 0 105.667 22.667 153 68c6 10 16.667 34.667 32 74c13.333 34 27.333 51 42 51c7.33301 0 9 -14.667 5 -44c-4.66699 -32 -4 -50.667 2 -56c20 -17.333 49.833 -33.5 89.5 -48.5
s72.834 -22.5 99.501 -22.5c24.667 0 41.334 5.33301 50.001 16c2 2 3 5.33301 3 10c0 18 -8.66699 49.333 -26 94c-2 2.66699 6.33301 16.667 25 42c17.333 23.333 30.333 39.333 39 48c12.667 -28 19 -59.667 19 -95z" />
    <glyph glyph-name="u0635" unicode="&#x635;" horiz-adv-x="1960" arabic-form="isolated" 
d="M1857 347c-40 48.667 -99.668 73.001 -179.001 73.001c-95.333 0 -231.666 -88.667 -408.999 -266c22.667 -2 45 -3 67 -3c92.667 0 187.667 17.667 285 53c76.667 28 129.667 51.333 159 70c24 15.333 49.667 39.666 77 72.999zM1159 -1.99902
c-40.667 0 -70.334 3.33398 -89.001 10.001c0 -98 -19 -183 -57 -255c-24 -45.333 -70.667 -90 -140 -134c-97.333 -61.333 -208 -92 -332 -92c-88.667 0 -165 18.667 -229 56c-87.333 51.333 -131 130 -131 236c0 126.667 34.667 231 104 313
c6 7.33301 11 11.666 15 12.999s6.33301 -0.333984 7 -5.00098c0.666992 -5.33301 -11.333 -41 -36 -107c-16 -43.333 -24 -83 -24 -119c0 -153.333 111 -230 333 -230c70 0 150.333 12.667 241 38c119.333 33.333 179 75.333 179 126c0 86.667 -16.333 161.334 -49 224.001
l-54 83l60 117c7.33301 14.667 15 17.334 23 8.00098l70 -86c27.333 -24 63.333 -36 108 -36c28 0 63.667 23 107 69c81.333 86 139 144 173 174c126 110.667 227 166 303 166c144 0 216 -46.667 216 -140c0 -56 -25.333 -116 -76 -180
c-57.333 -72.667 -131.666 -127.334 -222.999 -164.001c-140.667 -56.667 -307 -85 -499 -85z" />
    <glyph glyph-name="u0636" unicode="&#x636;" horiz-adv-x="1980" arabic-form="isolated" 
d="M1532 823l-100 -120l-125 99l100 120zM1857 347c-40 48.667 -99.668 73.001 -179.001 73.001c-95.333 0 -231.666 -88.667 -408.999 -266c22.667 -2 45 -3 67 -3c92.667 0 187.667 17.667 285 53c76.667 28 129.667 51.333 159 70c24 15.333 49.667 39.666 77 72.999z
M1159 -1.99902c-40.667 0 -70.334 3.33398 -89.001 10.001c0 -98 -19 -183 -57 -255c-24 -45.333 -70.667 -90 -140 -134c-97.333 -61.333 -208 -92 -332 -92c-88.667 0 -165 18.667 -229 56c-87.333 51.333 -131 130 -131 236c0 126.667 34.667 231 104 313
c6 7.33301 11 11.666 15 12.999s6.33301 -0.333984 7 -5.00098c0.666992 -5.33301 -11.333 -41 -36 -107c-16 -43.333 -24 -83 -24 -119c0 -153.333 111 -230 333 -230c70 0 150.333 12.667 241 38c119.333 33.333 179 75.333 179 126c0 86.667 -16.333 161.334 -49 224.001
l-54 83l60 117c7.33301 14.667 15 17.334 23 8.00098l70 -86c27.333 -24 63.333 -36 108 -36c28 0 63.667 23 107 69c81.333 86 139 144 173 174c126 110.667 227 166 303 166c144 0 216 -46.667 216 -140c0 -56 -25.333 -116 -76 -180
c-57.333 -72.667 -131.666 -127.334 -222.999 -164.001c-140.667 -56.667 -307 -85 -499 -85z" />
    <glyph glyph-name="u0637" unicode="&#x637;" horiz-adv-x="1277" arabic-form="isolated" 
d="M1274 427c0 -46 -12.3311 -90.668 -36.998 -134.001c-66.667 -118 -167.667 -199.333 -303 -244c-97.333 -32 -230 -48 -398 -48c-74 0 -144.667 15 -212 45c-56.667 25.333 -100 55 -130 89c-8 9.33301 -12 16.666 -12 21.999c0 7.33301 8 11 24 11
c7.33301 0 40.333 -1.33301 99 -4c46.667 -2 82 -2.33301 106 -1c65.333 4 122 29 170 75c22 21.333 35 36.333 39 45c7.33301 16 10.333 65 9 147c-2 136 -20.667 338 -56 606c-38 52.667 -57 87.334 -57 104.001c0 10 10 39.667 30 89l42 103
c2 7.33301 6.66699 10.666 14 9.99902c7.33301 -1.33301 11.666 -5.66602 12.999 -12.999c2 -40 4 -65.333 6 -76c4 -21.333 12.333 -37.333 25 -48l51 -22c18 -8 25.667 -22.333 23 -43c-10 -70.667 -18.667 -111.334 -26 -122.001c-10.667 -14.667 -23.334 -16 -38.001 -4
l32 -248c11.333 -97.333 17 -180.666 17 -249.999c0 -66.667 -4.66699 -127 -14 -181l155 134c75.333 65.333 147 98 215 98c48 0 93.333 -11.333 136 -34c51.333 -27.333 77 -62.666 77 -105.999zM1175 340.999c-35.333 31.333 -68.665 51.666 -99.998 60.999
c-24.667 7.33301 -62.667 11 -114 11c-48.667 0 -118.667 -36.667 -210 -110c-8.66699 -6.66699 -62.334 -54.667 -161.001 -144c19.333 -0.666992 38.666 -1 57.999 -1c146.667 0 274.667 26.333 384 79c76 36.667 123.667 71.334 143 104.001z" />
    <glyph glyph-name="u0638" unicode="&#x638;" horiz-adv-x="1278" arabic-form="isolated" 
d="M1102 883l-100 -120l-125 99l100 120zM1274 427c0 -46 -12.3311 -90.668 -36.998 -134.001c-66.667 -118 -167.667 -199.333 -303 -244c-97.333 -32 -230 -48 -398 -48c-74 0 -144.667 15 -212 45c-56.667 25.333 -100 55 -130 89c-8 9.33301 -12 16.666 -12 21.999
c0 7.33301 8 11 24 11c7.33301 0 40.333 -1.33301 99 -4c46.667 -2 82 -2.33301 106 -1c65.333 4 122 29 170 75c22 21.333 35 36.333 39 45c7.33301 16 10.333 65 9 147c-2 136 -20.667 338 -56 606c-38 52.667 -57 87.334 -57 104.001c0 10 10 39.667 30 89l42 103
c2 7.33301 6.66699 10.666 14 9.99902c7.33301 -1.33301 11.666 -5.66602 12.999 -12.999c2 -40 4 -65.333 6 -76c4 -21.333 12.333 -37.333 25 -48l51 -22c18 -8 25.667 -22.333 23 -43c-10 -70.667 -18.667 -111.334 -26 -122.001c-10.667 -14.667 -23.334 -16 -38.001 -4
l32 -248c11.333 -97.333 17 -180.666 17 -249.999c0 -66.667 -4.66699 -127 -14 -181l155 134c75.333 65.333 147 98 215 98c48 0 93.333 -11.333 136 -34c51.333 -27.333 77 -62.666 77 -105.999zM1175 340.999c-35.333 31.333 -68.665 51.666 -99.998 60.999
c-24.667 7.33301 -62.667 11 -114 11c-48.667 0 -118.667 -36.667 -210 -110c-8.66699 -6.66699 -62.334 -54.667 -161.001 -144c19.333 -0.666992 38.666 -1 57.999 -1c146.667 0 274.667 26.333 384 79c76 36.667 123.667 71.334 143 104.001z" />
    <glyph glyph-name="u0639" unicode="&#x639;" horiz-adv-x="950" arabic-form="isolated" 
d="M1283 -672c-89.333 -36 -184.667 -72.334 -286 -109.001c-46 -16.667 -120.667 -25 -224 -25c-190 0 -332.667 35.667 -428 107c-109.333 81.333 -164 214 -164 398c0 151.333 48.333 295.666 145 432.999l56 78c-2.66699 2 -18.667 12.667 -48 32
c-90.667 59.333 -136 123.333 -136 192c0 32.667 4.66699 63.334 14 92.001c27.333 84 54.333 141.333 81 172c34.667 40 85.334 60 152.001 60c59.333 0 126 -24 200 -72c8 -5.33301 10.667 -12 8 -20c-3.33301 -8.66699 -12 -11.667 -26 -9
c-25.333 5.33301 -50.666 8 -75.999 8c-70.667 0 -140.334 -19.667 -209.001 -59c-52.667 -30 -79 -60.667 -79 -92c0 -39.333 33 -78.333 99 -117c57.333 -33.333 108.333 -52.666 153 -57.999c28 -3.33301 46.333 -2.33301 55 3l270 163c33.333 20 52 30 56 30
c3.33301 -2 -0.666992 -26.667 -12 -74c-4 -16.667 -13.667 -44.334 -29 -83.001c-132.667 -59.333 -247 -126.666 -343 -201.999c-166 -130 -249 -268 -249 -414c0 -129.333 47.667 -231.333 143 -306c83.333 -64.667 192.666 -103 327.999 -115
c72.667 -6.66699 200 -4.66699 382 6c63.333 3.33301 115.333 8.33301 156 15c8.66699 1.33301 16.667 2 24 2c16.667 0 25 -3.33301 25 -10c0 -7.33301 -12.667 -16 -38 -26z" />
    <glyph glyph-name="u063A" unicode="&#x63a;" horiz-adv-x="970" arabic-form="isolated" 
d="M502 1038l-100 -120l-125 99l100 120zM1283 -672c-89.333 -36 -184.667 -72.334 -286 -109.001c-46 -16.667 -120.667 -25 -224 -25c-190 0 -332.667 35.667 -428 107c-109.333 81.333 -164 214 -164 398c0 151.333 48.333 295.666 145 432.999l56 78
c-2.66699 2 -18.667 12.667 -48 32c-90.667 59.333 -136 123.333 -136 192c0 32.667 4.66699 63.334 14 92.001c27.333 84 54.333 141.333 81 172c34.667 40 85.334 60 152.001 60c59.333 0 126 -24 200 -72c8 -5.33301 10.667 -12 8 -20
c-3.33301 -8.66699 -12 -11.667 -26 -9c-25.333 5.33301 -50.666 8 -75.999 8c-70.667 0 -140.334 -19.667 -209.001 -59c-52.667 -30 -79 -60.667 -79 -92c0 -39.333 33 -78.333 99 -117c57.333 -33.333 108.333 -52.666 153 -57.999c28 -3.33301 46.333 -2.33301 55 3
l270 163c33.333 20 52 30 56 30c3.33301 -2 -0.666992 -26.667 -12 -74c-4 -16.667 -13.667 -44.334 -29 -83.001c-132.667 -59.333 -247 -126.666 -343 -201.999c-166 -130 -249 -268 -249 -414c0 -129.333 47.667 -231.333 143 -306
c83.333 -64.667 192.666 -103 327.999 -115c72.667 -6.66699 200 -4.66699 382 6c63.333 3.33301 115.333 8.33301 156 15c8.66699 1.33301 16.667 2 24 2c16.667 0 25 -3.33301 25 -10c0 -7.33301 -12.667 -16 -38 -26z" />
    <glyph glyph-name="u0641" unicode="&#x641;" horiz-adv-x="1392" arabic-form="isolated" 
d="M1389 341c0 -30 -5.66699 -67.9971 -17 -113.997c-12.667 -52 -26.667 -87.333 -42 -106c-20 -24 -72.333 -51 -157 -81c-65.333 -23.333 -124 -40.666 -176 -51.999c-138.667 -30.667 -260 -46 -364 -46c-55.333 0 -118 7 -188 21c-86 17.333 -143.333 39.333 -172 66
c-61.333 57.333 -92 115.666 -92 174.999c0 78 24.333 148.667 73 212c20.667 26.667 34.667 40 42 40c4 0 6 -4 6 -12c0 -6.66699 -2.33301 -14.334 -7 -23.001c-24 -46 -36 -86.667 -36 -122c0 -134.667 146.667 -202 440 -202c112 0 239.667 14.667 383 44
c162.667 33.333 244 68.666 244 105.999c0 24 -10.333 54.667 -31 92c-41.333 -56 -84.333 -84 -129 -84c-42.667 0 -78 11 -106 33c-30.667 23.333 -46 55.666 -46 96.999c0 52.667 16 108.667 48 168c36.667 68 79.667 102 129 102c50.667 0 97.667 -40.667 141 -122
c38 -71.333 57 -135.333 57 -192zM1248 434.003c0 14 -10.334 32.5 -31.001 55.5s-37.667 34.5 -51 34.5c-20.667 0 -41.667 -12.333 -63 -37c-13.333 -15.333 -20 -28 -20 -38c0 -18.667 9.33301 -34.667 28 -48c16.667 -11.333 35 -17 55 -17
c14.667 0 31.334 4.66699 50.001 14c21.333 11.333 32 23.333 32 36zM1227 968.003l-100 -120l-125 99l100 120z" />
    <glyph glyph-name="u0642" unicode="&#x642;" horiz-adv-x="1111" arabic-form="isolated" 
d="M1067 682l-98 -90l-98 87l99 90zM853 679l-99 -90l-96 88l98 91zM1110 21c0 -61.333 -9.00098 -114.33 -27.001 -158.997c-30 -74.667 -106.667 -141 -230 -199c-112 -52.667 -212.667 -79 -302 -79c-131.333 0 -229.333 36.667 -294 110c-50.667 58 -76 129.667 -76 215
c0 109.333 36 216.333 108 321c16 23.333 28.667 32.666 38 27.999c4.66699 -2.66699 -10.333 -52.667 -45 -150c-17.333 -47.333 -26 -88.333 -26 -123c0 -78 30.667 -139.333 92 -184c54.667 -40 122.334 -60 203.001 -60c148 0 289.667 43.333 425 130
c64.667 41.333 94 74.666 88 99.999c-8 32.667 -26.667 69 -56 109l-41 -44c-27.333 -22.667 -61 -34 -101 -34c-38.667 0 -70.667 14.5 -96 43.5s-38 62.833 -38 101.5c0 45.333 14.333 99.666 43 162.999c34.667 76 74 114 118 114c57.333 0 109 -48.333 155 -145
c41.333 -87.333 62 -173.333 62 -258zM963.999 192.003c0 17.333 -10.666 35.333 -31.999 54s-40.666 28 -57.999 28c-14.667 0 -30.334 -7.5 -47.001 -22.5s-25 -29.833 -25 -44.5c0 -42.667 19.333 -64 58 -64c19.333 0 39.666 3.66699 60.999 11
c28.667 10 43 22.667 43 38z" />
    <glyph glyph-name="u0643" unicode="&#x643;" horiz-adv-x="1436" arabic-form="isolated" 
d="M1589 1216c3.33301 1.33301 5.00391 -3.00293 5.00391 -13.0029c0 -11.333 -3.33301 -35 -10 -71c-6.66699 -38 -13 -58 -19 -60c-12 -4 -87 -42 -225 -114c-142.667 -74.667 -228.334 -121.667 -257.001 -141c-54.667 -37.333 -82 -61.666 -82 -72.999
c12 -10 44 -32.333 96 -67c77.333 -51.333 133.666 -93.333 168.999 -126c46.667 -43.333 78.334 -80.666 95.001 -111.999c22.667 -42 34 -93.667 34 -155c0 -64.667 -12 -114.667 -36 -150c-44.667 -66 -169 -121.667 -373 -167
c-122.667 -27.333 -250.334 -41 -383.001 -41c-110.667 0 -202.334 17 -275.001 51c-98 46 -147 118 -147 216c0 80 28.667 153.667 86 221c11.333 13.333 20.333 20 27 20c5.33301 0 8 -3.66699 8 -11s-3.33301 -17.666 -10 -30.999c-23.333 -47.333 -35 -90.333 -35 -129
c0 -71.333 61 -122.666 183 -153.999c76 -19.333 163.667 -29 263 -29c126.667 0 232.667 9.33301 318 28c225.333 49.333 338 104.666 338 165.999c0 39.333 -52.333 95 -157 167c-20.667 14 -77 50.333 -169 109c-50.667 41.333 -76 95 -76 161
c0 93.333 40.333 168 121 224c111.333 77.333 281.666 171 510.999 281z" />
    <glyph glyph-name="u0644" unicode="&#x644;" horiz-adv-x="937" arabic-form="isolated" 
d="M936 1039c0 -22.667 -15.6699 -69.6689 -47.0029 -141.002l-37 12c44.667 -395.333 67 -659 67 -791c0 -116 -46.667 -210 -140 -282c-85.333 -66 -187.666 -99 -306.999 -99c-92.667 0 -164.334 25.833 -215.001 77.5s-76 123.834 -76 216.501
c0 85.333 25.667 164.333 77 237c12.667 18 22.334 27 29.001 27c4 0 6 -3 6 -9c0 -7.33301 -2.66699 -17 -8 -29c-27.333 -61.333 -41 -117.333 -41 -168c0 -64 31 -114.333 93 -151c52 -30.667 112.333 -46 181 -46c52 0 116 11 192 33c96 28 143.333 61 142 99
c-4.66699 118.667 -19.667 292.667 -45 522l-41 376c-1.33301 14 -9.66602 36 -24.999 66c-14 26.667 -20.333 42 -19 46l61 129c21.333 46 36.333 69 45 69c14 0 19.333 -28.333 16 -85c-2 -7.33301 3.33301 -18.166 16 -32.499s23.334 -23.166 32.001 -26.499
c29.333 -12.667 44 -29.334 44 -50.001z" />
    <glyph glyph-name="u0645" unicode="&#x645;" horiz-adv-x="686" arabic-form="isolated" 
d="M684 346c0 -13.333 -21.665 -59.6689 -64.998 -139.002c-58.667 0 -127.334 -6 -206.001 -18c-111.333 -17.333 -167 -39.666 -167 -66.999c0 -76.667 10.5 -191.5 31.5 -344.5s31.5 -267.833 31.5 -344.5c0 -120.667 -11.333 -181 -34 -181
c-7.33301 0 -13.333 26.667 -18 80l-11 129c-2 22.667 -24 203.334 -66 542.001c0 122 34.667 207.667 104 257c30.667 22 102.667 48 216 78c-10.667 14 -29.334 28 -56.001 42s-48.667 21 -66 21c-20 0 -48.667 -11.667 -86 -35c-4 -2 -7.33301 -3 -10 -3
c-8 0 -12 7.33301 -12 22c0 14 18 44 54 90c41.333 52.667 78 79 110 79c31.333 0 80.833 -27.333 148.5 -82s101.5 -96.667 101.5 -126z" />
    <glyph glyph-name="u0646" unicode="&#x646;" horiz-adv-x="933" arabic-form="isolated" 
d="M932 -1c0 -109.333 -48.999 -199 -146.999 -269c-88 -62.667 -189.667 -94 -305 -94c-88 0 -158.667 21 -212 63c-58 46.667 -87 112.667 -87 198c0 49.333 11.333 103.666 34 162.999c10.667 28.667 27.667 62.667 51 102c17.333 29.333 29 44 35 44
c3.33301 0 5 -4.66699 5 -14c0 -5.33301 -1.66699 -11.666 -5 -18.999c-37.333 -83.333 -56 -151.666 -56 -204.999c0 -66.667 34.667 -115.334 104 -146.001c51.333 -22.667 115 -34 191 -34c70 0 143.667 18.333 221 55c72.667 34.667 109 64 109 88
c0 66.667 -40.333 172 -121 316l25 83c8.66699 29.333 16 44 22 44c5.33301 0 15.666 -10.667 30.999 -32c70 -98.667 105 -213 105 -343zM618.001 573l-100 -120l-125 99l100 120z" />
    <glyph glyph-name="u0647" unicode="&#x647;" horiz-adv-x="545" arabic-form="isolated" 
d="M544 237c0 -80 -9.66699 -134 -29 -162c-34.667 -49.333 -94 -74 -178 -74c-104 0 -156 44 -156 132c0 98 30 178.333 90 241l-23 14c2 11.333 11.5 35.833 28.5 73.5s27.5 56.5 31.5 56.5c24 0 64.667 -23.667 122 -71c76 -62.667 114 -132.667 114 -210zM482 201
c0 23.333 -21.667 51.333 -65 84c-33.333 25.333 -68.333 46.333 -105 63c-34.667 -43.333 -52 -89.333 -52 -138c0 -37.333 24.333 -56 73 -56c99.333 0 149 15.667 149 47z" />
    <glyph glyph-name="u0648" unicode="&#x648;" horiz-adv-x="750" arabic-form="isolated" 
d="M748 157c0 -73.333 -24.001 -153.668 -72.001 -241.001c-40 -72.667 -85.333 -133.667 -136 -183c-66 -64 -136 -96 -210 -96c-61.333 0 -135.333 26.667 -222 80c-8 4.66699 -12 10.667 -12 18c0 8.66699 7.33301 12.334 22 11.001c36 -3.33301 67 -5 93 -5
c76.667 0 149 18 217 54c41.333 22 93.333 67.667 156 137c66 73.333 102.667 129.666 110 168.999c0 24.667 -7 44.334 -21 59.001c-8.66699 -24.667 -23.667 -48 -45 -70c-27.333 -28 -56.666 -42 -87.999 -42c-36.667 0 -67 13.167 -91 39.5s-36 58.166 -36 95.499
c0 46 15 102.333 45 169c34 77.333 70.667 116 110 116c38 0 76.667 -31.333 116 -94c42.667 -67.333 64 -139.666 64 -216.999zM625.999 236.998c0 14 -8.83398 31.833 -26.501 53.5s-33.5 32.5 -47.5 32.5c-12 0 -25 -7.5 -39 -22.5s-21 -28.5 -21 -40.5
c0 -50 20.667 -75 62 -75c16.667 0 32.834 4.83301 48.501 14.5s23.5 22.167 23.5 37.5z" />
    <glyph glyph-name="u0649" unicode="&#x649;" horiz-adv-x="1243" arabic-form="isolated" 
d="M1241 579c0 -8 -8.33008 -28.501 -24.9971 -61.501s-26.667 -49.5 -30 -49.5c17.333 0 7.83301 7.66699 -28.5 23s-60.5 23 -72.5 23c-36 0 -91.333 -30 -166 -90c-75.333 -62 -113 -110 -113 -144c0 -41.333 25 -71 75 -89c30 -10.667 80.667 -19.667 152 -27
c66 -6.66699 105 -13.667 117 -21c27.333 -16.667 41 -48 41 -94c0 -125.333 -98.667 -234 -296 -326c-112.667 -52.667 -235.667 -79 -369 -79c-112.667 0 -199 34.667 -259 104c-57.333 65.333 -86 155 -86 269c0 54.667 14.333 116 43 184c20 46.667 39 81.667 57 105
c8 10 15 15 21 15c4.66699 0 7 -3 7 -9c0 -3.33301 -1.66699 -8 -5 -14c-41.333 -75.333 -62 -149.333 -62 -222c0 -90 35.333 -160 106 -210c62 -43.333 140 -65 234 -65c112 0 208.333 15 289 45c135.333 50 218.666 101 249.999 153c3.33301 6 3.33301 10.333 0 13
c-4 4 -12.333 5.66699 -25 5c-52.667 -1.33301 -104.334 1 -155.001 7c-133.333 16.667 -200 68.334 -200 155.001c0 91.333 49.333 197 148 317c26 31.333 62.333 65 109 101c59.333 45.333 105.666 68 138.999 68c19.333 0 41.5 -9.66699 66.5 -29s37.5 -38.333 37.5 -57z
" />
    <glyph glyph-name="u064A" unicode="&#x64a;" horiz-adv-x="1243" arabic-form="isolated" 
d="M1241 579c0 -8 -8.33008 -28.501 -24.9971 -61.501s-26.667 -49.5 -30 -49.5c17.333 0 7.83301 7.66699 -28.5 23s-60.5 23 -72.5 23c-36 0 -91.333 -30 -166 -90c-75.333 -62 -113 -110 -113 -144c0 -41.333 25 -71 75 -89c30 -10.667 80.667 -19.667 152 -27
c66 -6.66699 105 -13.667 117 -21c27.333 -16.667 41 -48 41 -94c0 -125.333 -98.667 -234 -296 -326c-112.667 -52.667 -235.667 -79 -369 -79c-112.667 0 -199 34.667 -259 104c-57.333 65.333 -86 155 -86 269c0 54.667 14.333 116 43 184c20 46.667 39 81.667 57 105
c8 10 15 15 21 15c4.66699 0 7 -3 7 -9c0 -3.33301 -1.66699 -8 -5 -14c-41.333 -75.333 -62 -149.333 -62 -222c0 -90 35.333 -160 106 -210c62 -43.333 140 -65 234 -65c112 0 208.333 15 289 45c135.333 50 218.666 101 249.999 153c3.33301 6 3.33301 10.333 0 13
c-4 4 -12.333 5.66699 -25 5c-52.667 -1.33301 -104.334 1 -155.001 7c-133.333 16.667 -200 68.334 -200 155.001c0 91.333 49.333 197 148 317c26 31.333 62.333 65 109 101c59.333 45.333 105.666 68 138.999 68c19.333 0 41.5 -9.66699 66.5 -29s37.5 -38.333 37.5 -57z
" />
    <glyph glyph-name="u067E" unicode="&#x67e;" horiz-adv-x="1430" arabic-form="isolated" 
d="M949 -315l-90 -83l-89 83l89 81zM732 -315l-91 -83l-88 83l88 81zM846 -465l-90 -83l-90 83l90 83zM1431 318c0 -67.333 -16.001 -121.667 -48.001 -163c-52 -67.333 -156.333 -121 -313 -161c-125.333 -32 -244.333 -48 -357 -48h-132
c-103.333 0 -190.666 17.667 -261.999 53c-92 45.333 -138 114.666 -138 207.999c0 39.333 8.66699 81.333 26 126c18 48 40.667 84 68 108c9.33301 8 16.666 12 21.999 12s8 -3 8 -9c0 -5.33301 -2 -11.666 -6 -18.999c-26.667 -50.667 -40 -98 -40 -142
c0 -69.333 61 -120 183 -152c79.333 -20.667 167.333 -31 264 -31c220.667 0 412 32.333 574 97c60 24 90 41.333 90 52c0 20.667 -40.333 71.334 -121 152.001l50 116c4.66699 10.667 11.334 12 20.001 4c74.667 -70.667 112 -138.334 112 -203.001z" />
    <glyph glyph-name="u0686" unicode="&#x686;" horiz-adv-x="1145" arabic-form="isolated" 
d="M891 -245l-90 -83l-90 83l90 82zM674 -245l-90 -83l-89 83l89 82zM787 -395l-89 -82l-89 82l89 83zM1314 -675c-2.66699 -0.666992 -84.0029 -35.998 -244.003 -105.998c-72 -31.333 -162.667 -47 -272 -47c-411.333 0 -617 147.667 -617 443
c0 118.667 30.667 234.667 92 348c37.333 68 90.333 131.333 159 190l121 96l-123 9c-70.667 5.33301 -124.667 -18.334 -162 -71.001c-19.333 -27.333 -33.333 -41 -42 -41c-4.66699 0 -7 4 -7 12c0 12 5 32 15 60c44.667 125.333 124.334 188 239.001 188
c36.667 0 91.834 -3.5 165.501 -10.5s128.834 -10.5 165.501 -10.5c82 0 157.667 4.33301 227 13c25.333 3.33301 38 1 38 -7c-0.666992 -4.66699 -3 -12.667 -7 -24c-14.667 -41.333 -32.334 -85 -53.001 -131c-269.333 0 -466.666 -70.333 -591.999 -211
c-92 -103.333 -138 -222 -138 -356c0 -226.667 192.667 -340 578 -340c177.333 0 325 7.66699 443 23c27.333 3.33301 41 1 41 -7c0 -6.66699 -9 -13.334 -27 -20.001z" />
    <glyph glyph-name="u0698" unicode="&#x698;" horiz-adv-x="744" arabic-form="isolated" 
d="M594 840l-89 -84l-90 84l90 83zM708 690l-89 -82l-91 82l91 83zM491 690l-90 -82l-89 82l89 83zM740 154c0 -110.667 -39.668 -220.999 -119.001 -330.999c-86 -118.667 -182.333 -178 -289 -178c-67.333 0 -142.666 22 -225.999 66c-6.66699 3.33301 -9.66699 9 -9 17
c0 8 3 12 9 12h76c136 0 255.333 53.333 358 160c94.667 98.667 142 177.667 142 237c0 34 -45.333 87.333 -136 160c5.33301 33.333 14.333 81.666 27 144.999c40 -22.667 75 -55 105 -97c41.333 -57.333 62 -121 62 -191z" />
    <glyph glyph-name="u06AF" unicode="&#x6af;" horiz-adv-x="1602" arabic-form="isolated" 
d="M1624 1430l0.000976562 -44.001c-6 -32.667 -12.333 -50.667 -19 -54l-583 -308l-2 43c3.33301 32 7.66602 49.333 12.999 52c22.667 10.667 219.667 114.334 591 311.001zM1021 107.999c218.667 48 328.002 103.328 328.002 165.995c0 42.667 -52 98.334 -156 167.001
c-148.667 98 -226.334 150 -233.001 156c-13.333 12 -17.333 50 -12 114c7.33301 89.333 50.666 161.666 129.999 216.999c92 64 262.333 157 511 279c3.33301 1.33301 5 -2.66699 5 -12c0 -11.333 -3.33301 -33.333 -10 -66c-7.33301 -36 -13.666 -55 -18.999 -57
c-12.667 -4.66699 -87.667 -42.667 -225 -114c-142.667 -74.667 -228.334 -121.667 -257.001 -141c-54.667 -37.333 -82 -61.666 -82 -72.999c10.667 -9.33301 42.667 -31.666 96 -66.999c76.667 -51.333 133 -93.333 169 -126c50 -46 81.667 -80.667 95 -104
c22.667 -39.333 34 -93.666 34 -162.999c0 -64.667 -12 -114.667 -36 -150c-44.667 -66 -169 -121.667 -373 -167c-120 -26.667 -247.667 -40 -383 -40c-110 0 -201.667 17 -275 51c-98 45.333 -147 117 -147 215c0 80 28.667 153.667 86 221c11.333 13.333 20.333 20 27 20
c5.33301 0 8 -3.66699 8 -11s-3.33301 -17.666 -10 -30.999c-23.333 -47.333 -35 -90.333 -35 -129c0 -71.333 61 -122.666 183 -153.999c76 -19.333 163.667 -29 263 -29c126.667 0 232.667 9.33301 318 28z" />
    <glyph glyph-name="uFB57" unicode="&#x67e;" horiz-adv-x="1492" arabic-form="final" 
d="M948 -319l-89 -83l-90 83l90 81zM731 -319l-91 -83l-89 83l89 81zM845 -469l-90 -83l-90 83l90 83zM1522 1l-56.999 -0.000976562c-38 0 -72.833 12.833 -104.5 38.5s-52.834 56.834 -63.501 93.501c-80.667 -66 -184 -117.333 -310 -154c-114 -33.333 -229 -50 -345 -50
c-118.667 0 -217.667 17 -297 51c-109.333 46.667 -164 121.667 -164 225c0 96.667 30 174.667 90 234c8.66699 8.66699 15.667 11.667 21 9c6 -2 7 -8 3 -18l-24 -58c-10.667 -26 -16 -51.667 -16 -77c0 -138.667 153 -208 459 -208c202 0 371 39.333 507 118
c37.333 22 76.333 50.667 117 86c11.333 10 19.333 15 24 15c6.66699 0 7 -11.667 1 -35c-2 -8 -3 -16 -3 -24c0 -58.667 45.667 -88 137 -88h25v-158z" />
    <glyph glyph-name="uFB58" unicode="&#x67e;" horiz-adv-x="399" arabic-form="initial" 
d="M405 -280l-89 -83l-89 83l89 83zM189 -280l-90 -83l-89 83l89 83zM303 -429l-91 -82l-88 82l88 83zM281 252c0 -100.667 -26.001 -170.333 -78.001 -209c-38 -28 -96.333 -42 -175 -42h-58v158h80c116.667 0 174.334 10.667 173.001 32c-2 33.333 -27 80 -75 140l41 121
c5.33301 16 12.333 20 21 12c2 -2 3.66699 -4 5 -6c44 -61.333 66 -130 66 -206z" />
    <glyph glyph-name="uFB59" unicode="&#x67e;" horiz-adv-x="458" arabic-form="medial" 
d="M431 -272l-88 -83l-90 83l90 83zM215 -272l-90 -83l-90 83l90 83zM329 -421l-90 -83l-89 83l89 83zM488 1l-61.998 0.000976562c-96.667 0 -167.334 39.333 -212.001 118c-48.667 -78.667 -109.334 -118 -182.001 -118h-62v158h38c63.333 0 102.333 1.66699 117 5
c33.333 7.33301 58 26.666 74 57.999l48 96c4.66699 9.33301 10.667 14 18 14c9.33301 0 12.333 -6.33301 9 -19c-26 -102.667 34.333 -154 181 -154h33v-158z" />
    <glyph glyph-name="uFB7B" unicode="&#x686;" horiz-adv-x="1175" arabic-form="final" 
d="M894 -232l-89 -83l-90 83l90 83zM678 -232l-91 -83l-88 83l88 83zM791 -381l-90 -82l-89 82l89 82zM1316 -654c-73.333 -34 -155.668 -70 -247.001 -108c-75.333 -31.333 -166.333 -47 -273 -47c-410 0 -615 157 -615 471c0 253.333 122.667 461.666 368 624.999
c-53.333 5.33301 -92.333 8 -117 8c-69.333 0 -129.666 -28 -180.999 -84c-10 -10.667 -18.333 -18.334 -25 -23.001c-6 -2.66699 -9.33301 -1 -10 5c-0.666992 4.66699 1 13.667 5 27c42.667 148 124 222 244 222c38.667 0 96.5 -3.66699 173.5 -11s134.833 -11 173.5 -11
c58.667 0 130.334 5 215.001 15c18 2 29 2.33301 33 1c4 -2 4.66699 -8.33301 2 -19c-4.66699 -18 -23 -64.667 -55 -140c-28.667 -1.33301 -61.334 -3 -98.001 -5c-1.33301 -12 -2 -22.667 -2 -32c0 -54 22.667 -81 68 -81h209v-158h-95c-73.333 0 -127 8 -161 24
c-52 24.667 -78 70.334 -78 137.001c0 16.667 3 51.334 9 104.001c-191.333 -12 -342 -83 -452 -213c-84.667 -100 -127 -212 -127 -336c0 -245.333 191.667 -368 575 -368c184 0 331 7.33301 441 22c29.333 4 44 1.66699 44 -7c0 -7.33301 -8 -13.333 -24 -18z" />
    <glyph glyph-name="uFB7C" unicode="&#x686;" horiz-adv-x="1018" arabic-form="initial" 
d="M772 -245l-88 -83l-90 83l90 82zM556 -245l-90 -83l-90 83l90 82zM670 -395l-90 -82l-89 82l89 83zM1011 285c-16.667 -57.333 -32.335 -91.667 -47.002 -103c-33.333 -26.667 -88 -37.667 -164 -33c-92 5.33301 -151.667 3.33301 -179 -6l-175 -61
c-94 -32 -150.333 -50.333 -169 -55c-70 -17.333 -150.333 -26 -241 -26h-66v158h106c98.667 0 195 10 289 30c36.667 8 114 29 232 63c-145.333 64 -241 96 -287 96c-36 0 -69.667 -10.667 -101 -32c-27.333 -18.667 -45.333 -28 -54 -28c-5.33301 0 -8 3 -8 9
c0 12.667 12.667 41 38 85c42.667 73.333 98.334 110 167.001 110c36 0 92.333 -19 169 -57c94 -46.667 150.333 -73 169 -79c90.667 -29.333 168.334 -44 233.001 -44c18.667 0 36.667 1.33301 54 4c26.667 4 40 2 40 -6c0 -2.66699 -2 -11 -6 -25z" />
    <glyph glyph-name="uFB7D" unicode="&#x686;" horiz-adv-x="1058" arabic-form="medial" 
d="M724 -249l-89 -83l-90 83l90 83zM508 -249l-91 -83l-88 83l88 83zM621 -398l-90 -83l-89 83l89 82zM1088 1h-105.004c-128.667 0 -198 45.667 -208 137l-2 96c-59.333 -3.33301 -181.666 -49 -366.999 -137c-71.333 -34 -121 -55.667 -149 -65
c-61.333 -20.667 -126.333 -31 -195 -31h-92v158h94c104 0 200.333 17 289 51l212 85c-144.667 46 -238 69 -280 69c-32 0 -62.667 -10 -92 -30c-33.333 -22.667 -51.666 -33.334 -54.999 -32.001c-2 0.666992 -3 3.33398 -3 8.00098c0 19.333 11 48 33 86
c46 79.333 100 119 162 119c36 0 90.333 -13.667 163 -41c88 -33.333 142.667 -52.333 164 -57c80.667 -18 168 -23.667 262 -17c6.66699 0.666992 12.334 1 17.001 1c12.667 0.666992 20.334 -1 23.001 -5c2 -4 1.66699 -13.667 -1 -29
c-9.33301 -56.667 -19.333 -94.334 -30 -113.001c-24 -1.33301 -59.667 -5.66602 -107 -12.999c0 -54.667 25.667 -82 77 -82h190v-158z" />
    <glyph glyph-name="uFB8B" unicode="&#x698;" horiz-adv-x="816" arabic-form="final" 
d="M699 615l-89 -82l-90 82l90 83zM814 467l-90 -83l-89 83l89 82zM597 467l-91 -83l-89 83l89 82zM846 1l-62.998 -0.00195312c-24.667 -101.333 -65.334 -196.666 -122.001 -285.999c-34 -53.333 -77 -98 -129 -134c-58.667 -40.667 -116.334 -61 -173.001 -61
c-51.333 0 -133.666 29.667 -246.999 89c-12.667 6.66699 -19 13.334 -19 20.001c0 8 7.66699 12 23 12c17.333 0 43.5 -1.5 78.5 -4.5s61.167 -4.5 78.5 -4.5c73.333 0 139.666 19.667 198.999 59c39.333 26 89.666 76.333 150.999 151
c64.667 78.667 97.334 134 98.001 166c-14 10 -50.667 41 -110 93c10.667 34 24.667 75 42 123c58 -43.333 111.667 -65 161 -65h32v-158z" />
    <glyph glyph-name="uFEDA" unicode="&#x6a9;" horiz-adv-x="1813" arabic-form="final" 
d="M1843 1l-63.0029 -0.000976562c-41.333 0 -103.666 45 -186.999 135c-111.333 120.667 -185.666 194.334 -222.999 221.001c5.33301 -12 8 -37.667 8 -77c0 -110.667 -111 -206.667 -333 -288c-140 -51.333 -290.333 -77 -451 -77c-110 0 -201.333 18.667 -274 56
c-92.667 47.333 -139 121.333 -139 222c0 68.667 29 138.667 87 210c11.333 14 20.333 21 27 21c4.66699 0 7 -3.33301 7 -10c0 -6 -7.83301 -28.167 -23.5 -66.5s-23.5 -68.166 -23.5 -89.499c0 -72 56.333 -124 169 -156c70.667 -20 154.334 -30 251.001 -30
c161.333 0 311.333 26 450 78c44.667 16.667 87.667 38 129 64c50.667 32 76 58 76 78c0 59.333 -78.667 128 -236 206c-86.667 42.667 -141 76.667 -163 102c-14 16 -20.333 49.667 -19 101c2 76.667 57.667 156.667 167 240c84.667 64.667 197.334 130 338.001 196
l280 128c3.33301 1.33301 5 -3 5 -13c0 -12.667 -3.33301 -36 -10 -70c-7.33301 -38 -14 -58 -20 -60c-8.66699 -2.66699 -107.334 -52.667 -296.001 -150c-195.333 -100.667 -305 -159 -329 -175c-52 -34.667 -78 -60 -78 -76c0 -6.66699 19.333 -19.334 58 -38.001
l152 -73c38 -18 112.333 -63.333 223 -136c46 -30 133.667 -105.333 263 -226l59 -58c22 -20.667 48 -31 78 -31h41v-158z" />
    <glyph glyph-name="uFEDB" unicode="&#x6a9;" horiz-adv-x="545" arabic-form="initial" 
d="M705 1216c4.66699 2 6.99902 -2.00098 6.99902 -12.001s-4.33301 -34 -13 -72s-15 -58 -19 -60c-11.333 -3.33301 -86.333 -41.333 -225 -114c-144 -75.333 -229.667 -122.333 -257 -141c-52.667 -36 -79 -58.667 -79 -68c9.33301 -7.33301 38.333 -26.666 87 -57.999
c70.667 -45.333 130 -88 178 -128c84 -70.667 126 -163.667 126 -279c0 -64 -12.333 -114 -37 -150c-18 -26.667 -50.667 -51.667 -98 -75c-78 -38.667 -173.333 -58 -286 -58h-119v158h114c68 0 140 7.33301 216 22c113.333 22 170 53 170 93
c0 50 -46.333 108.333 -139 175l-229 157c-19.333 13.333 -29 48.333 -29 105c0 93.333 40 168 120 224c96.667 67.333 267.334 161 512.001 281z" />
    <glyph glyph-name="uFEDC" unicode="&#x6a9;" horiz-adv-x="960" arabic-form="medial" 
d="M990 1l-67 0.000976562c-50 0 -118.667 45.667 -206 137c-133.333 139.333 -207.333 215.333 -222 228c7.33301 -17.333 11 -54.333 11 -111c0 -169.333 -121 -254 -363 -254h-173v158h155c213.333 0 320 39.667 320 119c0 44.667 -9.66699 78 -29 100
c-37.333 42.667 -98 86.667 -182 132l-141 75c-34 26.667 -49 71 -45 133c6 84 40 148 102 192c38.667 27.333 150.667 91.333 336 192c169.333 92 282.666 151.667 339.999 179c2.66699 1.33301 4 -2.66699 4 -12c0 -15.333 -3 -39.333 -9 -72
c-7.33301 -38.667 -13.666 -59 -18.999 -61c-14 -4.66699 -113.333 -54.334 -298 -149.001c-188 -96 -297.333 -154.333 -328 -175c-52.667 -34.667 -79 -60 -79 -76c0 -6.66699 19.333 -18.667 58 -36c79.333 -36 130.666 -59.667 153.999 -71
c62.667 -30.667 139 -80.667 229 -150c30.667 -23.333 117.334 -100.333 260.001 -231l61 -58c28 -20.667 60.333 -31 97 -31h34v-158z" />
    <glyph glyph-name="uFB93" unicode="&#x6af;" horiz-adv-x="1822" arabic-form="final" 
d="M1755 1486v-44c-6 -32.667 -12.333 -50.667 -19 -54l-739 -374l-2 44c2.66699 32 6.66699 49.333 12 52zM1134 150c43.333 16 85.6641 37.3281 126.997 63.9951c50.667 32 76 58 76 78c0 52.667 -79.667 119.667 -239 201c-82.667 42 -135.667 76.667 -159 104
c-16.667 19.333 -20.667 59.333 -12 120c6 43.333 19.333 78 40 104c10 12.667 38.333 39.334 85 80.001c57.333 50 275 168.333 653 355c3.33301 1.33301 5 -3 5 -13c0 -11.333 -3.33301 -33.333 -10 -66c-7.33301 -35.333 -13.333 -53.666 -18 -54.999
c-39.333 -13.333 -153.666 -70 -342.999 -170c-216.667 -114.667 -337 -191.667 -361 -231c162 -68 307 -150.333 435 -247c51.333 -38.667 138 -114 260 -226c11.333 -11.333 32.333 -30.666 63 -57.999c24 -20.667 51.333 -31 82 -31h34v-158h-53
c-45.333 0 -110.333 45 -195 135c-113.333 120.667 -188.666 194.334 -225.999 221.001c8.66699 -18 13 -45.667 13 -83c0 -107.333 -112.333 -202.333 -337 -285c-134 -49.333 -284.333 -74 -451 -74c-110 0 -202.333 18.667 -277 56c-96.667 48.667 -145 122.667 -145 222
c0 68.667 29 138.667 87 210c11.333 14 20.333 21 27 21c4.66699 0 7 -3.33301 7 -10c0 -6 -7.83301 -28.167 -23.5 -66.5s-23.5 -68.166 -23.5 -89.499c0 -72 56.333 -124 169 -156c70.667 -20 154.334 -30 251.001 -30c167.333 0 320.333 26 459 78z" />
    <glyph glyph-name="uFB94" unicode="&#x6af;" horiz-adv-x="693" arabic-form="initial" 
d="M736 1433c0 -15.333 -0.333008 -30.668 -1 -46.001c-5.33301 -32.667 -11.333 -51 -18 -55l-582 -308c-0.666992 14.667 -1.66699 29.334 -3 44.001c3.33301 31.333 7.33301 48.333 12 51zM701 1207c3.33301 1.33301 4.99609 -2.66797 4.99609 -12.001
c0 -10 -3.33301 -32 -10 -66c-7.33301 -36 -13.666 -55 -18.999 -57c-82.667 -27.333 -244.667 -114 -486 -260c-35.333 -21.333 -58.333 -43.333 -69 -66c96 -50 182.333 -111 259 -183c46 -43.333 77 -80.666 93 -111.999c22 -43.333 33 -99 33 -167
c0 -64 -12.333 -114 -37 -150c-18 -26.667 -50.667 -51.667 -98 -75c-78 -38.667 -173.333 -58 -286 -58h-116v158h111c69.333 0 140.333 6.66699 213 20c111.333 20.667 167 51 167 91c0 48 -45.333 103.667 -136 167l-225 148
c-11.333 7.33301 -19.666 23.666 -24.999 48.999c-4.66699 22 -6 41 -4 57c8 55.333 16.333 95 25 119c14.667 38.667 39.334 70.334 74.001 95.001c38.667 27.333 126.334 79.5 263.001 156.5s226 125.5 268 145.5z" />
    <glyph glyph-name="uFB95" unicode="&#x6af;" horiz-adv-x="964" arabic-form="medial" 
d="M878 1500c0 -14.667 -0.333008 -29.334 -1 -44.001c-5.33301 -32 -11.333 -49.667 -18 -53c-145.333 -79.333 -393 -205.666 -743 -378.999l-2 44c3.33301 32 7.33301 49.333 12 52zM994 1l-70.002 -0.000976562c-47.333 0 -114.666 45.667 -201.999 137
c-129.333 135.333 -204.666 211.333 -225.999 228c10 -21.333 15 -55 15 -101c0 -176 -122.333 -264 -367 -264h-174v158h156c212.667 0 319 39.667 319 119c0 44.667 -9.66699 78 -29 100c-36 41.333 -96.333 84 -181 128c-96 50 -151.667 81.333 -167 94
c-19.333 16 -25.333 55.333 -18 118c8.66699 78 45 139.333 109 184c38 26.667 149 90 333 190c174 94.667 286 154 336 178c3.33301 1.33301 5 -2.66699 5 -12c0 -12 -3.33301 -34 -10 -66c-7.33301 -35.333 -13.666 -54 -18.999 -56c-66 -22 -171.667 -71 -317 -147
c-136.667 -72 -239.334 -131 -308.001 -177c-52.667 -35.333 -79 -60.666 -79 -75.999c0 -6.66699 19 -18.667 57 -36c83.333 -38 134.333 -61.667 153 -71c139.333 -70 302.666 -197 489.999 -381c60.667 -59.333 111.334 -89 152.001 -89h42v-158z" />
    <glyph glyph-name="uFE94" unicode="&#x6c0;" horiz-adv-x="799" arabic-form="final" 
d="M736 932l-98 -90l-97 88l98 90zM523 930l-100 -90l-96 88l99 90zM808 1h-79.999c-54.667 0 -97.667 32.333 -129 97l-51 143c-36.667 -45.333 -58.667 -71 -66 -77c-32 -26 -72.333 -39 -121 -39c-120 0 -180 15 -180 45c0 28 22.333 72.333 67 133
c22 30 67.667 69.333 137 118c60 42 100.667 67.333 122 76l-20 114c14.667 30.667 27 60.667 37 90c5.33301 16 9.66602 24.333 12.999 25c2.66699 -2 5 -8 7 -18c38.667 -194 68.667 -335.667 90 -425c10.667 -44.667 24.667 -75.667 42 -93c20 -20.667 51.667 -31 95 -31
h37v-158zM542.001 295l-22 104c-14.667 0 -50 -17 -106 -51c-53.333 -32 -87.333 -55.667 -102 -71c14 -8.66699 44.333 -13 91 -13c54 0 100.333 10.333 139 31z" />
    <glyph glyph-name="uFEF2" unicode="&#x6cc;" horiz-adv-x="1191" arabic-form="final" 
d="M1221 1l-73 0.000976562c-98.667 0 -174.334 -13.667 -227.001 -41c-19.333 -10 -29 -18.333 -29 -25c0 -7.33301 9.66699 -13 29 -17c49.333 -10 106.666 -23.333 171.999 -40c28.667 -7.33301 48.334 -19 59.001 -35c6 -9.33301 9 -26.333 9 -51
c0 -86.667 -80 -171.334 -240 -254.001c-125.333 -64.667 -256.333 -97 -393 -97c-106.667 0 -190.667 29 -252 87c-63.333 59.333 -95 142 -95 248c0 49.333 12.833 104.166 38.5 164.499s56.167 106.5 91.5 138.5c6.66699 6 12.334 8 17.001 6
s4.33398 -7.66699 -0.999023 -17c-48 -86 -72 -167 -72 -243c0 -82 40 -142.667 120 -182c61.333 -30 137.666 -45 228.999 -45c164 0 303 39 417 117c12 8 18 15.333 18 22c0 7.33301 -6 12.333 -18 15c-32 6 -90 18.667 -174 38c-68 16.667 -102 49.334 -102 98.001
c0 75.333 53.667 141.333 161 198c92 48.667 179.667 73 263 73h52v-158z" />
    <glyph glyph-name="uFEF3" unicode="&#x6cc;" horiz-adv-x="399" arabic-form="initial" 
d="M419 -208l-97 -90l-98 88l98 89zM206 -210l-99 -91l-97 89l99 90zM281 252c0 -100.667 -26.001 -170.333 -78.001 -209c-38 -28 -96.333 -42 -175 -42h-58v158h80c116.667 0 174.334 10.667 173.001 32c-2 33.333 -27 80 -75 140l41 121c5.33301 16 12.333 20 21 12
c2 -2 3.66699 -4 5 -6c44 -61.333 66 -130 66 -206z" />
    <glyph glyph-name="uFEF4" unicode="&#x6cc;" horiz-adv-x="458" arabic-form="medial" 
d="M425 -220l-97 -90l-98 87l98 90zM212 -223l-100 -90l-95 89l98 90zM488 1l-61.998 0.000976562c-96.667 0 -167.334 39.333 -212.001 118c-48.667 -78.667 -109.334 -118 -182.001 -118h-62v158h38c63.333 0 102.333 1.66699 117 5c33.333 7.33301 58 26.666 74 57.999
l48 96c4.66699 9.33301 10.667 14 18 14c9.33301 0 12.333 -6.33301 9 -19c-3.33301 -14.667 -5 -28.667 -5 -42c0 -74.667 62 -112 186 -112h33v-158z" />
    <glyph glyph-name="Hcircumflex" unicode="&#x622;" horiz-adv-x="695" arabic-form="final" 
d="M728 1l-63 -0.000976562c-99.333 0 -170.333 37.667 -213 113c-30 52 -51 139.333 -63 262l-42 417c-14 136 -29.667 224 -47 264c16 30.667 38.667 82.334 68 155.001c4.66699 12 9.66699 18 15 18c4.66699 0 7.66699 -6 9 -18l104 -876c14 -118 74.333 -177 181 -177
h51v-158zM621 1549c-26.667 -81.333 -65.332 -121.998 -115.999 -121.998c-33.333 0 -82.833 6.66699 -148.5 20s-115.167 20 -148.5 20c-16 0 -36 -9.66699 -60 -29l-36 -28c-4 0 -4.33301 8.66699 -1 26c5.33301 25.333 17.666 49.666 36.999 72.999
c27.333 32.667 62.333 49 105 49c25.333 0 64 -6.83301 116 -20.5s91.667 -20.5 119 -20.5c53.333 0 94.333 17.333 123 52v0c2.66699 3.33301 5.66699 5.66602 9 6.99902s5.33301 0.333008 6 -3c0.666992 -4 -1 -12 -5 -24z" />
    <glyph glyph-name="uFE84" unicode="&#x623;" horiz-adv-x="666" arabic-form="final" 
d="M698 1l-63 -0.000976562c-99.333 0 -170.333 37.667 -213 113c-30 52 -51 139.333 -63 262l-42 417c-14 136 -29.667 224 -47 264c16 30.667 38.667 82.334 68 155.001c4.66699 12 9.66699 18 15 18c4.66699 0 7.66699 -6 9 -18l104 -876c14 -118 74.333 -177 181 -177
h51v-158zM453 1525c4.66699 1.33301 6.99902 -1.66602 6.99902 -8.99902c0 -6.66699 -2.33301 -17.667 -7 -33c-4.66699 -17.333 -9 -26.333 -13 -27c-37.333 -8.66699 -87 -22.334 -149 -41.001c-32.667 -10 -70.334 -29 -113.001 -57c-12 -8 -22.333 -12 -31 -12
c-9.33301 0 -14 3.66699 -14 11c0 9.33301 15.333 27.333 46 54c22 19.333 34.667 32 38 38c-46 26 -69 50.333 -69 73c0 30.667 21 66 63 106c46.667 44 95.334 66 146.001 66c26 0 39 -16.667 39 -50c0 -32 -13.333 -48 -40 -48c-1.33301 0 -9.66602 3.83301 -24.999 11.5
s-29 11.5 -41 11.5c-11.333 0 -24.333 -4.33301 -39 -13c-16.667 -9.33301 -25 -19.333 -25 -30c0 -46 34.667 -69 104 -69c35.333 0 76.333 6 123 18z" />
    <glyph glyph-name="uFE86" unicode="&#x624;" horiz-adv-x="864" arabic-form="final" 
d="M889 0h-99.999c-4 -32 -19.667 -76.667 -47 -134c-25.333 -54 -49.333 -95.333 -72 -124c-88.667 -112 -182.667 -168 -282 -168c-96 0 -189 33.667 -279 101c-8.66699 6.66699 -13 13.667 -13 21c0 10.667 7.33301 14.667 22 12c58.667 -11.333 110 -17 154 -17
c99.333 0 184.666 26.333 255.999 79c30 22 64.667 54.667 104 98c50.667 55.333 79 99.333 85 132c-85.333 -0.666992 -141 2 -167 8c-74.667 17.333 -112 54 -112 110c0 40 19.333 91.333 58 154c44 72 89.333 108 136 108c44 0 83.333 -33 118 -99
c24 -46 38.333 -86.667 43 -122h96v-159zM699.001 147c-13.333 69.333 -43.998 104 -91.998 104c-41.333 0 -70.333 -25 -87 -75c13.333 -28.667 44.666 -43 93.999 -43c33.333 0 61.666 4.66699 84.999 14zM721.003 753c4.66699 1.33301 6.99902 -1.66602 6.99902 -8.99902
c0 -6.66699 -2.33301 -17.667 -7 -33c-4.66699 -17.333 -9 -26.333 -13 -27c-37.333 -8.66699 -87 -22.334 -149 -41.001c-32.667 -10 -70.334 -29 -113.001 -57c-12 -8 -22.333 -12 -31 -12c-9.33301 0 -14 3.66699 -14 11c0 9.33301 15.333 27.333 46 54
c22 19.333 34.667 32 38 38c-46 26 -69 50.333 -69 73c0 30.667 21 66 63 106c46.667 44 95.334 66 146.001 66c26 0 39 -16.667 39 -50c0 -32 -13.333 -48 -40 -48c-1.33301 0 -9.66602 3.83301 -24.999 11.5s-29 11.5 -41 11.5c-11.333 0 -24.333 -4.33301 -39 -13
c-16.667 -9.33301 -25 -19.333 -25 -30c0 -46 34.667 -69 104 -69c35.333 0 76.333 6 123 18z" />
    <glyph glyph-name="uFE88" unicode="&#x625;" horiz-adv-x="666" arabic-form="final" 
d="M698 1l-63 -0.000976562c-99.333 0 -170.333 37.667 -213 113c-30 52 -51 139.333 -63 262l-42 417c-14 136 -29.667 224 -47 264c16 30.667 38.667 82.334 68 155.001c4.66699 12 9.66699 18 15 18c4.66699 0 7.66699 -6 9 -18l104 -876c14 -118 74.333 -177 181 -177
h51v-158zM581 -279.001c4.66699 1.33301 6.99902 -1.66602 6.99902 -8.99902c0 -6.66699 -2.33301 -17.667 -7 -33c-4.66699 -17.333 -9 -26.333 -13 -27c-37.333 -8.66699 -87 -22.334 -149 -41.001c-32.667 -10 -70.334 -29 -113.001 -57c-12 -8 -22.333 -12 -31 -12
c-9.33301 0 -14 3.66699 -14 11c0 9.33301 15.333 27.333 46 54c22 19.333 34.667 32 38 38c-46 26 -69 50.333 -69 73c0 30.667 21 66 63 106c46.667 44 95.334 66 146.001 66c26 0 39 -16.667 39 -50c0 -32 -13.333 -48 -40 -48c-1.33301 0 -9.66602 3.83301 -24.999 11.5
s-29 11.5 -41 11.5c-11.333 0 -24.333 -4.33301 -39 -13c-16.667 -9.33301 -25 -19.333 -25 -30c0 -46 34.667 -69 104 -69c35.333 0 76.333 6 123 18z" />
    <glyph glyph-name="uFE8A" unicode="&#x626;" horiz-adv-x="1191" arabic-form="final" 
d="M1221 1l-73 0.000976562c-98.667 0 -174.334 -13.667 -227.001 -41c-19.333 -10 -29 -18.333 -29 -25c0 -7.33301 9.66699 -13 29 -17c49.333 -10 106.666 -23.333 171.999 -40c28.667 -7.33301 48.334 -19 59.001 -35c6 -9.33301 9 -26.333 9 -51
c0 -86.667 -80 -171.334 -240 -254.001c-125.333 -64.667 -256.333 -97 -393 -97c-106.667 0 -190.667 29 -252 87c-63.333 59.333 -95 142 -95 248c0 49.333 12.833 104.166 38.5 164.499s56.167 106.5 91.5 138.5c6.66699 6 12.334 8 17.001 6
s4.33398 -7.66699 -0.999023 -17c-48 -86 -72 -167 -72 -243c0 -82 40 -142.667 120 -182c61.333 -30 137.666 -45 228.999 -45c164 0 303 39 417 117c12 8 18 15.333 18 22c0 7.33301 -6 12.333 -18 15c-32 6 -90 18.667 -174 38c-68 16.667 -102 49.334 -102 98.001
c0 75.333 53.667 141.333 161 198c92 48.667 179.667 73 263 73h52v-158zM522 361.001c4.66699 1.33301 6.99902 -1.66602 6.99902 -8.99902c0 -6.66699 -2.33301 -17.667 -7 -33c-4.66699 -17.333 -9 -26.333 -13 -27c-37.333 -8.66699 -87 -22.334 -149 -41.001
c-32.667 -10 -70.334 -29 -113.001 -57c-12 -8 -22.333 -12 -31 -12c-9.33301 0 -14 3.66699 -14 11c0 9.33301 15.333 27.333 46 54c22 19.333 34.667 32 38 38c-46 26 -69 50.333 -69 73c0 30.667 21 66 63 106c46.667 44 95.334 66 146.001 66c26 0 39 -16.667 39 -50
c0 -32 -13.333 -48 -40 -48c-1.33301 0 -9.66602 3.83301 -24.999 11.5s-29 11.5 -41 11.5c-11.333 0 -24.333 -4.33301 -39 -13c-16.667 -9.33301 -25 -19.333 -25 -30c0 -46 34.667 -69 104 -69c35.333 0 76.333 6 123 18z" />
    <glyph glyph-name="uFE8B" unicode="&#x626;" horiz-adv-x="338" arabic-form="initial" 
d="M281 252c0 -100.667 -26.001 -170.333 -78.001 -209c-38 -28 -96.333 -42 -175 -42h-58v158h80c116.667 0 174.334 10.667 173.001 32c-2 33.333 -27 80 -75 140l41 121c5.33301 16 12.333 20 21 12c2 -2 3.66699 -4 5 -6c44 -61.333 66 -130 66 -206zM360.999 849.001
c4.66699 1.33301 6.99805 -1.66602 6.99805 -8.99902c0 -6.66699 -2.33301 -17.667 -7 -33c-4.66699 -17.333 -9 -26.333 -13 -27c-37.333 -8.66699 -87 -22.334 -149 -41.001c-32.667 -10 -70.334 -29 -113.001 -57c-12 -8 -22.333 -12 -31 -12
c-9.33301 0 -14 3.66699 -14 11c0 10 15.333 28.333 46 55c22.667 20 35.334 32.333 38.001 37c-46 26 -69 50.333 -69 73c0 30.667 21 66 63 106c46.667 44 95.334 66 146.001 66c26 0 39 -16.667 39 -50c0 -32 -13.333 -48 -40 -48
c-1.33301 0 -9.66602 3.83301 -24.999 11.5s-29 11.5 -41 11.5c-11.333 0 -24.333 -4.33301 -39 -13c-16.667 -9.33301 -25 -19.333 -25 -30c0 -46 34.667 -69 104 -69c35.333 0 76.333 6 123 18z" />
    <glyph glyph-name="uFE8C" unicode="&#x626;" horiz-adv-x="458" arabic-form="medial" 
d="M488 1l-61.998 0.000976562c-96.667 0 -167.334 39.333 -212.001 118c-48.667 -78.667 -109.334 -118 -182.001 -118h-62v158h38c63.333 0 102.333 1.66699 117 5c33.333 7.33301 58 26.666 74 57.999l48 96c4.66699 9.33301 10.667 14 18 14
c9.33301 0 12.333 -6.33301 9 -19c-3.33301 -14.667 -5 -28.667 -5 -42c0 -74.667 62 -112 186 -112h33v-158zM413.002 725.001c4.66699 1.33301 6.99805 -1.66602 6.99805 -8.99902c0 -6.66699 -2.33301 -17.667 -7 -33c-4.66699 -17.333 -9 -26.333 -13 -27
c-37.333 -8.66699 -87 -22.334 -149 -41.001c-32.667 -10 -70.334 -29 -113.001 -57c-12 -8 -22.333 -12 -31 -12c-9.33301 0 -14 3.66699 -14 11c0 10 15.333 28.333 46 55c22.667 20 35.334 32.333 38.001 37c-46 26 -69 50.333 -69 73c0 30.667 21 66 63 106
c46.667 44 95.334 66 146.001 66c26 0 39 -16.667 39 -50c0 -32 -13.333 -48 -40 -48c-1.33301 0 -9.66602 3.83301 -24.999 11.5s-29 11.5 -41 11.5c-11.333 0 -24.333 -4.33301 -39 -13c-16.667 -9.33301 -25 -19.333 -25 -30c0 -46 34.667 -69 104 -69
c35.333 0 76.333 6 123 18z" />
    <glyph glyph-name="uFE8E" unicode="&#x627;" horiz-adv-x="578" arabic-form="final" 
d="M608 1l-63 -0.000976562c-99.333 0 -170.333 37.667 -213 113c-30 52 -51 139.333 -63 262l-42 417c-14 136 -29.667 224 -47 264c16 30.667 38.667 82.334 68 155.001c4.66699 12 9.66699 18 15 18c4.66699 0 7.66699 -6 9 -18l104 -876c14 -118 74.333 -177 181 -177
h51v-158z" />
    <glyph glyph-name="uFE90" unicode="&#x628;" horiz-adv-x="1491" arabic-form="final" 
d="M1522 1l-56.999 -0.000976562c-38 0 -72.833 12.833 -104.5 38.5s-52.834 56.834 -63.501 93.501c-80.667 -66 -184 -117.333 -310 -154c-114 -33.333 -229 -50 -345 -50c-118.667 0 -217.667 17 -297 51c-109.333 46.667 -164 121.667 -164 225
c0 96.667 30 174.667 90 234c8.66699 8.66699 15.667 11.667 21 9c6 -2 7 -8 3 -18l-24 -58c-10.667 -26 -16 -51.667 -16 -77c0 -138.667 153 -208 459 -208c202 0 371 39.333 507 118c37.333 22 76.333 50.667 117 86c11.333 10 19.333 15 24 15
c6.66699 0 7 -11.667 1 -35c-2 -8 -3 -16 -3 -24c0 -58.667 45.667 -88 137 -88h25v-158zM898.001 -305.001l-100 -120l-125 99l100 120z" />
    <glyph glyph-name="uFE91" unicode="&#x628;" horiz-adv-x="284" arabic-form="initial" 
d="M281 252c0 -100.667 -26.001 -170.333 -78.001 -209c-38 -28 -96.333 -42 -175 -42h-58v158h80c116.667 0 174.334 10.667 173.001 32c-2 33.333 -27 80 -75 140l41 121c5.33301 16 12.333 20 21 12c2 -2 3.66699 -4 5 -6c44 -61.333 66 -130 66 -206zM291.999 -226.999
l-100 -120l-125 99l100 120z" />
    <glyph glyph-name="uFE92" unicode="&#x628;" horiz-adv-x="458" arabic-form="medial" 
d="M488 1l-61.998 0.000976562c-96.667 0 -167.334 39.333 -212.001 118c-48.667 -78.667 -109.334 -118 -182.001 -118h-62v158h38c63.333 0 102.333 1.66699 117 5c33.333 7.33301 58 26.666 74 57.999l48 96c4.66699 9.33301 10.667 14 18 14
c9.33301 0 12.333 -6.33301 9 -19c-26 -102.667 34.333 -154 181 -154h33v-158zM342.002 -226.999l-100 -120l-125 99l100 120z" />
    <glyph glyph-name="uFE96" unicode="&#x62a;" horiz-adv-x="1492" arabic-form="final" 
d="M952 694l-97 -90l-98 88l98 89zM738 692l-98 -91l-97 89l98 91zM1522 1l-56.999 -0.000976562c-38 0 -72.833 12.833 -104.5 38.5s-52.834 56.834 -63.501 93.501c-80.667 -66 -184 -117.333 -310 -154c-114 -33.333 -229 -50 -345 -50c-118.667 0 -217.667 17 -297 51
c-109.333 46.667 -164 121.667 -164 225c0 96.667 30 174.667 90 234c8.66699 8.66699 15.667 11.667 21 9c6 -2 7 -8 3 -18l-24 -58c-10.667 -26 -16 -51.667 -16 -77c0 -138.667 153 -208 459 -208c202 0 371 39.333 507 118c37.333 22 76.333 50.667 117 86
c11.333 10 19.333 15 24 15c6.66699 0 7 -11.667 1 -35c-2 -8 -3 -16 -3 -24c0 -58.667 45.667 -88 137 -88h25v-158z" />
    <glyph glyph-name="uFE97" unicode="&#x62a;" horiz-adv-x="399" arabic-form="initial" 
d="M398 717l-97 -90l-97 88l98 89zM185 715l-99 -91l-97 88l98 91zM281 252c0 -100.667 -26.001 -170.333 -78.001 -209c-38 -28 -96.333 -42 -175 -42h-58v158h80c116.667 0 174.334 10.667 173.001 32c-2 33.333 -27 80 -75 140l41 121c5.33301 16 12.333 20 21 12
c2 -2 3.66699 -4 5 -6c44 -61.333 66 -130 66 -206z" />
    <glyph glyph-name="uFE98" unicode="&#x62a;" horiz-adv-x="458" arabic-form="medial" 
d="M435 596l-97 -89l-97 87l98 90zM223 594l-100 -90l-96 89l98 90zM488 1l-61.998 0.000976562c-96.667 0 -167.334 39.333 -212.001 118c-48.667 -78.667 -109.334 -118 -182.001 -118h-62v158h38c63.333 0 102.333 1.66699 117 5c33.333 7.33301 58 26.666 74 57.999
l48 96c4.66699 9.33301 10.667 14 18 14c9.33301 0 12.333 -6.33301 9 -19c-3.33301 -14.667 -5 -28.667 -5 -42c0 -74.667 62 -112 186 -112h33v-158z" />
    <glyph glyph-name="uFE9A" unicode="&#x62b;" horiz-adv-x="1492" arabic-form="final" 
d="M870 759l-89 -83l-90 83l90 83zM985 610l-90 -83l-90 83l90 83zM767 610l-90 -83l-88 83l88 83zM1522 1l-56.999 -0.000976562c-38 0 -72.833 12.833 -104.5 38.5s-52.834 56.834 -63.501 93.501c-80.667 -66 -184 -117.333 -310 -154c-114 -33.333 -229 -50 -345 -50
c-118.667 0 -217.667 17 -297 51c-109.333 46.667 -164 121.667 -164 225c0 96.667 30 174.667 90 234c8.66699 8.66699 15.667 11.667 21 9c6 -2 7 -8 3 -18l-24 -58c-10.667 -26 -16 -51.667 -16 -77c0 -138.667 153 -208 459 -208c202 0 371 39.333 507 118
c37.333 22 76.333 50.667 117 86c11.333 10 19.333 15 24 15c6.66699 0 7 -11.667 1 -35c-2 -8 -3 -16 -3 -24c0 -58.667 45.667 -88 137 -88h25v-158z" />
    <glyph glyph-name="uFE9B" unicode="&#x62b;" horiz-adv-x="405" arabic-form="initial" 
d="M287 876l-89 -83l-90 83l90 83zM402 727l-90 -83l-89 83l89 82zM185 727l-91 -83l-88 83l88 82zM281 252c0 -100.667 -26.001 -170.333 -78.001 -209c-38 -28 -96.333 -42 -175 -42h-58v158h80c116.667 0 174.334 10.667 173.001 32c-2 33.333 -27 80 -75 140l41 121
c5.33301 16 12.333 20 21 12c2 -2 3.66699 -4 5 -6c44 -61.333 66 -130 66 -206z" />
    <glyph glyph-name="uFE9C" unicode="&#x62b;" horiz-adv-x="458" arabic-form="medial" 
d="M310 736l-90 -82l-89 82l89 83zM424 588l-89 -83l-90 83l90 83zM207 588l-91 -83l-88 83l88 83zM488 1l-61.998 0.000976562c-96.667 0 -167.334 39.333 -212.001 118c-48.667 -78.667 -109.334 -118 -182.001 -118h-62v158h38c63.333 0 102.333 1.66699 117 5
c33.333 7.33301 58 26.666 74 57.999l48 96c4.66699 9.33301 10.667 14 18 14c9.33301 0 12.333 -6.33301 9 -19c-3.33301 -14.667 -5 -28.667 -5 -42c0 -74.667 62 -112 186 -112h33v-158z" />
    <glyph glyph-name="uFE9E" unicode="&#x62c;" horiz-adv-x="1175" arabic-form="final" 
d="M787 -247l-100 -120l-125 99l100 120zM1316 -654c-73.333 -34 -155.668 -70 -247.001 -108c-75.333 -31.333 -166.333 -47 -273 -47c-410 0 -615 157 -615 471c0 253.333 122.667 461.666 368 624.999c-53.333 5.33301 -92.333 8 -117 8
c-69.333 0 -129.666 -28 -180.999 -84c-10 -10.667 -18.333 -18.334 -25 -23.001c-6 -2.66699 -9.33301 -1 -10 5c-0.666992 4.66699 1 13.667 5 27c42.667 148 124 222 244 222c38.667 0 96.5 -3.66699 173.5 -11s134.833 -11 173.5 -11c58.667 0 130.334 5 215.001 15
c18 2 29 2.33301 33 1c4 -2 4.66699 -8.33301 2 -19c-4.66699 -18 -23 -64.667 -55 -140c-28.667 -1.33301 -61.334 -3 -98.001 -5c-1.33301 -12 -2 -22.667 -2 -32c0 -54 22.667 -81 68 -81h209v-158h-95c-73.333 0 -127 8 -161 24c-52 24.667 -78 70.334 -78 137.001
c0 16.667 3 51.334 9 104.001c-191.333 -12 -342 -83 -452 -213c-84.667 -100 -127 -212 -127 -336c0 -245.333 191.667 -368 575 -368c184 0 331 7.33301 441 22c29.333 4 44 1.66699 44 -7c0 -7.33301 -8 -13.333 -24 -18z" />
    <glyph glyph-name="uFE9F" unicode="&#x62c;" horiz-adv-x="1018" arabic-form="initial" 
d="M692 -227l-100 -120l-125 99l100 120zM1011 285c-16.667 -57.333 -32.335 -91.667 -47.002 -103c-33.333 -26.667 -88 -37.667 -164 -33c-92 5.33301 -151.667 3.33301 -179 -6l-175 -61c-94 -32 -150.333 -50.333 -169 -55c-70 -17.333 -150.333 -26 -241 -26h-66v158
h106c98.667 0 195 10 289 30c36.667 8 114 29 232 63c-145.333 64 -241 96 -287 96c-36 0 -69.667 -10.667 -101 -32c-27.333 -18.667 -45.333 -28 -54 -28c-5.33301 0 -8 3 -8 9c0 12.667 12.667 41 38 85c42.667 73.333 98.334 110 167.001 110c36 0 92.333 -19 169 -57
c94 -46.667 150.333 -73 169 -79c90.667 -29.333 168.334 -44 233.001 -44c18.667 0 36.667 1.33301 54 4c26.667 4 40 2 40 -6c0 -2.66699 -2 -11 -6 -25z" />
    <glyph glyph-name="uFEA0" unicode="&#x62c;" horiz-adv-x="1058" arabic-form="medial" 
d="M632 -227l-100 -120l-125 99l100 120zM1088 1h-105.004c-128.667 0 -198 45.667 -208 137l-2 96c-59.333 -3.33301 -181.666 -49 -366.999 -137c-71.333 -34 -121 -55.667 -149 -65c-61.333 -20.667 -126.333 -31 -195 -31h-92v158h94c104 0 200.333 17 289 51l212 85
c-144.667 46 -238 69 -280 69c-32 0 -62.667 -10 -92 -30c-33.333 -22.667 -51.666 -33.334 -54.999 -32.001c-2 0.666992 -3 3.33398 -3 8.00098c0 19.333 11 48 33 86c46 79.333 100 119 162 119c36 0 90.333 -13.667 163 -41c88 -33.333 142.667 -52.333 164 -57
c80.667 -18 168 -23.667 262 -17c6.66699 0.666992 12.334 1 17.001 1c12.667 0.666992 20.334 -1 23.001 -5c2 -4 1.66699 -13.667 -1 -29c-9.33301 -56.667 -19.333 -94.334 -30 -113.001c-24 -1.33301 -59.667 -5.66602 -107 -12.999c0 -54.667 25.667 -82 77 -82h190
v-158z" />
    <glyph glyph-name="uFEA2" unicode="&#x62d;" horiz-adv-x="1154" arabic-form="final" 
d="M1316 -654c-73.333 -34 -155.668 -70 -247.001 -108c-75.333 -31.333 -166.333 -47 -273 -47c-410 0 -615 157 -615 471c0 253.333 122.667 461.666 368 624.999c-53.333 5.33301 -92.333 8 -117 8c-69.333 0 -129.666 -28 -180.999 -84
c-10 -10.667 -18.333 -18.334 -25 -23.001c-6 -2.66699 -9.33301 -1 -10 5c-0.666992 4.66699 1 13.667 5 27c42.667 148 124 222 244 222c38.667 0 96.5 -3.66699 173.5 -11s134.833 -11 173.5 -11c58.667 0 130.334 5 215.001 15c18 2 29 2.33301 33 1
c4 -2 4.66699 -8.33301 2 -19c-4.66699 -18 -23 -64.667 -55 -140c-28.667 -1.33301 -61.334 -3 -98.001 -5c-1.33301 -12 -2 -22.667 -2 -32c0 -54 22.667 -81 68 -81h209v-158h-95c-73.333 0 -127 8 -161 24c-52 24.667 -78 70.334 -78 137.001
c0 16.667 3 51.334 9 104.001c-191.333 -12 -342 -83 -452 -213c-84.667 -100 -127 -212 -127 -336c0 -245.333 191.667 -368 575 -368c184 0 331 7.33301 441 22c29.333 4 44 1.66699 44 -7c0 -7.33301 -8 -13.333 -24 -18z" />
    <glyph glyph-name="uFEA3" unicode="&#x62d;" horiz-adv-x="1017" arabic-form="initial" 
d="M1011 285c-16.667 -57.333 -32.335 -91.667 -47.002 -103c-33.333 -26.667 -88 -37.667 -164 -33c-92 5.33301 -151.667 3.33301 -179 -6l-175 -61c-94 -32 -150.333 -50.333 -169 -55c-70 -17.333 -150.333 -26 -241 -26h-66v158h106c98.667 0 195 10 289 30
c36.667 8 114 29 232 63c-145.333 64 -241 96 -287 96c-36 0 -69.667 -10.667 -101 -32c-27.333 -18.667 -45.333 -28 -54 -28c-5.33301 0 -8 3 -8 9c0 12.667 12.667 41 38 85c42.667 73.333 98.334 110 167.001 110c36 0 92.333 -19 169 -57
c94 -46.667 150.333 -73 169 -79c90.667 -29.333 168.334 -44 233.001 -44c18.667 0 36.667 1.33301 54 4c26.667 4 40 2 40 -6c0 -2.66699 -2 -11 -6 -25z" />
    <glyph glyph-name="uFEA4" unicode="&#x62d;" horiz-adv-x="1058" arabic-form="medial" 
d="M1088 1h-105.004c-128.667 0 -198 45.667 -208 137l-2 96c-59.333 -3.33301 -181.666 -49 -366.999 -137c-71.333 -34 -121 -55.667 -149 -65c-61.333 -20.667 -126.333 -31 -195 -31h-92v158h94c104 0 200.333 17 289 51l212 85c-144.667 46 -238 69 -280 69
c-32 0 -62.667 -10 -92 -30c-33.333 -22.667 -51.666 -33.334 -54.999 -32.001c-2 0.666992 -3 3.33398 -3 8.00098c0 19.333 11 48 33 86c46 79.333 100 119 162 119c36 0 90.333 -13.667 163 -41c88 -33.333 142.667 -52.333 164 -57c80.667 -18 168 -23.667 262 -17
c6.66699 0.666992 12.334 1 17.001 1c12.667 0.666992 20.334 -1 23.001 -5c2 -4 1.66699 -13.667 -1 -29c-9.33301 -56.667 -19.333 -94.334 -30 -113.001c-24 -1.33301 -59.667 -5.66602 -107 -12.999c0 -54.667 25.667 -82 77 -82h190v-158z" />
    <glyph glyph-name="uFEA6" unicode="&#x62e;" horiz-adv-x="1175" arabic-form="final" 
d="M747 783l-100 -120l-125 99l100 120zM1316 -654c-73.333 -34 -155.668 -70 -247.001 -108c-75.333 -31.333 -166.333 -47 -273 -47c-410 0 -615 157 -615 471c0 253.333 122.667 461.666 368 624.999c-53.333 5.33301 -92.333 8 -117 8
c-69.333 0 -129.666 -28 -180.999 -84c-10 -10.667 -18.333 -18.334 -25 -23.001c-6 -2.66699 -9.33301 -1 -10 5c-0.666992 4.66699 1 13.667 5 27c42.667 148 124 222 244 222c38.667 0 96.5 -3.66699 173.5 -11s134.833 -11 173.5 -11c58.667 0 130.334 5 215.001 15
c18 2 29 2.33301 33 1c4 -2 4.66699 -8.33301 2 -19c-4.66699 -18 -23 -64.667 -55 -140c-28.667 -1.33301 -61.334 -3 -98.001 -5c-1.33301 -12 -2 -22.667 -2 -32c0 -54 22.667 -81 68 -81h209v-158h-95c-73.333 0 -127 8 -161 24c-52 24.667 -78 70.334 -78 137.001
c0 16.667 3 51.334 9 104.001c-191.333 -12 -342 -83 -452 -213c-84.667 -100 -127 -212 -127 -336c0 -245.333 191.667 -368 575 -368c184 0 331 7.33301 441 22c29.333 4 44 1.66699 44 -7c0 -7.33301 -8 -13.333 -24 -18z" />
    <glyph glyph-name="uFEA7" unicode="&#x62e;" horiz-adv-x="1021" arabic-form="initial" 
d="M532 843l-100 -120l-125 99l100 120zM1011 285c-16.667 -57.333 -32.335 -91.667 -47.002 -103c-33.333 -26.667 -88 -37.667 -164 -33c-92 5.33301 -151.667 3.33301 -179 -6l-175 -61c-94 -32 -150.333 -50.333 -169 -55c-70 -17.333 -150.333 -26 -241 -26h-66v158
h106c98.667 0 195 10 289 30c36.667 8 114 29 232 63c-145.333 64 -241 96 -287 96c-36 0 -69.667 -10.667 -101 -32c-27.333 -18.667 -45.333 -28 -54 -28c-5.33301 0 -8 3 -8 9c0 12.667 12.667 41 38 85c42.667 73.333 98.334 110 167.001 110c36 0 92.333 -19 169 -57
c94 -46.667 150.333 -73 169 -79c90.667 -29.333 168.334 -44 233.001 -44c18.667 0 36.667 1.33301 54 4c26.667 4 40 2 40 -6c0 -2.66699 -2 -11 -6 -25z" />
    <glyph glyph-name="uFEA8" unicode="&#x62e;" horiz-adv-x="1061" arabic-form="medial" 
d="M532 843l-100 -120l-125 99l100 120zM1088 1h-105.004c-128.667 0 -198 45.667 -208 137l-2 96c-59.333 -3.33301 -181.666 -49 -366.999 -137c-71.333 -34 -121 -55.667 -149 -65c-61.333 -20.667 -126.333 -31 -195 -31h-92v158h94c104 0 200.333 17 289 51l212 85
c-144.667 46 -238 69 -280 69c-32 0 -62.667 -10 -92 -30c-33.333 -22.667 -51.666 -33.334 -54.999 -32.001c-2 0.666992 -3 3.33398 -3 8.00098c0 19.333 11 48 33 86c46 79.333 100 119 162 119c36 0 90.333 -13.667 163 -41c88 -33.333 142.667 -52.333 164 -57
c80.667 -18 168 -23.667 262 -17c6.66699 0.666992 12.334 1 17.001 1c12.667 0.666992 20.334 -1 23.001 -5c2 -4 1.66699 -13.667 -1 -29c-9.33301 -56.667 -19.333 -94.334 -30 -113.001c-24 -1.33301 -59.667 -5.66602 -107 -12.999c0 -54.667 25.667 -82 77 -82h190
v-158z" />
    <glyph glyph-name="uFEAA" unicode="&#x62f;" horiz-adv-x="903" arabic-form="final" 
d="M933 1l-63.002 0.00292969c-44 0 -81 23.667 -111 71c-12 19.333 -31.667 64.666 -59 135.999c-22.667 -50 -59.667 -96 -111 -138c-71.333 -58 -152.666 -87 -243.999 -87c-109.333 0 -164 37.667 -164 113c0 16 2.66699 39 8 69c6.66699 36.667 13.334 55 20.001 55
c-0.666992 -4.66699 4.33301 -15.334 15 -32.001c20 -31.333 68 -47 144 -47c59.333 0 116 12.333 170 37c60 27.333 104 64.333 132 111l-92 359c14 37.333 33.667 83.666 59 138.999l137 -489c22 -55.333 38.667 -90.333 50 -105c17.333 -22.667 42 -34 74 -34h35v-158z
" />
    <glyph glyph-name="uFEAC" unicode="&#x630;" horiz-adv-x="904" arabic-form="final" 
d="M707 1103l-100 -120l-125 99l100 120zM933 1l-63.002 0.00292969c-44 0 -81 23.667 -111 71c-12 19.333 -31.667 64.666 -59 135.999c-22.667 -50 -59.667 -96 -111 -138c-71.333 -58 -152.666 -87 -243.999 -87c-109.333 0 -164 37.667 -164 113c0 16 2.66699 39 8 69
c6.66699 36.667 13.334 55 20.001 55c-0.666992 -4.66699 4.33301 -15.334 15 -32.001c20 -31.333 68 -47 144 -47c59.333 0 116 12.333 170 37c60 27.333 104 64.333 132 111l-92 359c14 37.333 33.667 83.666 59 138.999l137 -489c22 -55.333 38.667 -90.333 50 -105
c17.333 -22.667 42 -34 74 -34h35v-158z" />
    <glyph glyph-name="uFEAE" unicode="&#x631;" horiz-adv-x="816" arabic-form="final" 
d="M846 1l-62.998 -0.00195312c-24.667 -101.333 -65.334 -196.666 -122.001 -285.999c-34 -53.333 -77 -98 -129 -134c-58.667 -40.667 -116.334 -61 -173.001 -61c-51.333 0 -133.666 29.667 -246.999 89c-12.667 6.66699 -19 13.334 -19 20.001c0 8 7.66699 12 23 12
c17.333 0 43.5 -1.5 78.5 -4.5s61.167 -4.5 78.5 -4.5c73.333 0 139.666 19.667 198.999 59c39.333 26 89.666 76.333 150.999 151c64.667 78.667 97.334 134 98.001 166c-14 10 -50.667 41 -110 93c10.667 34 24.667 75 42 123c58 -43.333 111.667 -65 161 -65h32v-158z
" />
    <glyph glyph-name="uFEB0" unicode="&#x632;" horiz-adv-x="816" arabic-form="final" 
d="M717 583l-100 -120l-125 99l100 120zM846 1l-62.998 -0.00195312c-24.667 -101.333 -65.334 -196.666 -122.001 -285.999c-34 -53.333 -77 -98 -129 -134c-58.667 -40.667 -116.334 -61 -173.001 -61c-51.333 0 -133.666 29.667 -246.999 89
c-12.667 6.66699 -19 13.334 -19 20.001c0 8 7.66699 12 23 12c17.333 0 43.5 -1.5 78.5 -4.5s61.167 -4.5 78.5 -4.5c73.333 0 139.666 19.667 198.999 59c39.333 26 89.666 76.333 150.999 151c64.667 78.667 97.334 134 98.001 166c-14 10 -50.667 41 -110 93
c10.667 34 24.667 75 42 123c58 -43.333 111.667 -65 161 -65h32v-158z" />
    <glyph glyph-name="uFEB2" unicode="&#x633;" horiz-adv-x="1885" arabic-form="final" 
d="M1129 -11c-22 0 -41.9971 3.00195 -59.9971 9.00195c0 -96.667 -19 -181.334 -57 -254.001c-24 -46 -70.333 -90.667 -139 -134c-98 -62 -209 -93 -333 -93c-87.333 0 -163.333 19 -228 57c-87.333 51.333 -131 129.666 -131 234.999c0 48 8 99.333 24 154
c19.333 65.333 45.666 118.333 78.999 159c6 7.33301 11 11.666 15 12.999c4 2 6.33301 0.666992 7 -4c0.666992 -5.33301 -11.333 -41 -36 -107c-16 -42.667 -24 -82.667 -24 -120c0 -153.333 111.333 -230 334 -230c67.333 0 147.333 13 240 39
c119.333 33.333 179 75 179 125c0 86.667 -16 161.334 -48 224.001l-54 83l60 117c8 15.333 15.667 18.333 23 9l71 -86c26 -24.667 61.333 -37 106 -37c87.333 0 147.333 16.333 180 49c15.333 26.667 27.333 51 36 73c13.333 34 27.666 51 42.999 51c4 0 6 -4.33301 6 -13
s-1.5 -21.167 -4.5 -37.5s-4.5 -28.833 -4.5 -37.5s1.66699 -14.334 5 -17.001c42.667 -36 90.667 -54 144 -54c30 0 54 9.66699 72 29l36 70c17.333 34 31.333 51 42 51c4.66699 0 7 -4 7 -12c-0.666992 -3.33301 -2.66699 -17.333 -6 -42
c-2.66699 -19.333 -1.66699 -34.333 3 -45c15.333 -36 69.333 -54 162 -54h37v-158h-113c-34.667 0 -64.334 8 -89.001 24c-4 2.66699 -25 21 -63 55c-34.667 -29.333 -54.667 -45.666 -60 -48.999c-29.333 -18.667 -61 -28 -95 -28c-41.333 0 -76.333 9 -105 27l-52 41
c-71.333 -54.667 -141 -82 -209 -82z" />
    <glyph glyph-name="uFEB3" unicode="&#x633;" horiz-adv-x="926" arabic-form="initial" 
d="M402 162c56 -0.666992 103.332 18.333 141.999 57l32 72c16 35.333 30.333 53 43 53c7.33301 0 9 -14.667 5 -44c-4.66699 -32 -4 -50.667 2 -56c20 -17.333 49.833 -33.5 89.5 -48.5s72.834 -22.5 99.501 -22.5c25.333 0 42.333 5 51 15c1.33301 2 2 5 2 9
c0 19.333 -8.66699 51 -26 95c-2 2.66699 6.83301 17 26.5 43s32.167 41.667 37.5 47c12.667 -30 19 -61.333 19 -94c0 -56.667 -8.66699 -109 -26 -157c-24 -66 -59 -99 -105 -99c-88.667 0 -165.667 23 -231 69c-63.333 -66 -126.333 -99 -189 -99
c-86.667 0 -151 34 -193 102c-40 -68.667 -90.667 -103 -152 -103h-59v158h36c91.333 0 155 28.667 191 86l22 49c12 25.333 21.667 38 29 38c5.33301 0 8 -20.667 8 -62c0 -70.667 48.667 -106.667 146 -108z" />
    <glyph glyph-name="uFEB4" unicode="&#x633;" horiz-adv-x="1096" arabic-form="medial" 
d="M1126 1h-120c-60.667 0 -111 26.333 -151 79c-36.667 -30.667 -57 -47 -61 -49c-28.667 -18.667 -60.667 -28 -96 -28c-41.333 0 -76 9 -104 27l-51 41c10.667 0 16 -1.33301 16 -4c0 -5.33301 -22.667 -15.666 -68 -30.999c-68 -23.333 -115.667 -35 -143 -35
c-62 0 -111.667 31 -149 93c-52 -62 -112 -93 -180 -93h-39v158h30c107.333 0 174 19.667 200 59c26 52.667 43.667 79 53 79c8 0 11.333 -18.333 10 -55c-0.666992 -24.667 9.16602 -46 29.499 -64s43.166 -27 68.499 -27c76.667 0 132.334 16 167.001 48
c10 15.333 23.333 39 40 71c13.333 34 27 51 41 51c4.66699 0 7 -4.66699 7 -14c0 -8 -1.5 -20.333 -4.5 -37s-4.5 -29 -4.5 -37c0 -8.66699 1.66699 -14.334 5 -17.001c42.667 -36 91 -54 145 -54c31.333 0 55 9.66699 71 29l35 70c16.667 34 31.334 51 44.001 51
c4 0 6 -3 6 -9c0 -6.66699 -1.5 -17.167 -4.5 -31.5s-4.5 -25.166 -4.5 -32.499c0 -10.667 2 -19.334 6 -26.001c14.667 -25.333 33.667 -41 57 -47c18 -4.66699 56.667 -7 116 -7h33v-158z" />
    <glyph glyph-name="uFEB6" unicode="&#x634;" horiz-adv-x="1885" arabic-form="final" 
d="M1519 768l-90 -82l-90 82l90 83zM1633 619l-89 -83l-91 83l91 82zM1416 619l-91 -83l-88 83l88 82zM1129 -11c-22 0 -41.9971 3.00195 -59.9971 9.00195c0 -96.667 -19 -181.334 -57 -254.001c-24 -46 -70.333 -90.667 -139 -134c-98 -62 -209 -93 -333 -93
c-87.333 0 -163.333 19 -228 57c-87.333 51.333 -131 129.666 -131 234.999c0 48 8 99.333 24 154c19.333 65.333 45.666 118.333 78.999 159c6 7.33301 11 11.666 15 12.999c4 2 6.33301 0.666992 7 -4c0.666992 -5.33301 -11.333 -41 -36 -107
c-16 -42.667 -24 -82.667 -24 -120c0 -153.333 111.333 -230 334 -230c67.333 0 147.333 13 240 39c119.333 33.333 179 75 179 125c0 86.667 -16 161.334 -48 224.001l-54 83l60 117c8 15.333 15.667 18.333 23 9l71 -86c26 -24.667 61.333 -37 106 -37
c87.333 0 147.333 16.333 180 49c15.333 26.667 27.333 51 36 73c13.333 34 27.666 51 42.999 51c4 0 6 -4.33301 6 -13s-1.5 -21.167 -4.5 -37.5s-4.5 -28.833 -4.5 -37.5s1.66699 -14.334 5 -17.001c42.667 -36 90.667 -54 144 -54c30 0 54 9.66699 72 29l36 70
c17.333 34 31.333 51 42 51c4.66699 0 7 -4 7 -12c-0.666992 -3.33301 -2.66699 -17.333 -6 -42c-2.66699 -19.333 -1.66699 -34.333 3 -45c15.333 -36 69.333 -54 162 -54h37v-158h-113c-34.667 0 -64.334 8 -89.001 24c-4 2.66699 -25 21 -63 55
c-34.667 -29.333 -54.667 -45.666 -60 -48.999c-29.333 -18.667 -61 -28 -95 -28c-41.333 0 -76.333 9 -105 27l-52 41c-71.333 -54.667 -141 -82 -209 -82z" />
    <glyph glyph-name="uFEB7" unicode="&#x634;" horiz-adv-x="926" arabic-form="initial" 
d="M711 787l-89 -82l-90 82l90 82zM826 638l-90 -83l-89 83l89 83zM609 638l-91 -83l-88 83l88 83zM402 162c56 -0.666992 103.332 18.333 141.999 57l32 72c16 35.333 30.333 53 43 53c7.33301 0 9 -14.667 5 -44c-4.66699 -32 -4 -50.667 2 -56
c20 -17.333 49.833 -33.5 89.5 -48.5s72.834 -22.5 99.501 -22.5c25.333 0 42.333 5 51 15c1.33301 2 2 5 2 9c0 19.333 -8.66699 51 -26 95c-2 2.66699 6.83301 17 26.5 43s32.167 41.667 37.5 47c12.667 -30 19 -61.333 19 -94c0 -56.667 -8.66699 -109 -26 -157
c-24 -66 -59 -99 -105 -99c-88.667 0 -165.667 23 -231 69c-63.333 -66 -126.333 -99 -189 -99c-86.667 0 -151 34 -193 102c-40 -68.667 -90.667 -103 -152 -103h-59v158h36c91.333 0 155 28.667 191 86l22 49c12 25.333 21.667 38 29 38c5.33301 0 8 -20.667 8 -62
c0 -70.667 48.667 -106.667 146 -108z" />
    </font>
</defs>
</svg>
