<?xml version="1.0" standalone="no"?>
<!DOCTYPE svg PUBLIC "-//W3C//DTD SVG 1.1//EN" "http://www.w3.org/Graphics/SVG/1.1/DTD/svg11.dtd" >
<svg>
<metadata>
Created by FontForge 20090914 at Wed Oct 19 02:02:00 2011
 By www-data
(c) by Abolfazl Seilsepour - +98 912 591 3420  -  seilsepor@yahoo.com
</metadata>
<defs>
<font id="FarYas" horiz-adv-x="0" >
  <font-face 
    font-family="Far.Yas"
    font-weight="400"
    font-stretch="normal"
    units-per-em="2048"
    panose-1="0 0 4 0 0 0 0 0 0 0"
    ascent="1638"
    descent="-410"
    bbox="-185 -1448 1903 1917"
    underline-thickness="100"
    underline-position="-850"
    unicode-range="U+0020-U+FEFC"
  />
<missing-glyph horiz-adv-x="1024" 
d="M128 0v1167h768v-1167h-768zM256 128h512v911h-512v-911z" />
    <glyph glyph-name="uE818" unicode="&#x651;&#x64b;" 
d="M457 1917l-34 -89l-345 -170l35 83zM457 1762l-34 -89l-345 -169l35 83zM421 1463c0 -31.333 -9.66602 -60.666 -28.999 -87.999c-20.667 -30 -46 -45 -76 -45c-12.667 0 -25.667 2.66699 -39 8c-34 -62.667 -75.667 -94 -125 -94c-40.667 0 -61 29.333 -61 88
c0 18 4.66699 41 14 69c10.667 32 22.334 51 35.001 57l7 -11c-2 -16.667 -3 -31.667 -3 -45c0 -44.667 10 -67 30 -67c25.333 0 47.666 25.667 66.999 77l38 110c4 -4.66699 9.66699 -24.334 17 -59.001c6 -26 17 -39 33 -39c17.333 0 31.666 21.333 42.999 64
c6.66699 30 13.667 59.667 21 89c18.667 0 28 -38 28 -114z" />
    <glyph glyph-name="uFC5E" unicode="&#x651;&#x64c;" arabic-form="isolated" 
d="M416 1814c0 -60 -20.668 -110.001 -62.001 -150.001l51 -23l-10 -82c-35.333 6.66699 -68.333 24.667 -99 54c-78 -63.333 -156.667 -102 -236 -116l-48 34c48 32 72 69.667 72 113c0 10 -2.66699 19 -8 27c-4 3.33301 -9.66699 5 -17 5c-14 0 -33.333 -6.66699 -58 -20
l-1 29c33.333 36 63.333 54 90 54c37.333 0 56 -19 56 -57c0 -34 -11.667 -70.667 -35 -110c30.667 12.667 54 23.334 70 32.001c30.667 16 51 31 61 45c-26 27.333 -39 58 -39 92c0 28 17.833 60.833 53.5 98.5s66.834 56.5 93.501 56.5c44 0 66 -27.333 66 -82z
M369.999 1412c0 -31.333 -9.33203 -60.666 -27.999 -87.999c-21.333 -30 -47 -45 -77 -45c-12.667 0 -25.667 2.66699 -39 8c-34.667 -62 -76.334 -93 -125.001 -93c-40 0 -60 28.667 -60 86c0 18.667 4.33301 42 13 70c10.667 32 22.334 51.333 35.001 58l7 -11
c-2 -17.333 -3 -33 -3 -47c0 -44 10.333 -66 31 -66c25.333 0 47.666 25.667 66.999 77l37 110c3.33301 -4.66699 9 -24.334 17 -59.001c6.66699 -26.667 17.667 -40 33 -40c18 0 32.333 21.667 43 65l22 90c18 0 27 -38.333 27 -115zM334 1819
c-12 0 -26.501 -6.16895 -43.501 -18.502s-25.5 -24.166 -25.5 -35.499s5.16699 -24.833 15.5 -40.5s20.833 -23.5 31.5 -23.5c12.667 0 23.334 11.667 32.001 35c6 18.667 9 36.334 9 53.001c0 20 -6.33301 30 -19 30z" />
    <glyph glyph-name="uFC5F" unicode="&#x651;&#x64d;" arabic-form="isolated" 
d="M379 1786c0 -31.333 -9.66504 -60.667 -28.998 -88c-20.667 -30 -46 -45 -76 -45c-12.667 0 -25.334 2.66699 -38.001 8c-34.667 -62 -76.334 -93 -125.001 -93c-41.333 0 -62 28.667 -62 86c0 18.667 4.66699 42 14 70c10.667 32.667 22.334 51.667 35.001 57l7 -10
c-2 -17.333 -3 -32.666 -3 -45.999c0 -44.667 10.333 -67 31 -67c25.333 0 47.666 25.667 66.999 77l38 110c3.33301 -4.66699 9 -24.334 17 -59.001c6 -26.667 16.667 -40 32 -40c18 0 32.333 21.667 43 65l21 90c18.667 0 28 -38.333 28 -115zM388.002 1602l-35 -89
l-344 -170l35 84zM388.002 1446l-35 -89l-344 -169l35 83z" />
    <glyph glyph-name="uFC60" unicode="&#x651;&#x64e;" arabic-form="isolated" 
d="M388 1721l-35 -89l-344 -170l35 83zM351 1412c0 -31.333 -9.33398 -60.665 -28.001 -87.998c-21.333 -30 -46.666 -45 -75.999 -45c-12.667 0 -25.667 2.66699 -39 8c-34.667 -62 -76.334 -93 -125.001 -93c-40 0 -60 28.667 -60 86c0 19.333 4.33301 42.666 13 69.999
c10.667 32 22.334 51.333 35.001 58l7 -11c-2 -18 -3 -33.667 -3 -47c0 -44 10 -66 30 -66c25.333 0 47.666 25.667 66.999 77l38 110c3.33301 -4.66699 9 -24.334 17 -59.001c6.66699 -26.667 17.334 -40 32.001 -40c18 0 32.333 21.667 43 65l23 90
c17.333 0 26 -38.333 26 -115z" />
    <glyph glyph-name="uFC61" unicode="&#x651;&#x64f;" arabic-form="isolated" 
d="M403 1819c0 -58 -20.002 -106.332 -60.002 -144.999c10.667 -8 26.334 -17 47.001 -27l-6 -79c-44 13.333 -79.333 32.333 -106 57c-92.667 -80 -173.667 -120 -243 -120c-27.333 0 -41.666 11.667 -42.999 35c113.333 39.333 193.333 78.666 240 117.999
c-29.333 29.333 -44 59 -44 89c0 28.667 18 61.5 54 98.5s68 55.5 96 55.5c43.333 0 65 -27.333 65 -82zM369.998 1412c0 -31.333 -9.33203 -60.666 -27.999 -87.999c-21.333 -30 -47 -45 -77 -45c-12.667 0 -25.667 2.66699 -39 8c-34.667 -62 -76.334 -93 -125.001 -93
c-40 0 -60 28.667 -60 86c0 18.667 4.33301 42 13 70c10.667 32 22.334 51.333 35.001 58l7 -11c-2 -17.333 -3 -33 -3 -47c0 -44 10.333 -66 31 -66c25.333 0 47.666 25.667 66.999 77l37 110c3.33301 -4.66699 9 -24.334 17 -59.001c6.66699 -26.667 17.667 -40 33 -40
c18 0 32.333 21.667 43 65l22 90c18 0 27 -38.333 27 -115zM319.999 1825c-12.667 0 -27.335 -6.00098 -44.002 -18.001s-25 -24 -25 -36s4.66699 -25.333 14 -40c10.667 -16.667 21.334 -25 32.001 -25c12.667 0 23.334 12 32.001 36c6.66699 18.667 10 36.334 10 53.001
c0 20 -6.33301 30 -19 30z" />
    <glyph glyph-name="uFC62" unicode="&#x651;&#x650;" arabic-form="isolated" 
d="M370 1622c0 -31.333 -9.33203 -60.665 -27.999 -87.998c-21.333 -30 -47 -45 -77 -45c-12.667 0 -25.667 2.66699 -39 8c-34.667 -62 -76.334 -93 -125.001 -93c-40 0 -60 28.667 -60 86c0 18.667 4.33301 42 13 70c10.667 31.333 22.334 50.666 35.001 57.999l7 -11
c-2 -17.333 -3 -33 -3 -47c0 -44 10.333 -66 31 -66c25.333 0 47.666 25.333 66.999 76l37 111c3.33301 -4.66699 9 -24.334 17 -59.001c6.66699 -26.667 17.667 -40 33 -40c18 0 32.333 21.667 43 65l22 89c18 0 27 -38 27 -114zM388.001 1446l-35 -89l-344 -169l35 83z
" />
    <glyph glyph-name="uFDF2" unicode="&#xfedf;&#xfee0;&#xfeea;" horiz-adv-x="1133" arabic-form="isolated" 
d="M825 1157c-2.66699 -6 -6.00098 -8.66602 -10.001 -7.99902c-3.33301 0 -4.66602 2.66699 -3.99902 8c1.33301 10.667 2 21 2 31c0 52 -16.667 98.333 -50 139l31 82c33.333 -38.667 50 -88.334 50 -149.001c0 -36.667 -6.33301 -71 -19 -103zM933.999 1117
c11.333 -23.333 17 -50 17 -80c0 -68 -23.667 -102 -71 -102c-22.667 0 -41.667 15 -57 45c-20.667 -65.333 -54.334 -98 -101.001 -98c-34 0 -51 22.667 -51 68c0 33.333 6.33301 65 19 95c2.66699 7.33301 6.33398 10.333 11.001 9
c4.66699 -0.666992 6.33398 -4.33398 5.00098 -11.001c-9.33301 -51.333 1.66699 -77 33 -77c41.333 0 65 32.333 71 97c0.666992 8.66699 3.33398 13.334 8.00098 14.001c5.33301 1.33301 8.66602 -2.33398 9.99902 -11.001c4.66699 -32 22 -48 52 -48
c36.667 0 49 29.333 37 88c-2 8.66699 -0.666992 14.334 4 17.001c5.33301 2 9.66602 0 12.999 -6zM1177 264.001c6.66699 -175.333 -47.999 -263 -163.999 -263c-89.333 0 -150.333 54 -183 162c-30 -113.333 -89.333 -170 -178 -170c-103.333 0 -157.333 90.333 -162 271
c-46.667 -54.667 -78 -82 -94 -82c-104.667 0 -172 14.667 -202 44c-14.667 14.667 -15.667 37.667 -3 69c44 106.667 147.333 200.334 310 281.001l3 63c17.333 25.333 44.333 59 81 101c3.33301 4 5.66602 5.33301 6.99902 4
c1.33301 -0.666992 1.66602 -3.66699 0.999023 -9c-8.66699 -55.333 -13 -165 -13 -329c0 -104 9.66699 -176.667 29 -218c16 -34 41.667 -51 77 -51c66 0 101.333 39.333 106 118c2 32.667 -2.66699 108.667 -14 228c-11.333 124.667 -17 190.334 -17 197.001
c0 16.667 24.667 59.667 74 129c2.66699 4 5.33398 5.66699 8.00098 5c3.33301 -1.33301 4.66602 -4.33301 3.99902 -9c-0.666992 -80 4 -175.667 14 -287c12 -124.667 26.667 -215.667 44 -273c20.667 -68 57.334 -102 110.001 -102c60 0 89 23.667 87 71
c-2.66699 56.667 -12 130.667 -28 222c-26 149.333 -41.667 242.666 -47 279.999c-1.33301 8.66699 23 54 73 136c8 13.333 12 12.666 12 -2.00098c0 -60 10 -159 30 -297c21.333 -146.667 33 -243 35 -289zM499 498.001
c-82.667 -33.333 -143.666 -74.001 -182.999 -122.001c-6.66699 -8 -10 -15.667 -10 -23c0 -11.333 7.66699 -18.666 23 -21.999c44 -11.333 86 -16 126 -14c21.333 0.666992 32.666 12.667 33.999 36z" />
    <glyph glyph-name="uFEF5" unicode="&#xfedf;&#xfe82;" horiz-adv-x="828" arabic-form="isolated" 
d="M817 425c-28.667 -293.333 -139.999 -439.998 -333.999 -439.998c-100.667 0 -178 42 -232 126c-5.33301 9.33301 -7 16 -5 20s7 5.33301 15 4c75.333 -16 155 -20 239 -12c1.33301 9.33301 2 20 2 32c0 56 -21.333 152.667 -64 290c-31.333 104 -104.333 251 -219 441
l57 192c5.33301 13.333 10.666 13.666 15.999 0.999023l102 -232c32 -75.333 57 -144 75 -206c54.667 -188.667 82 -335.334 82 -440.001c0 -32.667 -3.66699 -57.667 -11 -75c132 29.333 198 132.666 198 309.999c0 13.333 -0.666992 27.333 -2 42l-31 543
c-1.33301 19.333 29 69.333 91 150c4 5.33301 7.66699 7.66602 11 6.99902c3.33301 0 5 -3.66699 5 -11c-1.33301 -39.333 -2 -78 -2 -116c0 -72.667 2.33301 -158.167 7 -256.5s7 -167.166 7 -206.499c0 -55.333 -2.33301 -109.666 -7 -162.999zM550.001 1359
c-58 -114.667 -162.334 -171.999 -313.001 -171.999c-31.333 0 -65 4 -101 12s-56 12 -60 12c-14.667 0 -32 -11.667 -52 -35c-11.333 -12.667 -19.666 -19 -24.999 -19c-4 0 -6 4.33301 -6 13c0 30 10.333 61 31 93c22 35.333 47 53 75 53c6 0 26.167 -5.33301 60.5 -16
s73.5 -16 117.5 -16c100.667 0 185 33.333 253 100c16.667 16.667 28 25 34 25c2 -0.666992 3 -2.33398 3 -5.00098c0 -7.33301 -5.66699 -22.333 -17 -45z" />
    <glyph glyph-name="uFEF6" unicode="&#xfee0;&#xfe82;" horiz-adv-x="1047" arabic-form="final" 
d="M1077 1h-69.998c-134 0 -211.667 92.667 -233 278c-48.667 -206 -145.334 -309 -290.001 -309c-39.333 0 -79.666 10.333 -120.999 31c-46.667 24 -83.667 57.333 -111 100c-6 9.33301 -8 16 -6 20c2 3.33301 7.33301 4.66602 16 3.99902
c95.333 -13.333 174.666 -17 237.999 -11c1.33301 10 2 20.667 2 32c0 55.333 -21 152 -63 290c-32 103.333 -105.333 250 -220 440l58 192c5.33301 13.333 10.666 13.666 15.999 0.999023l102 -232c32 -75.333 57 -144 75 -206c54 -188.667 81 -336 81 -442
c0 -33.333 -3.33301 -58.666 -10 -75.999c134.667 24 202 126.333 202 307c0 14 -0.333008 28.333 -1 43l-37 548c-1.33301 19.333 29 69.333 91 150c10.667 14 16 12.667 16 -4c0 -167.333 8 -382.666 24 -645.999c8 -131.333 22.333 -223.333 43 -276
c24.667 -61.333 64.667 -92 120 -92h78v-142zM553.002 1370c-58 -114.667 -162.002 -171.999 -312.002 -171.999c-31.333 0 -65.166 4 -101.499 12s-56.5 12 -60.5 12c-14.667 0 -32 -11.667 -52 -35c-11.333 -12.667 -19.666 -19 -24.999 -19c-4 0 -6 4.33301 -6 13
c0 30 10.333 61 31 93c22.667 35.333 47.667 53 75 53c6 0 26.167 -5.33301 60.5 -16s73.5 -16 117.5 -16c100.667 0 185 33.333 253 100c16.667 16.667 28 25 34 25c2 -0.666992 3 -2.33398 3 -5.00098c0 -7.33301 -5.66699 -22.333 -17 -45z" />
    <glyph glyph-name="uFEF7" unicode="&#xfedf;&#xfe84;" horiz-adv-x="760" arabic-form="isolated" 
d="M749 425c-28.667 -293.333 -139.667 -439.998 -333 -439.998c-100.667 0 -178 42 -232 126c-6 9.33301 -7.66699 16 -5 20c2 4 7 5.33301 15 4c75.333 -16 155 -20 239 -12c1.33301 9.33301 2 20 2 32c0 56 -21.333 152.667 -64 290
c-31.333 104 -104.666 251 -219.999 441l58 192c5.33301 13.333 10.666 13.666 15.999 0.999023l102 -232c32 -75.333 57 -144 75 -206c54 -188.667 81 -335.334 81 -440.001c0 -32.667 -3.33301 -57.667 -10 -75c132 29.333 197.667 132.666 197 309.999
c0 13.333 -0.333008 27.333 -1 42l-31 543c-1.33301 19.333 29 69.333 91 150c4 5.33301 7.33301 7.66602 10 6.99902c4 0 5.66699 -3.66699 5 -11c-0.666992 -39.333 -1 -78 -1 -116c0 -72.667 2.33301 -158.167 7 -256.5s7 -167.166 7 -206.499
c0 -55.333 -2.66699 -109.666 -8 -162.999zM372 1309c2.66699 0 -0.333984 -12.334 -9.00098 -37.001s-15 -37.667 -19 -39c-58.667 -11.333 -98 -20 -118 -26c-54 -16 -99.333 -37.333 -136 -64c-4 -2.66699 -7.33301 -2.66699 -10 0s-2.66699 6.33398 0 11.001
c12 18 39.333 46 82 84c-46.667 20.667 -70 46.667 -70 78c0 28 20.333 61.5 61 100.5s77.667 58.5 111 58.5c13.333 0 26 -4 38 -12s18 -17 18 -27c0 -14.667 -3.66699 -28.667 -11 -42s-15 -20 -23 -20c-3.33301 0 -10.166 6 -20.499 18s-24.5 18 -42.5 18
c-16 0 -32.5 -6.66699 -49.5 -20s-25.5 -25.333 -25.5 -36c0 -22 13 -39.333 39 -52c21.333 -11.333 44 -17 68 -17c8 0 27 4 57 12s50 12 60 12z" />
    <glyph glyph-name="uFEF8" unicode="&#xfee0;&#xfe84;" horiz-adv-x="999" arabic-form="final" 
d="M1029 1h-69.998c-134 0 -211.667 92.667 -233 278c-48.667 -206 -145.334 -309 -290.001 -309c-39.333 0 -79.666 10.333 -120.999 31c-46.667 24 -83.667 57.333 -111 100c-6 9.33301 -8 16 -6 20c2 3.33301 7.33301 4.66602 16 3.99902
c95.333 -13.333 174.666 -17 237.999 -11c1.33301 10 2 20.667 2 32c0 55.333 -21 152 -63 290c-32 103.333 -105.333 250 -220 440l58 192c5.33301 13.333 10.666 13.666 15.999 0.999023l102 -232c32 -75.333 57 -144 75 -206c54 -188.667 81 -336 81 -442
c0 -33.333 -3.33301 -58.666 -10 -75.999c134.667 24 202 126.333 202 307c0 14 -0.333008 28.333 -1 43l-37 548c-1.33301 19.333 29 69.333 91 150c10.667 14 16 12.667 16 -4c0 -167.333 8 -382.666 24 -645.999c8 -131.333 22.333 -223.333 43 -276
c24.667 -61.333 64.667 -92 120 -92h78v-142zM411.002 1333c2.66699 0 -0.332031 -12.3359 -8.99902 -37.0029s-15.334 -37.667 -20.001 -39c-58 -11.333 -97 -20 -117 -26c-54 -15.333 -99.333 -36.666 -136 -63.999c-4 -2.66699 -7.33301 -2.66699 -10 0
s-2.66699 6.33398 0 11.001c11.333 18 38.666 46 81.999 84c-46.667 20.667 -70 46.667 -70 78c0 28 20.333 61.5 61 100.5s77.667 58.5 111 58.5c12.667 0 25 -4 37 -12s18 -17 18 -27c0 -14 -3.5 -27.833 -10.5 -41.5s-14.5 -20.5 -22.5 -20.5
c-3.33301 0 -10.166 6 -20.499 18s-24.833 18 -43.5 18c-16 0 -32.5 -6.5 -49.5 -19.5s-25.5 -25.167 -25.5 -36.5c0 -21.333 13.333 -38.666 40 -51.999c21.333 -10.667 44 -16 68 -16c7.33301 0 26 3.83301 56 11.5s50.333 11.5 61 11.5z" />
    <glyph glyph-name="uFEF9" unicode="&#xfedf;&#xfe88;" horiz-adv-x="760" arabic-form="isolated" 
d="M749 425c-28.667 -293.333 -139.667 -439.998 -333 -439.998c-100.667 0 -178 42 -232 126c-6 9.33301 -7.66699 16 -5 20c2 4 7 5.33301 15 4c75.333 -16 155 -20 239 -12c1.33301 9.33301 2 20 2 32c0 56 -21.333 152.667 -64 290
c-31.333 104 -104.666 251 -219.999 441l58 192c5.33301 13.333 10.666 13.666 15.999 0.999023l102 -232c32 -75.333 57 -144 75 -206c54 -188.667 81 -335.334 81 -440.001c0 -32.667 -3.33301 -57.667 -10 -75c132 29.333 197.667 132.666 197 309.999
c0 13.333 -0.333008 27.333 -1 42l-31 543c-1.33301 19.333 29 69.333 91 150c4 5.33301 7.33301 7.66602 10 6.99902c4 0 5.66699 -3.66699 5 -11c-0.666992 -39.333 -1 -78 -1 -116c0 -72.667 2.33301 -158.167 7 -256.5s7 -167.166 7 -206.499
c0 -55.333 -2.66699 -109.666 -8 -162.999zM435 -271.998c2.66699 0 -0.331055 -12.335 -8.99805 -37.002s-15.334 -37.667 -20.001 -39c-58.667 -12 -97.667 -20.667 -117 -26c-54 -16 -99.667 -37.667 -137 -65c-3.33301 -2.66699 -6.33301 -2.66699 -9 0
c-3.33301 3.33301 -3.33301 7 0 11c11.333 18 38.666 46 81.999 84c-47.333 20.667 -71 47 -71 79c0 27.333 20.333 60.5 61 99.5s78 58.5 112 58.5c12.667 0 25 -4 37 -12s18 -17 18 -27c0 -14 -3.66699 -27.833 -11 -41.5s-15 -20.5 -23 -20.5
c-3.33301 0 -10 6.16699 -20 18.5s-24.333 18.5 -43 18.5c-16 0 -32.5 -6.66699 -49.5 -20s-25.5 -25.666 -25.5 -36.999c0 -21.333 13 -38.666 39 -51.999c22 -10.667 45 -16 69 -16c7.33301 0 26 4 56 12s50.333 12 61 12z" />
    <glyph glyph-name="uFEFA" unicode="&#xfee0;&#xfe88;" horiz-adv-x="999" arabic-form="final" 
d="M1029 1h-69.998c-134 0 -211.667 92.667 -233 278c-48.667 -206 -145.334 -309 -290.001 -309c-39.333 0 -79.666 10.333 -120.999 31c-46.667 24 -83.667 57.333 -111 100c-6 9.33301 -8 16 -6 20c2 3.33301 7.33301 4.66602 16 3.99902
c95.333 -13.333 174.666 -17 237.999 -11c1.33301 10 2 20.667 2 32c0 55.333 -21 152 -63 290c-32 103.333 -105.333 250 -220 440l58 192c5.33301 13.333 10.666 13.666 15.999 0.999023l102 -232c32 -75.333 57 -144 75 -206c54 -188.667 81 -336 81 -442
c0 -33.333 -3.33301 -58.666 -10 -75.999c134.667 24 202 126.333 202 307c0 14 -0.333008 28.333 -1 43l-37 548c-1.33301 19.333 29 69.333 91 150c10.667 14 16 12.667 16 -4c0 -167.333 8 -382.666 24 -645.999c8 -131.333 22.333 -223.333 43 -276
c24.667 -61.333 64.667 -92 120 -92h78v-142zM435.002 -272c2.66699 0 -0.331055 -12.335 -8.99805 -37.002s-15.334 -37.667 -20.001 -39c-58.667 -12 -97.667 -20.667 -117 -26c-54 -16 -99.667 -37.667 -137 -65c-3.33301 -2.66699 -6.33301 -2.66699 -9 0
c-3.33301 3.33301 -3.33301 7 0 11c11.333 18 38.666 46 81.999 84c-47.333 20.667 -71 47 -71 79c0 27.333 20.333 60.5 61 99.5s78 58.5 112 58.5c12.667 0 25 -4 37 -12s18 -17 18 -27c0 -14 -3.66699 -27.833 -11 -41.5s-15 -20.5 -23 -20.5
c-3.33301 0 -10 6.16699 -20 18.5s-24.333 18.5 -43 18.5c-16 0 -32.5 -6.66699 -49.5 -20s-25.5 -25.666 -25.5 -36.999c0 -21.333 13 -38.666 39 -51.999c22 -10.667 45 -16 69 -16c7.33301 0 26 4 56 12s50.333 12 61 12z" />
    <glyph glyph-name="uFEFB" unicode="&#xfedf;&#xfe8e;" horiz-adv-x="760" arabic-form="isolated" 
d="M749 425c-28.667 -293.333 -139.667 -439.998 -333 -439.998c-100.667 0 -178 42 -232 126c-6 9.33301 -7.66699 16 -5 20c2 4 7 5.33301 15 4c75.333 -16 155 -20 239 -12c1.33301 9.33301 2 20 2 32c0 56 -21.333 152.667 -64 290
c-31.333 104 -104.666 251 -219.999 441l58 192c5.33301 13.333 10.666 13.666 15.999 0.999023l102 -232c32 -75.333 57 -144 75 -206c54 -188.667 81 -335.334 81 -440.001c0 -32.667 -3.33301 -57.667 -10 -75c132 29.333 197.667 132.666 197 309.999
c0 13.333 -0.333008 27.333 -1 42l-31 543c-1.33301 19.333 29 69.333 91 150c4 5.33301 7.33301 7.66602 10 6.99902c4 0 5.66699 -3.66699 5 -11c-0.666992 -39.333 -1 -78 -1 -116c0 -72.667 2.33301 -158.167 7 -256.5s7 -167.166 7 -206.499
c0 -55.333 -2.66699 -109.666 -8 -162.999z" />
    <glyph glyph-name="uFEFC" unicode="&#xfee0;&#xfe8e;" horiz-adv-x="999" arabic-form="final" 
d="M1029 1h-69.998c-134 0 -211.667 92.667 -233 278c-48.667 -206 -145.334 -309 -290.001 -309c-39.333 0 -79.666 10.333 -120.999 31c-46.667 24 -83.667 57.333 -111 100c-6 9.33301 -8 16 -6 20c2 3.33301 7.33301 4.66602 16 3.99902
c95.333 -13.333 174.666 -17 237.999 -11c1.33301 10 2 20.667 2 32c0 55.333 -21 152 -63 290c-32 103.333 -105.333 250 -220 440l58 192c5.33301 13.333 10.666 13.666 15.999 0.999023l102 -232c32 -75.333 57 -144 75 -206c54 -188.667 81 -336 81 -442
c0 -33.333 -3.33301 -58.666 -10 -75.999c134.667 24 202 126.333 202 307c0 14 -0.333008 28.333 -1 43l-37 548c-1.33301 19.333 29 69.333 91 150c10.667 14 16 12.667 16 -4c0 -167.333 8 -382.666 24 -645.999c8 -131.333 22.333 -223.333 43 -276
c24.667 -61.333 64.667 -92 120 -92h78v-142z" />
    <glyph glyph-name="u0652_u064E.liga" unicode="&#x652;&#x64e;" horiz-adv-x="1" 
d="M150 995c-2.66699 -10.667 -10.002 -26 -22.002 -46c-7.33301 -7.33301 -12.333 -10.666 -15 -9.99902c-3.33301 0 -4.66602 4.33301 -3.99902 13c2.66699 28 -2.33301 69.667 -15 125c-14 58.667 -21 93.667 -21 105c8.66699 10 21.667 22.667 39 38
c4.66699 3.33301 8.33398 5.33301 11.001 6c1.33301 -0.666992 2.33301 -3.33398 3 -8.00098c-0.666992 -6 -1 -12.667 -1 -20c0 -22.667 4.5 -56.5 13.5 -101.5s13.5 -73.833 13.5 -86.5c0 -6 -0.666992 -11 -2 -15z" />
    <glyph glyph-name="u0652_u064B.liga" unicode="&#x652;&#x64b;" horiz-adv-x="1" 
d="M461 740c0 -13.333 -32.666 -45.333 -97.999 -96c-20 24 -50.667 53 -92 87c-22 -23.333 -53.667 -54.666 -95 -93.999c-26.667 38 -59 70.667 -97 98l95 102c27.333 -14.667 60.666 -46.334 99.999 -95.001l87 95c20.667 -10 43 -27.333 67 -52
c22 -23.333 33 -38.333 33 -45z" />
    <glyph glyph-name="u0652_u064D.liga" unicode="&#x652;&#x64d;" horiz-adv-x="1" 
d="M703 -688c0 -13.333 -32.666 -45.333 -97.999 -96c-20 24 -50.667 53 -92 87c-22 -23.333 -53.667 -54.666 -95 -93.999c-26.667 38 -59 70.667 -97 98l95 102c27.333 -14.667 60.666 -46.334 99.999 -95.001l87 95c20.667 -10 43 -27.333 67 -52
c22 -23.333 33 -38.333 33 -45z" />
    <glyph glyph-name="u0622" unicode="&#x622;" horiz-adv-x="546" arabic-form="isolated" 
d="M410 206c-4.66699 -42.667 -9.00098 -74.6641 -13.001 -95.9971c-7.33301 -38 -17 -69.667 -29 -95c-13.333 -28.667 -22.666 -43 -27.999 -43c-6.66699 0 -9 18.667 -7 56c0.666992 20.667 1 42.667 1 66c0 110.667 -11.833 274.167 -35.5 490.5
s-35.5 350.166 -35.5 401.499c17.333 42 42.333 95.333 75 160c10.667 16 18 24 22 24c3.33301 0 4.33301 -11 3 -33c-1.33301 -26 -2 -54.667 -2 -86c0 -92.667 8.66699 -232.834 26 -420.501s26 -308.5 26 -362.5c0 -24.667 -1 -45.334 -3 -62.001zM606.999 1475
c-58.667 -115.333 -163.001 -173 -313.001 -173c-31.333 0 -65.166 4 -101.499 12s-56.166 12 -59.499 12c-15.333 0 -33 -11.333 -53 -34c-10.667 -12.667 -18.667 -19 -24 -19c-4.66699 0 -7 4.33301 -7 13c0 30 10.333 61 31 93c22.667 34.667 47.667 52 75 52
c6 0 26.333 -5.33301 61 -16s74 -16 118 -16c100 0 184 33.333 252 100c17.333 17.333 28.666 26 33.999 26c2.66699 -0.666992 4 -2.66699 4 -6c0 -7.33301 -5.66699 -22 -17 -44z" />
    <glyph glyph-name="u0623" unicode="&#x623;" horiz-adv-x="372" arabic-form="isolated" 
d="M347 206c-4.66699 -42.667 -9 -74.6641 -13 -95.9971c-6.66699 -38 -16 -69.667 -28 -95c-13.333 -28.667 -22.666 -43 -27.999 -43c-6.66699 0 -9.33398 18.667 -8.00098 56c0.666992 20.667 1 42.667 1 66c0 110.667 -11.667 274.167 -35 490.5
s-35 350.166 -35 401.499c16.667 42 41.334 95.333 74.001 160c11.333 16 18.666 24 21.999 24c4 0 5.33301 -11 4 -33c-1.33301 -26 -2 -54.667 -2 -86c0 -92.667 8.5 -232.834 25.5 -420.501s25.5 -308.5 25.5 -362.5c0 -24.667 -1 -45.334 -3 -62.001zM415 1401
c2.66699 0 -0.331055 -12.334 -8.99805 -37.001s-15.334 -37.667 -20.001 -39c-58 -12 -97 -20.667 -117 -26c-54 -16 -99.333 -37.333 -136 -64c-4 -3.33301 -7.33301 -3.33301 -10 0c-3.33301 2.66699 -3.33301 6 0 10c11.333 18 38.666 46.333 81.999 85
c-46.667 20 -70 46 -70 78c0 27.333 20.333 60.5 61 99.5s77.667 58.5 111 58.5c12.667 0 25 -3.83301 37 -11.5s18 -16.5 18 -26.5c0 -14.667 -3.5 -28.834 -10.5 -42.501s-14.5 -20.5 -22.5 -20.5c-4 0 -11 6.16699 -21 18.5s-24.333 18.5 -43 18.5
c-16 0 -32.5 -6.66699 -49.5 -20s-25.5 -25.666 -25.5 -36.999c0 -21.333 13.333 -38.666 40 -51.999c21.333 -10.667 44 -16 68 -16c7.33301 0 26 4 56 12s50.333 12 61 12z" />
    <glyph glyph-name="u0624" unicode="&#x624;" horiz-adv-x="805" arabic-form="isolated" 
d="M803 173c0 -124.667 -52.333 -249 -157 -373c-98 -115.333 -186.333 -173 -265 -173c-66.667 14.667 -151.667 35.667 -255 63c-14 4.66699 -21 11.334 -21 20.001c0 12 11 17.333 33 16c116.667 -6 216.667 14.333 300 61c74 41.333 140.667 92.333 200 153
c63.333 64.667 95 118.334 95 161.001c0 17.333 -5.66699 31.666 -17 42.999c-52 -36 -100.667 -54 -146 -54c-79.333 0 -119 55.667 -119 167c0 60 23.333 122.333 70 187c46 62.667 89 94 129 94c33.333 0 65 -27 95 -81c38.667 -68.667 58 -163.334 58 -284.001zM669 270
c-2 20.667 -10.499 42.668 -25.499 66.001s-29.833 35 -44.5 35s-31.334 -10.833 -50.001 -32.5s-28 -41.834 -28 -60.501c0 -37.333 19.333 -56 58 -56c43.333 0 73.333 16 90 48zM727.001 869.001c0 -45.333 -1.66992 -70.1689 -5.00293 -74.502s-56 -15.5 -158 -33.5
l-158 -29c-4.66699 10.667 -7 24 -7 40l92 45c-11.333 8 -23.333 22.333 -36 43c-14.667 24 -22 44 -22 60c0 22.667 14.667 54.334 44 95.001c33.333 46 65.333 69 96 69c16.667 0 32.334 -6 47.001 -18s22 -24.333 22 -37c0 -8 -4.66699 -22.333 -14 -43
c-6 -12.667 -13.667 -14 -23 -4c-12.667 14.667 -32.667 22 -60 22c-28.667 0 -43 -15.333 -43 -46c0 -19.333 15.333 -41.666 46 -66.999c28.667 -23.333 50.334 -35 65.001 -35c18.667 0 53.334 6.66699 104.001 20c6.66699 2 10 -0.333008 10 -7z" />
    <glyph glyph-name="u0625" unicode="&#x625;" horiz-adv-x="325" arabic-form="isolated" 
d="M321 206c-5.33301 -42.667 -9.66797 -74.6641 -13.001 -95.9971c-7.33301 -38 -17 -69.667 -29 -95c-13.333 -28.667 -22.666 -43 -27.999 -43c-6.66699 0 -9 18.667 -7 56c0.666992 20.667 1 42.667 1 66c0 110.667 -11.833 274.167 -35.5 490.5
s-35.5 350.166 -35.5 401.499c17.333 42 42 95.333 74 160c11.333 16 19 24 23 24c3.33301 0 4.33301 -11 3 -33c-1.33301 -26 -2 -54.667 -2 -86c0 -92.667 8.66699 -232.834 26 -420.501s26 -308.5 26 -362.5c0 -24.667 -1 -45.334 -3 -62.001zM434.998 -271.997
c2.66699 0 -0.331055 -12.335 -8.99805 -37.002s-15.334 -37.667 -20.001 -39c-58.667 -12 -97.667 -20.667 -117 -26c-54 -16 -99.667 -37.667 -137 -65c-3.33301 -2.66699 -6.33301 -2.66699 -9 0c-3.33301 3.33301 -3.33301 7 0 11c11.333 18 38.666 46 81.999 84
c-47.333 20.667 -71 47 -71 79c0 27.333 20.333 60.5 61 99.5s78 58.5 112 58.5c12.667 0 25 -4 37 -12s18 -17 18 -27c0 -14 -3.66699 -27.833 -11 -41.5s-15 -20.5 -23 -20.5c-3.33301 0 -10 6.16699 -20 18.5s-24.333 18.5 -43 18.5c-16 0 -32.5 -6.66699 -49.5 -20
s-25.5 -25.666 -25.5 -36.999c0 -21.333 13 -38.666 39 -51.999c22 -10.667 45 -16 69 -16c7.33301 0 26 4 56 12s50.333 12 61 12z" />
    <glyph glyph-name="u0626" unicode="&#x626;" horiz-adv-x="1149" arabic-form="isolated" 
d="M1150 524c0 -18.667 -7.66504 -42.6699 -22.998 -72.0029s-28 -44 -38 -44c-4 0 -19.333 1.66699 -46 5c-21.333 2.66699 -42.333 3 -63 1c-58 -6.66699 -114.667 -34.667 -170 -84c-50.667 -44.667 -76 -81.334 -76 -110.001c0 -37.333 55.667 -67.666 167 -90.999
c61.333 -13.333 102.333 -26.666 123 -39.999c34 -21.333 51 -55.333 51 -102c0 -104 -54.667 -200.667 -164 -290c-114 -94 -245.333 -141 -394 -141c-114 0 -200.667 29.333 -260 88c-54.667 52.667 -82 124.334 -82 215.001c0 148 45.667 284.667 137 410
c5.33301 8 11.666 10.667 18.999 8c6.66699 -2 8 -7 4 -15c-63.333 -109.333 -95 -212.666 -95 -309.999c0 -170 99.667 -255 299 -255c99.333 0 192 17.667 278 53c83.333 33.333 141.666 75.333 174.999 126c12 18 18 32.333 18 43c0 14.667 -10 24 -30 28
c-119.333 22.667 -192.333 39 -219 49c-65.333 24.667 -98 61.667 -98 111c0 109.333 48.333 217 145 323c90.667 100 175 150 253 150c24 0 44.833 -5.5 62.5 -16.5s26.5 -24.167 26.5 -39.5zM473.002 494.997c3.33301 0 0.666016 -12.334 -8.00098 -37.001
s-15.334 -37.667 -20.001 -39c-58.667 -11.333 -98 -20 -118 -26c-54 -16 -99.333 -37.333 -136 -64c-3.33301 -2.66699 -6.66602 -2.66699 -9.99902 0c-2.66699 2.66699 -2.66699 6.33398 0 11.001c12 18 39.333 46 82 84c-46.667 20.667 -70 46.667 -70 78
c0 28 20.333 61.5 61 100.5s77.667 58.5 111 58.5c13.333 0 26 -4 38 -12s18 -17 18 -27c0 -14.667 -3.66699 -28.667 -11 -42s-15 -20 -23 -20c-3.33301 0 -10.166 6 -20.499 18s-24.5 18 -42.5 18c-16 0 -32.5 -6.5 -49.5 -19.5s-25.5 -25.167 -25.5 -36.5
c0 -22 13 -39.333 39 -52c22 -10.667 45 -16 69 -16c7.33301 0 26 3.83301 56 11.5s50 11.5 60 11.5z" />
    <glyph glyph-name="u0627" unicode="&#x627;" horiz-adv-x="325" arabic-form="isolated" 
d="M321 206c-5.33301 -42.667 -9.66797 -74.6641 -13.001 -95.9971c-7.33301 -38 -17 -69.667 -29 -95c-13.333 -28.667 -22.666 -43 -27.999 -43c-6.66699 0 -9 18.667 -7 56c0.666992 20.667 1 42.667 1 66c0 110.667 -11.833 274.167 -35.5 490.5
s-35.5 350.166 -35.5 401.499c17.333 42 42 95.333 74 160c11.333 16 19 24 23 24c3.33301 0 4.33301 -11 3 -33c-1.33301 -26 -2 -54.667 -2 -86c0 -92.667 8.66699 -232.834 26 -420.501s26 -308.5 26 -362.5c0 -24.667 -1 -45.334 -3 -62.001z" />
    <glyph glyph-name="u0628" unicode="&#x628;" horiz-adv-x="1401" arabic-form="isolated" 
d="M1395 331c0 -76 -29.999 -147.001 -89.999 -213.001c-28 -30.667 -98.333 -60 -211 -88c-131.333 -32.667 -272 -49 -422 -49c-332 0 -498 81.667 -498 245c0 90.667 27.333 169.334 82 236.001c6.66699 8 12.667 10.667 18 8c6 -2.66699 6.33301 -8.66699 1 -18
c-24.667 -45.333 -37 -92 -37 -140c0 -56 40 -100.667 120 -134c87.333 -36.667 213.666 -55 378.999 -55c145.333 0 274.333 13.333 387 40c104 24.667 176.333 56 217 94c0 19.333 -10 46.5 -30 81.5s-41 60.833 -63 77.5l57 133c4.66699 11.333 10.667 12 18 2
c48 -62.667 72 -136 72 -220zM868.001 -278.001c0 -20 -34.667 -56.333 -104 -109c-24.667 35.333 -59 70 -103 104l101 108c22 -12 45.667 -30.667 71 -56c23.333 -24 35 -39.667 35 -47z" />
    <glyph glyph-name="u0629" unicode="&#x629;" horiz-adv-x="470" arabic-form="isolated" 
d="M465 257c0 -74.667 -17.332 -140.334 -51.999 -197.001c-24.667 -39.333 -65.334 -59 -122.001 -59c-71.333 0 -107 47.333 -107 142c0 58 22.667 122 68 192l-21 17c20.667 92 34 138 40 138c-4 0 7 -10 33 -30c56.667 -43.333 89 -68.666 97 -75.999
c42.667 -42 64 -84.333 64 -127zM415.001 190c-0.666992 23.333 -17.334 47 -50.001 71c-9.33301 6.66699 -38 23.667 -86 51c-29.333 -46.667 -44 -83.667 -44 -111c0 -38.667 19.333 -58 58 -58c62.667 0 103.334 15.667 122.001 47zM459.001 792
c3.33301 0 0.666016 -12.333 -8.00098 -37s-15.334 -37.667 -20.001 -39c-58.667 -11.333 -98 -20 -118 -26c-54 -16 -99.333 -37.333 -136 -64c-3.33301 -2.66699 -6.66602 -2.66699 -9.99902 0c-2.66699 2.66699 -2.66699 6.33398 0 11.001c12 18 39.333 46 82 84
c-46.667 20 -70 46 -70 78c0 28 20.333 61.333 61 100s77.667 58 111 58c13.333 0 26 -3.83301 38 -11.5s18 -16.5 18 -26.5c0 -14.667 -3.66699 -28.834 -11 -42.501s-15 -20.5 -23 -20.5c-3.33301 0 -10.166 6.16699 -20.499 18.5s-24.5 18.5 -42.5 18.5
c-16 0 -32.5 -6.66699 -49.5 -20s-25.5 -25.333 -25.5 -36c0 -22 13 -39.667 39 -53c22 -10.667 45 -16 69 -16c7.33301 0 26 4 56 12s50 12 60 12z" />
    <glyph glyph-name="u062A" unicode="&#x62a;" horiz-adv-x="1401" arabic-form="isolated" 
d="M1395 331c0 -76 -29.999 -147.001 -89.999 -213.001c-28 -30.667 -98.333 -60 -211 -88c-131.333 -32.667 -272 -49 -422 -49c-332 0 -498 81.667 -498 245c0 90.667 27.333 169.334 82 236.001c6.66699 8 12.667 10.667 18 8c6 -2.66699 6.33301 -8.66699 1 -18
c-24.667 -45.333 -37 -92 -37 -140c0 -56 40 -100.667 120 -134c87.333 -36.667 213.666 -55 378.999 -55c145.333 0 274.333 13.333 387 40c104 24.667 176.333 56 217 94c0 19.333 -10 46.5 -30 81.5s-41 60.833 -63 77.5l57 133c4.66699 11.333 10.667 12 18 2
c48 -62.667 72 -136 72 -220zM970.001 722.999c0 -14 -32.666 -45.999 -97.999 -95.999c-20 24 -50.667 53 -92 87c-22 -23.333 -53.667 -54.666 -95 -93.999c-26.667 38 -59 70.667 -97 98l95 102c27.333 -14.667 60.666 -46.334 99.999 -95.001l87 95
c20.667 -10 43 -27.667 67 -53c22 -22.667 33 -37.334 33 -44.001z" />
    <glyph glyph-name="u062B" unicode="&#x62b;" horiz-adv-x="1401" arabic-form="isolated" 
d="M1395 331c0 -76 -29.999 -147.001 -89.999 -213.001c-28 -30.667 -98.333 -60 -211 -88c-131.333 -32.667 -272 -49 -422 -49c-332 0 -498 81.667 -498 245c0 90.667 27.333 169.334 82 236.001c6.66699 8 12.667 10.667 18 8c6 -2.66699 6.33301 -8.66699 1 -18
c-24.667 -45.333 -37 -92 -37 -140c0 -56 40 -100.667 120 -134c87.333 -36.667 213.666 -55 378.999 -55c145.333 0 274.333 13.333 387 40c104 24.667 176.333 56 217 94c0 19.333 -10 46.5 -30 81.5s-41 60.833 -63 77.5l57 133c4.66699 11.333 10.667 12 18 2
c48 -62.667 72 -136 72 -220zM887.001 888.999c0 -4.66699 -11 -19.001 -33 -43.001s-42 -42.667 -60 -56c-24 28 -56.333 59.333 -97 94l94 99c64 -47.333 96 -78.666 96 -93.999zM983.001 679.998c0 -13.333 -32.667 -45.334 -98 -96.001c-20 24 -50.667 53 -92 87
c-22 -23.333 -53.667 -54.666 -95 -93.999c-26.667 38 -59 70.667 -97 98l95 102c28 -15.333 61.333 -47.333 100 -96l87 96c20.667 -10 43 -27.333 67 -52c22 -22.667 33 -37.667 33 -45z" />
    <glyph glyph-name="u062C" unicode="&#x62c;" horiz-adv-x="1035" arabic-form="isolated" 
d="M1215 -592c-66 -70.667 -145.668 -128.332 -239.001 -172.999c-104 -49.333 -209.667 -74 -317 -74c-160.667 0 -284.334 45.333 -371.001 136c-76 78.667 -114 179 -114 301c0 132 34.667 256 104 372c73.333 123.333 177.333 222.666 312 297.999
c-103.333 24 -164.333 36 -183 36c-50 0 -96.667 -25.333 -140 -76c-6 -7.33301 -11.667 -10.333 -17 -9s-6.66602 6.33301 -3.99902 15c43.333 144 118.333 216 225 216c7.33301 0 59.5 -10.833 156.5 -32.5s219.167 -32.5 366.5 -32.5l-57 -146
c-108.667 2 -185 -3 -229 -15c-124 -33.333 -230 -100.333 -318 -201c-90 -103.333 -135 -213.333 -135 -330c0 -134.667 50.333 -236 151 -304c84.667 -56.667 196.334 -85 335.001 -85c169.333 0 322.333 40 459 120c16.667 10 25 10.667 25 2
c0 -4.66699 -3.33301 -10.667 -10 -18zM783.999 -272.998c0 -20 -34.668 -56.333 -104.001 -109c-25.333 35.333 -59.666 70 -102.999 104l101 108c22 -12 45.667 -30.667 71 -56c23.333 -24 35 -39.667 35 -47z" />
    <glyph glyph-name="u062D" unicode="&#x62d;" horiz-adv-x="1035" arabic-form="isolated" 
d="M1215 -592c-66 -70.667 -145.668 -128.332 -239.001 -172.999c-104 -49.333 -209.667 -74 -317 -74c-160.667 0 -284.334 45.333 -371.001 136c-76 78.667 -114 179 -114 301c0 132 34.667 256 104 372c73.333 123.333 177.333 222.666 312 297.999
c-103.333 24 -164.333 36 -183 36c-50 0 -96.667 -25.333 -140 -76c-6 -7.33301 -11.667 -10.333 -17 -9s-6.66602 6.33301 -3.99902 15c43.333 144 118.333 216 225 216c7.33301 0 59.5 -10.833 156.5 -32.5s219.167 -32.5 366.5 -32.5l-57 -146
c-108.667 2 -185 -3 -229 -15c-124 -33.333 -230 -100.333 -318 -201c-90 -103.333 -135 -213.333 -135 -330c0 -134.667 50.333 -236 151 -304c84.667 -56.667 196.334 -85 335.001 -85c169.333 0 322.333 40 459 120c16.667 10 25 10.667 25 2
c0 -4.66699 -3.33301 -10.667 -10 -18z" />
    <glyph glyph-name="u062E" unicode="&#x62e;" horiz-adv-x="1035" arabic-form="isolated" 
d="M1215 -592c-66 -70.667 -145.668 -128.332 -239.001 -172.999c-104 -49.333 -209.667 -74 -317 -74c-160.667 0 -284.334 45.333 -371.001 136c-76 78.667 -114 179 -114 301c0 132 34.667 256 104 372c73.333 123.333 177.333 222.666 312 297.999
c-103.333 24 -164.333 36 -183 36c-50 0 -96.667 -25.333 -140 -76c-6 -7.33301 -11.667 -10.333 -17 -9s-6.66602 6.33301 -3.99902 15c43.333 144 118.333 216 225 216c7.33301 0 59.5 -10.833 156.5 -32.5s219.167 -32.5 366.5 -32.5l-57 -146
c-108.667 2 -185 -3 -229 -15c-124 -33.333 -230 -100.333 -318 -201c-90 -103.333 -135 -213.333 -135 -330c0 -134.667 50.333 -236 151 -304c84.667 -56.667 196.334 -85 335.001 -85c169.333 0 322.333 40 459 120c16.667 10 25 10.667 25 2
c0 -4.66699 -3.33301 -10.667 -10 -18zM773.999 776.002c0 -20 -34.667 -56.333 -104 -109c-24.667 35.333 -59 70 -103 104l101 108c22 -12 45.667 -30.667 71 -56c23.333 -24 35 -39.667 35 -47z" />
    <glyph glyph-name="u062F" unicode="&#x62f;" horiz-adv-x="624" arabic-form="isolated" 
d="M622 222c0 -74 -16.668 -128.333 -50.001 -163c-50 -52 -128 -78 -234 -78c-35.333 0 -69.666 4 -102.999 12c-39.333 9.33301 -59 21.333 -59 36c0 8 11.333 47.667 34 119c54 -16.667 101.667 -25 143 -25c58 0 109.667 7 155 21c40 13.333 60 26 60 38
c0 40 -29 86.667 -87 140c-56 51.333 -110 84 -162 98l36 146c3.33301 13.333 11 17 23 11c68 -34 125.667 -86 173 -156s71 -136.333 71 -199z" />
    <glyph glyph-name="u0630" unicode="&#x630;" horiz-adv-x="624" arabic-form="isolated" 
d="M622 222c0 -74 -16.668 -128.333 -50.001 -163c-50 -52 -128 -78 -234 -78c-35.333 0 -69.666 4 -102.999 12c-39.333 9.33301 -59 21.333 -59 36c0 8 11.333 47.667 34 119c54 -16.667 101.667 -25 143 -25c58 0 109.667 7 155 21c40 13.333 60 26 60 38
c0 40 -29 86.667 -87 140c-56 51.333 -110 84 -162 98l36 146c3.33301 13.333 11 17 23 11c68 -34 125.667 -86 173 -156s71 -136.333 71 -199zM383.999 825c0 -20 -34.667 -56.332 -104 -108.999c-24.667 35.333 -59 70 -103 104l101 108
c22 -12.667 45.667 -31.334 71 -56.001c23.333 -24 35 -39.667 35 -47z" />
    <glyph glyph-name="u0631" unicode="&#x631;" horiz-adv-x="689" arabic-form="isolated" 
d="M686 114c0 -112.667 -32.3311 -215.999 -96.998 -309.999s-135 -141 -211 -141c-90.667 0 -182.334 25.333 -275.001 76c-6 3.33301 -8 7.66602 -6 12.999s7 8 15 8c160 0 281.333 24.667 364 74c80 48 135.667 126.333 167 235c-8.66699 25.333 -27.667 56.333 -57 93
c-26.667 34 -51.334 59.667 -74.001 77l53 151c3.33301 9.33301 8.33301 10.333 15 3c70.667 -82 106 -175 106 -279z" />
    <glyph glyph-name="u0632" unicode="&#x632;" horiz-adv-x="688" arabic-form="isolated" 
d="M686 114c0 -112.667 -32.3311 -215.999 -96.998 -309.999s-135 -141 -211 -141c-90.667 0 -182.334 25.333 -275.001 76c-6 3.33301 -8 7.66602 -6 12.999s7 8 15 8c160 0 281.333 24.667 364 74c80 48 135.667 126.333 167 235c-8.66699 25.333 -27.667 56.333 -57 93
c-26.667 34 -51.334 59.667 -74.001 77l53 151c3.33301 9.33301 8.33301 10.333 15 3c70.667 -82 106 -175 106 -279zM632.002 630.001c0 -20 -34.668 -56.334 -104.001 -109.001c-25.333 35.333 -59.666 70 -102.999 104l101 108c22 -12.667 45.167 -31.167 69.5 -55.5
s36.5 -40.166 36.5 -47.499z" />
    <glyph glyph-name="u0633" unicode="&#x633;" horiz-adv-x="1540" arabic-form="isolated" 
d="M1540 224c0 -70.667 -14.335 -125.328 -43.002 -163.995c-24.667 -32.667 -54.667 -49 -90 -49c-31.333 0 -63.333 7.66699 -96 23c-38 17.333 -65.667 40.666 -83 69.999c-36 -68.667 -87.667 -103 -155 -103c-48.667 0 -85.667 6.33301 -111 19
c-5.33301 -138.667 -38 -252.334 -98 -341.001c-80 -118 -200.333 -177 -361 -177c-116 0 -202.333 33 -259 99c-46.667 54.667 -70 126.667 -70 216c0 116.667 35 219.667 105 309c8 9.33301 14.667 13 20 11c6 -2 6.33301 -8 1 -18c-46 -89.333 -69 -168 -69 -236
c0 -74.667 25.833 -133.167 77.5 -175.5s122.834 -63.5 213.501 -63.5c84.667 0 165.334 22.667 242.001 68c90.667 54 136 122.667 136 206c0 69.333 -28.333 137.666 -85 204.999c-4.66699 5.33301 -4.66699 12.333 0 21l63 122c4 8 8.33301 8 13 0
c24.667 -42.667 46.667 -71.334 66 -86.001c32 -24.667 77.667 -37 137 -37c66 0 113.667 48.667 143 146c2 6.66699 5.66699 9.66699 11 9s9 -4.33398 11 -11.001c28.667 -100 95.667 -145.667 201 -137c15.333 1.33301 21 10 17 26c-8 32.667 -28.667 67.667 -62 105
l61 111c3.33301 6.66699 7 6.66699 11 0c35.333 -61.333 53 -117.333 53 -168z" />
    <glyph glyph-name="u0634" unicode="&#x634;" horiz-adv-x="1540" arabic-form="isolated" 
d="M1540 224c0 -70.667 -14.335 -125.328 -43.002 -163.995c-24.667 -32.667 -54.667 -49 -90 -49c-31.333 0 -63.333 7.66699 -96 23c-38 17.333 -65.667 40.666 -83 69.999c-36 -68.667 -87.667 -103 -155 -103c-48.667 0 -85.667 6.33301 -111 19
c-5.33301 -138.667 -38 -252.334 -98 -341.001c-80 -118 -200.333 -177 -361 -177c-116 0 -202.333 33 -259 99c-46.667 54.667 -70 126.667 -70 216c0 116.667 35 219.667 105 309c8 9.33301 14.667 13 20 11c6 -2 6.33301 -8 1 -18c-46 -89.333 -69 -168 -69 -236
c0 -74.667 25.833 -133.167 77.5 -175.5s122.834 -63.5 213.501 -63.5c84.667 0 165.334 22.667 242.001 68c90.667 54 136 122.667 136 206c0 69.333 -28.333 137.666 -85 204.999c-4.66699 5.33301 -4.66699 12.333 0 21l63 122c4 8 8.33301 8 13 0
c24.667 -42.667 46.667 -71.334 66 -86.001c32 -24.667 77.667 -37 137 -37c66 0 113.667 48.667 143 146c2 6.66699 5.66699 9.66699 11 9s9 -4.33398 11 -11.001c28.667 -100 95.667 -145.667 201 -137c15.333 1.33301 21 10 17 26c-8 32.667 -28.667 67.667 -62 105
l61 111c3.33301 6.66699 7 6.66699 11 0c35.333 -61.333 53 -117.333 53 -168zM1288 833.006c0 -5.33301 -10.668 -19.333 -32.001 -42c-22 -24.667 -42.333 -43.667 -61 -57c-23.333 28 -55.666 59.333 -96.999 94l94 99c64 -48 96 -79.333 96 -94zM1384 624.006
c0 -14 -32.667 -46 -98 -96c-20 24 -50.667 53 -92 87c-21.333 -23.333 -53 -54.666 -95 -93.999c-26.667 38 -59 70.667 -97 98l95 102c28.667 -15.333 62 -47.333 100 -96l87 96c20.667 -10 43 -27.667 67 -53c22 -22.667 33 -37.334 33 -44.001z" />
    <glyph glyph-name="u0635" unicode="&#x635;" horiz-adv-x="1782" arabic-form="isolated" 
d="M1782 344c0 -228.667 -236.667 -342.998 -710 -342.998c-48 0 -84.667 6.33301 -110 19c-5.33301 -138.667 -38 -252.334 -98 -341.001c-80 -118 -200.333 -177 -361 -177c-111.333 0 -195.333 30.667 -252 92c-51.333 54.667 -77 129 -77 223
c0 116.667 35 219.667 105 309c8 9.33301 14.667 13 20 11c6 -2 6.33301 -8 1 -18c-46 -89.333 -69 -168 -69 -236c0 -78 28 -138 84 -180c51.333 -39.333 120.333 -59 207 -59c85.333 0 166.333 22.667 243 68c90 54 135 122.667 135 206
c0 69.333 -28.333 137.666 -85 204.999c-4.66699 5.33301 -4.66699 12.333 0 21l63 122c4 8 8.33301 8 13 0c47.333 -82 96.333 -123 147 -123c24 0 70.333 32 139 96c105.333 96.667 172 156 200 178c82.667 64 153 96 211 96c59.333 0 107 -17 143 -51
c34 -32 51 -71.333 51 -118zM1717 297.002c0 16.667 -13.666 34 -40.999 52c-30.667 20.667 -67.334 31 -110.001 31c-65.333 0 -138 -28.667 -218 -86l-198 -149c151.333 -4 287 13.333 407 52c106.667 34 160 67.333 160 100z" />
    <glyph glyph-name="u0636" unicode="&#x636;" horiz-adv-x="1786" arabic-form="isolated" 
d="M1782 344c0 -228.667 -236.667 -342.998 -710 -342.998c-48 0 -84.667 6.33301 -110 19c-5.33301 -138.667 -38 -252.334 -98 -341.001c-80 -118 -200.333 -177 -361 -177c-111.333 0 -195.333 30.667 -252 92c-51.333 54.667 -77 129 -77 223
c0 116.667 35 219.667 105 309c8 9.33301 14.667 13 20 11c6 -2 6.33301 -8 1 -18c-46 -89.333 -69 -168 -69 -236c0 -78 28 -138 84 -180c51.333 -39.333 120.333 -59 207 -59c85.333 0 166.333 22.667 243 68c90 54 135 122.667 135 206
c0 69.333 -28.333 137.666 -85 204.999c-4.66699 5.33301 -4.66699 12.333 0 21l63 122c4 8 8.33301 8 13 0c47.333 -82 96.333 -123 147 -123c24 0 70.333 32 139 96c105.333 96.667 172 156 200 178c82.667 64 153 96 211 96c59.333 0 107 -17 143 -51
c34 -32 51 -71.333 51 -118zM1717 297.002c0 16.667 -13.666 34 -40.999 52c-30.667 20.667 -67.334 31 -110.001 31c-65.333 0 -138 -28.667 -218 -86l-198 -149c151.333 -4 287 13.333 407 52c106.667 34 160 67.333 160 100zM1551 831.002
c0 -20 -34.667 -56.332 -104 -108.999c-24.667 35.333 -59 70 -103 104l101 108c22 -12.667 45.667 -31.334 71 -56.001c23.333 -24 35 -39.667 35 -47z" />
    <glyph glyph-name="u0637" unicode="&#x637;" horiz-adv-x="1164" arabic-form="isolated" 
d="M1168 343c0 -91.333 -34.332 -161.666 -102.999 -210.999c-120.667 -87.333 -314 -131 -580 -131c-153.333 0 -256.333 45 -309 135c-0.666992 4 1.66602 8 6.99902 12l194 -5c69.333 -2 118 22.333 146 73c18 33.333 27 97.333 27 192c0 72 -6.16699 179 -18.5 321
s-18.5 228.667 -18.5 260c25.333 73.333 52.666 134.666 81.999 183.999c5.33301 9.33301 10.333 14 15 14s7 -6.66699 7 -20c0 -33.333 4.33301 -115 13 -245s13 -234 13 -312c0 -130 -10 -235.667 -30 -317c108.667 90.667 164.667 137 168 139
c74.667 54 139.667 81 195 81c56.667 0 102.834 -16.333 138.501 -49s53.5 -73 53.5 -121zM1103 297c0 16.667 -13.667 34 -41 52c-30.667 20.667 -66 31 -106 31c-67.333 0 -144.333 -28.667 -231 -86l-209 -149c154.667 -4 294.667 13.333 420 52
c111.333 34 167 67.333 167 100z" />
    <glyph glyph-name="u0638" unicode="&#x638;" horiz-adv-x="1172" arabic-form="isolated" 
d="M1168 343c0 -91.333 -34.332 -161.666 -102.999 -210.999c-120.667 -87.333 -314 -131 -580 -131c-153.333 0 -256.333 45 -309 135c-0.666992 4 1.66602 8 6.99902 12l194 -5c69.333 -2 118 22.333 146 73c18 33.333 27 97.333 27 192c0 72 -6.16699 179 -18.5 321
s-18.5 228.667 -18.5 260c25.333 73.333 52.666 134.666 81.999 183.999c5.33301 9.33301 10.333 14 15 14s7 -6.66699 7 -20c0 -33.333 4.33301 -115 13 -245s13 -234 13 -312c0 -130 -10 -235.667 -30 -317c108.667 90.667 164.667 137 168 139
c74.667 54 139.667 81 195 81c56.667 0 102.834 -16.333 138.501 -49s53.5 -73 53.5 -121zM1103 297c0 16.667 -13.667 34 -41 52c-30.667 20.667 -66 31 -106 31c-67.333 0 -144.333 -28.667 -231 -86l-209 -149c154.667 -4 294.667 13.333 420 52
c111.333 34 167 67.333 167 100zM1032 841c0 -20 -34.668 -56.334 -104.001 -109.001c-25.333 35.333 -59.666 70 -102.999 104l101 107c22 -12 45.167 -30.167 69.5 -54.5s36.5 -40.166 36.5 -47.499z" />
    <glyph glyph-name="u0639" unicode="&#x639;" horiz-adv-x="871" arabic-form="isolated" 
d="M1171 -601c-165.333 -154 -339.333 -231 -522 -231c-316.667 0 -475 138.333 -475 415c0 219.333 81.333 422.333 244 609c-62 26 -105.167 53.833 -129.5 83.5s-36.5 67.834 -36.5 114.501c0 56.667 19 119.667 57 189c44 82 94.667 123 152 123c36 0 75 -13 117 -39
c39.333 -24.667 68.333 -51.667 87 -81c2.66699 -4 3 -7 1 -9c-2 -2.66699 -5.33301 -3.66699 -10 -3c-82 10.667 -120 16 -114 16c-60.667 0 -113.667 -19.333 -159 -58c-38 -32.667 -57 -62 -57 -88c0 -26.667 28.333 -53.667 85 -81
c51.333 -24.667 93.666 -37 126.999 -37c14.667 0 52.667 19 114 57c74.667 46 122.334 73.333 143.001 82c3.33301 1.33301 6.33301 0.333008 9 -3c-32 -104.667 -51.333 -158.667 -58 -162c-331.333 -169.333 -497 -382 -497 -638c0 -230.667 147 -346 441 -346
c162 0 321 34.667 477 104c6 2.66699 10.333 2.66699 13 0c3.33301 -2.66699 0.333008 -8.33398 -9 -17.001z" />
    <glyph glyph-name="u063A" unicode="&#x63a;" horiz-adv-x="871" arabic-form="isolated" 
d="M1171 -601c-165.333 -154 -339.333 -231 -522 -231c-316.667 0 -475 138.333 -475 415c0 219.333 81.333 422.333 244 609c-62 26 -105.167 53.833 -129.5 83.5s-36.5 67.834 -36.5 114.501c0 56.667 19 119.667 57 189c44 82 94.667 123 152 123c36 0 75 -13 117 -39
c39.333 -24.667 68.333 -51.667 87 -81c2.66699 -4 3 -7 1 -9c-2 -2.66699 -5.33301 -3.66699 -10 -3c-82 10.667 -120 16 -114 16c-60.667 0 -113.667 -19.333 -159 -58c-38 -32.667 -57 -62 -57 -88c0 -26.667 28.333 -53.667 85 -81
c51.333 -24.667 93.666 -37 126.999 -37c14.667 0 52.667 19 114 57c74.667 46 122.334 73.333 143.001 82c3.33301 1.33301 6.33301 0.333008 9 -3c-32 -104.667 -51.333 -158.667 -58 -162c-331.333 -169.333 -497 -382 -497 -638c0 -230.667 147 -346 441 -346
c162 0 321 34.667 477 104c6 2.66699 10.333 2.66699 13 0c3.33301 -2.66699 0.333008 -8.33398 -9 -17.001zM501 993c0 -20 -34.668 -56.333 -104.001 -109c-25.333 35.333 -59.666 70 -102.999 104l101 108c22 -12 45.167 -30.333 69.5 -55s36.5 -40.667 36.5 -48z" />
    <glyph glyph-name="u0641" unicode="&#x641;" horiz-adv-x="1374" arabic-form="isolated" 
d="M1372 354c0 -104.667 -27.667 -178.998 -83 -222.998c-124.667 -100 -340 -150 -646 -150c-312.667 0 -469 91.333 -469 274c0 89.333 30.667 171.666 92 246.999c6.66699 7.33301 12.667 9.66602 18 6.99902c6 -2 6.33301 -7.66699 1 -17
c-31.333 -58 -47 -114.667 -47 -170c0 -132.667 156.333 -199 469 -199c138 0 274.167 19.333 408.5 58s201.5 77.334 201.5 116.001c0 23.333 -7.33301 45.666 -22 66.999c-42 -44.667 -95.333 -67 -160 -67c-27.333 0 -52.333 9.33301 -75 28
c-29.333 25.333 -44 61 -44 107c0 60 16.667 122.333 50 187c36 69.333 74.667 104 116 104c40 0 81 -38.667 123 -116c44.667 -80.667 67 -165 67 -253zM1245 468.002c-21.333 74.667 -48.334 112.001 -81.001 112.001c-19.333 0 -36.666 -12 -51.999 -36
c-13.333 -20.667 -20 -39.334 -20 -56.001c0 -37.333 19.333 -56 58 -56c40 0 71.667 12 95 36zM1190 1019c0 -20 -34.668 -56.334 -104.001 -109.001c-25.333 35.333 -59.666 70 -102.999 104l101 108c22 -12.667 45.167 -31.167 69.5 -55.5s36.5 -40.166 36.5 -47.499z
" />
    <glyph glyph-name="u0642" unicode="&#x642;" horiz-adv-x="1028" arabic-form="isolated" 
d="M1021 189c0 -163.333 -51.333 -293.668 -154 -391.001c-94 -90 -210.333 -135 -349 -135c-101.333 0 -183 29.333 -245 88c-65.333 61.333 -98 145 -98 251c0 49.333 10.167 106.333 30.5 171s44.833 117.334 73.5 158.001c6.66699 9.33301 13.667 14 21 14
c6 0 9 -3.33301 9 -10c0 -3.33301 -1 -6.66602 -3 -9.99902c-45.333 -94 -68 -175.667 -68 -245c0 -74.667 20.667 -136.334 62 -185.001c50.667 -60 126.667 -90 228 -90c115.333 0 214 27.333 296 82c77.333 50.667 125 115 143 193c9.33301 39.333 2.33301 81 -21 125
c-38.667 -50 -89.667 -75 -153 -75c-77.333 0 -116 58 -116 174c0 44 13.333 95 40 153c32 70 68.667 105 110 105c50 0 95.667 -44.333 137 -133c38 -81.333 57 -161.333 57 -240zM899 318.998c0 20 -10.667 42 -32 66s-43 36 -65 36c-17.333 0 -33 -11.333 -47 -34
c-12.667 -20 -19 -39.333 -19 -58c0 -46.667 21.333 -70 64 -70c66 0 99 20 99 60zM981 802.998c0 -14 -32.666 -46 -97.999 -96c-20 24 -50.667 53 -92 87c-22 -23.333 -53.667 -54.666 -95 -93.999c-26.667 38 -59 70.667 -97 98l95 102
c27.333 -14.667 60.666 -46.334 99.999 -95.001l87 95c20.667 -10 43 -27.333 67 -52c22 -23.333 33 -38.333 33 -45z" />
    <glyph glyph-name="u0643" unicode="&#x643;" horiz-adv-x="1603" arabic-form="isolated" 
d="M1602 1180l-39 -105.001c-13.333 -34 -23.333 -52.333 -30 -55c-80.667 -32.667 -191.334 -86.667 -332.001 -162c-132.667 -70.667 -211.667 -116.667 -237 -138c76.667 -40.667 146.334 -86.334 209.001 -137.001c89.333 -72.667 145.666 -136.667 168.999 -192
c5.33301 -11.333 8 -27.666 8 -48.999c0 -88.667 -19.5 -158.167 -58.5 -208.5s-126.5 -91.166 -262.5 -122.499c-118 -26.667 -240 -40 -366 -40c-326 0 -489 91.667 -489 275c0 76.667 27.333 148.667 82 216c6.66699 8 12.667 10.667 18 8
c6 -2.66699 6.33301 -8.66699 1 -18c-24.667 -45.333 -37 -92 -37 -140c0 -57.333 38.333 -103.666 115 -138.999c86.667 -40 211.667 -60 375 -60c141.333 0 276 19 404 57c114 34 171 63.667 171 89c0 43.333 -67.667 115.666 -203 216.999
c-11.333 8.66699 -59.666 41 -144.999 97c-50 33.333 -75.333 56.333 -76 69c-1.33301 68 4.66699 110.333 18 127c29.333 36.667 106 93.334 230 170.001c136 82.667 291.667 165.667 467 249c3.33301 -0.666992 6 -3.33398 8 -8.00098z" />
    <glyph glyph-name="u0644" unicode="&#x644;" horiz-adv-x="962" arabic-form="isolated" 
d="M956 406c2.66699 -54 4.00098 -100.333 4.00098 -139c0 -132 -17 -236 -51 -312c-80 -176.667 -218.667 -265 -416 -265c-212.667 0 -319 108.333 -319 325c0 49.333 13.667 109.666 41 180.999c25.333 66 53.333 118.333 84 157c8 10 14.667 13.667 20 11
c6 -2 6.33301 -8 1 -18c-59.333 -102.667 -89 -191 -89 -265c0 -166 93.667 -249 281 -249c109.333 0 201.666 27.667 276.999 83c61.333 46 92 90.333 92 133c0 136 -8 292.667 -24 470c-21.333 228 -34 384 -38 468c38 94.667 68 156.334 90 185.001c4 1.33301 8 0 12 -4
c-2 -39.333 -3 -78.333 -3 -117c0 -76.667 4.66699 -175.667 14 -297c12.667 -166 20.667 -281.667 24 -347z" />
    <glyph glyph-name="u0645" unicode="&#x645;" horiz-adv-x="695" arabic-form="isolated" 
d="M690 235c-11.333 -24 -31.0029 -51.6689 -59.0029 -83.002c-30 -34 -52.333 -51 -67 -51c-66.667 0.666992 -131.667 -7.66602 -195 -24.999c-88.667 -24.667 -129.667 -60.667 -123 -108c11.333 -74.667 27 -193.334 47 -356.001c16.667 -168 22.334 -301 17.001 -399
c-2.66699 -42.667 -9.66699 -64 -21 -64c-9.33301 0 -15.333 14.667 -18 44c-11.333 128 -41.666 342.333 -90.999 643c-3.33301 22 -5 44 -5 66c0 166.667 94.667 278.334 284 335.001c-21.333 21.333 -50.333 33 -87 35c-20 1.33301 -23.667 13 -11 35
c12 20.667 28.667 42.334 50 65.001c26.667 28.667 47.334 43 62.001 43c49.333 0 99 -19.333 149 -58c48 -37.333 72 -72.333 72 -105c0 -6 -1.33301 -11.667 -4 -17z" />
    <glyph glyph-name="u0646" unicode="&#x646;" horiz-adv-x="927" arabic-form="isolated" 
d="M924 119c0 -83.333 -13.333 -153.002 -40 -209.002c-78.667 -167.333 -210.334 -251 -395.001 -251c-210 0 -315 106.333 -315 319c0 52 12 109 36 171c21.333 56 46 101 74 135c6.66699 8.66699 13.334 11.334 20.001 8.00098c6 -2.66699 6.33301 -8.66699 1 -18
c-18 -28 -34.333 -66.667 -49 -116s-22 -90.333 -22 -123c0 -156.667 95 -235 285 -235c101.333 0 185.333 27 252 81c54 43.333 88.667 95.333 104 156c-2 34.667 -19 84.334 -51 149.001c-28.667 56 -56 101 -82 135l53 141c4 11.333 9.66699 12 17 2
c74.667 -103.333 112 -218.333 112 -345zM596 572.998c0 -20 -34.668 -56.333 -104.001 -109c-25.333 35.333 -59.666 70 -102.999 104l101 108c22 -12 45.167 -30.167 69.5 -54.5s36.5 -40.5 36.5 -48.5z" />
    <glyph glyph-name="u0647" unicode="&#x647;" horiz-adv-x="456" arabic-form="isolated" 
d="M455 257c0 -74.667 -17.332 -140.334 -51.999 -197.001c-24.667 -39.333 -65.334 -59 -122.001 -59c-71.333 0 -107 47.333 -107 142c0 58 23 122 69 192l-22 17c20.667 92 34 138 40 138c-4 0 7 -10 33 -30c56.667 -43.333 89 -68.666 97 -75.999
c42.667 -42 64 -84.333 64 -127zM405.001 190c-0.666992 23.333 -17.334 47 -50.001 71c-9.33301 6.66699 -38 23.667 -86 51c-29.333 -46.667 -44 -83.667 -44 -111c0 -38.667 19.333 -58 58 -58c62.667 0 103.334 15.667 122.001 47z" />
    <glyph glyph-name="u0648" unicode="&#x648;" horiz-adv-x="717" arabic-form="isolated" 
d="M715 172c0 -112 -36.333 -225.333 -109 -340c-74 -118.667 -150.333 -178 -229 -178c-91.333 0 -182.333 33.667 -273 101c-4.66699 4 -6.66699 7.66699 -6 11c1.33301 4 5 5.66699 11 5c39.333 -3.33301 75 -5 107 -5c117.333 0 213 30.333 287 91
c81.333 67.333 130.666 157.333 147.999 270c-34 -44 -72 -66 -114 -66c-35.333 0 -65.666 12.667 -90.999 38s-38 59.666 -38 102.999c0 42 14.333 93 43 153c34.667 74.667 75.667 112 123 112c33.333 0 64 -25 92 -75c32.667 -57.333 49 -130.666 49 -219.999zM614 228
c0 18 -8.5 37.833 -25.5 59.5s-35.167 32.5 -54.5 32.5c-16 0 -29.833 -9 -41.5 -27s-17.5 -34.667 -17.5 -50c0 -36.667 23.667 -55 71 -55c16 0 31.333 4 46 12s22 17.333 22 28z" />
    <glyph glyph-name="u0649" unicode="&#x649;" horiz-adv-x="1149" arabic-form="isolated" 
d="M1150 524c0 -18.667 -7.66504 -42.6699 -22.998 -72.0029s-28 -44 -38 -44c-4 0 -19.333 1.66699 -46 5c-21.333 2.66699 -42.333 3 -63 1c-58 -6.66699 -114.667 -34.667 -170 -84c-50.667 -44.667 -76 -81.334 -76 -110.001c0 -37.333 55.667 -67.666 167 -90.999
c61.333 -13.333 102.333 -26.666 123 -39.999c34 -21.333 51 -55.333 51 -102c0 -104 -54.667 -200.667 -164 -290c-114 -94 -245.333 -141 -394 -141c-114 0 -200.667 29.333 -260 88c-54.667 52.667 -82 124.334 -82 215.001c0 148 45.667 284.667 137 410
c5.33301 8 11.666 10.667 18.999 8c6.66699 -2 8 -7 4 -15c-63.333 -109.333 -95 -212.666 -95 -309.999c0 -170 99.667 -255 299 -255c99.333 0 192 17.667 278 53c83.333 33.333 141.666 75.333 174.999 126c12 18 18 32.333 18 43c0 14.667 -10 24 -30 28
c-119.333 22.667 -192.333 39 -219 49c-65.333 24.667 -98 61.667 -98 111c0 109.333 48.333 217 145 323c90.667 100 175 150 253 150c24 0 44.833 -5.5 62.5 -16.5s26.5 -24.167 26.5 -39.5z" />
    <glyph glyph-name="u064A" unicode="&#x64a;" horiz-adv-x="1149" arabic-form="isolated" 
d="M1150 524c0 -18.667 -7.66504 -42.6699 -22.998 -72.0029s-28 -44 -38 -44c-4 0 -19.333 1.66699 -46 5c-21.333 2.66699 -42.333 3 -63 1c-58 -6.66699 -114.667 -34.667 -170 -84c-50.667 -44.667 -76 -81.334 -76 -110.001c0 -37.333 55.667 -67.666 167 -90.999
c61.333 -13.333 102.333 -26.666 123 -39.999c34 -21.333 51 -55.333 51 -102c0 -104 -54.667 -200.667 -164 -290c-114 -94 -245.333 -141 -394 -141c-114 0 -200.667 29.333 -260 88c-54.667 52.667 -82 124.334 -82 215.001c0 148 45.667 284.667 137 410
c5.33301 8 11.666 10.667 18.999 8c6.66699 -2 8 -7 4 -15c-63.333 -109.333 -95 -212.666 -95 -309.999c0 -170 99.667 -255 299 -255c99.333 0 192 17.667 278 53c83.333 33.333 141.666 75.333 174.999 126c12 18 18 32.333 18 43c0 14.667 -10 24 -30 28
c-119.333 22.667 -192.333 39 -219 49c-65.333 24.667 -98 61.667 -98 111c0 109.333 48.333 217 145 323c90.667 100 175 150 253 150c24 0 44.833 -5.5 62.5 -16.5s26.5 -24.167 26.5 -39.5z" />
    <glyph glyph-name="u067E" unicode="&#x67e;" horiz-adv-x="1401" arabic-form="isolated" 
d="M1395 331c0 -76 -29.999 -147.001 -89.999 -213.001c-28 -30.667 -98.333 -60 -211 -88c-131.333 -32.667 -272 -49 -422 -49c-332 0 -498 81.667 -498 245c0 90.667 27.333 169.334 82 236.001c6.66699 8 12.667 10.667 18 8c6 -2.66699 6.33301 -8.66699 1 -18
c-24.667 -45.333 -37 -92 -37 -140c0 -56 40 -100.667 120 -134c87.333 -36.667 213.666 -55 378.999 -55c145.333 0 274.333 13.333 387 40c104 24.667 176.333 56 217 94c0 19.333 -10 46.5 -30 81.5s-41 60.833 -63 77.5l57 133c4.66699 11.333 10.667 12 18 2
c48 -62.667 72 -136 72 -220zM970.001 -228.001c0 -13.333 -32.666 -45.334 -97.999 -96.001c-20 24 -50.667 53 -92 87c-22 -23.333 -53.667 -54.666 -95 -93.999c-26.667 38.667 -59 71.334 -97 98.001l95 102c27.333 -14.667 60.666 -46.334 99.999 -95.001l87 95
c20.667 -10 43 -27.333 67 -52c22 -22.667 33 -37.667 33 -45zM874.002 -437.002c0 -4.66699 -11 -18.834 -33 -42.501s-42 -42.5 -60 -56.5c-24 28.667 -56.333 60 -97 94l94 99c64 -47.333 96 -78.666 96 -93.999z" />
    <glyph glyph-name="u0686" unicode="&#x686;" horiz-adv-x="1035" arabic-form="isolated" 
d="M1215 -592c-66 -70.667 -145.668 -128.332 -239.001 -172.999c-104 -49.333 -209.667 -74 -317 -74c-160.667 0 -284.334 45.333 -371.001 136c-76 78.667 -114 179 -114 301c0 132 34.667 256 104 372c73.333 123.333 177.333 222.666 312 297.999
c-103.333 24 -164.333 36 -183 36c-50 0 -96.667 -25.333 -140 -76c-6 -7.33301 -11.667 -10.333 -17 -9s-6.66602 6.33301 -3.99902 15c43.333 144 118.333 216 225 216c7.33301 0 59.5 -10.833 156.5 -32.5s219.167 -32.5 366.5 -32.5l-57 -146
c-108.667 2 -185 -3 -229 -15c-124 -33.333 -230 -100.333 -318 -201c-90 -103.333 -135 -213.333 -135 -330c0 -134.667 50.333 -236 151 -304c84.667 -56.667 196.334 -85 335.001 -85c169.333 0 322.333 40 459 120c16.667 10 25 10.667 25 2
c0 -4.66699 -3.33301 -10.667 -10 -18zM868.999 -197.998c0 -13.333 -32.666 -45.333 -97.999 -96c-20 24 -50.667 53 -92 87c-22 -23.333 -53.667 -54.666 -95 -93.999c-26.667 38 -59 70.667 -97 98l95 102c27.333 -14.667 60.666 -46.334 99.999 -95.001l87 95
c20.667 -10 43 -27.333 67 -52c22 -23.333 33 -38.333 33 -45zM773 -406.998c0 -4.66699 -11 -19.001 -33 -43.001s-42 -42.667 -60 -56c-24 28 -56.333 59.333 -97 94l94 99c64 -47.333 96 -78.666 96 -93.999z" />
    <glyph glyph-name="u0698" unicode="&#x698;" horiz-adv-x="723" arabic-form="isolated" 
d="M686 114c0 -112.667 -32.3311 -215.999 -96.998 -309.999s-135 -141 -211 -141c-90.667 0 -182.334 25.333 -275.001 76c-6 3.33301 -8 7.66602 -6 12.999s7 8 15 8c160 0 281.333 24.667 364 74c80 48 135.667 126.333 167 235c-8.66699 25.333 -27.667 56.333 -57 93
c-26.667 34 -51.334 59.667 -74.001 77l53 151c3.33301 9.33301 8.33301 10.333 15 3c70.667 -82 106 -175 106 -279zM618.002 831.001c0 -5.33301 -10.667 -19.333 -32 -42c-22.667 -24.667 -43 -43.667 -61 -57c-24 28 -56.333 59.333 -97 94l94 99
c64 -48 96 -79.333 96 -94zM714.002 622.001c0 -14 -32.667 -46.001 -98 -96.001c-20.667 24 -51.334 53 -92.001 87c-22 -23.333 -53.667 -54.666 -95 -93.999c-27.333 38 -59.666 70.667 -96.999 98l95 102c28 -15.333 61.333 -47.333 100 -96l87 96
c20 -10 41.667 -27 65 -51s35 -39.333 35 -46z" />
    <glyph glyph-name="u06AF" unicode="&#x6af;" horiz-adv-x="1603" arabic-form="isolated" 
d="M1569 1231c-10 -24.667 -22.333 -50 -37 -76c-241.333 -97.333 -438.333 -189 -591 -275c6.66699 28 16.667 58.333 30 91c168 103.333 360 194.333 576 273c16 6 25.333 8.33301 28 7s0.666992 -8 -6 -20zM1603 1080c-36 -98.667 -59 -149.669 -69 -153.002
c-105.333 -36 -222 -80.333 -350 -133c-137.333 -56 -210.666 -90.667 -219.999 -104c92 -48 161.667 -90.333 209 -127c82.667 -62.667 139 -130 169 -202c5.33301 -11.333 8 -26.333 8 -45c0 -71.333 -19.5 -132.166 -58.5 -182.499s-126.5 -91.166 -262.5 -122.499
c-118 -26.667 -240 -40 -366 -40c-326 0 -489 91.667 -489 275c0 76.667 27.333 148.667 82 216c6.66699 8 12.667 10.667 18 8c6 -2.66699 6.33301 -8.66699 1 -18c-24.667 -45.333 -37 -92 -37 -140c0 -57.333 38.333 -103.666 115 -138.999
c86.667 -40 211.667 -60 375 -60c141.333 0 276 19 404 57c114 34 171 63.667 171 89c0 41.333 -67.667 107 -203 197l-147 91.5c-48.667 30.333 -73.334 51.833 -74.001 64.5c0 7.33301 2 29.666 6 66.999c4.66699 41.333 9 64.333 13 69c48 60.667 280.333 174 697 340
c3.33301 0 6 -2.66699 8 -8z" />
    <glyph glyph-name="uFB57" unicode="&#x67e;" horiz-adv-x="1465" arabic-form="final" 
d="M1495 1l-60 -0.000976562c-112.667 0 -172.334 48 -179.001 144c-50.667 -53.333 -135 -96.333 -253 -129c-109.333 -30 -222.666 -45 -339.999 -45c-326 0 -489 91.667 -489 275c0 76.667 27.333 148.667 82 216c6.66699 8 12.667 10.667 18 8
c6 -2.66699 6.33301 -8.66699 1 -18c-24.667 -45.333 -37 -92 -37 -140c0 -57.333 38.333 -103.666 115 -138.999c86.667 -40 211.667 -60 375 -60c294 0 481.333 56.333 562 169c10 14 15 13.333 15 -2c0 -54.667 10.333 -91.167 31 -109.5s56.667 -27.5 108 -27.5h51v-142
zM960 -228.001c0 -13.333 -32.666 -45.334 -97.999 -96.001c-20 24 -50.667 53 -92 87c-21.333 -23.333 -53 -54.666 -95 -93.999c-26.667 38.667 -59 71.334 -97 98.001l95 102c27.333 -14.667 60.666 -46.334 99.999 -95.001l87 95c20.667 -10 43 -27.333 67 -52
c22 -22.667 33 -37.667 33 -45zM864.001 -437.002c0 -4.66699 -10.833 -18.834 -32.5 -42.501s-41.834 -42.5 -60.501 -56.5c-23.333 28.667 -55.666 60 -96.999 94l94 99c64 -47.333 96 -78.666 96 -93.999z" />
    <glyph glyph-name="uFB58" unicode="&#x67e;" horiz-adv-x="421" arabic-form="initial" 
d="M295 242c0 -72 -19.666 -131 -58.999 -177c-37.333 -42.667 -105.333 -64 -204 -64h-62v142h45c122 0 196.667 13 224 39c0 17.333 -8.33301 39 -25 65s-36.334 47.333 -59.001 64l53 149c3.33301 10 8 11.333 14 4c48.667 -56.667 73 -130.667 73 -222zM316.001 -228
c0 -13.333 -32.667 -45.334 -98 -96.001c-20.667 24 -51.334 53 -92.001 87c-22 -23.333 -53.667 -54.666 -95 -93.999c-27.333 38.667 -59.666 71.334 -96.999 98.001l95 102c26.667 -14.667 60 -46.334 100 -95.001l87 95c20 -10 42.333 -27.333 67 -52
c22 -22.667 33 -37.667 33 -45zM220.001 -437.001c0 -4.66699 -11 -18.834 -33 -42.501s-42 -42.5 -60 -56.5c-24 28.667 -56.333 60 -97 94l94 99c64 -47.333 96 -78.666 96 -93.999z" />
    <glyph glyph-name="uFB59" unicode="&#x67e;" horiz-adv-x="463" arabic-form="medial" 
d="M494 1h-77c-106 0 -167.667 34 -185 102c-34 -68 -101.333 -102 -202 -102h-60v142h58c116 0 191 42.333 225 127c6 14 11.333 21 16 21c5.33301 0 8 -8 8 -24c0 -50 11.667 -83.167 35 -99.5s69 -24.5 137 -24.5h45v-142zM348 -228
c0 -13.333 -32.667 -45.334 -98 -96.001c-20.667 24 -51.334 53 -92.001 87c-22 -23.333 -53.667 -54.666 -95 -93.999c-27.333 38.667 -59.666 71.334 -96.999 98.001l95 102c26.667 -14.667 60 -46.334 100 -95.001l87 95c20 -10 41.667 -26.833 65 -50.5
s35 -39.167 35 -46.5zM252 -437.001c0 -4.66699 -11 -18.834 -33 -42.501s-42 -42.5 -60 -56.5c-24 28.667 -56.333 60 -97 94l94 99c64 -47.333 96 -78.666 96 -93.999z" />
    <glyph glyph-name="uFB7B" unicode="&#x686;" horiz-adv-x="1094" arabic-form="final" 
d="M1215 -592c-66 -70.667 -145.668 -128.333 -239.001 -173c-104 -49.333 -209.667 -74 -317 -74c-160.667 0 -284.334 45.333 -371.001 136c-76 79.333 -114 179.666 -114 300.999c0 133.333 35 258 105 374c73.333 120.667 177 219.334 311 296.001
c-103.333 24 -164.333 36 -183 36c-50 0 -96.667 -25.333 -140 -76c-6 -7.33301 -11.667 -10.333 -17 -9s-6.66602 6.33301 -3.99902 15c43.333 144 118.333 216 225 216c2 0 52.5 -10.833 151.5 -32.5s222.833 -32.5 371.5 -32.5l-57 -146h-122c0 -64 47.667 -96 143 -96
h165v-142h-145c-67.333 0 -117.333 15 -150 45c-39.333 36.667 -59.666 99.667 -60.999 189c-15.333 -2 -35.333 -5.33301 -60 -10c-122 -32.667 -227.833 -101.5 -317.5 -206.5s-134.5 -213.5 -134.5 -325.5c0 -134.667 50.333 -235.667 151 -303
c85.333 -57.333 197 -86 335 -86c169.333 0 322.333 40 459 120c16.667 10 25 10.667 25 2c0 -4.66699 -3.33301 -10.667 -10 -18zM858.999 -227.999c0 -13.333 -32.666 -45.334 -97.999 -96.001c-20 24 -50.667 53 -92 87c-21.333 -23.333 -53 -54.666 -95 -93.999
c-26.667 38.667 -59 71.334 -97 98.001l95 102c27.333 -14.667 60.666 -46.334 99.999 -95.001l87 95c20.667 -10 43 -27.333 67 -52c22 -22.667 33 -37.667 33 -45zM763 -437c0 -4.66699 -10.833 -18.834 -32.5 -42.501s-41.834 -42.5 -60.501 -56.5
c-23.333 28.667 -55.666 60 -96.999 94l94 99c64 -47.333 96 -78.666 96 -93.999z" />
    <glyph glyph-name="uFB7C" unicode="&#x686;" horiz-adv-x="822" arabic-form="initial" 
d="M816 385l-57.9971 -146.001c-65.333 0 -109.333 -3 -132 -9c-64.667 -16.667 -157 -63 -277 -139c-95.333 -60 -195.333 -90 -300 -90h-79v142h63c106 0 203.333 18 292 54l194 84c-20.667 4 -66.334 20.333 -137.001 49c-66 26.667 -107.333 40 -124 40
c-34 0 -68.667 -16.667 -104 -50c-6.66699 -6.66699 -12.334 -7.66699 -17.001 -3c-5.33301 4.66699 -6.33301 11.334 -3 20.001c46 122 104 183 174 183c28.667 0 64.667 -11.667 108 -35c59.333 -32 106.666 -53.667 141.999 -65c72.667 -23.333 158.667 -35 258 -35z
M456.003 -183.001c0 -14 -32.667 -46 -98 -96c-20.667 24 -51.334 53 -92.001 87c-22 -23.333 -53.667 -54.666 -95 -93.999c-27.333 38 -59.666 70.667 -96.999 98l95 102c26.667 -14.667 60 -46.334 100 -95.001l87 95c20 -10 41.667 -27 65 -51s35 -39.333 35 -46z
M360.003 -392.001c0 -4.66699 -11 -19.001 -33 -43.001s-42 -42.667 -60 -56c-24 28 -56.333 59.333 -97 94l94 99c64 -47.333 96 -78.666 96 -93.999z" />
    <glyph glyph-name="uFB7D" unicode="&#x686;" horiz-adv-x="945" arabic-form="medial" 
d="M974 1l-144.001 -0.000976562c-69.333 0 -119.666 13.667 -150.999 41c-39.333 34 -59.666 95.333 -60.999 184c-53.333 -15.333 -142.333 -61.333 -267 -138c-94.667 -58 -195.334 -87 -302.001 -87h-79v142h63c106 0 205 18 297 54l199 84c-20 4 -69 20.333 -147 49
c-72 26.667 -116.667 40 -134 40c-34 0 -68.333 -16.667 -103 -50c-6.66699 -6.66699 -12.667 -7.66699 -18 -3s-6.33301 11.334 -3 20.001c46 122 104 183 174 183c28.667 0 68 -12.667 118 -38c68.667 -34 122.334 -57 161.001 -69
c79.333 -25.333 168.666 -38 267.999 -38l-57 -146h-122c0 -57.333 48 -86 144 -86h164v-142zM465.999 -183.001c0 -14 -32.667 -46 -98 -96c-20.667 24 -51.334 53 -92.001 87c-22 -23.333 -53.667 -54.666 -95 -93.999c-27.333 38 -59.666 70.667 -96.999 98l95 102
c26.667 -14.667 60 -46.334 100 -95.001l87 95c20 -10 41.667 -27 65 -51s35 -39.333 35 -46zM369.999 -392.001c0 -4.66699 -11 -19.001 -33 -43.001s-42 -42.667 -60 -56c-24 28 -56.333 59.333 -97 94l94 99c64 -47.333 96 -78.666 96 -93.999z" />
    <glyph glyph-name="uFB8B" unicode="&#x698;" horiz-adv-x="757" arabic-form="final" 
d="M786 1l-109 0.000976562c-71.333 -260.667 -178.333 -391 -321 -391c-77.333 0 -158.333 29 -243 87c-8.66699 6 -12 11.333 -10 16c1.33301 5.33301 7.33301 7.66602 18 6.99902c29.333 -2 56.666 -3 81.999 -3c121.333 0 213.333 23 276 69
c44.667 32.667 91.667 95.334 141 188.001c2.66699 16.667 -8.66602 36.667 -33.999 60c-48.667 46.667 -73.667 71 -75 73l45 140c3.33301 9.33301 8.66602 9.66602 15.999 0.999023l55 -57c30.667 -32 68.334 -48 113.001 -48h46v-142zM616 696.001
c0 -4.66699 -11 -19.001 -33 -43.001s-42 -42.667 -60 -56c-24 28 -56.333 59.333 -97 94l94 99c64 -47.333 96 -78.666 96 -93.999zM712 487c0 -13.333 -32.667 -45.334 -98 -96.001c-20.667 24 -51.334 53 -92.001 87c-22 -23.333 -53.667 -54.666 -95 -93.999
c-27.333 38 -59.666 70.667 -96.999 98l95 102c28 -15.333 61.333 -47.333 100 -96l87 96c20 -10 42.333 -27.333 67 -52c22 -22.667 33 -37.667 33 -45z" />
    <glyph glyph-name="uFEDA" unicode="&#x6a9;" horiz-adv-x="1707" arabic-form="final" 
d="M1736 1l-92.999 -0.000976562c-105.333 0 -230.333 101.667 -375 305c6 -118 -58.667 -206.333 -194 -265c-108 -46.667 -245 -70 -411 -70c-326 0 -489 91.667 -489 275c0 76.667 27.333 148.667 82 216c6.66699 8 12.667 10.667 18 8
c6 -2.66699 6.33301 -8.66699 1 -18c-24.667 -45.333 -37 -92 -37 -140c0 -57.333 38.333 -103.666 115 -138.999c86.667 -40 211.667 -60 375 -60c146.667 0 267 18 361 54c86 32.667 129 71 129 115c0 46.667 -43 106 -129 178c-16.667 14.667 -65 51 -145 109
c-49.333 36 -74.333 60.333 -75 73c-1.33301 68 4.66699 110.333 18 127c29.333 36.667 106 93.334 230 170.001c136 82.667 291.667 165.667 467 249c3.33301 -0.666992 6 -3.33398 8 -8.00098c-20.667 -58 -33.667 -93 -39 -105c-13.333 -34 -23 -52.333 -29 -55
c-88.667 -35.333 -203.334 -90.5 -344.001 -165.5s-216 -121.5 -226 -139.5c127.333 -89.333 233 -174.333 317 -255l201 -216c66.667 -67.333 133 -101 199 -101h65v-142z" />
    <glyph glyph-name="uFEDB" unicode="&#x6a9;" horiz-adv-x="757" arabic-form="initial" 
d="M762 1180c-20.667 -58 -33.333 -92.998 -38 -104.998c-13.333 -34 -23.333 -52.333 -30 -55c-81.333 -32.667 -192.333 -86.667 -333 -162c-132 -70.667 -210.667 -116.667 -236 -138c76.667 -40.667 146.334 -86.334 209.001 -137.001
c89.333 -72.667 145.666 -136.667 168.999 -192c6.66699 -16 10 -40 10 -72c0 -80.667 -13.667 -142.334 -41 -185.001c-30.667 -49.333 -75 -83.666 -133 -102.999c-60.667 -20 -153 -30 -277 -30h-92v142h157c106.667 0 191.667 12.667 255 38c54 22.667 81 48.667 81 78
c0 43.333 -67.667 115.666 -203 216.999c-10.667 8.66699 -59 41 -145 97c-50 33.333 -75 56.333 -75 69c-2 68 3.66699 110.333 17 127c29.333 36.667 106.333 93.334 231 170.001c136 82.667 291.333 165.667 466 249c4 -0.666992 6.66699 -3.33398 8 -8.00098z" />
    <glyph glyph-name="uFEDC" unicode="&#x6a9;" horiz-adv-x="850" arabic-form="medial" 
d="M905 1h-92.999c-106 0 -231 101.667 -375 305c6 -122 -25.667 -205.333 -95 -250c-56.667 -36.667 -157.334 -55 -302.001 -55h-70v142h75c116.667 0 198.334 7 245.001 21c64 20 96 59.333 96 118c0 46.667 -43 106 -129 178c-16.667 14.667 -65 51 -145 109
c-49.333 36 -74 60.333 -74 73c-2 68 3.66699 110.333 17 127c29.333 36.667 106.333 93.334 231 170.001c136 82.667 291.333 165.667 466 249c4 -0.666992 6.66699 -3.33398 8 -8.00098c-20.667 -58 -33.334 -93 -38.001 -105c-13.333 -34 -23.333 -52.333 -30 -55
c-88.667 -35.333 -202.667 -90.333 -342 -165c-142 -75.333 -217.667 -122 -227 -140c127.333 -89.333 233 -174.333 317 -255l200 -216c67.333 -67.333 134 -101 200 -101h65v-142z" />
    <glyph glyph-name="uFB93" unicode="&#x6af;" horiz-adv-x="1708" arabic-form="final" 
d="M1558 1222c-10 -24.667 -22.332 -49.998 -36.999 -75.998c-240.667 -96.667 -437.334 -188.334 -590.001 -275.001c6 28 15.667 58.333 29 91c168 103.333 360 194.666 576 273.999c16 5.33301 25.333 7.33301 28 6s0.666992 -8 -6 -20zM1736 1.00195h-93
c-56 0 -118.667 25.667 -188 77s-135 120.666 -197 207.999c10.667 -210 -187.666 -315 -594.999 -315c-326 0 -489 91.667 -489 275c0 76.667 27.333 148.667 82 216c6.66699 8 12.667 10.667 18 8c6 -2.66699 6.33301 -8.66699 1 -18c-24.667 -45.333 -37 -92 -37 -140
c0 -57.333 38.333 -103.666 115 -138.999c86.667 -40 211.667 -60 375 -60c149.333 0 268 14.667 356 44c82.667 28 124 63 124 105c0 46 -39.667 102.333 -119 169c-16.667 14 -65 50 -145 108c-49.333 36 -74.333 60.333 -75 73c-1.33301 68 4.66699 110.667 18 128
c48.667 60.667 281 173.667 697 339c3.33301 0 6 -2.66699 8 -8c-36 -98.667 -58.667 -149.667 -68 -153c-107.333 -36.667 -224.333 -81 -351 -133c-137.333 -56.667 -210.333 -91.667 -219 -105c74 -52 125.333 -89 154 -111c58 -44 112.333 -90 163 -138l201 -202
c65.333 -57.333 131.666 -86 198.999 -86h65v-142z" />
    <glyph glyph-name="uFB94" unicode="&#x6af;" horiz-adv-x="763" arabic-form="initial" 
d="M730 1231c-10.667 -24.667 -23.3311 -50 -37.998 -76c-240.667 -97.333 -437.334 -189 -590.001 -275c6 28 16 58.333 30 91c167.333 103.333 359.333 194.333 576 273c15.333 6 24.333 8.33301 27 7c3.33301 -1.33301 1.66602 -8 -5.00098 -20zM763.003 1080
c-36 -98.667 -58.666 -149.669 -67.999 -153.002c-105.333 -36 -222.333 -80.333 -351 -133c-137.333 -56 -210.333 -90.667 -219 -104c47.333 -27.333 117 -73 209 -137c91.333 -74 147.666 -138 168.999 -192c6 -16 9 -37.333 9 -64c0 -66.667 -13.333 -121 -40 -163
c-30.667 -49.333 -75 -83.666 -133 -102.999c-60.667 -20 -153 -30 -277 -30h-92v142h157c108 0 193 11 255 33c54 20 81 44.333 81 73c0 27.333 -23 60.333 -69 99l-134 98c-10.667 8.66699 -59 41.334 -145 98.001c-50 32.667 -75 55.334 -75 68.001
c-0.666992 7.33301 1.33301 29.666 6 66.999c4.66699 41.333 8.66699 64.333 12 69c48 60.667 280.333 174 697 340c4 0 6.66699 -2.66699 8 -8z" />
    <glyph glyph-name="uFB95" unicode="&#x6af;" horiz-adv-x="876" arabic-form="medial" 
d="M727 1222c-10.667 -24.667 -23.3311 -49.998 -37.998 -75.998c-240.667 -96.667 -437.334 -188.334 -590.001 -275.001c6 28 16 58.333 30 91c167.333 103.333 359.333 194.666 576 273.999c15.333 5.33301 24.333 7.33301 27 6
c3.33301 -1.33301 1.66602 -8 -5.00098 -20zM905.003 1.00195l-92.999 -0.000976562c-110.667 0 -235.667 98.333 -375 295c6 -121.333 -25.667 -203 -95 -245c-54.667 -33.333 -155.334 -50 -302.001 -50h-70v142h75c227.333 0 341 43 341 129
c0 28.667 -15.333 58.334 -46 89.001l-83 70c-16.667 14 -65 50 -145 108c-49.333 36 -74 60.333 -74 73c-2 68 3.66699 110.667 17 128c48.667 60.667 281 173.667 697 339c4 0 6.66699 -2.66699 8 -8c-36 -98.667 -58.667 -149.667 -68 -153
c-106.667 -36.667 -223.667 -81 -351 -133c-137.333 -56.667 -210 -91.667 -218 -105c74 -52 125.333 -89 154 -111c58 -44 112.333 -90 163 -138l200 -202c65.333 -57.333 132 -86 200 -86h65v-142z" />
    <glyph glyph-name="uFE94" unicode="&#x6c0;" horiz-adv-x="673" arabic-form="final" 
d="M705 1l-59.998 -0.000976562c-98.667 0 -160.334 61.667 -185.001 185c-20.667 -43.333 -45.334 -65 -74.001 -65c-40 0 -81.333 6 -124 18c-58.667 16.667 -88 40 -88 70c0 14.667 5.5 37.667 16.5 69s20.833 52 29.5 62c20.667 23.333 59.667 51 117 83
c48.667 27.333 76 49 82 65s9 41.667 9 77c52 63.333 78.667 95 80 95c0 -215.333 10.667 -357.666 32 -426.999c7.33301 -26 18 -46 32 -60c20 -20 52.333 -30 97 -30h36v-142zM440.002 268.999l-5.99902 141c-22.667 -30.667 -54.5 -57.167 -95.5 -79.5
s-66.833 -40.5 -77.5 -54.5c10 -14 40.333 -23 91 -27c43.333 -2.66699 72.666 4 87.999 20zM529.003 905.999c2.66699 0 -0.332031 -12.334 -8.99902 -37.001s-15.334 -37.667 -20.001 -39c-58 -12 -97 -20.667 -117 -26c-54 -16 -99.333 -37.333 -136 -64
c-4 -3.33301 -7.33301 -3.33301 -10 0c-3.33301 2.66699 -3.33301 6 0 10c11.333 18 38.666 46.333 81.999 85c-47.333 20 -71 46 -71 78c0 27.333 20.333 60.5 61 99.5s78 58.5 112 58.5c12.667 0 25 -3.83301 37 -11.5s18 -16.5 18 -26.5
c0 -14.667 -3.66699 -28.834 -11 -42.501s-14.666 -20.5 -21.999 -20.5c-4 0 -11 6.16699 -21 18.5s-24.333 18.5 -43 18.5c-16 0 -32.5 -6.66699 -49.5 -20s-25.5 -25.666 -25.5 -36.999c0 -21.333 13.333 -38.666 40 -51.999c21.333 -10.667 44 -16 68 -16
c7.33301 0 26 4 56 12s50.333 12 61 12z" />
    <glyph glyph-name="uFEF2" unicode="&#x6cc;" horiz-adv-x="1084" arabic-form="final" 
d="M1114 1l-203.999 0.00292969c-44.667 0 -86 -3.66699 -124 -11c-21.333 -4 -32 -12.333 -32 -25s10.333 -21.334 31 -26.001l186 -47c44.667 -11.333 67 -38.333 67 -81c0 -20 -5.33301 -40.667 -16 -62c-36 -72 -96.667 -132.667 -182 -182
c-96.667 -55.333 -204.334 -83 -323.001 -83c-228 0 -342 98 -342 294c0 141.333 46 264.666 138 369.999c4.66699 4.66699 10 6 16 4c6.66699 -2 8 -6.33301 4 -13c-64.667 -101.333 -97 -193.333 -97 -276c0 -158 106.333 -237 319 -237c152 0 279.333 39.667 382 119
c22 17.333 20.333 29 -5 35l-160 39c-69.333 16.667 -104 52 -104 106c0 27.333 9.33301 56.666 28 87.999c52 86.667 164.667 130 338 130h80v-142z" />
    <glyph glyph-name="uFEF3" unicode="&#x6cc;" horiz-adv-x="426" arabic-form="initial" 
d="M295 242c0 -72 -19.666 -131 -58.999 -177c-37.333 -42.667 -105.333 -64 -204 -64h-62v142h45c122 0 196.667 13 224 39c0 17.333 -8.33301 39 -25 65s-36.334 47.333 -59.001 64l53 149c3.33301 10 8 11.333 14 4c48.667 -56.667 73 -130.667 73 -222zM361.001 -287
c0 -14 -32.667 -46 -98 -96c-20.667 24 -51.334 53 -92.001 87c-22 -23.333 -53.667 -54.666 -95 -93.999c-27.333 38 -59.666 70.667 -96.999 98l95 102c26.667 -14.667 60 -46.334 100 -95.001l87 95c20 -10 41.667 -27 65 -51s35 -39.333 35 -46z" />
    <glyph glyph-name="uFEF4" unicode="&#x6cc;" horiz-adv-x="463" arabic-form="medial" 
d="M494 1h-77c-106 0 -167.667 34 -185 102c-34 -68 -101.333 -102 -202 -102h-60v142h58c116 0 191 42.333 225 127c6 14 11.333 21 16 21c5.33301 0 8 -8 8 -24c0 -50 11.667 -83.167 35 -99.5s69 -24.5 137 -24.5h45v-142zM371 -287c0 -14 -32.667 -46 -98 -96
c-20.667 24 -51.334 53 -92.001 87c-22 -23.333 -53.667 -54.666 -95 -93.999c-27.333 38 -59.666 70.667 -96.999 98l95 102c26.667 -14.667 60 -46.334 100 -95.001l87 95c20 -10 41.667 -27 65 -51s35 -39.333 35 -46z" />
    <glyph glyph-name="Hcircumflex" unicode="&#x622;" horiz-adv-x="602" arabic-form="final" 
d="M632 1h-59c-84.667 0 -143.334 28 -176.001 84c-30 52 -50.667 155.333 -62 310c-15.333 201.333 -24.666 321.333 -27.999 360c-9.33301 98.667 -20.666 185 -33.999 259l76 132c7.33301 10 12 15 14 15c3.33301 0 5.66602 -8.33301 6.99902 -25l42 -610
c11.333 -160 24.666 -260 39.999 -300c20.667 -55.333 65.334 -83 134.001 -83h46v-142zM614 1475c-58.667 -114.667 -163.002 -171.999 -313.002 -171.999c-31.333 0 -65.166 4 -101.499 12s-56.166 12 -59.499 12c-15.333 0 -33 -11.667 -53 -35
c-10.667 -12.667 -18.667 -19 -24 -19c-4.66699 0 -7 4.33301 -7 13c0 30 10.333 61 31 93c22.667 35.333 47.667 53 75 53c6 0 26.333 -5.33301 61 -16s74 -16 118 -16c100 0 184 33.333 252 100c16.667 16.667 28 25 34 25c2.66699 -0.666992 4 -2.33398 4 -5.00098
c0 -7.33301 -5.66699 -22.333 -17 -45z" />
    <glyph glyph-name="uFE84" unicode="&#x623;" horiz-adv-x="523" arabic-form="final" 
d="M552 1h-57.998c-84.667 0 -143.334 28 -176.001 84c-30 52 -51 155.333 -63 310c-14.667 201.333 -24 321.333 -28 360c-8.66699 98.667 -19.667 185 -33 259l76 132c7.33301 10 12 15 14 15c3.33301 0 5.66602 -8.33301 6.99902 -25
c6.66699 -106 20.667 -309.333 42 -610c11.333 -160 24.666 -260 39.999 -300c20.667 -55.333 65.334 -83 134.001 -83h45v-142zM415.002 1401c2.66699 0 -0.331055 -12.334 -8.99805 -37.001s-15.334 -37.667 -20.001 -39c-58 -12 -97 -20.667 -117 -26
c-54 -16 -99.333 -37.333 -136 -64c-4 -3.33301 -7.33301 -3.33301 -10 0c-3.33301 2.66699 -3.33301 6 0 10c11.333 18 38.666 46.333 81.999 85c-46.667 20 -70 46 -70 78c0 27.333 20.333 60.5 61 99.5s77.667 58.5 111 58.5c12.667 0 25 -3.83301 37 -11.5
s18 -16.5 18 -26.5c0 -14.667 -3.5 -28.834 -10.5 -42.501s-14.5 -20.5 -22.5 -20.5c-4 0 -11 6.16699 -21 18.5s-24.333 18.5 -43 18.5c-16 0 -32.5 -6.66699 -49.5 -20s-25.5 -25.666 -25.5 -36.999c0 -21.333 13.333 -38.666 40 -51.999c21.333 -10.667 44 -16 68 -16
c7.33301 0 26 4 56 12s50.333 12 61 12z" />
    <glyph glyph-name="uFE86" unicode="&#x624;" horiz-adv-x="878" arabic-form="final" 
d="M908 1l-130.998 -0.000976562c-22 -108 -81 -211.5 -177 -310.5s-183.667 -148.5 -263 -148.5c-58 15.333 -133 38.666 -225 69.999c-15.333 6.66699 -23 14.334 -23 23.001c0 12.667 11 19 33 19c77.333 0 133.666 3.33301 168.999 10
c51.333 8.66699 105.666 28.667 162.999 60c62 34 117.667 76.333 167 127c56 57.333 84 107 84 149c-78.667 10 -133.334 24 -164.001 42c-48 28.667 -72 78.334 -72 149.001c0 46.667 18 97 54 151c37.333 56.667 75 85 113 85c50.667 0 90.334 -37 119.001 -111
c20 -51.333 31.667 -107.333 35 -168h118v-147zM697.002 149.999c-2.66699 40 -14 73 -34 99c-18 24 -38.667 36 -62 36c-13.333 0 -25.833 -6.5 -37.5 -19.5s-17.5 -28.5 -17.5 -46.5c0 -46 50.333 -69 151 -69zM732.002 777.999
c0 -45.333 -1.66992 -70.335 -5.00293 -75.002s-56 -15.667 -158 -33l-158 -29c-4.66699 10.667 -7 24 -7 40c18 8 48.667 23 92 45c-11.333 8 -23.333 22.333 -36 43c-14.667 23.333 -22 43.333 -22 60c0 22.667 14.667 54.334 44 95.001c33.333 45.333 65.333 68 96 68
c16.667 0 32.334 -6 47.001 -18s22 -24 22 -36c0 -8 -4.66699 -22.333 -14 -43c-6 -12.667 -13.667 -14 -23 -4c-12.667 14 -32.667 21 -60 21c-28.667 0 -43 -15 -43 -45c0 -19.333 15.333 -41.666 46 -66.999c28.667 -24 50.334 -36 65.001 -36
c18.667 0 53.334 7 104.001 21c6.66699 1.33301 10 -1 10 -7z" />
    <glyph glyph-name="uFE88" unicode="&#x625;" horiz-adv-x="503" arabic-form="final" 
d="M533 1h-59c-84.667 0 -143.334 28 -176.001 84c-30 52 -50.667 155.333 -62 310c-15.333 201.333 -24.666 321.333 -27.999 360c-9.33301 98.667 -20.666 185 -33.999 259l76 132c7.33301 10 12 15 14 15c3.33301 0 5.66602 -8.33301 6.99902 -25l42 -610
c11.333 -160 24.666 -260 39.999 -300c20.667 -55.333 65.334 -83 134.001 -83h46v-142zM435 -272c2.66699 0 -0.331055 -12.335 -8.99805 -37.002s-15.334 -37.667 -20.001 -39c-58.667 -12 -97.667 -20.667 -117 -26c-54 -16 -99.667 -37.667 -137 -65
c-3.33301 -2.66699 -6.33301 -2.66699 -9 0c-3.33301 3.33301 -3.33301 7 0 11c11.333 18 38.666 46 81.999 84c-47.333 20.667 -71 47 -71 79c0 27.333 20.333 60.5 61 99.5s78 58.5 112 58.5c12.667 0 25 -4 37 -12s18 -17 18 -27c0 -14 -3.66699 -27.833 -11 -41.5
s-15 -20.5 -23 -20.5c-3.33301 0 -10 6.16699 -20 18.5s-24.333 18.5 -43 18.5c-16 0 -32.5 -6.66699 -49.5 -20s-25.5 -25.666 -25.5 -36.999c0 -21.333 13 -38.666 39 -51.999c22 -10.667 45 -16 69 -16c7.33301 0 26 4 56 12s50.333 12 61 12z" />
    <glyph glyph-name="uFE8A" unicode="&#x626;" horiz-adv-x="1084" arabic-form="final" 
d="M1114 1l-203.999 0.00292969c-44.667 0 -86 -3.66699 -124 -11c-21.333 -4 -32 -12.333 -32 -25s10.333 -21.334 31 -26.001l186 -47c44.667 -11.333 67 -38.333 67 -81c0 -20 -5.33301 -40.667 -16 -62c-36 -72 -96.667 -132.667 -182 -182
c-96.667 -55.333 -204.334 -83 -323.001 -83c-228 0 -342 98 -342 294c0 141.333 46 264.666 138 369.999c4.66699 4.66699 10 6 16 4c6.66699 -2 8 -6.33301 4 -13c-64.667 -101.333 -97 -193.333 -97 -276c0 -158 106.333 -237 319 -237c152 0 279.333 39.667 382 119
c22 17.333 20.333 29 -5 35l-160 39c-69.333 16.667 -104 52 -104 106c0 27.333 9.33301 56.666 28 87.999c52 86.667 164.667 130 338 130h80v-142zM473.001 396.003c3.33301 0 0.666992 -12.334 -8 -37.001s-15.334 -37.667 -20.001 -39c-58.667 -11.333 -98 -20 -118 -26
c-54 -16 -99.333 -37.333 -136 -64c-3.33301 -2.66699 -6.66602 -2.66699 -9.99902 0c-2.66699 2.66699 -2.66699 6.33398 0 11.001c13.333 19.333 40.666 47.333 81.999 84c-46.667 20.667 -70 46.667 -70 78c0 28 20.333 61.5 61 100.5s77.667 58.5 111 58.5
c13.333 0 26 -4 38 -12s18 -17 18 -27c0 -14.667 -3.66699 -28.667 -11 -42s-15 -20 -23 -20c-3.33301 0 -10.166 6 -20.499 18s-24.5 18 -42.5 18c-16 0 -32.5 -6.5 -49.5 -19.5s-25.5 -25.167 -25.5 -36.5c0 -22 13 -39.333 39 -52c22 -10.667 45 -16 69 -16
c7.33301 0 26 3.83301 56 11.5s50 11.5 60 11.5z" />
    <glyph glyph-name="uFE8B" unicode="&#x626;" horiz-adv-x="337" arabic-form="initial" 
d="M295 242c0 -72 -19.666 -131 -58.999 -177c-37.333 -42.667 -105.333 -64 -204 -64h-62v142h45c122 0 196.667 13 224 39c0 17.333 -8.33301 39 -25 65s-36.334 47.333 -59.001 64l53 149c3.33301 10 8 11.333 14 4c48.667 -56.667 73 -130.667 73 -222zM321.001 747
c2.66699 0 -0.332031 -12.3359 -8.99902 -37.0029s-15.334 -37.667 -20.001 -39c-58 -11.333 -97 -20 -117 -26c-54 -15.333 -99.333 -36.666 -136 -63.999c-4 -2.66699 -7.33301 -2.66699 -10 0c-3.33301 2.66699 -3.33301 6.33398 0 11.001c11.333 18 38.666 46 81.999 84
c-46.667 20.667 -70 46.667 -70 78c0 28 20.333 61.5 61 100.5s77.667 58.5 111 58.5c12.667 0 25 -4 37 -12s18 -17 18 -27c0 -14 -3.66699 -27.833 -11 -41.5s-14.666 -20.5 -21.999 -20.5c-4 0 -11 6 -21 18s-24.333 18 -43 18c-16 0 -32.5 -6.5 -49.5 -19.5
s-25.5 -25.167 -25.5 -36.5c0 -21.333 13.333 -38.666 40 -51.999c21.333 -10.667 44 -16 68 -16c7.33301 0 26 3.83301 56 11.5s50.333 11.5 61 11.5z" />
    <glyph glyph-name="uFE8C" unicode="&#x626;" horiz-adv-x="463" arabic-form="medial" 
d="M494 1h-77c-106 0 -167.667 34 -185 102c-34 -68 -101.333 -102 -202 -102h-60v142h58c116 0 191 42.333 225 127c6 14 11.333 21 16 21c5.33301 0 8 -8 8 -24c0 -50 11.667 -83.167 35 -99.5s69 -24.5 137 -24.5h45v-142zM385 579
c2.66699 0 -0.332031 -12.333 -8.99902 -37s-15.334 -37.667 -20.001 -39c-58 -11.333 -97 -20 -117 -26c-54 -16 -99.333 -37.333 -136 -64c-4 -2.66699 -7.33301 -2.66699 -10 0s-2.66699 6.33398 0 11.001c12 18 39.333 46 82 84c-46.667 20.667 -70 46.667 -70 78
c0 28 20.333 61.333 61 100s77.667 58 111 58c13.333 0 26 -3.83301 38 -11.5s18 -16.5 18 -26.5c0 -14.667 -3.66699 -28.834 -11 -42.501s-15 -20.5 -23 -20.5c-3.33301 0 -10.166 6.16699 -20.499 18.5s-24.5 18.5 -42.5 18.5c-16 0 -32.667 -6.66699 -50 -20
s-26 -25.333 -26 -36c0 -22 13.333 -39.333 40 -52c21.333 -11.333 44 -17 68 -17c7.33301 0 26.166 4 56.499 12s50.5 12 60.5 12z" />
    <glyph glyph-name="uFE8E" unicode="&#x627;" horiz-adv-x="503" arabic-form="final" 
d="M533 1h-59c-84.667 0 -143.334 28 -176.001 84c-30 52 -50.667 155.333 -62 310c-15.333 201.333 -24.666 321.333 -27.999 360c-9.33301 98.667 -20.666 185 -33.999 259l76 132c7.33301 10 12 15 14 15c3.33301 0 5.66602 -8.33301 6.99902 -25l42 -610
c11.333 -160 24.666 -260 39.999 -300c20.667 -55.333 65.334 -83 134.001 -83h46v-142z" />
    <glyph glyph-name="uFE90" unicode="&#x628;" horiz-adv-x="1465" arabic-form="final" 
d="M1495 1l-60 -0.000976562c-112.667 0 -172.334 48 -179.001 144c-50.667 -53.333 -135 -96.333 -253 -129c-109.333 -30 -222.666 -45 -339.999 -45c-326 0 -489 91.667 -489 275c0 76.667 27.333 148.667 82 216c6.66699 8 12.667 10.667 18 8
c6 -2.66699 6.33301 -8.66699 1 -18c-24.667 -45.333 -37 -92 -37 -140c0 -57.333 38.333 -103.666 115 -138.999c86.667 -40 211.667 -60 375 -60c294 0 481.333 56.333 562 169c10 14 15 13.333 15 -2c0 -54.667 10.333 -91.167 31 -109.5s56.667 -27.5 108 -27.5h51v-142
zM868 -278.001c0 -20 -34.667 -56.333 -104 -109c-24.667 35.333 -59 70 -103 104l101 108c22 -12 45.667 -30.667 71 -56c23.333 -24 35 -39.667 35 -47z" />
    <glyph glyph-name="uFE91" unicode="&#x628;" horiz-adv-x="300" arabic-form="initial" 
d="M295 242c0 -72 -19.666 -131 -58.999 -177c-37.333 -42.667 -105.333 -64 -204 -64h-62v142h45c122 0 196.667 13 224 39c0 17.333 -8.33301 39 -25 65s-36.334 47.333 -59.001 64l53 149c3.33301 10 8 11.333 14 4c48.667 -56.667 73 -130.667 73 -222zM204.001 -278
c0 -20 -34.667 -56.333 -104 -109c-24.667 35.333 -59 70 -103 104l101 108c22 -12 45.667 -30.667 71 -56c23.333 -24 35 -39.667 35 -47z" />
    <glyph glyph-name="uFE92" unicode="&#x628;" horiz-adv-x="463" arabic-form="medial" 
d="M494 1h-77c-106 0 -167.667 34 -185 102c-34 -68 -101.333 -102 -202 -102h-60v142h58c116 0 191 42.333 225 127c6 14 11.333 21 16 21c5.33301 0 8 -8 8 -24c0 -50 11.667 -83.167 35 -99.5s69 -24.5 137 -24.5h45v-142zM214 -278c0 -20 -34.668 -56.333 -104.001 -109
c-25.333 35.333 -59.666 70 -102.999 104l101 108c22 -12 45.167 -30.333 69.5 -55s36.5 -40.667 36.5 -48z" />
    <glyph glyph-name="uFE96" unicode="&#x62a;" horiz-adv-x="1465" arabic-form="final" 
d="M1495 1l-60 -0.000976562c-112.667 0 -172.334 48 -179.001 144c-50.667 -53.333 -135 -96.333 -253 -129c-109.333 -30 -222.666 -45 -339.999 -45c-326 0 -489 91.667 -489 275c0 76.667 27.333 148.667 82 216c6.66699 8 12.667 10.667 18 8
c6 -2.66699 6.33301 -8.66699 1 -18c-24.667 -45.333 -37 -92 -37 -140c0 -57.333 38.333 -103.666 115 -138.999c86.667 -40 211.667 -60 375 -60c294 0 481.333 56.333 562 169c10 14 15 13.333 15 -2c0 -54.667 10.333 -91.167 31 -109.5s56.667 -27.5 108 -27.5h51v-142
zM970 722.999c0 -14 -32.666 -45.999 -97.999 -95.999c-20 24 -50.667 53 -92 87c-22 -23.333 -53.667 -54.666 -95 -93.999c-26.667 38 -59 70.667 -97 98l95 102c27.333 -14.667 60.666 -46.334 99.999 -95.001l87 95c20.667 -10 43 -27.667 67 -53
c22 -22.667 33 -37.334 33 -44.001z" />
    <glyph glyph-name="uFE97" unicode="&#x62a;" horiz-adv-x="396" arabic-form="initial" 
d="M295 242c0 -72 -19.666 -131 -58.999 -177c-37.333 -42.667 -105.333 -64 -204 -64h-62v142h45c122 0 196.667 13 224 39c0 17.333 -8.33301 39 -25 65s-36.334 47.333 -59.001 64l53 149c3.33301 10 8 11.333 14 4c48.667 -56.667 73 -130.667 73 -222zM396.001 738
c0 -14 -32.666 -45.999 -97.999 -95.999c-20 24 -50.667 53 -92 87c-22 -24 -53.667 -55.333 -95 -94c-26.667 38 -59 70.667 -97 98l95 102c27.333 -15.333 60.666 -47 99.999 -95l87 95c20.667 -10 43 -27.667 67 -53c22 -22.667 33 -37.334 33 -44.001z" />
    <glyph glyph-name="uFE98" unicode="&#x62a;" horiz-adv-x="463" arabic-form="medial" 
d="M494 1h-77c-106 0 -167.667 34 -185 102c-34 -68 -101.333 -102 -202 -102h-60v142h58c116 0 191 42.333 225 127c6 14 11.333 21 16 21c5.33301 0 8 -8 8 -24c0 -50 11.667 -83.167 35 -99.5s69 -24.5 137 -24.5h45v-142zM421 589c0 -13.333 -32.667 -45.333 -98 -96
c-20.667 24 -51.334 53 -92.001 87c-22 -23.333 -53.667 -54.666 -95 -93.999c-27.333 38 -59.666 70.667 -96.999 98l95 102c26.667 -14.667 60 -46.334 100 -95.001l87 95c20 -10 41.667 -27 65 -51s35 -39.333 35 -46z" />
    <glyph glyph-name="uFE9A" unicode="&#x62b;" horiz-adv-x="1465" arabic-form="final" 
d="M1495 1l-60 -0.000976562c-112.667 0 -172.334 48 -179.001 144c-50.667 -53.333 -135 -96.333 -253 -129c-109.333 -30 -222.666 -45 -339.999 -45c-326 0 -489 91.667 -489 275c0 76.667 27.333 148.667 82 216c6.66699 8 12.667 10.667 18 8
c6 -2.66699 6.33301 -8.66699 1 -18c-24.667 -45.333 -37 -92 -37 -140c0 -57.333 38.333 -103.666 115 -138.999c86.667 -40 211.667 -60 375 -60c294 0 481.333 56.333 562 169c10 14 15 13.333 15 -2c0 -54.667 10.333 -91.167 31 -109.5s56.667 -27.5 108 -27.5h51v-142
zM887 888.999c0 -4.66699 -11 -19.001 -33 -43.001s-42 -42.667 -60 -56c-24 28 -56.333 59.333 -97 94l94 99c64 -47.333 96 -78.666 96 -93.999zM983 679.998c0 -13.333 -32.667 -45.334 -98 -96.001c-20 24 -50.667 53 -92 87c-22 -23.333 -53.667 -54.666 -95 -93.999
c-26.667 38 -59 70.667 -97 98l95 102c28 -15.333 61.333 -47.333 100 -96l87 96c20.667 -10 43 -27.333 67 -52c22 -22.667 33 -37.667 33 -45z" />
    <glyph glyph-name="uFE9B" unicode="&#x62b;" horiz-adv-x="396" arabic-form="initial" 
d="M295 242c0 -72 -19.666 -131 -58.999 -177c-37.333 -42.667 -105.333 -64 -204 -64h-62v142h45c122 0 196.667 13 224 39c0 17.333 -8.33301 39 -25 65s-36.334 47.333 -59.001 64l53 149c3.33301 10 8 11.333 14 4c48.667 -56.667 73 -130.667 73 -222zM304.001 946
c0 -4.66699 -11 -18.834 -33 -42.501s-42 -42.5 -60 -56.5c-24 28.667 -56.333 60 -97 94l94 99c64 -47.333 96 -78.666 96 -93.999zM400.001 738c0 -14 -32.667 -45.999 -98 -95.999c-20 24 -50.667 53 -92 87c-22 -24 -53.667 -55.333 -95 -94
c-26.667 38 -59 70.667 -97 98l95 102c28 -16 61.333 -48 100 -96l87 96c20.667 -10 43 -27.667 67 -53c22 -22.667 33 -37.334 33 -44.001z" />
    <glyph glyph-name="uFE9C" unicode="&#x62b;" horiz-adv-x="463" arabic-form="medial" 
d="M494 1h-77c-106 0 -167.667 34 -185 102c-34 -68 -101.333 -102 -202 -102h-60v142h58c116 0 191 42.333 225 127c6 14 11.333 21 16 21c5.33301 0 8 -8 8 -24c0 -50 11.667 -83.167 35 -99.5s69 -24.5 137 -24.5h45v-142zM326 783c0 -4.66699 -11 -19.001 -33 -43.001
s-42 -42.667 -60 -56c-24 28 -56.333 59.333 -97 94l94 99c64 -47.333 96 -78.666 96 -93.999zM422 573.999c0 -13.333 -32.667 -45.334 -98 -96.001c-20.667 24 -51.334 53 -92.001 87c-22 -23.333 -53.667 -54.666 -95 -93.999c-27.333 38 -59.666 70.667 -96.999 98
l95 102c28 -15.333 61.333 -47.333 100 -96l87 96c20 -10 41.667 -26.833 65 -50.5s35 -39.167 35 -46.5z" />
    <glyph glyph-name="uFE9E" unicode="&#x62c;" horiz-adv-x="1094" arabic-form="final" 
d="M1215 -592c-66 -70.667 -145.668 -128.333 -239.001 -173c-104 -49.333 -209.667 -74 -317 -74c-160.667 0 -284.334 45.333 -371.001 136c-76 79.333 -114 179.666 -114 300.999c0 133.333 35 258 105 374c73.333 120.667 177 219.334 311 296.001
c-103.333 24 -164.333 36 -183 36c-50 0 -96.667 -25.333 -140 -76c-6 -7.33301 -11.667 -10.333 -17 -9s-6.66602 6.33301 -3.99902 15c43.333 144 118.333 216 225 216c2 0 52.5 -10.833 151.5 -32.5s222.833 -32.5 371.5 -32.5l-57 -146h-122c0 -64 47.667 -96 143 -96
h165v-142h-145c-67.333 0 -117.333 15 -150 45c-39.333 36.667 -59.666 99.667 -60.999 189c-15.333 -2 -35.333 -5.33301 -60 -10c-122 -32.667 -227.833 -101.5 -317.5 -206.5s-134.5 -213.5 -134.5 -325.5c0 -134.667 50.333 -235.667 151 -303
c85.333 -57.333 197 -86 335 -86c169.333 0 322.333 40 459 120c16.667 10 25 10.667 25 2c0 -4.66699 -3.33301 -10.667 -10 -18zM783.999 -272.999c0 -20 -34.668 -56.333 -104.001 -109c-25.333 35.333 -59.666 70 -102.999 104l101 108c22 -12 45.667 -30.667 71 -56
c23.333 -24 35 -39.667 35 -47z" />
    <glyph glyph-name="uFE9F" unicode="&#x62c;" horiz-adv-x="822" arabic-form="initial" 
d="M816 385l-57.9971 -146.001c-65.333 0 -109.333 -3 -132 -9c-64.667 -16.667 -157 -63 -277 -139c-95.333 -60 -195.333 -90 -300 -90h-79v142h63c106 0 203.333 18 292 54l194 84c-20.667 4 -66.334 20.333 -137.001 49c-66 26.667 -107.333 40 -124 40
c-34 0 -68.667 -16.667 -104 -50c-6.66699 -6.66699 -12.334 -7.66699 -17.001 -3c-5.33301 4.66699 -6.33301 11.334 -3 20.001c46 122 104 183 174 183c28.667 0 64.667 -11.667 108 -35c59.333 -32 106.666 -53.667 141.999 -65c72.667 -23.333 158.667 -35 258 -35z
M321.003 -278.001c0 -20 -34.668 -56.333 -104.001 -109c-25.333 35.333 -59.666 70 -102.999 104l101 108c22 -12 45.167 -30.333 69.5 -55s36.5 -40.667 36.5 -48z" />
    <glyph glyph-name="uFEA0" unicode="&#x62c;" horiz-adv-x="945" arabic-form="medial" 
d="M974 1l-144.001 -0.000976562c-69.333 0 -119.666 13.667 -150.999 41c-39.333 34 -59.666 95.333 -60.999 184c-53.333 -15.333 -142.333 -61.333 -267 -138c-94.667 -58 -195.334 -87 -302.001 -87h-79v142h63c106 0 205 18 297 54l199 84c-20 4 -69 20.333 -147 49
c-72 26.667 -116.667 40 -134 40c-34 0 -68.333 -16.667 -103 -50c-6.66699 -6.66699 -12.667 -7.66699 -18 -3s-6.33301 11.334 -3 20.001c46 122 104 183 174 183c28.667 0 68 -12.667 118 -38c68.667 -34 122.334 -57 161.001 -69
c79.333 -25.333 168.666 -38 267.999 -38l-57 -146h-122c0 -57.333 48 -86 144 -86h164v-142zM330.999 -278.001c0 -20 -34.668 -56.333 -104.001 -109c-25.333 35.333 -59.666 70 -102.999 104l101 108c22 -12 45.167 -30.333 69.5 -55s36.5 -40.667 36.5 -48z" />
    <glyph glyph-name="uFEA2" unicode="&#x62d;" horiz-adv-x="1094" arabic-form="final" 
d="M1215 -592c-66 -70.667 -145.668 -128.333 -239.001 -173c-104 -49.333 -209.667 -74 -317 -74c-160.667 0 -284.334 45.333 -371.001 136c-76 79.333 -114 179.666 -114 300.999c0 133.333 35 258 105 374c73.333 120.667 177 219.334 311 296.001
c-103.333 24 -164.333 36 -183 36c-50 0 -96.667 -25.333 -140 -76c-6 -7.33301 -11.667 -10.333 -17 -9s-6.66602 6.33301 -3.99902 15c43.333 144 118.333 216 225 216c2 0 52.5 -10.833 151.5 -32.5s222.833 -32.5 371.5 -32.5l-57 -146h-122c0 -64 47.667 -96 143 -96
h165v-142h-145c-67.333 0 -117.333 15 -150 45c-39.333 36.667 -59.666 99.667 -60.999 189c-15.333 -2 -35.333 -5.33301 -60 -10c-122 -32.667 -227.833 -101.5 -317.5 -206.5s-134.5 -213.5 -134.5 -325.5c0 -134.667 50.333 -235.667 151 -303
c85.333 -57.333 197 -86 335 -86c169.333 0 322.333 40 459 120c16.667 10 25 10.667 25 2c0 -4.66699 -3.33301 -10.667 -10 -18z" />
    <glyph glyph-name="uFEA3" unicode="&#x62d;" horiz-adv-x="822" arabic-form="initial" 
d="M816 385l-57.9971 -146.001c-65.333 0 -109.333 -3 -132 -9c-64.667 -16.667 -157 -63 -277 -139c-95.333 -60 -195.333 -90 -300 -90h-79v142h63c106 0 203.333 18 292 54l194 84c-20.667 4 -66.334 20.333 -137.001 49c-66 26.667 -107.333 40 -124 40
c-34 0 -68.667 -16.667 -104 -50c-6.66699 -6.66699 -12.334 -7.66699 -17.001 -3c-5.33301 4.66699 -6.33301 11.334 -3 20.001c46 122 104 183 174 183c28.667 0 64.667 -11.667 108 -35c59.333 -32 106.666 -53.667 141.999 -65c72.667 -23.333 158.667 -35 258 -35z" />
    <glyph glyph-name="uFEA4" unicode="&#x62d;" horiz-adv-x="945" arabic-form="medial" 
d="M974 1l-144.001 -0.000976562c-69.333 0 -119.666 13.667 -150.999 41c-39.333 34 -59.666 95.333 -60.999 184c-53.333 -15.333 -142.333 -61.333 -267 -138c-94.667 -58 -195.334 -87 -302.001 -87h-79v142h63c106 0 205 18 297 54l199 84c-20 4 -69 20.333 -147 49
c-72 26.667 -116.667 40 -134 40c-34 0 -68.333 -16.667 -103 -50c-6.66699 -6.66699 -12.667 -7.66699 -18 -3s-6.33301 11.334 -3 20.001c46 122 104 183 174 183c28.667 0 68 -12.667 118 -38c68.667 -34 122.334 -57 161.001 -69
c79.333 -25.333 168.666 -38 267.999 -38l-57 -146h-122c0 -57.333 48 -86 144 -86h164v-142z" />
    <glyph glyph-name="uFEA6" unicode="&#x62e;" horiz-adv-x="1094" arabic-form="final" 
d="M1215 -592c-66 -70.667 -145.668 -128.333 -239.001 -173c-104 -49.333 -209.667 -74 -317 -74c-160.667 0 -284.334 45.333 -371.001 136c-76 79.333 -114 179.666 -114 300.999c0 133.333 35 258 105 374c73.333 120.667 177 219.334 311 296.001
c-103.333 24 -164.333 36 -183 36c-50 0 -96.667 -25.333 -140 -76c-6 -7.33301 -11.667 -10.333 -17 -9s-6.66602 6.33301 -3.99902 15c43.333 144 118.333 216 225 216c2 0 52.5 -10.833 151.5 -32.5s222.833 -32.5 371.5 -32.5l-57 -146h-122c0 -64 47.667 -96 143 -96
h165v-142h-145c-67.333 0 -117.333 15 -150 45c-39.333 36.667 -59.666 99.667 -60.999 189c-15.333 -2 -35.333 -5.33301 -60 -10c-122 -32.667 -227.833 -101.5 -317.5 -206.5s-134.5 -213.5 -134.5 -325.5c0 -134.667 50.333 -235.667 151 -303
c85.333 -57.333 197 -86 335 -86c169.333 0 322.333 40 459 120c16.667 10 25 10.667 25 2c0 -4.66699 -3.33301 -10.667 -10 -18zM773.999 776.001c0 -20 -34.667 -56.333 -104 -109c-24.667 35.333 -59 70 -103 104l101 108c22 -12 45.667 -30.667 71 -56
c23.333 -24 35 -39.667 35 -47z" />
    <glyph glyph-name="uFEA7" unicode="&#x62e;" horiz-adv-x="822" arabic-form="initial" 
d="M816 385l-57.9971 -146.001c-65.333 0 -109.333 -3 -132 -9c-64.667 -16.667 -157 -63 -277 -139c-95.333 -60 -195.333 -90 -300 -90h-79v142h63c106 0 203.333 18 292 54l194 84c-20.667 4 -66.334 20.333 -137.001 49c-66 26.667 -107.333 40 -124 40
c-34 0 -68.667 -16.667 -104 -50c-6.66699 -6.66699 -12.334 -7.66699 -17.001 -3c-5.33301 4.66699 -6.33301 11.334 -3 20.001c46 122 104 183 174 183c28.667 0 64.667 -11.667 108 -35c59.333 -32 106.666 -53.667 141.999 -65c72.667 -23.333 158.667 -35 258 -35z
M376.003 775.999c0 -20 -34.668 -56.333 -104.001 -109c-25.333 35.333 -59.666 70 -102.999 104l101 108c22 -12 45.167 -30.333 69.5 -55s36.5 -40.667 36.5 -48z" />
    <glyph glyph-name="uFEA8" unicode="&#x62e;" horiz-adv-x="945" arabic-form="medial" 
d="M974 1l-144.001 -0.000976562c-69.333 0 -119.666 13.667 -150.999 41c-39.333 34 -59.666 95.333 -60.999 184c-53.333 -15.333 -142.333 -61.333 -267 -138c-94.667 -58 -195.334 -87 -302.001 -87h-79v142h63c106 0 205 18 297 54l199 84c-20 4 -69 20.333 -147 49
c-72 26.667 -116.667 40 -134 40c-34 0 -68.333 -16.667 -103 -50c-6.66699 -6.66699 -12.667 -7.66699 -18 -3s-6.33301 11.334 -3 20.001c46 122 104 183 174 183c28.667 0 68 -12.667 118 -38c68.667 -34 122.334 -57 161.001 -69
c79.333 -25.333 168.666 -38 267.999 -38l-57 -146h-122c0 -57.333 48 -86 144 -86h164v-142zM395.999 775.999c0 -20 -34.668 -56.333 -104.001 -109c-25.333 35.333 -59.666 70 -102.999 104l101 108c22 -12 45.167 -30.333 69.5 -55s36.5 -40.667 36.5 -48z" />
    <glyph glyph-name="uFEAA" unicode="&#x62f;" horiz-adv-x="824" arabic-form="final" 
d="M853 1l-58.998 0.000976562c-57.333 0 -99.833 11.833 -127.5 35.5s-50.834 68.167 -69.501 133.5c-28.667 -70 -60.334 -118.667 -95.001 -146c-39.333 -30 -95.666 -45 -168.999 -45c-106 0 -159 39.333 -159 118c0 36.667 3.33301 71 10 103
c3.33301 17.333 8.66602 18.333 15.999 3c24.667 -52.667 71.334 -79 140.001 -79c71.333 0 124.333 7.66699 159 23c32.667 14.667 57 40.667 73 78c0 34 -27 137.333 -81 310l62 123c7.33301 14 12.666 13.667 15.999 -1l86 -334c20.667 -78.667 40 -128.334 58 -149.001
s52 -31 102 -31h38v-142z" />
    <glyph glyph-name="uFEAC" unicode="&#x630;" horiz-adv-x="824" arabic-form="final" 
d="M853 1l-58.998 0.000976562c-57.333 0 -99.833 11.833 -127.5 35.5s-50.834 68.167 -69.501 133.5c-28.667 -70 -60.334 -118.667 -95.001 -146c-39.333 -30 -95.666 -45 -168.999 -45c-106 0 -159 39.333 -159 118c0 36.667 3.33301 71 10 103
c3.33301 17.333 8.66602 18.333 15.999 3c24.667 -52.667 71.334 -79 140.001 -79c71.333 0 124.333 7.66699 159 23c32.667 14.667 57 40.667 73 78c0 34 -27 137.333 -81 310l62 123c7.33301 14 12.666 13.667 15.999 -1l86 -334c20.667 -78.667 40 -128.334 58 -149.001
s52 -31 102 -31h38v-142zM585.002 941.001c0 -19.333 -34.667 -55.333 -104 -108c-24.667 35.333 -59 70 -103 104l101 107c22 -12 45.667 -30.333 71 -55c23.333 -24 35 -40 35 -48z" />
    <glyph glyph-name="uFEAE" unicode="&#x631;" horiz-adv-x="756" arabic-form="final" 
d="M786 1l-109 0.000976562c-71.333 -260.667 -178.333 -391 -321 -391c-77.333 0 -158.333 29 -243 87c-8.66699 6 -12 11.333 -10 16c1.33301 5.33301 7.33301 7.66602 18 6.99902c29.333 -2 56.666 -3 81.999 -3c121.333 0 213.333 23 276 69
c44.667 32.667 91.667 95.334 141 188.001c2.66699 16.667 -8.66602 36.667 -33.999 60c-48.667 46.667 -73.667 71 -75 73l45 140c3.33301 9.33301 8.66602 9.66602 15.999 0.999023l55 -57c30.667 -32 68.334 -48 113.001 -48h46v-142z" />
    <glyph glyph-name="uFEB0" unicode="&#x632;" horiz-adv-x="757" arabic-form="final" 
d="M786 1l-109 0.000976562c-71.333 -260.667 -178.333 -391 -321 -391c-77.333 0 -158.333 29 -243 87c-8.66699 6 -12 11.333 -10 16c1.33301 5.33301 7.33301 7.66602 18 6.99902c29.333 -2 56.666 -3 81.999 -3c121.333 0 213.333 23 276 69
c44.667 32.667 91.667 95.334 141 188.001c2.66699 16.667 -8.66602 36.667 -33.999 60c-48.667 46.667 -73.667 71 -75 73l45 140c3.33301 9.33301 8.66602 9.66602 15.999 0.999023l55 -57c30.667 -32 68.334 -48 113.001 -48h46v-142zM628 496.001
c0 -20 -34.668 -56.333 -104.001 -109c-25.333 35.333 -59.666 70 -102.999 104l101 108c22 -12 45.167 -30.333 69.5 -55s36.5 -40.667 36.5 -48z" />
    <glyph glyph-name="uFEB2" unicode="&#x633;" horiz-adv-x="1729" arabic-form="final" 
d="M1756 1l-61.999 0.00195312c-81.333 0 -135.333 32.333 -162 97c-35.333 -68 -89.333 -102 -162 -102c-79.333 0 -127.333 34.333 -144 103c-40.667 -65.333 -92 -98 -154 -98c-44.667 0 -81.334 6.33301 -110.001 19c-5.33301 -138.667 -38 -252.334 -98 -341.001
c-80 -118 -200.333 -177 -361 -177c-114.667 0 -200.334 33 -257.001 99c-48 55.333 -72 127.333 -72 216c0 116.667 35 219.667 105 309c8 9.33301 14.667 13 20 11c6 -2 6.33301 -8 1 -18c-46 -89.333 -69 -168 -69 -236c0 -75.333 25.667 -134 77 -176
s122.666 -63 213.999 -63c84.667 0 165.334 22.667 242.001 68c90.667 54 136 122.667 136 206c0 69.333 -28.333 137.666 -85 204.999c-4.66699 5.33301 -4.66699 12.333 0 21l63 122c4 8 8.33301 8 13 0c24.667 -42.667 46.667 -71.334 66 -86.001
c32 -24.667 77.667 -37 137 -37c76.667 0 124.667 39.333 144 118c4 15.333 10 23 18 23c6 0 11.333 -9.66699 16 -29c2 -13.333 4.33301 -26.666 7 -39.999c16.667 -51.333 56 -77 118 -77c72.667 0 120 43 142 129c4.66699 16 10.334 24 17.001 24
c7.33301 0 12 -10 14 -30c7.33301 -78.667 53 -118 137 -118h49v-142z" />
    <glyph glyph-name="uFEB3" unicode="&#x633;" horiz-adv-x="817" arabic-form="initial" 
d="M818 224c0 -70.667 -14.665 -125.331 -43.998 -163.998c-24.667 -32.667 -54.667 -49 -90 -49c-82.667 0 -142.334 29.333 -179.001 88c-34 -65.333 -88.667 -98 -164 -98c-82.667 0 -132.334 30 -149.001 90c-36.667 -60 -90.667 -90 -162 -90h-60v142h64
c52.667 0 92 9.33301 118 28c22 15.333 41.333 43.666 58 84.999c5.33301 13.333 11.333 20 18 20c7.33301 0 11 -7.66699 11 -23c0 -73.333 43.333 -110 130 -110c69.333 0 117.333 44.667 144 134c2 8 6 11.333 12 10c5.33301 -0.666992 9.33301 -4.66699 12 -12
c29.333 -92.667 96.333 -134.334 201 -125.001c14.667 2 20 10.667 16 26c-8 32.667 -28.667 67.667 -62 105l61 111c4 6.66699 7.66699 6.66699 11 0c36 -61.333 54 -117.333 54 -168z" />
    <glyph glyph-name="uFEB4" unicode="&#x633;" horiz-adv-x="1034" arabic-form="medial" 
d="M1063 1h-62.0029c-81.333 0 -135.333 32.333 -162 97c-35.333 -68 -89.333 -102 -162 -102c-77.333 0 -124 33 -140 99c-43.333 -69.333 -108.666 -104 -195.999 -104c-80.667 0 -130.334 33.333 -149.001 100c-36.667 -60 -90.667 -90 -162 -90h-60v142h64
c54.667 0 94.667 9.33301 120 28c20.667 14.667 39.334 43 56.001 85c5.33301 13.333 11.333 20 18 20c7.33301 0 11 -7.66699 11 -23c0 -80 43.333 -120 130 -120c58.667 0 100.334 10.333 125.001 31c20 16.667 37 49 51 97c5.33301 17.333 11.666 26 18.999 26
c8 0 12.333 -9 13 -27c4.66699 -81.333 47 -122 127 -122c42 0 73.333 8.66699 94 26c18.667 17.333 35 49.333 49 96c4.66699 14 10.334 21 17.001 21s10.334 -6.66699 11.001 -20c4 -78.667 50.333 -118 139 -118h49v-142z" />
    <glyph glyph-name="uFEB6" unicode="&#x634;" horiz-adv-x="1731" arabic-form="final" 
d="M1756 1l-61.999 0.00195312c-81.333 0 -135.333 32.333 -162 97c-35.333 -68 -89.333 -102 -162 -102c-79.333 0 -127.333 34.333 -144 103c-40.667 -65.333 -92 -98 -154 -98c-44.667 0 -81.334 6.33301 -110.001 19c-5.33301 -138.667 -38 -252.334 -98 -341.001
c-80 -118 -200.333 -177 -361 -177c-114.667 0 -200.334 33 -257.001 99c-48 55.333 -72 127.333 -72 216c0 116.667 35 219.667 105 309c8 9.33301 14.667 13 20 11c6 -2 6.33301 -8 1 -18c-46 -89.333 -69 -168 -69 -236c0 -75.333 25.667 -134 77 -176
s122.666 -63 213.999 -63c84.667 0 165.334 22.667 242.001 68c90.667 54 136 122.667 136 206c0 69.333 -28.333 137.666 -85 204.999c-4.66699 5.33301 -4.66699 12.333 0 21l63 122c4 8 8.33301 8 13 0c24.667 -42.667 46.667 -71.334 66 -86.001
c32 -24.667 77.667 -37 137 -37c76.667 0 124.667 39.333 144 118c4 15.333 10 23 18 23c6 0 11.333 -9.66699 16 -29c2 -13.333 4.33301 -26.666 7 -39.999c16.667 -51.333 56 -77 118 -77c72.667 0 120 43 142 129c4.66699 16 10.334 24 17.001 24
c7.33301 0 12 -10 14 -30c7.33301 -78.667 53 -118 137 -118h49v-142zM1333 803.002c0 -4.66699 -10.832 -19.001 -32.499 -43.001s-41.834 -42.667 -60.501 -56c-24 28 -56.333 59.333 -97 94l94 99c64 -47.333 96 -78.666 96 -93.999zM1429 594.001
c0 -13.333 -32.667 -45.334 -98 -96.001c-20 24 -50.667 53 -92 87c-22 -23.333 -53.667 -54.666 -95 -93.999c-26.667 38 -59 70.667 -97 98l95 102c28.667 -15.333 62 -47.333 100 -96l87 96c20.667 -10 43 -27.333 67 -52c22 -23.333 33 -38.333 33 -45z" />
    </font>
</defs>
</svg>
