<?xml version="1.0" standalone="no"?>
<!DOCTYPE svg PUBLIC "-//W3C//DTD SVG 1.1//EN" "http://www.w3.org/Graphics/SVG/1.1/DTD/svg11.dtd" >
<svg>
<metadata>
Created by FontForge 20090914 at Wed Oct 19 02:04:04 2011
 By www-data
(c) by Abolfazl Seilsepour - +98 912 591 3420  -  seilsepor@yahoo.com
</metadata>
<defs>
<font id="FarZiba" horiz-adv-x="0" >
  <font-face 
    font-family="Far.Ziba"
    font-weight="400"
    font-stretch="normal"
    units-per-em="2048"
    panose-1="0 0 4 0 0 0 0 0 0 0"
    ascent="1638"
    descent="-410"
    bbox="-214 -860.999 2020 2182"
    underline-thickness="80"
    underline-position="-660"
    unicode-range="U+0020-U+FEFC"
  />
<missing-glyph horiz-adv-x="1024" 
d="M128 0v1477h768v-1477h-768zM256 128h512v1221h-512v-1221z" />
    <glyph glyph-name="uE818" unicode="&#x651;&#x64b;" 
d="M210 1597c-19.333 0 -34.6689 7.66797 -46.002 23.001c-10 12.667 -15 25 -15 37c-2.66699 26 -4 51.667 -4 77c0.666992 8 1.33398 18.667 2.00098 32s1 24.333 1 33c0 6.66699 4 10 12 10c10.667 0 15.667 -4.66699 15 -14l-2 -46c-1.33301 -18 -2 -30.667 -2 -38
c0 -61.333 12.333 -92 37 -92c14.667 0 26 17 34 51c0.666992 4 2 20.667 4 50c0.666992 24 1 38 1 42v23v7v7c0 6.66699 3.66699 10 11 10c10.667 0 16 -4.66699 16 -14l-1 -43c0 8.66699 0.666992 -11 2 -59c0 -18 3 -34.833 9 -50.5s13.667 -23.5 23 -23.5
c20.667 0 31 25.333 31 76c0 42.667 -5.33301 76 -16 100v4c0 7.33301 4.66699 11 14 11c4.66699 0 8.33398 -2.33301 11.001 -7c8.66699 -26.667 13 -59.334 13 -98.001c0 -72 -19 -108 -57 -108c-25.333 0 -40.333 20 -45 60c-6 -40 -22 -60 -48 -60zM335.997 2063
l-193 -83c-4.66699 0 -8 7 -10 21c0 12 4 19.333 12 22l193 83c5.33301 0 8 -6 8 -18c0 -12.667 -3.33301 -21 -10 -25zM335.997 1940l-192 -81.999c-5.33301 0 -9 6.66699 -11 20c0 11.333 4 18.666 12 21.999l193 83c6 0 9 -6 9 -18c0 -14 -3.66699 -22.333 -11 -25z" />
    <glyph glyph-name="uFC5E" unicode="&#x651;&#x64c;" arabic-form="isolated" 
d="M191 1605c-19.333 0 -34.668 7.66699 -46.001 23c-9.33301 12 -14.333 24 -15 36c-2.66699 26 -4 52 -4 78c0.666992 8 1.33398 18.5 2.00098 31.5s1 23.833 1 32.5c0 6.66699 3.66699 10 11 10c11.333 0 16.666 -4.33301 15.999 -13l-3 -47
c-0.666992 -17.333 -1 -30 -1 -38c0 -60.667 12.333 -91 37 -91c14.667 0 26 16.667 34 50c0.666992 4 2 20.667 4 50c0.666992 24.667 1 38.667 1 42v23v7v7c0 6.66699 3.66699 10 11 10c10.667 0 16 -4.33301 16 -13l-1 -44c0 8.66699 0.666992 -10.666 2 -57.999
c0 -18 3 -34.833 9 -50.5s13.667 -23.5 23 -23.5c20.667 0 31 25 31 75c0 42.667 -5.33301 76 -16 100v4c0 7.33301 4.66699 11 14 11c4.66699 0 8.33398 -2.33301 11.001 -7c8.66699 -26.667 13 -59.334 13 -98.001c0 -71.333 -19 -107 -57 -107
c-25.333 0 -40.333 19.667 -45 59c-6 -39.333 -22 -59 -48 -59zM84.998 2037c17.333 15.333 35.3311 22.999 53.998 22.999c24.667 0 45.167 -10.167 61.5 -30.5s24.5 -42.833 24.5 -67.5c0 -24 -6 -46 -18 -66c-14 -22.667 -32.333 -34 -55 -34
c-24.667 0 -45 12.333 -61 37c-14.667 21.333 -22 45 -22 71c0 47.333 18.333 92.333 55 134.999c18.667 22 39.334 38.333 62.001 49l4 1c7.33301 0 11 -3.66699 11 -11c0 -4 -2 -7 -6 -9c-29.333 -12.667 -54.333 -35.334 -75 -68c-20.667 -32.667 -31 -65 -31 -97
c0 -20 5.33301 -39 16 -57c12.667 -20.667 28.334 -31 47.001 -31c35.333 0 53 26.667 53 80c0 18.667 -6.33301 36.334 -19 53.001s-28.334 25 -47.001 25c-13.333 0 -26.666 -6 -39.999 -18c-2 -0.666992 -3.66699 -1 -5 -1c-2.66699 0.666992 -5 3.33398 -7 8.00098z
M357.996 2007c-17.333 -14.667 -35.665 -21.998 -54.998 -21.998c-24 0 -44.167 10 -60.5 30s-24.5 42.333 -24.5 67c0 24 6 46 18 66c14 22.667 32 34 54 34c25.333 0 46 -12 62 -36c14 -22 21 -46 21 -72c0 -47.333 -18 -92.333 -54 -135
c-18.667 -21.333 -39.334 -37.333 -62.001 -48l-4 -1c-7.33301 0 -11 3.66699 -11 11c0 3.33301 2 6.33301 6 9c29.333 12.667 54.166 35.167 74.499 67.5s30.5 64.5 30.5 96.5c0 20 -5.33301 39 -16 57c-12 20.667 -27.667 31 -47 31c-34.667 0 -52 -26.667 -52 -80
c0 -18.667 6.33301 -36.334 19 -53.001s28 -25 46 -25c14 0 27.667 6 41 18c2 1.33301 3.66699 2 5 2c2.66699 -0.666992 5 -3.33398 7 -8.00098z" />
    <glyph glyph-name="uFC5F" unicode="&#x651;&#x64d;" arabic-form="isolated" 
d="M191 1835c-19.333 0 -34.668 7.66504 -46.001 22.998c-10 12.667 -15 25 -15 37c-2.66699 25.333 -4 51 -4 77c0.666992 8 1.33398 18.5 2.00098 31.5s1 23.833 1 32.5c0 6.66699 3.66699 10 11 10c11.333 0 16.666 -4.33301 15.999 -13l-3 -47
c-0.666992 -17.333 -1 -29.666 -1 -36.999c0 -61.333 12.333 -92 37 -92c14.667 0 26 16.667 34 50c0.666992 4.66699 2 21.334 4 50.001c0.666992 24.667 1 38.667 1 42v23v8v6c0 6.66699 3.66699 10 11 10c10.667 0 16 -4.33301 16 -13l-1 -43c0 8 0.666992 -11.667 2 -59
c0 -18 3 -34.833 9 -50.5s13.667 -23.5 23 -23.5c20.667 0 31 25 31 75c0 42.667 -5.33301 76 -16 100v5c0 6.66699 4.66699 10 14 10c4.66699 0 8.33398 -2 11.001 -6c8.66699 -27.333 13 -60.333 13 -99c0 -71.333 -19 -107 -57 -107c-25.333 0 -40.333 20 -45 60
c-6 -40 -22 -60 -48 -60zM330.998 1784l-193 -81c-4 0 -7 6.33301 -9 19c0 12.667 3.66699 20.667 11 24l194 81c5.33301 0 8 -5.66699 8 -17c0 -13.333 -3.66699 -22 -11 -26zM330.998 1661l-192 -80.999c-4.66699 0 -8 6.66699 -10 20c0 12 3.66699 19.333 11 22l194 83
c4 0 6.66699 -6 8 -18c0 -12.667 -3.66699 -21.334 -11 -26.001z" />
    <glyph glyph-name="uFC60" unicode="&#x651;&#x64e;" arabic-form="isolated" 
d="M210 1614c-19.333 0 -34.6689 7.66797 -46.002 23.001c-9.33301 12.667 -14.333 25 -15 37c-2.66699 26 -4 51.667 -4 77c0.666992 8 1.33398 18.667 2.00098 32s1 24.333 1 33c0 6.66699 4 10 12 10c10.667 0 15.667 -4.66699 15 -14l-2 -46
c-1.33301 -18 -2 -30.667 -2 -38c0 -61.333 12.333 -92 37 -92c14.667 0 26 17 34 51c0.666992 4 2 20.667 4 50c0.666992 24 1 38 1 42v23v7v7c0 6.66699 3.66699 10 11 10c10.667 0 16 -4.66699 16 -14l-1 -43c0 8.66699 0.666992 -10.666 2 -57.999
c0 -18.667 3 -35.834 9 -51.501s13.667 -23.5 23 -23.5c20.667 0 31 25.333 31 76c0 42.667 -5.33301 76 -16 100v4c0 7.33301 4.66699 11 14 11c4.66699 0 8.33398 -2.33301 11.001 -7c8.66699 -26.667 13 -59.334 13 -98.001c0 -72 -19 -108 -57 -108
c-25.333 0 -40.333 20 -45 60c-6 -40 -22 -60 -48 -60zM348.997 1959l-193.999 -81c-6 0 -9 6.33301 -9 19s3.66699 20.667 11 24l194 81c3.33301 0 5.66602 -5.66699 6.99902 -17c0 -13.333 -3 -22 -9 -26z" />
    <glyph glyph-name="uFC61" unicode="&#x651;&#x64f;" arabic-form="isolated" 
d="M200 1604c-18.667 0 -34.0029 7.33496 -46.0029 22.002c-9.33301 12.667 -14.333 25 -15 37c-2 26 -3 52 -3 78c0 7.33301 0.5 17.666 1.5 30.999s1.5 24.333 1.5 33c0 6.66699 3.66699 10 11 10c10.667 0 15.667 -4.66699 15 -14l-2 -46
c-0.666992 -18 -1 -30.667 -1 -38c0 -61.333 12.333 -92 37 -92c14.667 0 26 17 34 51c0.666992 4 1.66699 20.667 3 50c1.33301 24 2 38 2 42v23v7v7c0 6.66699 3.66699 10 11 10c10 0 15 -4.66699 15 -14v-43c0 8.66699 0.333008 -10.666 1 -57.999
c0.666992 -18.667 3.83398 -35.834 9.50098 -51.501s13.167 -23.5 22.5 -23.5c21.333 0 32 25.333 32 76c0 42.667 -5.33301 76 -16 100l-1 4c0 7.33301 4.66699 11 14 11c4.66699 0 8.33398 -2.33301 11.001 -7c8.66699 -26.667 13 -59.334 13 -98.001
c0 -71.333 -18.667 -107 -56 -107c-25.333 0 -40.666 19.667 -45.999 59c-6 -39.333 -22 -59 -48 -59zM290.997 1938c-16.667 -14.667 -34.667 -21.999 -54 -21.999c-24 0 -44.333 10 -61 30s-25 42.333 -25 67s6 46.667 18 66.001c14 22.667 32.333 34 55 34
c24.667 0 45.334 -12 62.001 -36c14 -22 21 -46 21 -72c0 -47.333 -18.333 -92.333 -55 -135c-18 -21.333 -38.333 -37.333 -61 -48l-5 -1c-6.66699 0 -10 3.66699 -10 11c0 4 2 7 6 9c28.667 12.667 53.334 35.167 74.001 67.5s31 64.5 31 96.5c0 20 -5.33301 39 -16 57
c-12.667 20.667 -28.334 31 -47.001 31c-35.333 0 -53 -26.667 -53 -80c0 -18.667 6.33301 -36.334 19 -53.001s28.334 -25 47.001 -25c14 0 27.667 6 41 18c1.33301 1.33301 2.66602 2 3.99902 2c3.33301 -0.666992 5.66602 -3.33398 6.99902 -8.00098z" />
    <glyph glyph-name="uFC62" unicode="&#x651;&#x650;" arabic-form="isolated" 
d="M210 1712c-19.333 0 -34.6689 7.66699 -46.002 23c-10 12.667 -15 25 -15 37c-2.66699 26 -4 51.667 -4 77c0.666992 8 1.33398 18.5 2.00098 31.5s1 23.833 1 32.5c0 6.66699 4 10 12 10c10.667 0 15.667 -4.33301 15 -13l-2 -46c-1.33301 -18 -2 -30.667 -2 -38
c0 -61.333 12.333 -92 37 -92c14.667 0 26 17 34 51c0.666992 4 2 20.667 4 50c0.666992 24 1 38 1 42v23v7v6c0 6.66699 3.66699 10 11 10c10.667 0 16 -4.33301 16 -13l-1 -43c0 8 0.666992 -11.667 2 -59c0 -18 3 -34.833 9 -50.5s13.667 -23.5 23 -23.5
c20.667 0 31 25.333 31 76c0 42 -5.33301 75 -16 99v5c0 7.33301 4.66699 11 14 11c4.66699 0 8.33398 -2.33301 11.001 -7c8.66699 -27.333 13 -60.333 13 -99c0 -71.333 -19 -107 -57 -107c-25.333 0 -40.333 20 -45 60c-6 -40 -22 -60 -48 -60zM350.997 1660l-193 -83
c-6 0 -9 7 -9 21c0 12 3.33301 19.333 10 22l194 83c5.33301 0 8 -6 8 -18c0 -12.667 -3.33301 -21 -10 -25z" />
    <glyph glyph-name="uFDF2" unicode="&#xfedf;&#xfee0;&#xfeea;" horiz-adv-x="1652" arabic-form="isolated" 
d="M612 334l0.000976562 71.998c0 34.667 -1.66699 57.334 -5 68.001c-3.33301 43.333 -15.333 78.333 -36 105s-51.334 40 -92.001 40c-97.333 0 -177.333 -46.667 -240 -140c-54 -81.333 -81 -172 -81 -272c0 -126.667 39 -190 117 -190c71.333 0 140 32 206 96
c61.333 59.333 100.333 125.333 117 198c2 10.667 6.66699 18.334 14 23.001zM1469 1146l22.002 -109c15.333 -78.667 29.333 -167.667 42 -267c14.667 -119.333 22 -229.333 22 -330c0 -208 -30 -351 -90 -429c-36 -46.667 -83.667 -70 -143 -70
c-80.667 0 -144 41.333 -190 124c-38.667 68 -58 145.667 -58 233c0 -82.667 -23.667 -160.334 -71 -233.001c-54 -82.667 -120 -124 -198 -124c-112 0 -174.667 72.667 -188 218c-38 -62.667 -86 -113.667 -144 -153c-64.667 -43.333 -130.667 -65 -198 -65
s-118 29.333 -152 88c-28 48 -42 108.333 -42 181c0 77.333 15 152.333 45 225c32.667 76 77.667 137.333 135 184c63.333 51.333 136 77 218 77c111.333 0 179 -58.333 203 -175l14 -334c5.33301 -113.333 41.666 -170 108.999 -170c115.333 0 187.666 122.333 216.999 367
c11.333 94.667 16 193.334 14 296.001l-2 123l-4 126c-0.666992 27.333 12 41 38 41c25.333 0 38 -13.667 38 -41v-79l-1 -76c-1.33301 -112 2.66699 -217.333 12 -316c26.667 -294 95 -441 205 -441c106 0 159 149.667 159 449c0 98 -6.66699 208.333 -20 331
c-16 150.667 -37.333 257 -64 319l-3 16c0 26 14 39 42 39c16 0 27 -8.33301 33 -25zM1018 1279c-22 -44 -45 -66.001 -69 -66.001c-36 0 -54 24 -54 72c0 43.333 8.66699 65 26 65c4 0 6.33301 -3.33301 7 -10l-1 -13l-2 -16c0 -14.667 7.33301 -22 22 -22
c23.333 0 40.666 25.667 51.999 77c1.33301 4 4.33301 12 9 24c5.33301 0 9.83301 -9.16699 13.5 -27.5s13.834 -27.5 30.501 -27.5c15.333 0 26.333 20.667 33 62c0 24 4.33301 36.333 13 37c14.667 0 22 -28.333 22 -85c0 -21.333 -5.66699 -41.666 -17 -60.999
c-13.333 -23.333 -30 -35 -50 -35c-13.333 0 -25 8.66699 -35 26z" />
    <glyph glyph-name="uFEF5" unicode="&#xfedf;&#xfe82;" horiz-adv-x="801" arabic-form="isolated" 
d="M168 1249c0 -170.667 31.998 -308.665 95.998 -413.998c19.333 -32 82 -102.333 188 -211c74 -76.667 118 -161 132 -253c10.667 43.333 19 91 25 143c5.33301 45.333 8.33301 93.666 9 144.999l4 183c0.666992 60.667 -6.66602 129.667 -21.999 207
c-13.333 65.333 -30.666 126.666 -51.999 183.999l-59 164l-1 8c0 24.667 14 37 42 37c8.66699 0 15.834 -1.83301 21.501 -5.5s9.5 -10.5 11.5 -20.5c2 -4.66699 5 -13 9 -25l26 -73c27.333 -81.333 49.333 -156.333 66 -225c24 -98.667 36 -182.334 36 -251.001
c0 -99.333 -2.66699 -183 -8 -251c-2.66699 -73.333 -13.667 -147.666 -33 -222.999c-26.667 -101.333 -56.334 -175.333 -89.001 -222c-40.667 -57.333 -104 -105 -190 -143c-92.667 -41.333 -176 -62 -250 -62c-24.667 0 -37 12.667 -37 38c0 11.333 3 20.5 9 27.5
s15.333 10.5 28 10.5c73.333 0 146 16.333 218 49s124.667 74 158 124l3 43l1 45c2.66699 106 -33.333 201 -108 285l-202 227c-72 114.667 -108 267.667 -108 459c0 11.333 3.66699 21 11 29c7.33301 5.33301 16.333 8.66602 27 9.99902c11.333 0 20.5 -3.16699 27.5 -9.5
s10.5 -16.166 10.5 -29.499zM26.998 1335c33.333 62.667 71.998 94.001 115.998 94.001c11.333 0 22 -1.66699 32 -5l29 -10c4.66699 -2 11.834 -4.83301 21.501 -8.5s16.834 -5.5 21.501 -5.5c16.667 0 35.334 18.667 56.001 56l12 10l14 4c19.333 0 29 -9.66699 29 -29
c0 -5.33301 -1.33301 -10.333 -4 -15c-32 -55.333 -67.333 -83 -106 -83c-20.667 0 -43 5.66699 -67 17c-14.667 5.33301 -27.334 8.66602 -38.001 9.99902c-12 0 -23 -5 -33 -15c-6 -6 -16.667 -21.667 -32 -47c-1.33301 -4.66699 -5.33301 -8.66699 -12 -12l-13 -4
c-20 0 -30 9.33301 -30 28c0 5.33301 1.33301 10.333 4 15z" />
    <glyph glyph-name="uFEF6" unicode="&#xfee0;&#xfe82;" horiz-adv-x="872" arabic-form="final" 
d="M913 -40c-82 0 -154.001 24.6689 -216.001 74.002c-59.333 48 -101.666 112 -126.999 192c-31.333 -71.333 -75 -128.333 -131 -171c-47.333 -36 -101.333 -61.667 -162 -77c-45.333 -12 -95.333 -18 -150 -18c-24.667 0 -37 12.667 -37 38c0 12 3 21.333 9 28
s15.333 10 28 10c153.333 0 260.333 45 321 135c4 39.333 6 73.333 6 102c0 107.333 -28.333 203.666 -85 288.999c-100 151.333 -152.333 232.333 -157 243c-56.667 121.333 -85 275.666 -85 462.999c0 10.667 3.66699 20.334 11 29.001
c7.33301 5.33301 16.666 8.66602 27.999 9.99902c11.333 0 20.666 -3 27.999 -9s11 -16 11 -30c0 -173.333 23.333 -314.333 70 -423c16 -36.667 64 -113.334 144 -230.001c56.667 -82.667 91.667 -170.334 105 -263.001c6 12.667 9.33301 33.667 10 63l3 121
c0.666992 17.333 -0.333008 53 -3 107c-2 90 -8 225.333 -18 406c-6.66699 78 -10 133.333 -10 166c0 68 -6 132.667 -18 194v10c0 29.333 15.333 44 46 44c6.66699 0 13.334 -2 20.001 -6c3.33301 -3.33301 5.33301 -10.666 6 -21.999l13 -184
c0.666992 -28 3 -73.667 7 -137c11.333 -123.333 17 -200.666 17 -231.999c0 -46 2.16699 -114.833 6.5 -206.5s6.5 -160.5 6.5 -206.5c0 -106 23.333 -200.333 70 -283c56.667 -100 134.334 -150 233.001 -150v-76zM23.999 1355c19.333 34.667 38.998 59.668 58.998 75.001
c17.333 12.667 36 19 56 19c10.667 0 24 -2.33301 40 -7l22 -9c5.33301 -2 12 -4.33301 20 -7c10.667 -4 18.334 -6 23.001 -6c16.667 0 35.334 18.333 56.001 55l11 10l15 5c19.333 0 29 -9.66699 29 -29c0 -6 -1.33301 -11.333 -4 -16c-32 -55.333 -67.333 -83 -106 -83
c-20.667 0 -43 5.66699 -67 17c-14.667 6 -27.667 9.66699 -39 11c-11.333 0 -22 -5.33301 -32 -16c-6 -6 -16.667 -21.667 -32 -47c-1.33301 -4 -5.33301 -7.66699 -12 -11l-13 -5c-20 0 -30 9.33301 -30 28c0 5.33301 1.33301 10.666 4 15.999z" />
    <glyph glyph-name="uFEF7" unicode="&#xfedf;&#xfe84;" horiz-adv-x="800" arabic-form="isolated" 
d="M167 1288c0 -170.667 31.998 -312.333 95.998 -425c20 -34.667 82.667 -111.667 188 -231c74 -83.333 118 -170.666 132 -261.999c10.667 42.667 19 90.334 25 143.001c5.33301 44.667 8.33301 92.667 9 144l4 184c0.666992 60.667 -6.66602 129.667 -21.999 207
c-13.333 64.667 -30.666 126 -51.999 184l-59 164l-1 8c0 24.667 14 37 42 37c8.66699 0 15.834 -1.83301 21.501 -5.5s9.5 -10.834 11.5 -21.501c2 -4.66699 5 -12.667 9 -24l26 -74c27.333 -81.333 49.333 -156 66 -224c24 -98.667 36 -182.334 36 -251.001
c0 -99.333 -2.66699 -183.333 -8 -252c-2.66699 -73.333 -13.667 -147.333 -33 -222c-26.667 -101.333 -56.334 -175.333 -89.001 -222c-40.667 -57.333 -104 -105.333 -190 -144c-92.667 -41.333 -176 -62 -250 -62c-24.667 0 -37 12.667 -37 38c0 12 3 21.5 9 28.5
s15.333 10.5 28 10.5c73.333 0 146 16.167 218 48.5s124.667 73.833 158 124.5l3 43l1 45c2.66699 108 -33.333 207.333 -108 298l-202 245c-72 120.667 -108 276.667 -108 468c0 22 12.667 34.667 38 38c25.333 0 38 -12.667 38 -38zM331.998 1511
c-17.333 -6 -32.001 -13.3369 -44.001 -22.0039c-22.667 -14.667 -34 -25.667 -34 -33c3.33301 -2 20 -6.66699 50 -14c37.333 -9.33301 56 -32.666 56 -69.999c0 -35.333 -21.333 -67 -64 -95c-2.66699 -2 -8 -3.66699 -16 -5c-11.333 0 -20 6.33301 -26 19
c-1.33301 2.66699 -2 6.33398 -2 11.001c0 9.33301 4.33301 17.333 13 24c4.66699 2.66699 12.334 8.66699 23.001 18c8.66699 10.667 13 19.334 13 26.001l-3 12c-34.667 5.33301 -60 13.333 -76 24c-18 11.333 -27 28 -27 50c0 42.667 38.667 79.334 116 110.001l12 2
c18.667 0 28 -10 28 -30c0 -13.333 -6.33301 -22.333 -19 -27z" />
    <glyph glyph-name="uFEF8" unicode="&#xfee0;&#xfe84;" horiz-adv-x="871" arabic-form="final" 
d="M912 -40c-82 0 -154.003 24.6621 -216.003 73.9951c-59.333 47.333 -101.666 111.333 -126.999 192c-31.333 -71.333 -75 -128.333 -131 -171c-47.333 -36 -101.333 -62 -162 -78c-45.333 -11.333 -95.333 -17 -150 -17c-24.667 0 -37 12.667 -37 38c0 12 3 21.333 9 28
s15.333 10 28 10c153.333 0 260.333 45 321 135c4 38.667 6 70.667 6 96c0 108.667 -31.667 210.334 -95 305.001l-175 261c-63.333 126 -95 284.333 -95 475c0 22.667 12.667 35.334 38 38.001c25.333 0 38 -12.667 38 -38c0 -172.667 27.333 -317 82 -433
c18.667 -41.333 72 -124.666 160 -249.999c64.667 -91.333 103.667 -182.333 117 -273c6 12.667 9.33301 33.667 10 63l3 121c0.666992 17.333 -0.333008 53 -3 107c-2 90 -8 225.333 -18 406c-6.66699 78 -10 133.333 -10 166c0 67.333 -6 132 -18 194v9
c0 30 15.333 45 46 45c6.66699 0 13.334 -2 20.001 -6c2.66699 -3.33301 4.66699 -10.666 6 -21.999l13 -184c0.666992 -28 3 -73.667 7 -137c11.333 -123.333 17 -200.666 17 -231.999c0 -46 2.16699 -114.833 6.5 -206.5s6.5 -160.5 6.5 -206.5
c0 -106 23.333 -200.333 70 -283c56.667 -100 134.334 -150 233.001 -150v-76zM328.997 1532c-17.333 -6.66699 -32.001 -14 -44.001 -22c-22.667 -14.667 -34 -25.667 -34 -33c3.33301 -2 20 -6.66699 50 -14c37.333 -9.33301 56 -32.666 56 -69.999
c0 -35.333 -21.333 -67 -64 -95c-3.33301 -2 -9 -3.66699 -17 -5c-10.667 0 -19 6 -25 18c-1.33301 2.66699 -2 6.66699 -2 12c0 9.33301 4.33301 17 13 23c4.66699 3.33301 12.334 9.66602 23.001 18.999c8.66699 10 13 18.667 13 26l-3 12
c-34.667 5.33301 -60 13.333 -76 24c-18 11.333 -27 28 -27 50c0 42.667 38.333 79 115 109l13 2c18.667 0 28 -9.66699 28 -29c0 -13.333 -6.33301 -22.333 -19 -27z" />
    <glyph glyph-name="uFEF9" unicode="&#xfedf;&#xfe88;" horiz-adv-x="800" arabic-form="isolated" 
d="M167 1295c0 -170.667 31.998 -312.334 95.998 -425.001c20 -34.667 82.667 -111.667 188 -231c74 -83.333 118 -170.666 132 -261.999c10.667 42.667 19 90.334 25 143.001c5.33301 44.667 8.33301 92.667 9 144l4 184c0.666992 60.667 -6.66602 129.667 -21.999 207
c-13.333 64.667 -30.666 126 -51.999 184l-59 164l-1 8c0 24.667 14 37 42 37c8.66699 0 15.834 -1.83301 21.501 -5.5s9.5 -10.834 11.5 -21.501c2 -4.66699 5 -12.667 9 -24l26 -74c27.333 -81.333 49.333 -156 66 -224c24 -98.667 36 -182.334 36 -251.001
c0 -99.333 -2.66699 -183.333 -8 -252c-2.66699 -73.333 -13.667 -147.333 -33 -222c-26.667 -101.333 -56.334 -175.333 -89.001 -222c-40.667 -57.333 -104 -105.333 -190 -144c-92.667 -41.333 -176 -62 -250 -62c-24.667 0 -37 12.667 -37 38c0 12 3 21.333 9 28
s15.333 10 28 10c73.333 0 146 16.333 218 49s124.667 74.334 158 125.001l3 43l1 45c2.66699 108 -33.333 207.333 -108 298l-202 245c-72 120.667 -108 276.667 -108 468c0 22 12.667 34.667 38 38c25.333 0 38 -12.667 38 -38zM457.998 -178
c-10 -5.33301 -17.668 -9.66699 -23.001 -13c-22.667 -13.333 -34 -24 -34 -32c5.33301 -2.66699 22.333 -7.33398 51 -14.001c23.333 -5.33301 38.333 -16 45 -32l8 -20l2 -20c0 -33.333 -21.333 -64.333 -64 -93c-2.66699 -2 -7.66699 -3.66699 -15 -5
c-6.66699 0 -14 3 -22 9c-4 5.33301 -6.66699 12.666 -8 21.999c0 8.66699 5 16.334 15 23.001l22 19c9.33301 8 14 17 14 27l-4 11l-31 7c-8.66699 1.33301 -17.667 4.33301 -27 9c-30 8.66699 -45 27.667 -45 57c0 22.667 14.333 45.334 43 68.001
c17.333 14 42 28.333 74 43c2.66699 0.666992 6.33398 1.33398 11.001 2.00098c18.667 0 28 -10 28 -30c0 -10.667 -13.333 -23.334 -40 -38.001z" />
    <glyph glyph-name="uFEFA" unicode="&#xfee0;&#xfe88;" horiz-adv-x="871" arabic-form="final" 
d="M912 -40c-82 0 -154.003 24.6621 -216.003 73.9951c-59.333 47.333 -101.666 111.333 -126.999 192c-31.333 -71.333 -75 -128.333 -131 -171c-47.333 -36 -101.333 -62 -162 -78c-45.333 -11.333 -95.333 -17 -150 -17c-24.667 0 -37 12.667 -37 38c0 12 3 21.333 9 28
s15.333 10 28 10c153.333 0 260.333 45 321 135c4 38.667 6 70.667 6 96c0 108.667 -31.667 210.334 -95 305.001l-175 261c-63.333 126 -95 284.333 -95 475c0 22.667 12.667 35.334 38 38.001c25.333 0 38 -12.667 38 -38c0 -172.667 27.333 -317 82 -433
c18.667 -41.333 72 -124.666 160 -249.999c64.667 -91.333 103.667 -182.333 117 -273c6 12.667 9.33301 33.667 10 63l3 121c0.666992 17.333 -0.333008 53 -3 107c-2 90 -8 225.333 -18 406c-6.66699 78 -10 133 -10 165c0 68 -6 133 -18 195v9c0 30 15.333 45 46 45
c6.66699 0 13.334 -2 20.001 -6c2.66699 -3.33301 4.66699 -10.666 6 -21.999l13 -184c0.666992 -28 3 -73.667 7 -137c11.333 -123.333 17 -200.666 17 -231.999c0 -46 2.16699 -114.833 6.5 -206.5s6.5 -160.5 6.5 -206.5c0 -106 23.333 -200.333 70 -283
c56.667 -100 134.334 -150 233.001 -150v-76zM454.997 -164.005c-10 -5.33301 -17.668 -9.66699 -23.001 -13c-22.667 -13.333 -34 -24 -34 -32c5.33301 -3.33301 22 -8 50 -14c24 -5.33301 39.333 -16 46 -32l8 -20l2 -20c0 -33.333 -21.333 -64.333 -64 -93
c-2.66699 -2 -7.66699 -3.66699 -15 -5c-6.66699 0 -14 3 -22 9c-4 5.33301 -6.66699 12.666 -8 21.999c0 8.66699 4.66699 16 14 22l23 20c8.66699 7.33301 13 16.333 13 27l-3 11l-32 7c-8 1.33301 -16.667 4 -26 8c-30 9.33301 -45 28.666 -45 57.999
c0 22.667 14.333 45.334 43 68.001c16.667 14 41.334 28 74.001 42c2 0.666992 5.66699 1.33398 11 2.00098c18.667 0 28 -10 28 -30c0 -10 -13.333 -22.333 -40 -37z" />
    <glyph glyph-name="uFEFB" unicode="&#xfedf;&#xfe8e;" horiz-adv-x="800" arabic-form="isolated" 
d="M167 1289c0 -170 31.998 -311.334 95.998 -424.001c20 -34.667 82.667 -111.667 188 -231c74 -83.333 118 -170.666 132 -261.999c10.667 42.667 19 90.334 25 143.001c5.33301 44.667 8.33301 92.667 9 144l4 183c0.666992 61.333 -6.66602 130.333 -21.999 207
c-13.333 65.333 -30.666 127 -51.999 185l-59 164l-1 8c0 24.667 14 37 42 37c8.66699 0 15.834 -1.83301 21.501 -5.5s9.5 -10.834 11.5 -21.501c2 -4.66699 5 -13 9 -25l26 -73c27.333 -81.333 49.333 -156 66 -224c24 -98.667 36 -182.667 36 -252
c0 -98.667 -2.66699 -182.334 -8 -251.001c-2.66699 -73.333 -13.667 -147.333 -33 -222c-26.667 -101.333 -56.334 -175.666 -89.001 -222.999c-40.667 -56.667 -104 -104.334 -190 -143.001c-92.667 -41.333 -176 -62 -250 -62c-24.667 0 -37 12.667 -37 38
c0 12 3 21.333 9 28s15.333 10 28 10c73.333 0 146 16.333 218 49s124.667 74 158 124l3 44l1 45c2.66699 108 -33.333 207.333 -108 298l-202 245c-72 120.667 -108 276.334 -108 467.001c0 22.667 12.667 35.667 38 39c25.333 0 38 -13 38 -39z" />
    <glyph glyph-name="uFEFC" unicode="&#xfee0;&#xfe8e;" horiz-adv-x="871" arabic-form="final" 
d="M912 -40c-82 0 -154.003 24.6621 -216.003 73.9951c-59.333 47.333 -101.666 111.333 -126.999 192c-31.333 -71.333 -75 -128.333 -131 -171c-47.333 -36 -101.333 -61.667 -162 -77c-45.333 -12 -95.333 -18 -150 -18c-24.667 0 -37 12.667 -37 38c0 12 3 21.333 9 28
s15.333 10 28 10c153.333 0 260.333 45 321 135c4 38.667 6 70.667 6 96c0 108.667 -31.667 210.334 -95 305.001l-175 261c-63.333 126 -95 284.333 -95 475c0 22.667 12.667 35.334 38 38.001c25.333 0 38 -12.667 38 -38c0 -172.667 27.333 -317 82 -433
c18.667 -41.333 72 -124.666 160 -249.999c64.667 -91.333 103.667 -182.333 117 -273c6 12.667 9.33301 33.667 10 63l3 121c0.666992 17.333 -0.333008 53 -3 107c-2 90 -8 225.333 -18 406c-6.66699 78 -10 133.333 -10 166c0 68 -6 132.667 -18 194v9
c0 30 15.333 45 46 45c6.66699 0 13.334 -2 20.001 -6c2.66699 -3.33301 4.66699 -10.666 6 -21.999l13 -184c0.666992 -28 3 -73.667 7 -137c11.333 -123.333 17 -200.666 17 -231.999c0 -46 2.16699 -114.833 6.5 -206.5s6.5 -160.5 6.5 -206.5
c0 -106 23.333 -200.333 70 -283c56.667 -100 134.334 -150 233.001 -150v-76z" />
    <glyph glyph-name="u0652_u064E.liga" unicode="&#x652;&#x64e;" horiz-adv-x="1" 
d="M98 1387l1 -208.999c-1.33301 -2.66699 -4.33301 -4 -9 -4c-3.33301 0 -8 1 -14 3c-10 4 -15 10 -15 18l-2 211c2.66699 5.33301 9.66699 5.66602 21 0.999023c12 -5.33301 18 -12 18 -20z" />
    <glyph glyph-name="u0652_u064B.liga" unicode="&#x652;&#x64b;" horiz-adv-x="1" 
d="M537 901c0 -20.667 -6.66699 -38.333 -20 -53s-31 -22 -53 -22c-31.333 0 -54 15.333 -68 46c-4 9.33301 -6 19 -6 29c0 20.667 7.33301 38.167 22 52.5s32 21.5 52 21.5c20.667 0 38 -7.33301 52 -22s21 -32 21 -52zM390 901.001
c0 -21.333 -7.16797 -39.166 -21.501 -53.499s-31.833 -21.5 -52.5 -21.5c-20 0 -37.5 7.66699 -52.5 23s-22.5 32.666 -22.5 51.999c0 20.667 7.33301 38.167 22 52.5s32.334 21.5 53.001 21.5s38.167 -7.16699 52.5 -21.5s21.5 -31.833 21.5 -52.5z" />
    <glyph glyph-name="u0652_u064D.liga" unicode="&#x652;&#x64d;" horiz-adv-x="1" 
d="M585 -533c0 -20.667 -6.66699 -38.333 -20 -53s-31 -22 -53 -22c-31.333 0 -54 15.333 -68 46c-4 9.33301 -6 19 -6 29c0 20.667 7.33301 38.167 22 52.5s32 21.5 52 21.5c20.667 0 38 -7.33301 52 -22s21 -32 21 -52zM438 -532.999
c0 -21.333 -7.16797 -39.166 -21.501 -53.499s-31.833 -21.5 -52.5 -21.5c-20 0 -37.5 7.66699 -52.5 23s-22.5 32.666 -22.5 51.999c0 20.667 7.33301 38.167 22 52.5s32.334 21.5 53.001 21.5s38.167 -7.16699 52.5 -21.5s21.5 -31.833 21.5 -52.5z" />
    <glyph glyph-name="u0622" unicode="&#x622;" horiz-adv-x="519" arabic-form="isolated" 
d="M228 1256l114 -640.001c34 -197.333 57.333 -369.666 70 -516.999c4 -49.333 6 -89.333 6 -120c0 -24.667 -12.667 -37 -38 -37s-38 12.333 -38 37c0 100.667 -12.667 230 -38 388l-38 237l-115 649c0 17.333 8 28 24 32c5.33301 1.33301 10 2.33301 14 3
c22 0 35 -10.667 39 -32zM74 1290c35.333 61.333 74.001 91.999 116.001 91.999c15.333 0 28.666 -2 39.999 -6l21 -8c22 -8 36 -12 42 -12c14 0 28.667 11 44 33c3.33301 4.66699 7.66602 11.667 12.999 21l11 10l15 5c19.333 0 29 -9.66699 29 -29
c0 -5.33301 -1.33301 -10.666 -4 -15.999c-30.667 -55.333 -66.667 -83 -108 -83c-17.333 0 -39 5 -65 15c-14 5.33301 -27 9 -39 11c-19.333 0 -40.666 -21 -63.999 -63c-6 -10 -14 -15 -24 -15c-20.667 0 -31 10 -31 30c0 4.66699 1.33301 9.66699 4 15z" />
    <glyph glyph-name="u0623" unicode="&#x623;" horiz-adv-x="519" arabic-form="isolated" 
d="M228 1511c-17.333 -6.66699 -32 -14 -44 -22c-21.333 -14 -32.333 -25 -33 -33c4 -2 21 -6.66699 51 -14c37.333 -8.66699 56 -32 56 -70c0 -34 -21.667 -65.667 -65 -95c-4 -2 -10 -3.66699 -18 -5c-6.66699 0 -12.5 3 -17.5 9s-8.16699 13 -9.5 21
c0 7.33301 4.66699 15.333 14 24c8 6.66699 15.833 13.667 23.5 21s12.167 16 13.5 26l-2 9c-35.333 5.33301 -61 13.333 -77 24c-18 11.333 -27 28 -27 50c0 43.333 38 80 114 110l13 2c17.333 0 26 -10 26 -30c0 -13.333 -6 -22.333 -18 -27zM247 1135
c0 -118.667 10.332 -248 30.999 -388c16.667 -114 41.334 -241 74.001 -381l90 -390c0 -22 -13.333 -34.667 -40 -38c-20 0 -32.333 10.333 -37 31l-89 385c-31.333 137.333 -56 266.666 -74 387.999c-20.667 139.333 -31 270.333 -31 393c0 23.333 12.667 36.333 38 39
c11.333 0 20.5 -3.16699 27.5 -9.5s10.5 -16.166 10.5 -29.499z" />
    <glyph glyph-name="u0624" unicode="&#x624;" horiz-adv-x="788" arabic-form="isolated" 
d="M625 38c-46.667 -40.667 -97.999 -67.001 -153.999 -79.001c-18 -4 -35.667 -6 -53 -6c-92.667 0 -171.334 39.667 -236.001 119c-60.667 74.667 -91 159 -91 253c0 92 23 175.333 69 250c52.667 87.333 122 131 208 131c94.667 0 173 -46.667 235 -140
c54.667 -82.667 82 -173.667 82 -273c0 -80.667 -18.667 -167.5 -56 -260.5s-88.333 -177.833 -153 -254.5c-70 -81.333 -148 -142.333 -234 -183l-18 -4c-26 0 -39 14 -39 42c0 14.667 7.66699 26 23 34c109.333 48 203.666 134.667 282.999 260
c78 123.333 117 245.333 117 366c0 76.667 -20.333 149.334 -61 218.001c-47.333 78.667 -107 118 -179 118c-47.333 0 -90.666 -25.333 -129.999 -76c-46.667 -59.333 -70 -135.333 -70 -228c0 -72 23 -138.667 69 -200c50.667 -65.333 111 -98 181 -98
c52.667 0 104 22.667 154 68c8 4.66699 14 7 18 7c10 0 19 -10.333 27 -31zM403.001 1044c-9.33301 -2.66699 -24.333 -10.3311 -45 -22.998c-22.667 -14 -34 -24.333 -34 -31c6.66699 -4.66699 26.667 -10.334 60 -17.001c15.333 -3.33301 27.666 -13.333 36.999 -30l8 -19
l2 -20c0 -34 -21 -65 -63 -93c-4.66699 -4 -10.334 -6 -17.001 -6c-7.33301 0 -14.666 3 -21.999 9c-4 5.33301 -6.66699 12.666 -8 21.999c0 9.33301 3.66699 16.666 11 21.999c6 2.66699 12.667 7.33398 20 14.001c14 13.333 21.333 24.333 22 33l-4 11
c-69.333 8 -104 32.667 -104 74c0 42.667 38.333 79 115 109c2.66699 1.33301 6.33398 2 11.001 2c20 0 30 -10.333 30 -31c0 -11.333 -6.33301 -20 -19 -26z" />
    <glyph glyph-name="u0625" unicode="&#x625;" horiz-adv-x="476" arabic-form="isolated" 
d="M184 1263l115 -640.001c34 -197.333 57.333 -369.666 70 -516.999c4 -49.333 6 -89 6 -119c0 -24.667 -12.667 -37 -38 -37s-38 12.333 -38 37c0 100 -12.667 229 -38 387l-39 237l-114 649c0 17.333 8 28 24 32c5.33301 1.33301 10 2.33301 14 3
c22 0 34.667 -10.667 38 -32zM298 -176.001c-2 -0.666992 -8.66699 -4.66406 -20 -11.9971c-22.667 -14.667 -34 -25.334 -34 -32.001c4 -3.33301 20.667 -8.33301 50 -15c24 -5.33301 39 -16 45 -32l7 -18l3 -21c0 -32.667 -21 -64 -63 -94c-4 -2 -9.66699 -3.66699 -17 -5
c-20 0 -30 10.333 -30 31c0 5.33301 10.667 18 32 38c6 5.33301 12.667 15.666 20 30.999l-3 11l-32 7l-27 9c-30 9.33301 -45 28.666 -45 57.999c0 22 14.333 44.667 43 68c15.333 12.667 39.333 26.667 72 42l12 2c7.33301 0 13.833 -2.83301 19.5 -8.5
s8.5 -13.167 8.5 -22.5c0 -5.33301 -1 -10 -3 -14s-14.667 -11.667 -38 -23z" />
    <glyph glyph-name="u0626" unicode="&#x626;" horiz-adv-x="1085" arabic-form="isolated" 
d="M908 489c0 99.333 -31.998 149.001 -95.998 149.001c-58.667 0 -119.667 -38 -183 -114c-67.333 -81.333 -101 -165.666 -101 -252.999c0 -42 34.667 -78.667 104 -110l194 -87c70 -41.333 105 -90.333 105 -147c0 -96 -67.333 -177.333 -202 -244
c-112.667 -54.667 -222.667 -82 -330 -82c-205.333 0 -308 89.333 -308 268c0 110 35.333 217.333 106 322c8 12 18.333 18 31 18c26 0 39 -13 39 -39c0 -8.66699 -2.33301 -16.334 -7 -23.001c-62.667 -90 -94 -178.667 -94 -266c0 -134.667 77.667 -202 233 -202
c79.333 0 156.666 14.667 231.999 44c49.333 20 95.666 46.333 138.999 79c56.667 44 85 85.667 85 125c0 34.667 -34.667 68 -104 100l-193 89c-70 41.333 -105 93 -105 155c0 117.333 41.667 221.666 125 312.999c78 85.333 159 128 243 128
c108.667 0 163 -74.333 163 -223c0 -26 -12.667 -39 -38 -39s-38 13 -38 39zM278.002 436.001c-10.667 -8 -16.665 -15.668 -17.998 -23.001c6.66699 -4.66699 23.667 -10 51 -16c36.667 -8 55 -31.333 55 -70c0 -19.333 -6.33301 -36.666 -19 -51.999
c-10 -15.333 -25 -29.333 -45 -42c-2.66699 -2 -7.66699 -3.66699 -15 -5c-16.667 0 -26.334 10.333 -29.001 31c0 8.66699 4.33301 16.667 13 24c24.667 14.667 37 30 37 46l-2 10c-22.667 4 -42.334 9 -59.001 15c-29.333 10 -44 29.667 -44 59c0 40 38.333 76 115 108
l12 2c14.667 0 23.667 -9.66699 27 -29c0 -11.333 -6.5 -20 -19.5 -26s-32.833 -16.667 -59.5 -32z" />
    <glyph glyph-name="u0627" unicode="&#x627;" horiz-adv-x="476" arabic-form="isolated" 
d="M184 1258l115 -640c34 -197.333 57.333 -369.666 70 -516.999c4 -49.333 6 -89.333 6 -120c0 -24.667 -12.667 -37 -38 -37s-38 12.333 -38 37c0 100.667 -12.667 230 -38 388l-39 237l-114 649c0 17.333 8 27.666 24 30.999c5.33301 2 10 3.33301 14 4
c22 0 34.667 -10.667 38 -32z" />
    <glyph glyph-name="u0628" unicode="&#x628;" horiz-adv-x="1007" arabic-form="isolated" 
d="M864 680c10 -51.333 14.9971 -103.998 14.9971 -157.998c0 -160.667 -43.667 -293.667 -131 -399c-91.333 -111.333 -214.666 -167 -369.999 -167c-217.333 0 -326 90.333 -326 271c0 121.333 48.333 239.666 145 354.999c6.66699 8 16.334 12.667 29.001 14
c26 0 39.333 -13 40 -39c0.666992 -8.66699 -2.66602 -17.334 -9.99902 -26.001c-84.667 -100 -127 -200.667 -127 -302c0 -58.667 18.667 -105 56 -139c41.333 -38.667 105.666 -58 192.999 -58c132.667 0 238 48.667 316 146c72 90 108 203 108 339c0 46 -5 95 -15 147
c-5.33301 31.333 8.33398 47 41.001 47c8.66699 0 16.167 -2.5 22.5 -7.5s10.833 -12.833 13.5 -23.5zM352.997 -220.998c0 20 7.16699 37.334 21.5 52.001s31.833 22 52.5 22c20 0 37.333 -7.33301 52 -22s22 -32 22 -52c0 -20.667 -7.33301 -38.334 -22 -53.001
s-32 -22 -52 -22c-49.333 0 -74 25 -74 75z" />
    <glyph glyph-name="u0629" unicode="&#x629;" horiz-adv-x="785" arabic-form="isolated" 
d="M443 -54c-108.667 0 -195 44.665 -259 133.998c-56.667 78.667 -85 174.334 -85 287.001c0 94 19.667 171.333 59 232c44 68 102.667 102 176 102c95.333 0 179.333 -53.333 252 -160c68.667 -101.333 103 -209.666 103 -324.999c0 -180 -82 -270 -246 -270zM334 623.998
c-55.333 0 -97 -29.001 -125 -87.001c-22 -45.333 -33 -98.666 -33 -159.999c0 -91.333 22 -171 66 -239c49.333 -77.333 116.333 -116 201 -116c113.333 0 170 64.333 170 193c0 92 -28 182 -84 270c-59.333 92.667 -124.333 139 -195 139zM232 1044
c-52 -22 -77.9971 -40.001 -77.9971 -54.001c8 -5.33301 25 -11 51 -17c21.333 -4.66699 36.666 -15.667 45.999 -33c6 -12 9 -24.333 9 -37c0 -34.667 -21.333 -66 -64 -94c-2.66699 -2 -8 -3.66699 -16 -5c-16.667 0 -26.334 10.333 -29.001 31
c0 9.33301 4.33301 17.333 13 24l24 17c8.66699 10.667 13 20 13 28l-3 11l-59 15c-29.333 10.667 -44 30.667 -44 60c0 38.667 38.667 74.334 116 107.001l12 2c15.333 0 24.666 -9.66699 27.999 -29c0 -12 -6.33301 -20.667 -19 -26z" />
    <glyph glyph-name="u062A" unicode="&#x62a;" horiz-adv-x="1007" arabic-form="isolated" 
d="M864 672c10 -51.333 14.9971 -103.666 14.9971 -156.999c0 -160.667 -43.667 -294 -131 -400c-91.333 -111.333 -214.666 -167 -369.999 -167c-217.333 0 -326 90.333 -326 271c0 121.333 48.333 240 145 356c6.66699 8 16.334 12.667 29.001 14c26 0 39.333 -13 40 -39
c0.666992 -8.66699 -2.66602 -17.334 -9.99902 -26.001c-84.667 -100.667 -127 -201.667 -127 -303c0 -58 18.667 -104.333 56 -139c41.333 -38 105.666 -57 192.999 -57c132.667 0 238 48.667 316 146c72 90 108 203 108 339c0 45.333 -5 94.333 -15 147
c-5.33301 30.667 8.33398 46 41.001 46c8.66699 0 16.167 -2.33301 22.5 -7s10.833 -12.667 13.5 -24zM685.997 880c0 -20 -7.16699 -37.168 -21.5 -51.501s-31.833 -21.5 -52.5 -21.5c-21.333 0 -38.833 7 -52.5 21s-20.5 31.333 -20.5 52c0 50 24.333 75 73 75
c20 0 37.333 -7.16699 52 -21.5s22 -32.166 22 -53.499zM538.997 879.999c0 -20 -7.16699 -37.168 -21.5 -51.501s-31.833 -21.5 -52.5 -21.5c-49.333 0 -74 24.333 -74 73c0 20.667 7.16699 38.334 21.5 53.001s31.833 22 52.5 22s37.667 -7 51 -21
c15.333 -16 23 -34 23 -54z" />
    <glyph glyph-name="u062B" unicode="&#x62b;" horiz-adv-x="1007" arabic-form="isolated" 
d="M864 670c10 -51.333 14.9971 -103.665 14.9971 -156.998c0 -160.667 -43.667 -294 -131 -400c-91.333 -111.333 -214.666 -167 -369.999 -167c-217.333 0 -326 90.333 -326 271c0 121.333 48.333 239.666 145 354.999c6.66699 8.66699 16.334 13.667 29.001 15
c26 0 39.333 -13 40 -39c0.666992 -8.66699 -2.66602 -17.334 -9.99902 -26.001c-84.667 -100.667 -127 -201.667 -127 -303c0 -58.667 18.667 -105 56 -139c41.333 -38.667 105.666 -58 192.999 -58c132.667 0 238 49 316 147c72 90 108 202.667 108 338
c0 46 -5 95.333 -15 148c-5.33301 30.667 8.33398 46 41.001 46c8.66699 0 16.167 -2.33301 22.5 -7s10.833 -12.667 13.5 -24zM645.997 878.001c0 -20 -7.16797 -37.167 -21.501 -51.5s-31.833 -21.5 -52.5 -21.5c-50 0 -75 24.333 -75 73c0 20.667 7.33301 38.167 22 52.5
s32.334 21.5 53.001 21.5s38.167 -7.16699 52.5 -21.5s21.5 -31.833 21.5 -52.5zM496.996 878.001c0 -20 -7.33301 -37.167 -22 -51.5s-32 -21.5 -52 -21.5c-49.333 0 -74 24.333 -74 73c0 20 7.33301 37.333 22 52s32 22 52 22s37.333 -7.33301 52 -22s22 -32 22 -52z
M498.996 957.001c-22 0 -39.833 7.16699 -53.5 21.5s-20.5 31.833 -20.5 52.5c0 20 7.16699 37.167 21.5 51.5s31.833 21.5 52.5 21.5c19.333 0 36.333 -7.16699 51 -21.5s22 -31.5 22 -51.5s-7.16699 -37.333 -21.5 -52s-31.5 -22 -51.5 -22z" />
    <glyph glyph-name="u062C" unicode="&#x62c;" horiz-adv-x="980" arabic-form="isolated" 
d="M150 676c171.333 -222.667 359.333 -333.998 564 -333.998c50 0 97.667 6.66699 143 20l19 -74c-313.333 -60.667 -526.666 -163.667 -639.999 -309c-44.667 -56.667 -67 -115.334 -67 -176.001c0 -66.667 27.333 -120.334 82 -161.001
c49.333 -37.333 108.666 -56 177.999 -56c120.667 0 239.334 50.333 356.001 151c6.66699 6 15.334 9.66699 26.001 11c22.667 0 35.667 -13 39 -39c0 -12.667 -5 -22.667 -15 -30c-73.333 -60 -143 -103.167 -209 -129.5s-130.667 -39.5 -194 -39.5
c-92.667 0 -171.334 26 -236.001 78c-69.333 56 -104 129 -104 219c0 111.333 54 212.666 162 303.999c82 68.667 186.667 126.334 314 173.001c-174.667 42 -334.334 157 -479.001 345c-6 7.33301 -9 15.333 -9 24c0 25.333 13.333 38 40 38c12.667 0 22.667 -5 30 -15z
M532 -149.998c-49.333 0 -73.999 24.333 -73.999 73c0 20.667 7.16699 38.167 21.5 52.5s31.833 21.5 52.5 21.5c20 0 37.333 -7.33301 52 -22s22 -32 22 -52c0 -22 -7 -39 -21 -51c-16.667 -14.667 -34.334 -22 -53.001 -22z" />
    <glyph glyph-name="u062D" unicode="&#x62d;" horiz-adv-x="980" arabic-form="isolated" 
d="M150 676c171.333 -222.667 359.333 -333.998 564 -333.998c50 0 97.667 6.66699 143 20l19 -74c-313.333 -60.667 -526.666 -163.667 -639.999 -309c-44.667 -56.667 -67 -115.334 -67 -176.001c0 -66.667 27.333 -120.334 82 -161.001
c49.333 -37.333 108.666 -56 177.999 -56c120.667 0 239.334 50.333 356.001 151c6.66699 6 15.334 9.66699 26.001 11c22.667 0 35.667 -13 39 -39c0 -12.667 -5 -22.667 -15 -30c-73.333 -60 -143 -103.167 -209 -129.5s-130.667 -39.5 -194 -39.5
c-92.667 0 -171.334 26 -236.001 78c-69.333 56 -104 129 -104 219c0 111.333 54 212.666 162 303.999c82 68.667 186.667 126.334 314 173.001c-174.667 42 -334.334 157 -479.001 345c-6 7.33301 -9 15.333 -9 24c0 25.333 13.333 38 40 38c12.667 0 22.667 -5 30 -15z
" />
    <glyph glyph-name="u062E" unicode="&#x62e;" horiz-adv-x="980" arabic-form="isolated" 
d="M150 674c171.333 -222.667 359.334 -334.002 564.001 -334.002c50 0 97.667 6.66699 143 20l19 -73c-314 -62.667 -527.333 -165.667 -640 -309c-44.667 -57.333 -67 -116.333 -67 -177c0 -67.333 27 -121 81 -161c48.667 -36.667 108 -55 178 -55
c56 0 112.333 11.333 169 34c62 24.667 124.667 63.334 188 116.001c6.66699 6 15.334 9.66699 26.001 11c22.667 0 35.667 -13 39 -39c0 -12.667 -5 -22.667 -15 -30c-73.333 -60 -143 -103.167 -209 -129.5s-130.667 -39.5 -194 -39.5c-92.667 0 -171.334 26 -236.001 78
c-69.333 56 -104 129.333 -104 220c0 110.667 54 211.667 162 303c82 68.667 186.667 126.334 314 173.001c-174.667 42 -334.334 157 -479.001 345c-6 7.33301 -9 15.333 -9 24c0 25.333 13.333 38 40 38c12.667 0 22.667 -5 30 -15zM483.001 673.998
c-20.667 0 -38 7.5 -52 22.5s-21 32.167 -21 51.5c0 18.667 7.16699 35.667 21.5 51s31.5 23 51.5 23c20.667 0 38.5 -7.16699 53.5 -21.5s22.5 -31.833 22.5 -52.5s-7.5 -38.167 -22.5 -52.5s-32.833 -21.5 -53.5 -21.5z" />
    <glyph glyph-name="u062F" unicode="&#x62f;" horiz-adv-x="637" arabic-form="isolated" 
d="M307 699c65.333 -55.333 119.333 -130.5 162 -225.5s64 -185.833 64 -272.5c0 -168 -72.333 -252 -217 -252c-34 0 -70.333 4.66699 -109 14c-46 12 -88.333 26.667 -127 44c-16 6.66699 -24 18.334 -24 35.001c0 27.333 12.333 41 37 41c5.33301 0 11 -1.33301 17 -4
c48 -22 99.667 -37.667 155 -47c14.667 -2.66699 29.667 -4 45 -4c100 0 150 56 150 168c0 75.333 -20.667 156.333 -62 243c-43.333 91.333 -90.333 158.333 -141 201c-8.66699 7.33301 -13 16.666 -13 27.999c0 27.333 13 41 39 41c10 0 18 -3.33301 24 -10z" />
    <glyph glyph-name="u0630" unicode="&#x630;" horiz-adv-x="637" arabic-form="isolated" 
d="M307 695c65.333 -54.667 119.333 -129.5 162 -224.5s64 -185.833 64 -272.5c0 -168.667 -72.333 -253 -217 -253c-34 0 -70.333 5 -109 15c-46 11.333 -88.333 25.666 -127 42.999c-16 7.33301 -24 19 -24 35c0 27.333 12.333 41 37 41c5.33301 0 11 -1.33301 17 -4
c48 -22 99.667 -37.667 155 -47c14.667 -2 29.667 -3 45 -3c100 0 150 56 150 168c0 74.667 -20.667 155.667 -62 243c-43.333 90.667 -90.333 157.334 -141 200.001c-8.66699 8 -13 17.333 -13 28c0 27.333 13 41 39 41c10 0 18 -3.33301 24 -10zM263 803
c-20 0 -37.167 7.16699 -51.5 21.5s-21.5 31.5 -21.5 51.5c0 20.667 6.83301 38.334 20.5 53.001s31.167 22 52.5 22c20 0 37.333 -7.33301 52 -22s22 -32.334 22 -53.001c0 -48.667 -24.667 -73 -74 -73z" />
    <glyph glyph-name="u0631" unicode="&#x631;" horiz-adv-x="431" arabic-form="isolated" 
d="M159 690c10 -22 25.999 -59.333 47.999 -112l38 -89c58.667 -154 88 -280.667 88 -380c0 -210 -116.333 -378 -349 -504c-5.33301 -2.66699 -12 -4 -20 -4c-10 0 -19.333 4 -28 12c-5.33301 6.66699 -8.66602 16 -9.99902 28c0 13.333 7.33301 24 22 32
c206 110.667 309 258.334 309 443.001c0 74 -17 161.333 -51 262c-12.667 39.333 -24.667 71.333 -36 96l-84 193v8c0 25.333 13 38 39 38c8 0 14 -2 18 -6c6.66699 -2.66699 12 -8.33398 16 -17.001z" />
    <glyph glyph-name="u0632" unicode="&#x632;" horiz-adv-x="431" arabic-form="isolated" 
d="M159 686l47.999 -110.999l38 -90c58.667 -153.333 88 -280 88 -380c0 -209.333 -116.333 -377.333 -349 -504c-5.33301 -2.66699 -12 -4 -20 -4c-10 0 -19.333 4.33301 -28 13c-5.33301 6.66699 -8.66602 15.667 -9.99902 27c0 14 7.33301 24.667 22 32
c206 111.333 309 259 309 443c0 74 -17 161.667 -51 263c-12.667 38.667 -24.667 70.667 -36 96l-84 192v9c0 25.333 13 38 39 38c8 0 14 -2.33301 18 -7c6.66699 -2.66699 12 -8.33398 16 -17.001zM114.999 808.001c-20.667 0 -38.332 7.16699 -52.999 21.5
s-22 31.833 -22 52.5s7.16699 38.167 21.5 52.5s32.166 21.5 53.499 21.5c18.667 0 35.5 -7.66699 50.5 -23s22.5 -32.333 22.5 -51c0 -20 -7.16699 -37.333 -21.5 -52s-31.5 -22 -51.5 -22z" />
    <glyph glyph-name="u0633" unicode="&#x633;" horiz-adv-x="1632" arabic-form="isolated" 
d="M524 -399c-110 0 -200.331 31.667 -270.998 95c-117.333 104.667 -176 278 -176 520c0 163.333 22.667 291.666 68 384.999c6 13.333 17.333 21 34 23c9.33301 0 18.666 -4 27.999 -12c7.33301 -8.66699 11 -18 11 -28c0 -5.33301 -1.33301 -11 -4 -17
c-20 -42 -35.5 -91.5 -46.5 -148.5s-16.5 -119.833 -16.5 -188.5c0 -212.667 50.333 -368 151 -466c58 -56.667 132 -85 222 -85c228 0 342 144.333 342 433c0 60 -7 129.333 -21 208c-4 29.333 -12 73.333 -24 132l-31 131c-10 40 -15 70.333 -15 91
c0 22.667 9.33301 34 28 34c9.33301 0 19.333 -4 30 -12c10 -11.333 16 -22.666 18 -33.999l43 -220c20.667 -109.333 46.667 -200.666 78 -273.999c38 -90 80.333 -135 127 -135c60 0 90 111 90 333c0 26 -1.66699 89 -5 189l-4 119c-0.666992 23.333 10 35 32 35
c29.333 0 44 -15.667 44 -47c0 -24.667 1 -61 3 -109s3 -84.333 3 -109c0 -84.667 11.333 -176.334 34 -275.001c21.333 -90.667 49.666 -136 84.999 -136c28 0 49.667 30 65 90c12.667 50.667 19 119.334 19 206.001c0 134.667 -13.333 245 -40 331l-2 13
c0 27.333 13.667 41 41 41c15.333 0 26.333 -8.33301 33 -25c23.333 -104 35 -221.333 35 -352c0 -254.667 -53 -382 -159 -382c-36.667 0 -67.667 26.667 -93 80c-20.667 44 -33.334 88.333 -38.001 133c-8.66699 -52.667 -21 -95.667 -37 -129
c-26.667 -56 -60.667 -84 -102 -84c-67.333 0 -121.666 38.667 -162.999 116c0 -140.667 -33.333 -252.334 -100 -335.001c-72.667 -90 -178 -135 -316 -135z" />
    <glyph glyph-name="u0634" unicode="&#x634;" horiz-adv-x="1632" arabic-form="isolated" 
d="M524 -405c-110 0 -200.331 31.667 -270.998 95c-117.333 104.667 -176 278 -176 520c0 163.333 22.667 291.666 68 384.999c6 13.333 17.333 21 34 23c9.33301 0 18.666 -4 27.999 -12c7.33301 -8.66699 11 -17.667 11 -27c0 -6 -1.33301 -12 -4 -18
c-20 -41.333 -35.5 -90.666 -46.5 -147.999s-16.5 -120.333 -16.5 -189c0 -212.667 50.333 -368 151 -466c58 -56.667 132 -85 222 -85c228 0 342 144.333 342 433c0 60.667 -7 130 -21 208c-4 29.333 -12 73.333 -24 132l-31 132c-10 39.333 -15 69.333 -15 90
c0 22.667 9.33301 34 28 34c9.33301 0 19.333 -4 30 -12c10 -10.667 16 -22 18 -34l43 -220c20.667 -109.333 46.667 -200.666 78 -273.999c38 -89.333 80.333 -134 127 -134c60 0 90 110.667 90 332c0 26 -1.66699 89 -5 189l-4 119c-0.666992 23.333 10 35 32 35
c29.333 0 44 -15.667 44 -47c0 -24 1 -60.167 3 -108.5s3 -84.5 3 -108.5c0 -84.667 11.333 -176.334 34 -275.001c21.333 -90.667 49.666 -136 84.999 -136c28 0 49.667 29.667 65 89c12.667 51.333 19 120 19 206c0 134.667 -13.333 245 -40 331l-2 13
c0 27.333 13.667 41 41 41c15.333 0 26.333 -8 33 -24c23.333 -104 35 -221.667 35 -353c0 -254.667 -53 -382 -159 -382c-36.667 0 -67.667 27 -93 81c-20.667 43.333 -33.334 87.333 -38.001 132c-8.66699 -52.667 -21 -95.667 -37 -129c-26.667 -56 -60.667 -84 -102 -84
c-67.333 0 -121.666 39 -162.999 117c0 -141.333 -33.333 -253.333 -100 -336c-72.667 -90 -178 -135 -316 -135zM1343 883c0 -20 -7.33301 -37.166 -22 -51.499s-32 -21.5 -52 -21.5c-49.333 0 -74 24.333 -74 73c0 50 24.667 75 74 75c20 0 37.333 -7.33301 52 -22
s22 -32.334 22 -53.001zM1195 883.001c0 -20 -7.5 -37.1689 -22.5 -51.502s-32.833 -21.5 -53.5 -21.5c-49.333 0 -74 24.333 -74 73c0 20.667 7.33301 38.334 22 53.001s32 22 52 22c20.667 0 38.5 -7.16699 53.5 -21.5s22.5 -32.166 22.5 -53.499zM1195 961.999
c-20.667 0 -38.167 7.16699 -52.5 21.5s-21.5 31.833 -21.5 52.5c0 20 7.33301 37.167 22 51.5s32 21.5 52 21.5c22.667 0 40 -7.33301 52 -22c14.667 -13.333 22 -30.333 22 -51s-7.16699 -38.167 -21.5 -52.5s-31.833 -21.5 -52.5 -21.5z" />
    <glyph glyph-name="u0635" unicode="&#x635;" horiz-adv-x="1890" arabic-form="isolated" 
d="M999 240c17.333 186.667 62.332 318.332 134.999 394.999c48.667 51.333 108.667 77 180 77c83.333 0 162 -23 236 -69c70.667 -44 128 -103 172 -177c42 -71.333 63 -143 63 -215c0 -102.667 -41 -179.667 -123 -231c-68 -42 -156.667 -63 -266 -63
c-118.667 0 -227 35.333 -325 106c0 -30 2 -54.333 6 -73l13 -56l2 -12c0 -21.333 -13 -33.666 -39 -36.999c-8.66699 0 -16.167 2 -22.5 6s-10.833 11.333 -13.5 22c-14.667 48.667 -22 119.667 -22 213l-25 28l-36 46c0 -246.667 -50.667 -416.667 -152 -510
c-65.333 -59.333 -152.666 -89 -261.999 -89c-110 0 -200.333 31.667 -271 95c-117.333 104.667 -176 278 -176 520c0 163.333 22.667 291.666 68 384.999c6.66699 13.333 18 21 34 23c9.33301 0 18.666 -4 27.999 -12c7.33301 -8.66699 11 -18 11 -28
c0 -5.33301 -1.33301 -11 -4 -17c-20 -42 -35.5 -91.5 -46.5 -148.5s-16.5 -119.833 -16.5 -188.5c0 -212.667 50.667 -368.334 152 -467.001c57.333 -56 131 -84 221 -84c228 0 342 144.667 342 434c0 126.667 -20.333 249 -61 367c-7.33301 21.333 -17.333 53.333 -30 96
c-8 34.667 -12 67.334 -12 98.001c0 12 3.66699 22.167 11 30.5s16 12.5 26 12.5c20 0.666992 32.333 -10.666 37 -33.999l35 -157c28.667 -110.667 72.334 -206 131.001 -286zM1396 32.998c209.333 0 314 73.667 314 221c0 95.333 -42 183 -126 263s-174 120 -270 120
c-79.333 0 -141.333 -52.667 -186 -158c-38 -88 -57 -194.333 -57 -319c88.667 -84.667 197 -127 325 -127z" />
    <glyph glyph-name="u0636" unicode="&#x636;" horiz-adv-x="1890" arabic-form="isolated" 
d="M999 237c17.333 186 62.332 317.333 134.999 394c48.667 52 108.667 78 180 78c83.333 0 162 -23.333 236 -70c70.667 -44 128 -103 172 -177c42 -71.333 63 -143 63 -215c0 -102.667 -41 -179.334 -123 -230.001c-68 -42 -156.667 -63 -266 -63
c-118.667 0 -227 35.333 -325 106c0 -30.667 2 -55 6 -73l13 -56l2 -12c0 -22 -13 -34.667 -39 -38c-8.66699 0 -16.167 2 -22.5 6s-10.833 11.333 -13.5 22c-14.667 48.667 -22 120 -22 214l-25 27l-36 47c0 -247.333 -50.667 -417.333 -152 -510
c-65.333 -60 -152.666 -90 -261.999 -90c-110 0 -200.333 31.667 -271 95c-117.333 104.667 -176 278 -176 520c0 160 22.667 288.333 68 385c7.33301 15.333 18.333 23 33 23c9.33301 0 18.666 -3.66699 27.999 -11c8 -10 12 -19.333 12 -28c0 -6 -1.33301 -12 -4 -18
c-20 -41.333 -35.5 -90.666 -46.5 -147.999s-16.5 -120 -16.5 -188c0 -212.667 50.667 -368.334 152 -467.001c57.333 -56.667 131 -85 221 -85c228 0 342 144.667 342 434c0 126.667 -20.333 249.334 -61 368.001c-7.33301 20.667 -17.333 52.667 -30 96
c-8 34 -12 66.333 -12 97c0 12 3.66699 22.167 11 30.5s16 12.833 26 13.5c20 0 32.333 -11.333 37 -34l35 -158c28.667 -110.667 72.334 -205.667 131.001 -285zM1396 30c209.333 0 314 73.333 314 220c0 95.333 -42 183 -126 263s-174 120 -270 120
c-79.333 0 -141.333 -52.333 -186 -157c-38 -88.667 -57 -195 -57 -319c88.667 -84.667 197 -127 325 -127zM1297 808c-20 0 -37.333 7.33301 -52 22s-22 32 -22 52s7.33301 37.333 22 52s32 22 52 22s37.667 -7.33301 53 -22s23 -32 23 -52
c0 -20.667 -7.66699 -38.167 -23 -52.5s-33 -21.5 -53 -21.5z" />
    <glyph glyph-name="u0637" unicode="&#x637;" horiz-adv-x="1143" arabic-form="isolated" 
d="M571 557l65.002 -292.003c0 -10 -3.66699 -19 -11 -27c-8.66699 -5.33301 -18 -8.33301 -28 -9c-8 0 -16 2 -24 6c-5.33301 5.33301 -9.33301 13.333 -12 24l-51 215c-81.333 -139.333 -122 -284.666 -122 -435.999c66 -11.333 122.333 -17 169 -17
c54.667 0 107.667 5.33301 159 16c165.333 32.667 248 97.667 248 195c0 52.667 -10.5 109.334 -31.5 170.001s-48.167 110.334 -81.5 149.001c-40.667 48 -86.667 72 -138 72c-24.667 0 -49.334 -6 -74.001 -18s-47.334 -28 -68.001 -48zM412.002 1261l140.999 -617.998
c24 18.667 48.833 32.834 74.5 42.501s54.167 14.5 85.5 14.5c130.667 0 227.334 -89.333 290.001 -268c24.667 -70.667 37 -137.334 37 -200.001c0 -132.667 -94 -220.667 -282 -264c-65.333 -15.333 -132.333 -23 -201 -23c-60 0 -117 4.66699 -171 14l2 -37l6 -36l1 -10
c0 -12 -3.66699 -21 -11 -27s-17 -9.66699 -29 -11c-19.333 0 -31.333 10.333 -36 31c-7.33301 30.667 -11 66.667 -11 108c-86 22 -154 52.333 -204 91c-11.333 8 -17 18 -17 30c0 26.667 12.667 40 38 40c8 0 16.333 -3.33301 25 -10
c40.667 -28.667 94.667 -52.334 162 -71.001c0 88 15.833 180 47.5 276s74.167 177.667 127.5 245l-152 677c0 21.333 12.667 33.666 38 36.999c21.333 0 34.333 -10.333 39 -31z" />
    <glyph glyph-name="u0638" unicode="&#x638;" horiz-adv-x="1143" arabic-form="isolated" 
d="M571 557l65.002 -292.003c0 -10 -3.66699 -19 -11 -27c-8.66699 -5.33301 -18 -8.33301 -28 -9c-8 0 -16 2 -24 6c-5.33301 5.33301 -9.33301 13.333 -12 24l-51 215c-81.333 -139.333 -122 -284.666 -122 -435.999c66 -11.333 122.333 -17 169 -17
c54.667 0 107.667 5.33301 159 16c165.333 32.667 248 97.667 248 195c0 52.667 -10.5 109.334 -31.5 170.001s-48.167 110.334 -81.5 149.001c-40.667 48 -86.667 72 -138 72c-24.667 0 -49.334 -6 -74.001 -18s-47.334 -28 -68.001 -48zM412.002 1261l140.999 -617.998
c24 18.667 48.833 32.834 74.5 42.501s54.167 14.5 85.5 14.5c130.667 0 227.334 -89.333 290.001 -268c24.667 -70.667 37 -137.334 37 -200.001c0 -132.667 -94 -220.667 -282 -264c-65.333 -15.333 -132.333 -23 -201 -23c-60 0 -117 4.66699 -171 14l2 -37l6 -36l1 -10
c0 -12 -3.66699 -21 -11 -27s-17 -9.66699 -29 -11c-19.333 0 -31.333 10.333 -36 31c-7.33301 30.667 -11 66.667 -11 108c-86 22 -154 52.333 -204 91c-11.333 8 -17 18 -17 30c0 26.667 12.667 40 38 40c8 0 16.333 -3.33301 25 -10
c40.667 -28.667 94.667 -52.334 162 -71.001c0 88 15.833 180 47.5 276s74.167 177.667 127.5 245l-152 677c0 21.333 12.667 33.666 38 36.999c21.333 0 34.333 -10.333 39 -31zM748.001 876.999c0 -20.667 -7.33105 -38 -21.998 -52s-32.334 -21 -53.001 -21
c-49.333 0 -74 24.333 -74 73c0 20.667 7.33301 38.167 22 52.5s32 21.5 52 21.5c21.333 0 39.166 -7.16699 53.499 -21.5s21.5 -31.833 21.5 -52.5z" />
    <glyph glyph-name="u0639" unicode="&#x639;" horiz-adv-x="985" arabic-form="isolated" 
d="M411 270c-71.333 0 -127 10.3311 -167 30.998c-56 28.667 -84 75.334 -84 140.001c0 69.333 32.333 134.333 97 195c51.333 48 115.333 87.667 192 119c80.667 33.333 155.334 50 224.001 50c98 0 147 -32.667 147 -98c0 -42.667 -28.333 -87 -85 -133
c-46.667 -37.333 -95.334 -64.333 -146.001 -81l-12 -1c-22 0 -34.667 13.333 -38 40c0 20 10 32.667 30 38c27.333 6.66699 61.333 24 102 52c47.333 32.667 71 61 71 85c0 13.333 -16 20 -48 20c-34 0 -84 -7.66699 -150 -23c-83.333 -19.333 -159.666 -60 -228.999 -122
c-51.333 -46 -77 -93 -77 -141c0 -63.333 52.333 -95 157 -95c52 0 114.667 8 188 24s132 31.333 176 46l104 35l8 1c25.333 0 38 -13 38 -39c0 -6 -2.66699 -13.333 -8 -22c-3.33301 -4.66699 -10 -9 -20 -13l-207 -76c-192.667 -71.333 -325 -145.666 -397 -222.999
s-108 -150.333 -108 -219c0 -59.333 27.667 -105.666 83 -138.999c46.667 -28 101.667 -42 165 -42s125 13.333 185 40c66 29.333 124.667 72 176 128c7.33301 7.33301 16.333 11.666 27 12.999c26.667 0 40 -13.667 40 -41c0 -10 -3.33301 -18.667 -10 -26
c-116.667 -128.667 -254.334 -193 -413.001 -193c-86 0 -160.667 21.333 -224 64c-71.333 48.667 -107 114 -107 196c0 42 10.333 85.667 31 131c22.667 49.333 55 96 97 140c48.667 50.667 112.667 97 192 139z" />
    <glyph glyph-name="u063A" unicode="&#x63a;" horiz-adv-x="985" arabic-form="isolated" 
d="M411 266c-71.333 0 -127 10.3311 -167 30.998c-56 28.667 -84 75.334 -84 140.001c0 69.333 32.333 134.666 97 195.999c51.333 48 115.333 87.667 192 119c80.667 32.667 155.334 49 224.001 49c98 0 147 -32.667 147 -98c0 -42.667 -28.333 -87 -85 -133
c-46.667 -37.333 -95.334 -64 -146.001 -80l-12 -1c-22 0 -34.667 13 -38 39c0 20.667 10 33.334 30 38.001c27.333 6.66699 61.333 24.334 102 53.001c47.333 32.667 71 60.667 71 84c0 14 -16 21 -48 21c-34 0 -84 -7.66699 -150 -23
c-83.333 -19.333 -159.666 -60.333 -228.999 -123c-51.333 -45.333 -77 -92.333 -77 -141c0 -62.667 52.333 -94 157 -94c52 0 114.667 7.83301 188 23.5s132 31.167 176 46.5l104 35l8 1c25.333 0 38 -13 38 -39c0 -6 -2.66699 -13.667 -8 -23
c-3.33301 -4.66699 -10 -8.66699 -20 -12l-207 -77c-192.667 -70.667 -325 -144.834 -397 -222.501s-108 -150.5 -108 -218.5c0 -59.333 27.667 -105.666 83 -138.999c46.667 -28.667 101.667 -43 165 -43s125 13.333 185 40c66 29.333 124.667 72 176 128
c7.33301 7.33301 16.333 12 27 14c26.667 0 40 -14 40 -42c0 -9.33301 -3.33301 -17.666 -10 -24.999c-116.667 -128.667 -254.334 -193 -413.001 -193c-86 0 -160.667 21.333 -224 64c-71.333 48 -107 113.333 -107 196c0 41.333 10.333 84.666 31 129.999
c22.667 50 55 96.667 97 140c48.667 50.667 112.667 97 192 139zM482 966.998c0 -48.667 -24.999 -73 -74.999 -73c-49.333 0 -74 24.333 -74 73c0 21.333 7.5 39 22.5 53s32.167 21 51.5 21c21.333 0 39.166 -7.16699 53.499 -21.5s21.5 -31.833 21.5 -52.5z" />
    <glyph glyph-name="u0641" unicode="&#x641;" horiz-adv-x="1006" arabic-form="isolated" 
d="M255 524c7.33301 6.66699 10.999 15.335 10.999 26.002c0 11.333 -3.83301 20.5 -11.5 27.5s-17.167 10.833 -28.5 11.5c-11.333 0 -21 -4.66699 -29 -14c-97.333 -116 -146 -234.667 -146 -356c0 -180.667 109 -271 327 -271c223.333 0 382.333 91.667 477 275
c38 73.333 57 149.666 57 228.999c0 67.333 -13.667 123.666 -41 168.999c-32.667 54.667 -80.334 82 -143.001 82c-71.333 0 -134.666 -36.333 -189.999 -109c-52 -67.333 -78 -137.666 -78 -210.999c0 -151.333 55.667 -227 167 -227c58.667 0 112.334 23.667 161.001 71
c44.667 43.333 74.667 94.666 90 153.999l1 12c0.666992 10 -3.33301 18.333 -12 25s-17.667 10 -27 10c-7.33301 0.666992 -14.666 -2 -21.999 -8s-12 -13 -14 -21c-10 -40 -29.667 -74.667 -59 -104c-32.667 -32.667 -68.334 -49 -107.001 -49c-66 0 -99 45.667 -99 137
c0 45.333 20 96.333 60 153c42.667 60 85.667 90 129 90c73.333 0 110 -57.333 110 -172c0 -70.667 -17.5 -138.167 -52.5 -202.5s-82.167 -115.5 -141.5 -153.5c-76 -48.667 -164.667 -73 -266 -73c-166 0 -249 65.333 -249 196c0 97.333 42 198.333 126 303z
M801.999 880.001c0 -48.667 -24.667 -72.999 -74 -72.999s-74 24.333 -74 73c0 21.333 7.33301 39.166 22 53.499s32 21.5 52 21.5c49.333 0 74 -25 74 -75z" />
    <glyph glyph-name="u0642" unicode="&#x642;" horiz-adv-x="1119" arabic-form="isolated" 
d="M161 597c6.66699 15.333 17.668 23 33.001 23c27.333 0 41 -13 41 -39c0 -6 -1.33301 -12 -4 -18c-20.667 -41.333 -36.5 -90.833 -47.5 -148.5s-16.5 -121.834 -16.5 -192.501c0 -212.667 50.333 -367 151 -463c58.667 -56 132.334 -84 221.001 -84
c79.333 0 153 40.667 221 122c51.333 62 94 139.167 128 231.5s51 181.166 51 266.499c0 96 -26.667 177.667 -80 245c-48.667 60.667 -102.334 91 -161.001 91c-46.667 0 -89.667 -25.333 -129 -76c-45.333 -58 -68 -134 -68 -228c0 -71.333 23 -137.666 69 -198.999
c50.667 -66 110.667 -99 180 -99c53.333 0 105 22.667 155 68l9 5l8 2c9.33301 0 18.333 -10.333 27 -31l7 -33c-62.667 -56.667 -131.334 -85 -206.001 -85c-93.333 0 -172.333 39.333 -237 118c-60.667 74.667 -91 159.334 -91 254.001c0 92 22.667 175.333 68 250
c52.667 88 122 132 208 132c94.667 0 173 -47 235 -141c54.667 -82.667 82 -173.667 82 -273c0 -90 -16.667 -185.333 -50 -286c-90 -274.667 -232 -412 -426 -412c-209.333 0 -347.333 103.333 -414 310c-26.667 80.667 -40 173.667 -40 279
c0 166.667 25.333 303.667 76 411zM690.001 877c-4.66699 -42.667 -29.333 -63.999 -74 -63.999c-20 0 -37.167 7.16699 -51.5 21.5s-21.5 31.5 -21.5 51.5s7 37.333 21 52s31.333 22 52 22c18.667 0 35 -5.83301 49 -17.5s22.333 -26.834 25 -45.501
c4.66699 42 29.334 63 74.001 63c19.333 0 36.333 -7.16699 51 -21.5s22 -31.833 22 -52.5c0 -20 -7.16699 -37.167 -21.5 -51.5s-31.5 -21.5 -51.5 -21.5c-18.667 0 -34.834 5.83301 -48.501 17.5s-22.167 27.167 -25.5 46.5z" />
    <glyph glyph-name="u0643" unicode="&#x643;" horiz-adv-x="1180" arabic-form="isolated" 
d="M548 -61c-128.667 0 -236.666 34.6699 -323.999 104.003c-94 75.333 -141 176 -141 302c0 119.333 44.333 208.666 133 267.999c72 48.667 160.667 73 266 73c54 0 101.667 -7.5 143 -22.5s62 -31.833 62 -50.5c0 -17.333 -14.333 -26 -43 -26c-20 0 -47 4.33301 -81 13
c-18.667 4.66699 -37 9.66699 -55 15c-19.333 3.33301 -37 5 -53 5c-84.667 0 -156.667 -31.667 -216 -95c-53.333 -56.667 -80 -116.667 -80 -180c0 -102 42.667 -184 128 -246c77.333 -56 168.333 -84 273 -84c77.333 0 128 1 152 3
c108.667 9.33301 183 36.166 223 80.499s60 107.166 60 188.499c0 48.667 -8.33301 105 -25 169c-14.667 55.333 -33.334 109.666 -56.001 162.999c-20 46.667 -40 87.334 -60 122.001l-7 22c0 26 13.667 39 41 39c11.333 0 21.333 -6.33301 30 -19l6 -10
c48.667 -94 86 -182.667 112 -266c27.333 -87.333 41 -167 41 -239c0 -98.667 -24.667 -174.667 -74 -228c-52.667 -57.333 -149.667 -90 -291 -98c-36 -2 -90.667 -3 -164 -3zM1236 1353c-16.667 -89.333 -45.333 -172.666 -86 -249.999
c-46 -88.667 -103 -157.334 -171 -206.001c-78.667 -57.333 -169 -86 -271 -86c-24.667 0 -37 13 -37 39s12.333 39 37 39c170 0 296.667 85.667 380 257c32 64.667 55.333 137 70 217c4 22.667 17.333 34 40 34c20.667 0 32.667 -9 36 -27c1.33301 -5.33301 2 -11 2 -17z
" />
    <glyph glyph-name="u0644" unicode="&#x644;" horiz-adv-x="875" arabic-form="isolated" 
d="M599 1265l63.001 -263.997c29.333 -124.667 54.333 -251.667 75 -381c24.667 -156.667 37 -294.334 37 -413.001c0 -258.667 -52 -435.334 -156 -530.001c-61.333 -56.667 -141.666 -85 -240.999 -85c-94.667 0 -167.334 30.667 -218.001 92
c-47.333 56.667 -71 133.334 -71 230.001c0 156 48 281.667 144 377c7.33301 6.66699 16.333 10.667 27 12c22.667 0 35.667 -13 39 -39c0 -10 -4.33301 -19.333 -13 -28c-81.333 -78 -122 -177.333 -122 -298c0 -72.667 17 -133.667 51 -183
c39.333 -56.667 93.666 -85 162.999 -85c214 0 321 179.333 321 538c0 121.333 -12 257.666 -36 408.999c-19.333 119.333 -44 242.666 -74 369.999l-3 9l-61 264c0 20.667 13 32.667 39 36c19.333 0 31.333 -10.333 36 -31z" />
    <glyph glyph-name="u0645" unicode="&#x645;" horiz-adv-x="1060" arabic-form="isolated" 
d="M657 215c147.333 0 221 58.334 221 175.001c0 71.333 -31 131.333 -93 180c-58 45.333 -123.667 68 -197 68c-51.333 0 -93 -13.333 -125 -40c-34.667 -29.333 -52 -73.333 -52 -132c0 -52.667 26.667 -102.667 80 -150c42.667 -38 89.667 -65 141 -81
c4 -0.666992 9.33301 -3.33398 16 -8.00098zM433 263.001c-66.667 64 -100.003 131.667 -100.003 203c0 78.667 22.833 139.667 68.5 183s107.834 65 186.501 65c92.667 0 175.334 -28.667 248.001 -86c80.667 -64 121 -143.333 121 -238c0 -88 -33.667 -153.667 -101 -197
c-56.667 -36.667 -134 -55 -232 -55c-61.333 0 -126.833 13.667 -196.5 41s-136.5 64 -200.5 110l282 -649c0 -26 -13.333 -39 -40 -39c-9.33301 0 -16.666 1.66699 -21.999 5s-10 9.33301 -14 18l-346 794c-3.33301 7.33301 -5 14 -5 20c0 21.333 11.667 33.333 35 36
c12.667 0 24 -5.33301 34 -16c76 -82 170 -147 282 -195z" />
    <glyph glyph-name="u0646" unicode="&#x646;" horiz-adv-x="1049" arabic-form="isolated" 
d="M805 694c41.333 -70 75.333 -155.999 102 -257.999c29.333 -110 44 -215.667 44 -317c0 -152.667 -30.667 -273.334 -92 -362.001c-71.333 -104 -180.333 -156 -327 -156c-109.333 0 -199.333 31.667 -270 95c-118 104.667 -177 278 -177 520
c0 160 22.667 288.333 68 385c7.33301 15.333 18.333 23 33 23c10 0 19.333 -4.33301 28 -13s13 -17.667 13 -27c0 -5.33301 -1.66699 -11 -5 -17c-19.333 -42 -34.5 -91.5 -45.5 -148.5s-16.5 -119.833 -16.5 -188.5c0 -212.667 50.333 -368 151 -466
c58 -56.667 131.667 -85 221 -85c228 0 342 145.667 342 437c0 200 -45 380 -135 540c-3.33301 6 -5 12.667 -5 20c0 24.667 13 37 39 37c14 0 24.667 -6.33301 32 -19zM586 198.001c0 -49.333 -24.667 -73.999 -74 -73.999c-20 0 -37.333 7.33301 -52 22s-22 32 -22 52
c0 50 24.667 75 74 75c20 0 37.333 -7.33301 52 -22s22 -32.334 22 -53.001z" />
    <glyph glyph-name="u0647" unicode="&#x647;" horiz-adv-x="785" arabic-form="isolated" 
d="M443 -48c-108.667 0 -195 44.666 -259 133.999c-56.667 78.667 -85 174.334 -85 287.001c0 94 19.667 171.333 59 232c44 68 102.667 102 176 102c95.333 0 179.333 -53.667 252 -161c68.667 -100.667 103 -208.667 103 -324c0 -180 -82 -270 -246 -270zM334 629.999
c-55.333 0 -97 -29.001 -125 -87.001c-22 -45.333 -33 -98.666 -33 -159.999c0 -92 22 -171.667 66 -239c49.333 -77.333 116.333 -116 201 -116c113.333 0 170 64.333 170 193c0 92 -28 182 -84 270c-59.333 92.667 -124.333 139 -195 139z" />
    <glyph glyph-name="u0648" unicode="&#x648;" horiz-adv-x="788" arabic-form="isolated" 
d="M625 44c-46.667 -40.667 -98 -67.333 -154 -80c-18 -4 -35.667 -6 -53 -6c-92.667 0 -171.334 40 -236.001 120c-60.667 74.667 -91 159 -91 253c0 92 23 175.333 69 250c52.667 87.333 122 131 208 131c94.667 0 173 -46.667 235 -140
c54.667 -82.667 82 -173.667 82 -273c0 -81.333 -18.667 -168 -56 -260c-37.333 -94 -88.333 -179 -153 -255c-70 -82 -148 -143 -234 -183l-18 -4c-26 0 -39 14 -39 42c0 14.667 7.66699 26 23 34c109.333 48 203.333 134.167 282 258.5s118 246.833 118 367.5
c0 76.667 -20.333 149 -61 217c-47.333 79.333 -107 119 -179 119c-47.333 0 -90.666 -25.333 -129.999 -76c-46.667 -60 -70 -136 -70 -228c0 -72 23 -138.667 69 -200c50.667 -66 111 -99 181 -99c52.667 0 104 22.667 154 68c8 5.33301 14 8 18 8c10 0 19 -10.333 27 -31
z" />
    <glyph glyph-name="u0649" unicode="&#x649;" horiz-adv-x="1085" arabic-form="isolated" 
d="M908 489c0 99.333 -31.998 149.001 -95.998 149.001c-58.667 0 -119.667 -38 -183 -114c-67.333 -81.333 -101 -165.666 -101 -252.999c0 -42 34.667 -78.667 104 -110l194 -87c70 -41.333 105 -90.333 105 -147c0 -96 -67.333 -177.333 -202 -244
c-112.667 -54.667 -222.667 -82 -330 -82c-205.333 0 -308 89.333 -308 268c0 110 35.333 217.333 106 322c8 12 18.333 18 31 18c26 0 39 -13 39 -39c0 -8.66699 -2.33301 -16.334 -7 -23.001c-62.667 -90 -94 -178.667 -94 -266c0 -134.667 77.667 -202 233 -202
c79.333 0 156.666 14.667 231.999 44c49.333 20 95.666 46.333 138.999 79c56.667 44 85 85.667 85 125c0 34.667 -34.667 68 -104 100l-193 89c-70 41.333 -105 93 -105 155c0 117.333 41.667 221.666 125 312.999c78 85.333 159 128 243 128
c108.667 0 163 -74.333 163 -223c0 -26 -12.667 -39 -38 -39s-38 13 -38 39z" />
    <glyph glyph-name="u064A" unicode="&#x64a;" horiz-adv-x="1085" arabic-form="isolated" 
d="M908 489c0 99.333 -31.998 149.001 -95.998 149.001c-58.667 0 -119.667 -38 -183 -114c-67.333 -81.333 -101 -165.666 -101 -252.999c0 -42 34.667 -78.667 104 -110l194 -87c70 -41.333 105 -90.333 105 -147c0 -96 -67.333 -177.333 -202 -244
c-112.667 -54.667 -222.667 -82 -330 -82c-205.333 0 -308 89.333 -308 268c0 110 35.333 217.333 106 322c8 12 18.333 18 31 18c26 0 39 -13 39 -39c0 -8.66699 -2.33301 -16.334 -7 -23.001c-62.667 -90 -94 -178.667 -94 -266c0 -134.667 77.667 -202 233 -202
c79.333 0 156.666 14.667 231.999 44c49.333 20 95.666 46.333 138.999 79c56.667 44 85 85.667 85 125c0 34.667 -34.667 68 -104 100l-193 89c-70 41.333 -105 93 -105 155c0 117.333 41.667 221.666 125 312.999c78 85.333 159 128 243 128
c108.667 0 163 -74.333 163 -223c0 -26 -12.667 -39 -38 -39s-38 13 -38 39z" />
    <glyph glyph-name="u067E" unicode="&#x67e;" horiz-adv-x="1007" arabic-form="isolated" 
d="M864 682c10 -51.333 14.9971 -103.665 14.9971 -156.998c0 -160.667 -43.667 -294 -131 -400c-91.333 -111.333 -214.666 -167 -369.999 -167c-217.333 0 -326 90.333 -326 271c0 121.333 48.333 239.666 145 354.999c6.66699 8.66699 16.334 13.667 29.001 15
c26 0 39.333 -13 40 -39c0.666992 -8.66699 -2.66602 -17.334 -9.99902 -26.001c-84.667 -100.667 -127 -201.667 -127 -303c0 -58.667 18.667 -105 56 -139c41.333 -38.667 105.666 -58 192.999 -58c132.667 0 238 49 316 147c72 90 108 202.667 108 338
c0 46 -5 95.333 -15 148c-5.33301 30.667 8.33398 46 41.001 46c8.66699 0 16.167 -2.33301 22.5 -7s10.833 -12.667 13.5 -24zM228.997 -236.999c0 20.667 7.33398 38.167 22.001 52.5s32 21.5 52 21.5c50 0 75 -24.667 75 -74c0 -20 -7.33301 -37.333 -22 -52
s-32.334 -22 -53.001 -22s-38.167 7.33301 -52.5 22s-21.5 32 -21.5 52zM377.998 -236.999c0 20.667 7.33301 38.167 22 52.5s32.334 21.5 53.001 21.5c49.333 0 74 -24.667 74 -74c0 -20 -7.33301 -37.333 -22 -52s-32 -22 -52 -22c-20.667 0 -38.334 7.33301 -53.001 22
s-22 32 -22 52zM375.998 -314.999c22.667 0 40.834 -7.16699 54.501 -21.5s20.5 -31.833 20.5 -52.5s-7.33301 -38 -22 -52s-32.334 -21 -53.001 -21c-19.333 0 -36.333 7 -51 21s-22 31.333 -22 52c0 20 7.16699 37.333 21.5 52s31.5 22 51.5 22z" />
    <glyph glyph-name="u0686" unicode="&#x686;" horiz-adv-x="980" arabic-form="isolated" 
d="M150 676c171.333 -222.667 359.333 -333.998 564 -333.998c50 0 97.667 6.66699 143 20l19 -74c-313.333 -60.667 -526.666 -163.667 -639.999 -309c-44.667 -56.667 -67 -115.334 -67 -176.001c0 -66.667 27.333 -120.334 82 -161.001
c49.333 -37.333 108.666 -56 177.999 -56c120.667 0 239.334 50.333 356.001 151c6.66699 6 15.334 9.66699 26.001 11c22.667 0 35.667 -13 39 -39c0 -12.667 -5 -22.667 -15 -30c-73.333 -60 -143 -103.167 -209 -129.5s-130.667 -39.5 -194 -39.5
c-92.667 0 -171.334 26 -236.001 78c-69.333 56 -104 129 -104 219c0 111.333 54 212.666 162 303.999c82 68.667 186.667 126.334 314 173.001c-174.667 42 -334.334 157 -479.001 345c-6 7.33301 -9 15.333 -9 24c0 25.333 13.333 38 40 38c12.667 0 22.667 -5 30 -15z
M150 676.002c171.333 -222.667 359.333 -333.998 564 -333.998c50 0 97.667 6.66699 143 20l19 -74c-313.333 -60.667 -526.666 -163.667 -639.999 -309c-44.667 -56.667 -67 -115.334 -67 -176.001c0 -66.667 27.333 -120.334 82 -161.001
c49.333 -37.333 108.666 -56 177.999 -56c120.667 0 239.334 50.333 356.001 151c6.66699 6 15.334 9.66699 26.001 11c22.667 0 35.667 -13 39 -39c0 -12.667 -5 -22.667 -15 -30c-73.333 -60 -143 -103.167 -209 -129.5s-130.667 -39.5 -194 -39.5
c-92.667 0 -171.334 26 -236.001 78c-69.333 56 -104 129 -104 219c0 111.333 54 212.666 162 303.999c82 68.667 186.667 126.334 314 173.001c-174.667 42 -334.334 157 -479.001 345c-6 7.33301 -9 15.333 -9 24c0 25.333 13.333 38 40 38c12.667 0 22.667 -5 30 -15z
M363 -101.996c0 20.667 7.16699 38 21.5 52s31.833 21 52.5 21c50 0 75 -24.333 75 -73c0 -20 -7.5 -37.333 -22.5 -52s-32.5 -22 -52.5 -22c-20.667 0 -38.167 7.16699 -52.5 21.5s-21.5 31.833 -21.5 52.5zM512 -101.996c0 20.667 7.33301 38 22 52s32 21 52 21
c49.333 0 74 -24.333 74 -73c0 -20 -7.33301 -37.333 -22 -52s-32 -22 -52 -22s-37.333 7.33301 -52 22s-22 32 -22 52zM510 -179.996c22 0 39.833 -7.33301 53.5 -22s20.5 -32 20.5 -52c0 -20.667 -7.16699 -38 -21.5 -52s-31.833 -21 -52.5 -21
c-19.333 0 -36.333 7 -51 21s-22 31.333 -22 52c0 20 7.16699 37.333 21.5 52s31.5 22 51.5 22z" />
    <glyph glyph-name="u0698" unicode="&#x698;" horiz-adv-x="431" arabic-form="isolated" 
d="M159 684c10 -22 25.999 -59.333 47.999 -112l38 -89c58.667 -154 88 -280.667 88 -380c0 -210 -116.333 -378 -349 -504c-5.33301 -2.66699 -12 -4 -20 -4c-10 0 -19.333 4 -28 12c-5.33301 7.33301 -8.66602 16.666 -9.99902 27.999c0 13.333 7.33301 24 22 32
c206 110.667 309 258.334 309 443.001c0 74 -17 161.667 -51 263c-12.667 38.667 -24.667 70.334 -36 95.001l-84 193v8c0 25.333 13 38 39 38c8 0 14 -2 18 -6c6.66699 -2.66699 12 -8.33398 16 -17.001zM239.999 883c0 -20 -7.16699 -37.166 -21.5 -51.499
s-31.833 -21.5 -52.5 -21.5c-48.667 0 -73 24.333 -73 73c0 50 24.333 75 73 75c20.667 0 38.167 -7.33301 52.5 -22s21.5 -32.334 21.5 -53.001zM92.999 883.001c0 -20 -7.5 -37.1689 -22.5 -51.502s-32.833 -21.5 -53.5 -21.5c-49.333 0 -74 24.333 -74 73
c0 20.667 7.16699 38.334 21.5 53.001s31.833 22 52.5 22s38.5 -7.16699 53.5 -21.5s22.5 -32.166 22.5 -53.499zM92.999 961.999c-20.667 0 -38.167 7.16699 -52.5 21.5s-21.5 31.833 -21.5 52.5c0 20 7.16699 37.167 21.5 51.5s31.833 21.5 52.5 21.5
c22 0 39 -7.33301 51 -22c14.667 -13.333 22 -30.333 22 -51s-7.16699 -38.167 -21.5 -52.5s-31.5 -21.5 -51.5 -21.5z" />
    <glyph glyph-name="u06AF" unicode="&#x6af;" horiz-adv-x="1180" arabic-form="isolated" 
d="M548 -61c-128.667 0 -236.666 34.6709 -323.999 104.004c-94 75.333 -141 176 -141 302c0 119.333 44.333 208.666 133 267.999c72 48 160.667 72 266 72c54 0 101.667 -7.33301 143 -22s62 -31.334 62 -50.001c0 -17.333 -14.333 -26 -43 -26c-20 0 -47 4.33301 -81 13
c-18.667 4.66699 -37 9.66699 -55 15c-19.333 3.33301 -37 5 -53 5c-84.667 0 -156.667 -31.667 -216 -95c-53.333 -56.667 -80 -116.667 -80 -180c0 -102 42.667 -184 128 -246c77.333 -56 168.333 -84 273 -84c77.333 0 128 1 152 3
c108.667 9.33301 183 36.166 223 80.499s60 107.166 60 188.499c0 48.667 -8.33301 105 -25 169c-14.667 55.333 -33.334 109.666 -56.001 162.999c-20 46.667 -40 87.334 -60 122.001l-7 22c0 26 13.667 39 41 39c11.333 0 21.333 -6.33301 30 -19l6 -10
c48.667 -94 86 -182.667 112 -266c27.333 -87.333 41 -167 41 -239c0 -98.667 -24.667 -174.667 -74 -228c-52.667 -57.333 -149.667 -90 -291 -98c-36 -2 -90.667 -3 -164 -3zM1236 1353c-16.667 -89.333 -45.333 -172.666 -86 -249.999
c-46 -88.667 -103 -157.334 -171 -206.001c-78.667 -57.333 -169 -86 -271 -86c-24.667 0 -37 13 -37 39s12.333 39 37 39c170 0 296.667 85.667 380 257c32 64.667 55.333 137 70 217c4 22.667 17.333 34 40 34c20.667 0 32.667 -9 36 -27c1.33301 -5.33301 2 -11 2 -17z
M1112 1365c-21.333 -118 -64.333 -215.999 -129 -293.999c-77.333 -93.333 -174.666 -140 -291.999 -140c-20 0 -30 10.667 -30 32c0 20.667 10 31 30 31c135.333 0 236.666 68.333 303.999 205c25.333 52 43.666 110 54.999 174c3.33301 18 14 27 32 27
c16.667 0 26.334 -7 29.001 -21c0.666992 -4.66699 1 -9.33398 1 -14.001z" />
    <glyph glyph-name="uFB57" unicode="&#x67e;" horiz-adv-x="1012" arabic-form="final" 
d="M1055 -40c-68.667 0 -125.666 22.6719 -170.999 68.0049c-43.333 43.333 -69.333 99.666 -78 168.999c-46 -70.667 -105 -127.334 -177 -170.001c-74.667 -44.667 -153 -67 -235 -67c-104 0 -186 24.667 -246 74c-65.333 53.333 -98 130.666 -98 231.999
c0 78.667 19.833 158.167 59.5 238.5s91.167 144.166 154.5 191.499c5.33301 4.66699 12.666 7.66699 21.999 9c23.333 0 36.333 -13.667 39 -41c0 -12 -5 -21.667 -15 -29c-50.667 -38.667 -93 -87.334 -127 -146.001c-40.667 -69.333 -61 -135.666 -61 -198.999
c0 -81.333 25.667 -144.333 77 -189c48 -43.333 113 -65 195 -65c102 0 194 38.333 276 115c80 75.333 127.667 163.666 143 264.999l2 8l40 253c2 12 6.16699 20.833 12.5 26.5s14.833 8.5 25.5 8.5s19.834 -3.5 27.501 -10.5s11.5 -16.833 11.5 -29.5l-1 -8l-40 -261
c-4 -33.333 -6 -60 -6 -80c0 -76 11.333 -139 34 -189c29.333 -65.333 74.666 -98 135.999 -98v-76zM206.001 -254.995c0 20 7.16797 37.167 21.501 51.5s31.833 21.5 52.5 21.5c50 0 75 -24.333 75 -73c0 -20.667 -7.33301 -38.167 -22 -52.5s-32.334 -21.5 -53.001 -21.5
s-38.167 7.16699 -52.5 21.5s-21.5 31.833 -21.5 52.5zM355.002 -254.995c0 20 7.33398 37.167 22.001 51.5s32 21.5 52 21.5c50 0 75 -24.333 75 -73c0 -20 -7.33301 -37.333 -22 -52s-32.334 -22 -53.001 -22c-20 0 -37.333 7.33301 -52 22s-22 32 -22 52z
M353.003 -333.995c22 0 39.833 -7.16699 53.5 -21.5s20.5 -31.833 20.5 -52.5c0 -20 -7.16699 -37.167 -21.5 -51.5s-31.833 -21.5 -52.5 -21.5c-19.333 0 -36.333 7.16699 -51 21.5s-22 31.5 -22 51.5s7.16699 37.333 21.5 52s31.5 22 51.5 22z" />
    <glyph glyph-name="uFB58" unicode="&#x67e;" horiz-adv-x="341" arabic-form="initial" 
d="M136 692l11.999 -29.998l29 -80c11.333 -32 22.333 -78.333 33 -139c10 -52.667 15 -103.334 15 -152.001c0 -220.667 -89.667 -331 -269 -331v76c66.667 0 115.334 25 146.001 75c27.333 43.333 41 103 41 179c0 61.333 -9 131.333 -27 210
c-15.333 66 -32.333 120 -51 162l-3 17c0 24.667 13.667 37 41 37c8.66699 0 15.5 -1.83301 20.5 -5.5s9.16699 -9.83398 12.5 -18.501zM111.999 -573.998c-20.667 0 -38.167 7.16699 -52.5 21.5s-21.5 31.833 -21.5 52.5c0 20 7.33301 37.333 22 52s32 22 52 22
c20.667 0 38.167 -7.16699 52.5 -21.5s21.5 -31.833 21.5 -52.5c0 -49.333 -24.667 -74 -74 -74zM111.999 -425.998c-20 0 -37.333 7.33301 -52 22s-22 32 -22 52c0 48.667 24.667 73 74 73s74 -24.333 74 -73c0 -20.667 -7.33301 -38.167 -22 -52.5s-32 -21.5 -52 -21.5z
M96.999 -274.998c-19.333 0 -36.5 7.5 -51.5 22.5s-22.5 32.167 -22.5 51.5c0 20.667 7.33301 38.167 22 52.5s32 21.5 52 21.5s37.333 -7.33301 52 -22s22 -32 22 -52c0 -20.667 -7.16699 -38.167 -21.5 -52.5s-31.833 -21.5 -52.5 -21.5z" />
    <glyph glyph-name="uFB59" unicode="&#x67e;" horiz-adv-x="488" arabic-form="medial" 
d="M530 -40c-68 0 -122.331 29.333 -162.998 88c-32.667 46.667 -53.334 106.667 -62.001 180c-9.33301 -57.333 -50.333 -115.333 -123 -174c-76.667 -62.667 -153.334 -94 -230.001 -94v76c160 0 266.333 132.333 319 397c17.333 86.667 26 168 26 244
c0 23.333 10.667 35 32 35c30 0 44.667 -15.667 44 -47l-2 -95l-1 -95c-2 -173.333 16.333 -296 55 -368c26 -47.333 61 -71 105 -71v-76zM71.002 -224c0 20 7.33398 37.167 22.001 51.5s32 21.5 52 21.5c50 0 75 -24.333 75 -73c0 -20.667 -7.33301 -38.334 -22 -53.001
s-32.334 -22 -53.001 -22s-38.167 7.33301 -52.5 22s-21.5 32.334 -21.5 53.001zM220.003 -224c0 20 7.33301 37.167 22 51.5s32.334 21.5 53.001 21.5c49.333 0 74 -24.333 74 -73c0 -20 -7.33301 -37.5 -22 -52.5s-32 -22.5 -52 -22.5c-20.667 0 -38.334 7.5 -53.001 22.5
s-22 32.5 -22 52.5zM218.003 -303c22.667 0 40.667 -7.16699 54 -21.5s20 -31.833 20 -52.5c0 -20 -7.16699 -37.167 -21.5 -51.5s-31.833 -21.5 -52.5 -21.5c-19.333 0 -36.333 7.16699 -51 21.5s-22 31.5 -22 51.5s7.16699 37.333 21.5 52s31.5 22 51.5 22z" />
    <glyph glyph-name="uFB7B" unicode="&#x686;" horiz-adv-x="977" arabic-form="final" 
d="M148 677c171.333 -222.667 359.334 -334 564.001 -334c49.333 0 97 6.66699 143 20l18 -73c-312.667 -61.333 -525.667 -164.333 -639 -309c-44.667 -57.333 -67 -116.333 -67 -177c0 -66.667 27.333 -120.334 82 -161.001c49.333 -37.333 108.333 -56 177 -56
c120.667 0 239.667 50.667 357 152c6 5.33301 14.667 8.66602 26 9.99902c22.667 0 35.667 -13 39 -39c0 -12 -5 -22 -15 -30c-74 -60 -143.833 -103.167 -209.5 -129.5s-130.167 -39.5 -193.5 -39.5c-92.667 0 -171.334 26 -236.001 78c-69.333 56 -104 129.333 -104 220
c0 110.667 54 211.667 162 303c82 68.667 186.333 126.334 313 173.001c-174 42 -333.333 157.333 -478 346c-6 6.66699 -9 14.334 -9 23.001c0 25.333 13 38 39 38c12.667 0 23 -5 31 -15zM1019 -40c-179.333 0 -294 46.332 -344 138.999c-20.667 37.333 -33 81 -37 131
l-1 11c0 20.667 9.33301 32.334 28 35.001c19.333 0 32.666 -9.66699 39.999 -29l30 -82c14 -36 41 -65.333 81 -88c48.667 -27.333 116.334 -41 203.001 -41v-76zM361.001 -101.001c0 20.667 7.16699 38 21.5 52s31.833 21 52.5 21c50 0 75 -24.333 75 -73
c0 -20 -7.5 -37.333 -22.5 -52s-32.5 -22 -52.5 -22c-20.667 0 -38.167 7.16699 -52.5 21.5s-21.5 31.833 -21.5 52.5zM510.001 -101.001c0 20.667 7.16699 38 21.5 52s31.833 21 52.5 21c49.333 0 74 -24.333 74 -73c0 -20 -7.33301 -37.333 -22 -52s-32 -22 -52 -22
s-37.333 7.33301 -52 22s-22 32 -22 52zM508.001 -179.001c22 0 39.833 -7.33301 53.5 -22s20.5 -32 20.5 -52c0 -20.667 -7.33301 -38 -22 -52s-32 -21 -52 -21c-19.333 0 -36.333 7 -51 21s-22 31.333 -22 52c0 20 7.16699 37.333 21.5 52s31.5 22 51.5 22z" />
    <glyph glyph-name="uFB7C" unicode="&#x686;" horiz-adv-x="1197" arabic-form="initial" 
d="M102 536c82.667 120 154.998 180 216.998 180c36 0 68.667 -13.667 98 -41l100 -94c81.333 -76.667 173.666 -127.667 276.999 -153c60.667 -15.333 126.667 -23 198 -23c26 0 39 -13 39 -39s-13 -39 -39 -39c-190 0 -340 -31.667 -450 -95l-234 -177
c-83.333 -63.333 -204.666 -95 -363.999 -95v76c124 0 225.667 22.667 305 68l182 144c78 62 166.333 104.667 265 128c-70.667 25.333 -138 65.666 -202 120.999c-17.333 14.667 -46.666 41.667 -87.999 81l-51 47c-13.333 10 -25.666 15 -36.999 15h-6
c-22.667 -3.33301 -54.667 -29.666 -96 -78.999c-16.667 -20 -33.667 -43.333 -51 -70c-4 -5.33301 -9.33301 -9.66602 -16 -12.999l-16 -4c-9.33301 0 -18 4.16699 -26 12.5s-12 17.166 -12 26.499c0 8 2.33301 15.667 7 23zM392.998 -163c0 20.667 7.33301 38.167 22 52.5
s32 21.5 52 21.5c50.667 0 76 -24.667 76 -74c0 -20 -7.5 -37.333 -22.5 -52s-32.833 -22 -53.5 -22c-20 0 -37.333 7.16699 -52 21.5s-22 31.833 -22 52.5zM542.998 -163c0 20.667 7.16699 38.167 21.5 52.5s31.833 21.5 52.5 21.5c49.333 0 74 -24.667 74 -74
c0 -20 -7.33301 -37.333 -22 -52s-32 -22 -52 -22s-37.333 7.33301 -52 22s-22 32 -22 52zM540.998 -241c22 0 39.833 -7.16699 53.5 -21.5s20.5 -31.833 20.5 -52.5s-7.33301 -38 -22 -52s-32 -21 -52 -21s-37.333 7 -52 21s-22 31.333 -22 52c0 20 7.16699 37.333 21.5 52
s31.833 22 52.5 22z" />
    <glyph glyph-name="uFB7D" unicode="&#x686;" horiz-adv-x="1194" arabic-form="medial" 
d="M1235 -40c-135.333 0 -256.666 23 -363.999 69c-141.333 61.333 -212 151 -212 269c0 13.333 4.66699 24.333 14 33s19.666 13 30.999 13c20.667 0 31 -12 31 -36c0 -90.667 64.333 -161.667 193 -213c98.667 -39.333 201 -59 307 -59v-76zM989 327
c-191.333 0 -342.334 -32.667 -453.001 -98l-119 -89l-120 -92c-92 -65.333 -214 -98 -366 -98v76c123.333 0 225.666 23.333 306.999 70l187 149c80.667 64 170 107.667 268 131c-70.667 25.333 -138 65.666 -202 120.999c-17.333 14.667 -46.666 41.667 -87.999 81l-51 47
c-13.333 10 -25.666 15 -36.999 15h-6c-22.667 -3.33301 -54.667 -29.666 -96 -78.999c-16.667 -20 -33.667 -43.333 -51 -70c-4 -5.33301 -9.33301 -9.66602 -16 -12.999l-16 -4c-9.33301 0 -18 4.16699 -26 12.5s-12 17.166 -12 26.499c0 8 2.33301 15.667 7 23
c83.333 120 156.333 180 219 180c36 0 68.333 -13.667 97 -41l99 -94c80.667 -76 173 -127 277 -153c60.667 -15.333 126.667 -23 198 -23c26 0 39 -13 39 -39s-13 -39 -39 -39zM389.999 -111c0 20 7.33301 37.167 22 51.5s32.334 21.5 53.001 21.5c50 0 75 -24.333 75 -73
c0 -20.667 -7.5 -38.167 -22.5 -52.5s-32.5 -21.5 -52.5 -21.5c-20.667 0 -38.334 7.16699 -53.001 21.5s-22 31.833 -22 52.5zM539.999 -111c0 20.667 7.16699 38 21.5 52s31.833 21 52.5 21c49.333 0 74 -24.333 74 -73c0 -20 -7.33301 -37.333 -22 -52s-32 -22 -52 -22
s-37.333 7.33301 -52 22s-22 32 -22 52zM537.999 -189c22 0 39.833 -7.33301 53.5 -22s20.5 -32 20.5 -52c0 -20.667 -7.33301 -38.167 -22 -52.5s-32 -21.5 -52 -21.5s-37.167 7.16699 -51.5 21.5s-21.5 31.833 -21.5 52.5c0 20 7.16699 37.333 21.5 52s31.5 22 51.5 22z
" />
    <glyph glyph-name="uFB8B" unicode="&#x698;" horiz-adv-x="560" arabic-form="final" 
d="M155 692c18.667 -28 54.667 -108 108 -240c51.333 -127.333 97.666 -221 138.999 -281c62 -90 128.333 -135 199 -135v-76c-48 0 -99.5 17.167 -154.5 51.5s-92.5 73.166 -112.5 116.499c0 -107.333 -35.333 -209.333 -106 -306c-63.333 -88 -146 -159.333 -248 -214
c-5.33301 -2.66699 -12 -4 -20 -4c-10 0 -19.333 4 -28 12c-5.33301 6.66699 -8.66602 16 -9.99902 28c0 13.333 7.33301 24 22 32c206 110.667 309 258.334 309 443.001c0 74 -17 161.333 -51 262c-12.667 39.333 -24.667 71.333 -36 96l-81 183
c-2.66699 6.66699 -4 13 -4 19c0 20 12.333 31.667 37 35c14.667 0 27 -7.33301 37 -22zM236 892c0 -20 -7.16699 -37.167 -21.5 -51.5s-31.833 -21.5 -52.5 -21.5c-48.667 0 -73 24.333 -73 73c0 49.333 24.333 74 73 74c20.667 0 38.167 -7.16699 52.5 -21.5
s21.5 -31.833 21.5 -52.5zM89 892c0 -20.667 -7.5 -38 -22.5 -52s-32.833 -21 -53.5 -21c-49.333 0 -74 24.333 -74 73c0 20.667 7.16699 38.167 21.5 52.5s31.833 21.5 52.5 21.5s38.5 -7.16699 53.5 -21.5s22.5 -31.833 22.5 -52.5zM89 970
c-20.667 0 -38.167 7.33301 -52.5 22s-21.5 32.334 -21.5 53.001c0 20 7.16699 37.167 21.5 51.5s31.833 21.5 52.5 21.5c22 0 39 -7.33301 51 -22c14.667 -13.333 22 -30.333 22 -51s-7 -38.334 -21 -53.001s-31.333 -22 -52 -22z" />
    <glyph glyph-name="uFEDA" unicode="&#x6a9;" horiz-adv-x="1219" arabic-form="final" 
d="M546 -43c-126 0 -232.668 34.332 -320.001 102.999c-96 76 -144 177 -144 303c0 119.333 44.333 209 133 269c71.333 48 160 72 266 72c54 0 102 -7.66699 144 -23c20 -7.33301 33.333 -13.333 40 -18c11.333 -7.33301 18.333 -17.666 21 -30.999
c2.66699 -17.333 -7.33301 -26 -30 -26c-9.33301 0 -23.666 1.66699 -42.999 5c-22.667 4 -37.334 6.33301 -44.001 7c-14 4 -34.667 9 -62 15c-19.333 3.33301 -37 5 -53 5c-85.333 0 -157.333 -31.667 -216 -95c-53.333 -56.667 -80 -116.667 -80 -180
c0 -101.333 42.667 -183.333 128 -246c76.667 -56 167.667 -84 273 -84c58 0 105 1 141 3c106 6 180.333 32.333 223 79c40 45.333 60 108.666 60 189.999c0 48.667 -8 105 -24 169c-14.667 55.333 -33.334 109.666 -56.001 162.999c-20 46.667 -40.333 87.334 -61 122.001
l-6 22c0 26 13.333 39 40 39c12 0 22 -6.33301 30 -19c2.66699 -4 6.66699 -10.667 12 -20c50.667 -88 91.334 -177.667 122.001 -269c31.333 -94.667 47 -178.667 47 -252c0 -68 21 -122.333 63 -163s97.333 -61 166 -61v-76c-55.333 0 -109.666 12 -162.999 36
c-59.333 26.667 -100.333 62.334 -123 107.001c-26 -43.333 -65.333 -77.333 -118 -102c-50 -23.333 -120.667 -37 -212 -41c-44.667 -2 -96 -3 -154 -3zM1224 1371c-16 -88.667 -44.332 -171.999 -84.999 -249.999c-46 -88.667 -103 -157.334 -171 -206.001
c-78.667 -57.333 -169 -86 -271 -86c-24.667 0 -37 13 -37 39c0 26.667 12.333 40 37 40c169.333 0 296 85.333 380 256c32 64.667 55 137 69 217c4 22.667 17.333 34 40 34c21.333 0 33.666 -8.66699 36.999 -26c0.666992 -6 1 -12 1 -18z" />
    <glyph glyph-name="uFEDB" unicode="&#x6a9;" horiz-adv-x="477" arabic-form="initial" 
d="M159 802c2.66699 -4 4.66699 -7.66797 6 -11.001c48.667 -94 86 -182.667 112 -266c28 -87.333 42 -166.666 42 -237.999c0 -99.333 -25 -175.666 -75 -228.999c-60 -65.333 -157 -98 -291 -98v76c188.667 0 283 89.667 283 269c0 49.333 -8.33301 105.666 -25 168.999
c-14 55.333 -32.333 109.666 -55 162.999c-20 46.667 -40.333 87.334 -61 122.001l-6 22c0 26 13.333 39 40 39c12 0 22 -6 30 -18zM477 1371c-26.667 -147.333 -80.332 -269.667 -160.999 -367c-28.667 -34 -60.334 -63.667 -95.001 -89
c-79.333 -57.333 -169.666 -86 -270.999 -86c-24.667 0 -37 13 -37 39c0 26.667 12.333 40 37 40c169.333 0 296 85.333 380 256c32 64.667 55 137 69 217c4 22.667 17.333 34 40 34c21.333 0 33.666 -8.66699 36.999 -26c0.666992 -6 1 -12 1 -18z" />
    <glyph glyph-name="uFEDC" unicode="&#x6a9;" horiz-adv-x="526" arabic-form="medial" 
d="M476 1371c-27.333 -147.333 -81.333 -269.667 -162 -367c-28 -34 -59.667 -63.667 -95 -89c-78.667 -57.333 -168.667 -86 -270 -86c-25.333 0 -38 13 -38 39c0 26.667 12.667 40 38 40c169.333 0 296 85.333 380 256c31.333 64.667 54.333 137 69 217
c4 22.667 17.333 34 40 34c20.667 0 32.667 -8.66699 36 -26c1.33301 -6 2 -12 2 -18zM568 -40.001c-55.333 0 -109.668 12 -163.001 36c-60 26.667 -101.333 62.334 -124 107.001c-56 -95.333 -165.667 -143 -329 -143v76c188.667 0 283 89.667 283 269
c0 49.333 -8.33301 105.666 -25 168.999c-14 55.333 -32.333 109.666 -55 162.999c-20.667 46.667 -41 87.334 -61 122.001l-6 22c0 26 13.333 39 40 39c11.333 0 21.333 -6 30 -18l12 -21c50.667 -88 91.334 -177.667 122.001 -269c31.333 -94.667 47 -178.667 47 -252
c0 -68 21 -122.333 63 -163s97.333 -61 166 -61v-76z" />
    <glyph glyph-name="uFB93" unicode="&#x6af;" horiz-adv-x="1219" arabic-form="final" 
d="M546 -43c-126 0 -232.667 34.332 -320 102.999c-96 76 -144 177 -144 303c0 119.333 44.333 209 133 269c71.333 48 160 72 266 72c54 0 102 -7.66699 144 -23c19.333 -7.33301 32.666 -13.333 39.999 -18c11.333 -7.33301 18.333 -17.666 21 -30.999
c2.66699 -17.333 -7.33301 -26 -30 -26c-9.33301 0 -23.666 1.66699 -42.999 5c-22.667 4 -37.334 6.33301 -44.001 7c-14 4 -34.667 9 -62 15c-19.333 3.33301 -37 5 -53 5c-85.333 0 -157.333 -31.667 -216 -95c-53.333 -56.667 -80 -116.667 -80 -180
c0 -101.333 42.667 -183.333 128 -246c76.667 -56 167.667 -84 273 -84c58 0 105 1 141 3c106 6 180.333 32.667 223 80c40 44.667 60 107.667 60 189c0 49.333 -8 105.666 -24 168.999c-14.667 55.333 -33.334 109.666 -56.001 162.999
c-20 46.667 -40.333 87.334 -61 122.001l-6 22c0 26 13.333 39 40 39c12 0 22 -6 30 -18l12 -21c50.667 -88 91.334 -177.667 122.001 -269c31.333 -94.667 47 -178.667 47 -252c0 -68 21 -122.333 63 -163s97.333 -61 166 -61v-76c-55.333 0 -109.666 12 -162.999 36
c-59.333 26.667 -100.333 62.334 -123 107.001c-26 -43.333 -65.333 -77.333 -118 -102c-50 -23.333 -120.667 -37 -212 -41c-44.667 -2 -96 -3 -154 -3zM1224 1371c-16 -88.667 -44.332 -171.999 -84.999 -249.999c-46 -88.667 -103 -157.334 -171 -206.001
c-78.667 -57.333 -169 -86 -271 -86c-24.667 0 -37 13 -37 39c0 26.667 12.333 40 37 40c169.333 0 296 85.333 380 256c32 64.667 55 137 69 217c4 22.667 17.333 34 40 34c21.333 0 33.666 -8.66699 36.999 -26c0.666992 -6 1 -12 1 -18zM1101 1383
c-21.333 -118 -64.3311 -215.999 -128.998 -293.999c-77.333 -93.333 -175 -140 -293 -140c-20 0 -30 10.667 -30 32c0 20.667 10 31 30 31c135.333 0 236.666 68.333 303.999 205c25.333 52 43.666 110 54.999 174c3.33301 18 14 27 32 27c17.333 0 27.333 -7 30 -21
c0.666992 -4.66699 1 -9.33398 1 -14.001z" />
    <glyph glyph-name="uFB94" unicode="&#x6af;" horiz-adv-x="477" arabic-form="initial" 
d="M159 801c2.66699 -3.33301 4.66699 -6.66699 6 -10c48.667 -94 86.334 -182.667 113.001 -266c27.333 -87.333 41 -167 41 -239c0 -98.667 -24.667 -174.667 -74 -228c-60 -65.333 -157.333 -98 -292 -98v76c188.667 0 283 89.667 283 269c0 48.667 -8 105 -24 169
c-14.667 55.333 -33.334 109.666 -56.001 162.999c-20 46.667 -40.333 87.334 -61 122.001l-6 22c0 26 13.333 39 40 39c12 0 22 -6.33301 30 -19zM477 1371c-26.667 -147.333 -80.3311 -269.667 -160.998 -367c-28.667 -34 -60.334 -63.667 -95.001 -89
c-78.667 -57.333 -169 -86 -271 -86c-24.667 0 -37 13 -37 39c0 26.667 12.333 40 37 40c169.333 0 296 85.333 380 256c32 64.667 55 137 69 217c4 22.667 17.333 34 40 34c21.333 0 33.666 -8.66699 36.999 -26c0.666992 -6 1 -12 1 -18zM354.003 1383
c-21.333 -118 -64.332 -215.999 -128.999 -293.999c-77.333 -93.333 -175 -140 -293 -140c-20 0 -30 10.667 -30 32c0 20.667 10 31 30 31c136 0 237.333 68.333 304 205c25.333 52 43.666 110 54.999 174c3.33301 18 14 27 32 27c17.333 0 27.333 -7 30 -21
c0.666992 -4.66699 1 -9.33398 1 -14.001z" />
    <glyph glyph-name="uFB95" unicode="&#x6af;" horiz-adv-x="527" arabic-form="medial" 
d="M476 1371c-26.667 -147.333 -80.668 -269.667 -162.001 -367c-28 -34 -59.333 -63.667 -94 -89c-79.333 -57.333 -169.666 -86 -270.999 -86c-24.667 0 -37 13 -37 39c0 26.667 12.333 40 37 40c169.333 0 296 85.333 380 256c31.333 64.667 54.333 137 69 217
c4 22.667 17.333 34 40 34c20.667 0 32.667 -8.66699 36 -26c1.33301 -6 2 -12 2 -18zM567.999 -40.001c-55.333 0 -109.668 11.999 -163.001 35.999c-60 26.667 -101.333 62.334 -124 107.001c-56 -95.333 -165.667 -143 -329 -143v76c188.667 0 283 89.667 283 269
c0 48.667 -8.33301 105 -25 169c-14 55.333 -32.333 109.666 -55 162.999c-20 46.667 -40.333 87.334 -61 122.001l-6 22c0 26 13.333 39 40 39c12 0 22 -6.33301 30 -19c2.66699 -4 6.66699 -10.667 12 -20c50.667 -88 91.334 -177.667 122.001 -269
c31.333 -94.667 47 -178.667 47 -252c0 -68 21 -122.333 63 -163s97.333 -61 166 -61v-76zM352.997 1383c-22 -118 -65.332 -215.999 -129.999 -293.999c-76.667 -93.333 -174 -140 -292 -140c-20 0 -30 10.667 -30 32c0 20.667 10 31 30 31
c135.333 0 236.666 68.333 303.999 205c25.333 52 43.666 110 54.999 174c3.33301 18 14 27 32 27c16.667 0 26.334 -7 29.001 -21c1.33301 -4.66699 2 -9.33398 2 -14.001z" />
    <glyph glyph-name="uFE94" unicode="&#x6c0;" horiz-adv-x="805" arabic-form="final" 
d="M846 -40c-102 0 -165.668 58.333 -191.001 175l-25 327c-9.33301 117.333 -56 176 -140 176c-98 0 -178 -46.667 -240 -140c-54.667 -81.333 -82 -172 -82 -272c0 -126.667 39.333 -190 118 -190c72 0 140.333 31.667 205 95c61.333 59.333 100.333 125.666 117 198.999
c0.666992 8 4.83398 14.833 12.501 20.5s15.167 8.5 22.5 8.5c12 0 22 -3.66699 30 -11s12 -17 12 -29l-1 -7c-11.333 -78.667 -57.333 -157 -138 -235s-167.334 -117 -260.001 -117c-67.333 0 -118.333 29.333 -153 88c-28 48 -42 108.333 -42 181
c0 77.333 15.333 152 46 224c32.667 76.667 77.334 138.334 134.001 185.001c63.333 51.333 136.333 77 219 77c109.333 0 179.333 -58.333 210 -175l30 -334c0 -113.333 38.667 -170 116 -170v-76zM414.999 1068c-52 -22 -77.998 -40.001 -77.998 -54.001
c8 -5.33301 25 -11 51 -17c21.333 -4.66699 36.666 -15.667 45.999 -33c6 -12 9 -24.333 9 -37c0 -34.667 -21.333 -66 -64 -94c-2.66699 -2 -8 -3.66699 -16 -5c-16.667 0 -26.334 10.333 -29.001 31c0 9.33301 4.33301 17.333 13 24l24 17c9.33301 10.667 14 20 14 28
l-4 11l-59 15c-29.333 10.667 -44 30.667 -44 60c0 38.667 38.667 74.334 116 107.001l12 2c16 0 25.333 -9.66699 28 -29c0 -12 -6.33301 -20.667 -19 -26z" />
    <glyph glyph-name="uFEF2" unicode="&#x6cc;" horiz-adv-x="950" arabic-form="final" 
d="M895 -40c19.333 -16.667 34.3359 -35.333 45.0029 -56c4.66699 -8.66699 8.66699 -19.167 12 -31.5s4.66602 -23.5 3.99902 -33.5l-2 -26c-25.333 -139.333 -208 -209 -548 -209c-206 0 -309 75.333 -309 226c0 62 18.333 127.333 55 196
c33.333 63.333 75 117.333 125 162c7.33301 7.33301 16 11 26 11c26.667 0 40 -13.333 40 -40c0 -10.667 -4.33301 -20 -13 -28c-104.667 -96 -157 -188.667 -157 -278c0 -114 77.667 -171 233 -171c99.333 0 189.333 8 270 24c135.333 26.667 203 71.667 203 135
c0 40 -27.667 71 -83 93c-42.667 17.333 -87.334 26 -134.001 26c-22.667 0 -35.667 12.667 -39 38c0 11.333 3.66699 20.333 11 27c5.33301 7.33301 14.666 11 27.999 11h329l-6 -76h-90z" />
    <glyph glyph-name="uFEF3" unicode="&#x6cc;" horiz-adv-x="340" arabic-form="initial" 
d="M135 692l11.0029 -28.998l29 -81c11.333 -32 22.666 -78.333 33.999 -139c10 -52.667 15 -103.334 15 -152.001c0 -220.667 -89.667 -331 -269 -331v76c66 0 114.667 25 146 75c26.667 43.333 40 103 40 179c0 61.333 -9 131.333 -27 210
c-14.667 66 -31.334 120.333 -50.001 163l-3 16c0 24.667 13.667 37 41 37c8 0 14.667 -1.83301 20 -5.5s9.66602 -9.83398 12.999 -18.501zM276.003 -208.998c0 -20.667 -6.66699 -38.333 -20 -53s-31 -22 -53 -22c-31.333 0 -54 15.333 -68 46c-4 9.33301 -6 19 -6 29
c0 20.667 7.33301 38.167 22 52.5s32 21.5 52 21.5c20.667 0 38 -7.33301 52 -22s21 -32 21 -52zM129.003 -208.997c0 -21.333 -7.16797 -39.166 -21.501 -53.499s-31.833 -21.5 -52.5 -21.5c-20 0 -37.5 7.66699 -52.5 23s-22.5 32.666 -22.5 51.999
c0 20.667 7.33301 38.167 22 52.5s32.334 21.5 53.001 21.5c20 0 37.333 -7.16699 52 -21.5s22 -31.833 22 -52.5z" />
    <glyph glyph-name="uFEF4" unicode="&#x6cc;" horiz-adv-x="488" arabic-form="medial" 
d="M530 -40c-67.333 0 -122.333 23 -165 69c-40 42.667 -63.333 98.667 -70 168c-10.667 -64 -55 -120.667 -133 -170c-71.333 -44.667 -141.333 -67 -210 -67v76c158.667 0 265 137 319 411c17.333 87.333 26 164 26 230c0 23.333 10.667 35 32 35
c30 0 44.667 -15.667 44 -47l-2 -95l-1 -95c-2 -173.333 16.333 -296 55 -368c26 -47.333 61 -71 105 -71v-76zM377 -209c0 -20.667 -7.16699 -38.334 -21.5 -53.001s-31.833 -22 -52.5 -22s-38.167 7.33301 -52.5 22s-21.5 32.334 -21.5 53.001s7.16699 38.167 21.5 52.5
s31.833 21.5 52.5 21.5s38.167 -7.33301 52.5 -22s21.5 -32 21.5 -52zM229 -209c0 -20.667 -7.16602 -38.334 -21.499 -53.001s-31.5 -22 -51.5 -22c-20.667 0 -38.334 7.33301 -53.001 22s-22 32.334 -22 53.001c0 49.333 25 74 75 74c20.667 0 37.667 -7 51 -21
c14.667 -16 22 -33.667 22 -53z" />
    <glyph glyph-name="Hcircumflex" unicode="&#x622;" horiz-adv-x="421" arabic-form="final" 
d="M462 -40c-145.333 0 -234.333 80.334 -267 241.001c-4.66699 24.667 -9 61.167 -13 109.5s-6 92.833 -6 133.5l3 138l7 232c2 59.333 -1.33301 122.666 -10 189.999c-6.66699 53.333 -19.667 102 -39 146l-3 9v8c0 24.667 13.333 37 40 37c8 0 14.667 -1.66699 20 -5
s9.66602 -9 12.999 -17c28.667 -70.667 45 -161 49 -271c1.33301 -34 2 -76.667 2 -128c0 -18 -0.333008 -42.333 -1 -73c-1.33301 -36 -2 -60.333 -2 -73l-2 -160c-1.33301 -88.667 3.33398 -167 14.001 -235c22 -137.333 87 -206 195 -206v-76zM68 1256
c34 61.333 72.666 92.001 115.999 92.001c10.667 0 20 -1.33301 28 -4l31 -11l26 -10l18 -2c16 0 35 18 57 54c6.66699 10.667 15.334 16 26.001 16c19.333 0 29 -9.66699 29 -29c0 -5.33301 -1.33301 -10.666 -4 -15.999c-32 -55.333 -67.333 -83 -106 -83
c-20.667 0 -43 5.66699 -67 17c-14.667 5.33301 -27.334 8.66602 -38.001 9.99902c-17.333 0 -34.666 -12.667 -51.999 -38c-2.66699 -4.66699 -7 -12.667 -13 -24c-1.33301 -4 -5.33301 -7.66699 -12 -11l-13 -5c-20 0 -30 9.33301 -30 28
c0 5.33301 1.33301 10.666 4 15.999z" />
    <glyph glyph-name="uFE84" unicode="&#x623;" horiz-adv-x="383" arabic-form="final" 
d="M424 -40c-144.667 0 -233.332 80.334 -265.999 241.001c-5.33301 24.667 -10 61.167 -14 109.5s-5.66699 92.833 -5 133.5l2 138l7 232c2 59.333 -1 122.666 -9 189.999c-6.66699 53.333 -19.667 102 -39 146l-3 9v8c0 24.667 13.333 37 40 37
c7.33301 0 13.833 -1.66699 19.5 -5s10.167 -9 13.5 -17c28 -70.667 44.333 -161 49 -271c1.33301 -34 2 -76.667 2 -128c0 -18 -0.666992 -42.333 -2 -73c-0.666992 -36 -1.33398 -60.333 -2.00098 -73l-2 -160c-0.666992 -88.667 4.33301 -167 15 -235
c22 -137.333 86.667 -206 194 -206v-76zM182.002 1532c-17.333 -6.66699 -31.999 -13.998 -43.999 -21.998c-21.333 -14 -32.333 -25 -33 -33c4 -2 21.333 -6.66699 52 -14c36.667 -8.66699 55 -32 55 -70c0 -34.667 -21.667 -66.334 -65 -95.001
c-4 -2 -9.66699 -3.66699 -17 -5c-6.66699 0 -13.334 3 -20.001 9c-4 5.33301 -6.66699 12.333 -8 21c0 7.33301 5 15.333 15 24l23.5 20.5c7.66699 7 12.167 15.833 13.5 26.5l-2 9c-35.333 5.33301 -61.5 13.5 -78.5 24.5s-25.5 27.5 -25.5 49.5
c0 43.333 38 79.666 114 108.999l12 2c18 0 27 -9.66699 27 -29c0 -13.333 -6.33301 -22.333 -19 -27z" />
    <glyph glyph-name="uFE86" unicode="&#x624;" horiz-adv-x="773" arabic-form="final" 
d="M815 -40c-124 0 -241.67 19.332 -353.003 57.999c-129.333 45.333 -227.666 110.333 -294.999 195c-52 65.333 -78 138 -78 218c0 78.667 26.667 145.667 80 201s119.333 83 198 83c94 0 172 -46.667 234 -140c54.667 -82.667 82 -173.667 82 -273
c0 -134.667 -43.333 -270.5 -130 -407.5s-191 -233.833 -313 -290.5l-18 -4c-26 0 -39 14 -39 42c0 15.333 7.66699 26.666 23 33.999c110 50.667 204.167 137.334 282.5 260.001s117.5 244.667 117.5 366c0 76.667 -20.333 149 -61 217c-46.667 79.333 -106 119 -178 119
c-57.333 0 -105.166 -20.167 -143.499 -60.5s-57.5 -89.166 -57.5 -146.499c0 -76 38 -146.333 114 -211c66.667 -56.667 152.334 -101.667 257.001 -135c102 -32.667 194.667 -49 278 -49v-76zM355.997 1029c-22.667 -14 -34.001 -24.332 -34.001 -30.999
c6.66699 -4 26.667 -9.66699 60 -17c15.333 -2.66699 27.666 -12.334 36.999 -29.001l8 -20l2 -19c0 -34.667 -20.667 -66 -62 -94c-5.33301 -3.33301 -11.333 -5 -18 -5c-7.33301 0 -14.666 2.66699 -21.999 8c-4 5.33301 -6.66699 13 -8 23
c0 8.66699 3.66699 15.667 11 21c6 3.33301 12.667 8.33301 20 15c14 12.667 21.333 23.667 22 33l-3 10c-69.333 8.66699 -104 33.334 -104 74.001c0 43.333 38 79.666 114 108.999c2.66699 1.33301 6.33398 2 11.001 2c20 0 30 -10 30 -30c0 -12 -5.5 -20.167 -16.5 -24.5
s-26.833 -12.833 -47.5 -25.5z" />
    <glyph glyph-name="uFE88" unicode="&#x625;" horiz-adv-x="383" arabic-form="final" 
d="M424 -40c-169.333 0 -267.332 124.666 -293.999 373.999c-8.66699 75.333 -13.334 191 -14.001 347l-1 215c0 64.667 -4.66699 132 -14 202c-8.66699 64 -22 116 -40 156l-3 16c0 24.667 13 37.334 39 38.001c16 0.666992 27.667 -7 35 -23
c40.667 -93.333 61 -264 61 -512c0 -239.333 8 -403 24 -491c31.333 -164 100.333 -246 207 -246v-76zM240.001 -153.001c-9.33301 -2.66699 -23.998 -10.666 -43.998 -23.999c-22.667 -14.667 -34 -25.334 -34 -32.001c6.66699 -4 19 -7.66699 37 -11
c30 -6 49 -17.667 57 -35c7.33301 -14.667 11 -27.667 11 -39c0 -34 -21 -65.333 -63 -94c-2.66699 -2 -8.33398 -3.66699 -17.001 -5c-6.66699 0 -13.667 3 -21 9c-4 5.33301 -6.66699 12.666 -8 21.999c0 8.66699 4.66699 16 14 22l23 20c8 9.33301 12.667 18.333 14 27
l-3 11c-13.333 2.66699 -33.333 7.66699 -60 15c-29.333 10 -44 29.333 -44 58c0 31.333 25 61.333 75 90c12 6.66699 25.667 13.334 41 20.001l13 2c15.333 0 24.666 -10.333 27.999 -31c0 -10.667 -6.33301 -19 -19 -25z" />
    <glyph glyph-name="uFE8A" unicode="&#x626;" horiz-adv-x="954" arabic-form="final" 
d="M901 -40c40.667 -35.333 61 -77.002 61 -125.002v-11l-2 -11c-15.333 -83.333 -93.333 -142.333 -234 -177c-88.667 -21.333 -194 -32 -316 -32c-206 0 -309 75.333 -309 226c0 60 17.333 123 52 189s77.334 122.333 128.001 169c7.33301 7.33301 16.333 11 27 11
c23.333 0 36.333 -13.333 39 -40c0 -10.667 -4.33301 -20 -13 -28c-104.667 -93.333 -157 -186 -157 -278c0 -114 77.667 -171 233 -171c101.333 0 191.333 7.66699 270 23c135.333 26.667 203 72.334 203 137.001c0 38.667 -27.333 69.334 -82 92.001
c-42 17.333 -85.667 26 -131 26c-28 0 -42 12.667 -42 38c0 11.333 3.66699 20.333 11 27c5.33301 7.33301 15.666 11 30.999 11h325v-76h-94zM454 470.998c-52 -22 -77.998 -40.334 -77.998 -55.001c8 -4.66699 24.667 -10 50 -16c22 -5.33301 37.667 -16.333 47 -33
c6 -12 9 -24.333 9 -37c0 -34.667 -21.333 -66 -64 -94c-2.66699 -2 -8 -3.66699 -16 -5c-16.667 0 -26.334 10.333 -29.001 31c0 9.33301 4.33301 17 13 23l24 18c8.66699 10 13 19.333 13 28l-3 11l-59 15c-29.333 10.667 -44 30.334 -44 59.001
c0 39.333 38.667 75 116 107l12 2c15.333 0 24.666 -9.33301 27.999 -28c0 -12 -6.33301 -20.667 -19 -26z" />
    <glyph glyph-name="uFE8B" unicode="&#x626;" horiz-adv-x="341" arabic-form="initial" 
d="M136 692l11.999 -29.998l29 -80c11.333 -32 22.333 -78.333 33 -139c10 -52.667 15 -103.334 15 -152.001c0 -220.667 -89.667 -331 -269 -331v76c66.667 0 115.334 25 146.001 75c27.333 43.333 41 103 41 179c0 61.333 -9 131.333 -27 210
c-15.333 66 -32.333 120 -51 162l-3 17c0 24.667 13.667 37 41 37c8.66699 0 15.5 -1.83301 20.5 -5.5s9.16699 -9.83398 12.5 -18.501zM164.999 988.002l-22 -13c-20.667 -13.333 -31.667 -23.666 -33 -30.999c6.66699 -4.66699 23.667 -10 51 -16
c22 -4.66699 37 -15.334 45 -32.001c7.33301 -14 11 -26.667 11 -38c0 -35.333 -21.667 -67 -65 -95c-5.33301 -3.33301 -11 -5 -17 -5c-7.33301 0 -13.5 3 -18.5 9s-8.5 13.333 -10.5 22c0 8 5 16.333 15 25l23.5 20.5c7.66699 7 12.167 15.5 13.5 25.5l-2 9l-41 11
c-42 10 -63 31.333 -63 64c0 42.667 38 79 114 109l13 2c17.333 0 26 -10.333 26 -31c0 -9.33301 -13.333 -21.333 -40 -36z" />
    <glyph glyph-name="uFE8C" unicode="&#x626;" horiz-adv-x="488" arabic-form="medial" 
d="M530 -40c-68.667 0 -126 25.667 -172 77c-39.333 44.667 -62.666 101 -69.999 169c-10 -65.333 -52.333 -123.333 -127 -174c-70.667 -48 -140.334 -72 -209.001 -72v76c158.667 0 265 137 319 411c17.333 87.333 26 164 26 230c0 23.333 10.667 35 32 35
c30 0 44.667 -16 44 -48l-2 -94l-1 -95c-2 -173.333 16.333 -296 55 -368c26 -47.333 61 -71 105 -71v-76zM288 998c-9.33301 -4 -24.333 -11.667 -45 -23c-20.667 -13.333 -31.667 -23.666 -33 -30.999c6.66699 -4.66699 24 -10 52 -16c22 -4.66699 37 -15.334 45 -32.001
c6.66699 -14 10 -26.667 10 -38c0 -31.333 -21.667 -63 -65 -95c-4.66699 -3.33301 -10 -5 -16 -5c-7.33301 0 -14.333 3 -21 9c-4 6 -6.66699 13.333 -8 22c0 8 4.33301 15.667 13 23s17 14 25 20c10 10 15 19.333 15 28l-4 9c-1.33301 2 -15.333 5.66699 -42 11
c-40.667 8 -61 29.333 -61 64c0 44.667 38 81 114 109l11 2c19.333 0 29 -10.333 29 -31c0 -11.333 -6.33301 -20 -19 -26z" />
    <glyph glyph-name="uFE8E" unicode="&#x627;" horiz-adv-x="383" arabic-form="final" 
d="M424 -40c-169.333 0 -267.332 124.666 -293.999 373.999c-8.66699 75.333 -13.334 191 -14.001 347l-1 215c0 64.667 -4.66699 132 -14 202c-8.66699 64 -22 116 -40 156l-3 16c0 24.667 13 37.334 39 38.001c16 0.666992 27.667 -7 35 -23
c40.667 -93.333 61 -264 61 -512c0 -239.333 8 -403 24 -491c31.333 -164 100.333 -246 207 -246v-76z" />
    <glyph glyph-name="uFE90" unicode="&#x628;" horiz-adv-x="1012" arabic-form="final" 
d="M1055 -40c-68.667 0 -125.666 22.6719 -170.999 68.0049c-43.333 43.333 -69.333 99.666 -78 168.999c-46 -70.667 -105 -127.334 -177 -170.001c-74.667 -44.667 -153 -67 -235 -67c-104 0 -186 24.667 -246 74c-65.333 53.333 -98 130.666 -98 231.999
c0 78.667 19.833 158.167 59.5 238.5s91.167 144.166 154.5 191.499c5.33301 4.66699 12.666 7.66699 21.999 9c23.333 0 36.333 -13.333 39 -40c0 -12.667 -5 -22.667 -15 -30c-50.667 -38.667 -93 -87.334 -127 -146.001c-40.667 -69.333 -61 -135.666 -61 -198.999
c0 -81.333 25.667 -144.333 77 -189c48 -43.333 113 -65 195 -65c102 0 194 38.333 276 115c80 75.333 127.667 163.666 143 264.999l2 9l40 252c2 12 6.16699 20.833 12.5 26.5s14.833 8.5 25.5 8.5s19.834 -3.5 27.501 -10.5s11.5 -16.833 11.5 -29.5l-1 -7l-40 -262
c-4 -33.333 -6 -60 -6 -80c0 -76 11.333 -139 34 -189c29.333 -65.333 74.666 -98 135.999 -98v-76zM350.001 -216.995c0 20 7.33301 37.333 22 52s32 22 52 22c20.667 0 38.167 -7.33301 52.5 -22s21.5 -32 21.5 -52s-7.33301 -37.333 -22 -52s-32 -22 -52 -22
c-49.333 0 -74 24.667 -74 74z" />
    <glyph glyph-name="uFE91" unicode="&#x628;" horiz-adv-x="341" arabic-form="initial" 
d="M136 692l11.999 -29.998l29 -80c11.333 -32 22.333 -78.333 33 -139c10 -52.667 15 -103.334 15 -152.001c0 -220.667 -89.667 -331 -269 -331v76c66.667 0 115.334 25 146.001 75c27.333 43.333 41 103 41 179c0 61.333 -9 131.333 -27 210
c-15.333 66 -32.333 120 -51 162l-3 17c0 24.667 13.667 37 41 37c8.66699 0 15.5 -1.83301 20.5 -5.5s9.16699 -9.83398 12.5 -18.501zM73.999 -216.998c0 20.667 6.5 38.167 19.5 52.5s30.833 21.5 53.5 21.5c20.667 0 38.167 -7.16699 52.5 -21.5
s21.5 -31.833 21.5 -52.5c0 -20 -7.33301 -37.333 -22 -52s-32 -22 -52 -22c-21.333 0 -38.833 7.33301 -52.5 22s-20.5 32 -20.5 52z" />
    <glyph glyph-name="uFE92" unicode="&#x628;" horiz-adv-x="488" arabic-form="medial" 
d="M530 -40c-68 0 -122.331 29.333 -162.998 88c-32.667 46.667 -53.334 106.667 -62.001 180c-9.33301 -57.333 -50.333 -115.333 -123 -174c-76.667 -62.667 -153.334 -94 -230.001 -94v76c160 0 266.333 132.333 319 397c17.333 86.667 26 168 26 244
c0 23.333 10.667 35 32 35c30 0 44.667 -15.667 44 -47l-2 -95l-1 -95c-2 -173.333 16.333 -296 55 -368c26 -47.333 61 -71 105 -71v-76zM166.002 -217c0 20.667 7.5 38.167 22.5 52.5s32.833 21.5 53.5 21.5c20 0 37.167 -7.16699 51.5 -21.5s21.5 -31.833 21.5 -52.5
s-7.16699 -38.167 -21.5 -52.5s-31.5 -21.5 -51.5 -21.5c-22 0 -40.167 7.16699 -54.5 21.5s-21.5 31.833 -21.5 52.5z" />
    <glyph glyph-name="uFE96" unicode="&#x62a;" horiz-adv-x="1012" arabic-form="final" 
d="M1055 -40c-68.667 0 -125.666 22.6729 -170.999 68.0059c-43.333 43.333 -69.333 99.666 -78 168.999c-46 -70.667 -105 -127.334 -177 -170.001c-74.667 -44.667 -153 -67 -235 -67c-104 0 -186 24.667 -246 74c-65.333 53.333 -98 130.666 -98 231.999
c0 78.667 19.833 158.167 59.5 238.5s91.167 144.166 154.5 191.499c5.33301 4.66699 12.666 7.66699 21.999 9c23.333 0 36.333 -13.333 39 -40c0 -12 -5 -22 -15 -30c-50.667 -38.667 -93 -87.334 -127 -146.001c-40.667 -69.333 -61 -135.666 -61 -198.999
c0 -81.333 25.667 -144.333 77 -189c48 -43.333 113 -65 195 -65c102 0 194 38.333 276 115c80 75.333 127.667 163.666 143 264.999l2 9l40 252c2 12 6.16699 20.833 12.5 26.5s14.833 8.5 25.5 8.5s19.834 -3.5 27.501 -10.5s11.5 -16.833 11.5 -29.5l-1 -7l-40 -262
c-4 -32.667 -6 -59.334 -6 -80.001c0 -76 11.333 -139 34 -189c29.333 -65.333 74.666 -98 135.999 -98v-76zM684.001 892.006c0 -20 -7.33301 -37.167 -22 -51.5s-32 -21.5 -52 -21.5c-22 0 -39.667 7 -53 21s-20 31.333 -20 52c0 49.333 24.333 74 73 74
c20 0 37.333 -7 52 -21s22 -31.667 22 -53zM537.001 892.006c0 -20 -7.33105 -37.167 -21.998 -51.5s-32.334 -21.5 -53.001 -21.5c-49.333 0 -74 24.333 -74 73c0 20.667 7.33301 38.167 22 52.5s32 21.5 52 21.5c21.333 0 39.166 -7.33301 53.499 -22s21.5 -32 21.5 -52z
" />
    </font>
</defs>
</svg>
