<?xml version="1.0" standalone="no"?>
<!DOCTYPE svg PUBLIC "-//W3C//DTD SVG 1.1//EN" "http://www.w3.org/Graphics/SVG/1.1/DTD/svg11.dtd" >
<svg>
<metadata>
Created by FontForge 20090914 at Wed Oct 19 01:10:08 2011
 By www-data
(c) by Abolfazl Seilsepour - +98 912 591 3420  -  seilsepor@yahoo.com
</metadata>
<defs>
<font id="FarFanni" horiz-adv-x="1" >
  <font-face 
    font-family="Far.Fanni"
    font-weight="400"
    font-stretch="normal"
    units-per-em="2048"
    panose-1="0 0 4 0 0 0 0 0 0 0"
    ascent="1638"
    descent="-410"
    bbox="-233 -1063 2946 2570"
    underline-thickness="100"
    underline-position="-850"
    unicode-range="U+0020-U+FEFC"
  />
<missing-glyph horiz-adv-x="1024" 
d="M128 0v1360h768v-1360h-768zM256 128h512v1104h-512v-1104z" />
    <glyph glyph-name="uniE818" unicode="&#x651;&#x64b;" 
d="M617 1849l-462 -190v149l462 184v-143zM616 1375c-34.667 -40.667 -79.3311 -60.998 -133.998 -60.998c-58 0 -96 15.667 -114 47c-28.667 -32.667 -76.334 -49 -143.001 -49c-47.333 0 -86.666 21.667 -117.999 65c-21.333 31.333 -32 62.666 -32 93.999
c0 27.333 7.66699 56.666 23 87.999c22.667 46 50.667 69 84 69c28.667 0 43 -14.333 43 -43l-5 -67c0 -28.667 10 -43 30 -43c24.667 0 42 11 52 33c1.33301 1.33301 3.66602 9 6.99902 23l14 61c8 26.667 26 40 54 40c31.333 0 48.666 -14.667 51.999 -44
c8 -79.333 25.667 -119 53 -119c23.333 0 35 15.667 35 47c0 14.667 -4.33301 37 -13 67l105 85c32.667 -51.333 49 -107 49 -167c0 -48 -14 -90 -42 -126zM617.003 2039l-462 -189v148l462 182v-141z" />
    <glyph glyph-name="uniFC5E" unicode="&#x651;&#x64c;" arabic-form="isolated" 
d="M547 1434c-34.667 -40.667 -79.334 -61 -134.001 -61c-59.333 0 -97.666 15.667 -114.999 47c-29.333 -34 -76.666 -51 -141.999 -51c-43.333 0 -80 18.667 -110 56c-26.667 34 -40 69 -40 105c0 28 7.66699 57.667 23 89c22.667 45.333 50.667 68 84 68
c28.667 0 43 -14 43 -42l-5 -70c0 -28 10 -42 30 -42c24.667 0 42 10.333 52 31c4 10 11 38.333 21 85c6 28.667 24 43 54 43c33.333 0 50.666 -15.333 51.999 -46c8 -79.333 25.667 -119 53 -119c23.333 0 35 15.667 35 47c0 14.667 -4.33301 37 -13 67l105 87
c32.667 -52.667 49 -108.667 49 -168c0 -48 -14 -90 -42 -126zM524 1883c-3.33301 1.33301 14.999 -3.33398 54.999 -14.001l-65 -112c-59.333 9.33301 -100 22 -122 38c-88.667 -52.667 -173.667 -79 -255 -79c-38 0 -76.333 41.667 -115 125
c56.667 0 87.334 0.666992 92.001 2c14.667 16 22 34 22 54c0 11.333 -3 17 -9 17c-10.667 0 -37.334 -23 -80.001 -69l-24 118c40.667 46.667 83.334 70 128.001 70c16.667 0 33 -3.66699 49 -11c40 -19.333 60 -51.666 60 -96.999c0 -33.333 -4 -56.333 -12 -69
c23.333 2.66699 42.333 9.66699 57 21c-27.333 46 -41 79.667 -41 101c0 44.667 30 89 90 133c53.333 38 95.333 57 126 57c83.333 0 125 -45 125 -135c0 -40 -27 -90 -81 -150zM439.999 2041c-20 0 -30 -12.333 -30 -37c0 -26.667 7.33301 -45.667 22 -57
c14.667 8.66699 22 33 22 73c0 14 -4.66699 21 -14 21z" />
    <glyph glyph-name="uniFC5F" unicode="&#x651;&#x64d;" horiz-adv-x="0" arabic-form="isolated" 
d="M570 1903c-34.667 -40.667 -79.334 -61 -134.001 -61c-59.333 0 -97.666 15.333 -114.999 46c-29.333 -33.333 -76.666 -50 -141.999 -50c-43.333 0 -80 18.667 -110 56c-26.667 34 -40 69 -40 105c0 27.333 7.66699 56.666 23 87.999c22.667 46 50.667 69 84 69
c28.667 0 43 -14.333 43 -43l-5 -69c0 -28 10 -42 30 -42c24.667 0 42 10 52 30c4 10.667 11 39.334 21 86.001c6 28 24 42 54 42c33.333 0 50.666 -15.333 51.999 -46c8 -79.333 25.667 -119 53 -119c23.333 0 35 15.667 35 47c0 15.333 -4.33301 38 -13 68l105 86
c32.667 -52 49 -107.667 49 -167c0 -48 -14 -90 -42 -126zM547 1666l-461 -188v148l461 182v-142zM547 1450l-461 -188v148l461 182v-142z" />
    <glyph glyph-name="uniFC60" unicode="&#x651;&#x64e;" arabic-form="isolated" 
d="M632 1559c-34.667 -40.667 -79.334 -60.999 -134.001 -60.999c-59.333 0 -97.666 15.667 -114.999 47c-29.333 -34 -76.666 -51 -141.999 -51c-43.333 0 -80 18.667 -110 56c-26.667 34 -40 69 -40 105c0 27.333 7.66699 56.666 23 87.999c22.667 46 50.667 69 84 69
c28.667 0 43 -14.333 43 -43l-5 -68c0 -28.667 10 -43 30 -43c24.667 0 42 10.333 52 31c4 9.33301 11 38 21 86c6 27.333 24 41 54 41c33.333 0 50.666 -15.333 51.999 -46c8 -79.333 25.667 -119 53 -119c23.333 0 35 15.667 35 47c0 15.333 -4.33301 38 -13 68l105 86
c32.667 -52 49 -107.667 49 -167c0 -48 -14 -90 -42 -126zM639 2039l-462 -190v149l462 182v-141z" />
    <glyph glyph-name="uniFC61" unicode="&#x651;&#x64f;" horiz-adv-x="0" arabic-form="isolated" 
d="M565 1392c-34.667 -40.667 -79.666 -61 -134.999 -61c-57.333 0 -95 15.667 -113 47c-28 -33.333 -75.667 -50 -143 -50c-46.667 0 -85.667 22.333 -117 67c-22 30.667 -33 61.667 -33 93c0 28 7.66699 57.333 23 88c22 46 50 69 84 69c28.667 0 43 -14 43 -42l-6 -68
c0 -28 10 -42 30 -42c25.333 0 43 10.333 53 31c1.33301 2 3.66602 10 6.99902 24l15 61c8 26.667 26 40 54 40c31.333 0 48.333 -14.667 51 -44c8.66699 -79.333 26 -119 52 -119c23.333 0 35 15.333 35 46c0 16 -3.66699 39 -11 69l104 83c33.333 -50.667 50 -106 50 -166
c0 -48 -14.333 -90 -43 -126zM517.001 1898c-3.33301 2 15.3359 -1.33203 56.0029 -9.99902l-63 -115c-64 12 -105.333 24.667 -124 38c-92.667 -52.667 -177.334 -79 -254.001 -79c-40.667 0 -78.334 41.667 -113.001 125c99.333 2.66699 161.666 5.66699 186.999 9
c46.667 5.33301 77.667 14.666 93 27.999c-26.667 48.667 -40 82.667 -40 102c0 44 30 87.667 90 131c53.333 40 95 60 125 60c40.667 0 73 -16.667 97 -50c18 -24.667 27 -53.667 27 -87c0 -42 -27 -92.667 -81 -152zM435.003 2059c-22 0 -33 -12.667 -33 -38
c0 -26.667 7.66699 -45.667 23 -57c15.333 10 23 34 23 72c0 15.333 -4.33301 23 -13 23z" />
    <glyph glyph-name="uniFC62" unicode="&#x651;&#x650;" horiz-adv-x="0" arabic-form="isolated" 
d="M576 1893c-34.667 -41.333 -79.334 -62 -134.001 -62c-59.333 0 -97.666 15.667 -114.999 47c-29.333 -33.333 -76.666 -50 -141.999 -50c-43.333 0 -80 18.667 -110 56c-26.667 34 -40 69 -40 105c0 27.333 7.66699 56.666 23 87.999c22.667 46 50.667 69 84 69
c28.667 0 43 -14.333 43 -43l-5 -69c0 -28 10 -42 30 -42c24.667 0 42 10 52 30c4 10.667 11 39.334 21 86.001c6 28 24 42 54 42c33.333 0 50.666 -15.333 51.999 -46c8 -79.333 25.667 -119 53 -119c23.333 0 35 15.667 35 47c0 15.333 -4.33301 38 -13 68l105 86
c32.667 -52 49 -107.667 49 -167c0 -48 -14 -90 -42 -126zM553 1656l-461 -188v147l461 183v-142z" />
    <glyph glyph-name="uniFDF2" unicode="&#xfedf;&#xfee0;&#xfeea;" horiz-adv-x="3013" arabic-form="isolated" 
d="M2946 455c0 -25.333 -1.16699 -53.5029 -3.5 -84.5029s-7.83301 -62.333 -16.5 -94s-21.667 -62.667 -39 -93s-40.666 -57.833 -70 -82.5c-24 -25.333 -57.833 -47.166 -101.5 -65.499s-93.334 -33 -149 -44c-55.667 -11 -115 -18 -178 -21s-125.333 -2 -187 3
s-120.834 14.333 -177.5 28c-56.667 13.667 -106.334 31.834 -149.001 54.501c-28 -14 -56.833 -24.833 -86.5 -32.5s-59 -13.334 -88 -17.001s-56.833 -5.83398 -83.5 -6.50098s-51 -1 -73 -1l-1100 1c-85.333 0 -156.666 17.667 -213.999 53s-100 87.333 -128 156
c-21.333 52 -34.833 108.333 -40.5 169s-8.5 124.334 -8.5 191.001c0 33.333 0.666992 66 2 98s4.66602 63.333 9.99902 94s13.333 60.334 24 89.001s25.334 56 44.001 82c23.333 33.333 49.833 60 79.5 80s60.5 35.5 92.5 46.5s64.167 18.167 96.5 21.5s62.833 5 91.5 5
h309v197h402v-1007h213c20 0 39.5 0.833008 58.5 2.5s37 5.33398 54 11.001s33.167 13.5 48.5 23.5s29.333 23.667 42 41c12 16 21.5 32.667 28.5 50s12.333 35 16 53s6 35.833 7 53.5s1.5 34.5 1.5 50.5v722h402v-576l2 2l-2 -208
c-4.66699 -31.333 -2.16699 -62.5 7.5 -93.5s25 -58.333 46 -82s46.833 -42.167 77.5 -55.5s64.667 -18 102 -14c38 -4 72.5 0.833008 103.5 14.5s57.167 32.667 78.5 57s36.833 52.333 46.5 84s12.167 63.5 7.5 95.5v928h402v-979zM1971 1735l0.000976562 -216h96
c4 0 8 0.333008 12 1s7.66699 3 11 7c4 4.66699 6 13.667 6 27v181h160v-264c0 -8.66699 -1.16699 -18 -3.5 -28s-7.83301 -19 -16.5 -27c-6 -5.33301 -14 -10 -24 -14s-21.333 -6 -34 -6h-575c-14.667 0 -26.5 2 -35.5 6s-16.167 8.66699 -21.5 14
c-9.33301 8 -15.166 16.833 -17.499 26.5s-3.5 19.167 -3.5 28.5v264h160v-181c0 -13.333 2 -22.333 6 -27c3.33301 -4 7.16602 -6.33301 11.499 -7s8.16602 -1 11.499 -1h97v216h160zM802.001 276.997l0.000976562 530.002h-176c-32.667 0 -59.5 -6.83301 -80.5 -20.5
s-37.167 -28.834 -48.5 -45.501c-10 -14 -17.833 -29.167 -23.5 -45.5s-10 -33 -13 -50s-4.83301 -34 -5.5 -51s-1 -32.833 -1 -47.5c0 -26 0.666992 -48.833 2 -68.5s3.16602 -37 5.49902 -52s5.33301 -28 9 -39s7.83398 -20.833 12.501 -29.5
c10 -18 21.333 -32.167 34 -42.5s25.667 -18.333 39 -24s26.166 -9.33398 38.499 -11.001s22.833 -2.5 31.5 -2.5z" />
    <glyph glyph-name="uniFEF5" unicode="&#xfedf;&#xfe82;" horiz-adv-x="1319" arabic-form="isolated" 
d="M1255 455c0 -26 -1.16602 -54.335 -3.49902 -85.002s-7.83301 -62 -16.5 -94s-21.5 -63.167 -38.5 -93.5s-40.5 -57.833 -70.5 -82.5s-62.833 -43.667 -98.5 -57s-71.5 -23.166 -107.5 -29.499s-70.833 -10.166 -104.5 -11.499s-63.834 -2 -90.501 -2h-688v275h252
l-211 1159h401l211 -1151c21.333 5.33301 41.333 13 60 23s35.667 25.333 51 46c12 16 21.5 32.833 28.5 50.5s12.333 35.5 16 53.5s6 35.667 7 53s1.5 34 1.5 50v877h401v-981zM78.001 1689h455v-120h-455v120z" />
    <glyph glyph-name="uniFEF6" unicode="&#xfee0;&#xfe82;" horiz-adv-x="1397" arabic-form="final" 
d="M37 0v274.999h252l-211 1159h401l211 -1151c21.333 5.33301 41.333 13 60 23s35.667 25.333 51 46c12 16 21.5 32.833 28.5 50.5s12.333 35.5 16 53.5s6 35.667 7 53s1.5 34 1.5 50v877h401v-981c0 -25.333 -1 -53.666 -3 -84.999s-7.66699 -63 -17 -95h172v-275h-1370z
M78 1689h455v-120h-455v120z" />
    <glyph glyph-name="uniFEF7" unicode="&#xfedf;&#xfe84;" horiz-adv-x="1314" arabic-form="isolated" 
d="M1255 455c0 -26 -1.16602 -54.335 -3.49902 -85.002s-7.83301 -62 -16.5 -94s-21.5 -63.167 -38.5 -93.5s-40.5 -57.833 -70.5 -82.5s-62.833 -43.667 -98.5 -57s-71.5 -23.166 -107.5 -29.499s-70.833 -10.166 -104.5 -11.499s-63.834 -2 -90.501 -2h-688v275h252
l-211 1159h401l211 -1151c21.333 5.33301 41.333 13 60 23s35.667 25.333 51 46c12 16 21.5 32.833 28.5 50.5s12.333 35.5 16 53.5s6 35.667 7 53s1.5 34 1.5 50v877h401v-981zM141.001 1649h170.002c11.333 0 17 3.33301 17 10c0 4 -2.16699 6.5 -6.5 7.5
s-9.16602 3.16699 -14.499 6.5l-117 35c-15.333 6.66699 -26.666 15 -33.999 25c-7.33301 11.333 -12.333 23.166 -15 35.499s-4 24.166 -4 35.499s1.16699 22.5 3.5 33.5s8.16602 21.167 17.499 30.5c5.33301 5.33301 11.666 10 18.999 14s18.666 6 33.999 6h201v-80h-156
c-9.33301 0 -14.666 -0.666992 -15.999 -2s-2.5 -2.66602 -3.5 -3.99902s-1.5 -2.66602 -1.5 -3.99902c0 -5.33301 2.83301 -9 8.5 -11s11.167 -3.66699 16.5 -5l104 -31c7.33301 -1.33301 14.666 -3.5 21.999 -6.5s13.666 -8.16699 18.999 -15.5
c11.333 -9.33301 18 -20.833 20 -34.5s3 -26.167 3 -37.5c0 -9.33301 -0.5 -19.5 -1.5 -30.5s-5.16699 -22.167 -12.5 -33.5c-9.33301 -12 -19.5 -19 -30.5 -21s-22.167 -3 -33.5 -3h-209v80z" />
    <glyph glyph-name="uniFEF8" unicode="&#xfee0;&#xfe84;" horiz-adv-x="1392" arabic-form="final" 
d="M37 0v274.999h252l-211 1159h401l211 -1151c21.333 5.33301 41.333 13 60 23s35.667 25.333 51 46c12 16 21.5 32.833 28.5 50.5s12.333 35.5 16 53.5s6 35.667 7 53s1.5 34 1.5 50v877h401v-981c0 -25.333 -1 -53.666 -3 -84.999s-7.66699 -63 -17 -95h172v-275h-1370z
M141 1649h170.002c11.333 0 17 3.33301 17 10c0 4 -2.16699 6.5 -6.5 7.5s-9.16602 3.16699 -14.499 6.5l-117 35c-15.333 6.66699 -26.666 15 -33.999 25c-7.33301 11.333 -12.333 23.166 -15 35.499s-4 24.166 -4 35.499s1.16699 22.5 3.5 33.5
s8.16602 21.167 17.499 30.5c5.33301 5.33301 11.666 10 18.999 14s18.666 6 33.999 6h201v-80h-156c-9.33301 0 -14.666 -0.666992 -15.999 -2s-2.5 -2.66602 -3.5 -3.99902s-1.5 -2.66602 -1.5 -3.99902c0 -5.33301 2.83301 -9 8.5 -11s11.167 -3.66699 16.5 -5l104 -31
c7.33301 -1.33301 14.666 -3.5 21.999 -6.5s13.666 -8.16699 18.999 -15.5c11.333 -9.33301 18 -20.833 20 -34.5s3 -26.167 3 -37.5c0 -9.33301 -0.5 -19.5 -1.5 -30.5s-5.16699 -22.167 -12.5 -33.5c-9.33301 -12 -19.5 -19 -30.5 -21s-22.167 -3 -33.5 -3h-209v80z" />
    <glyph glyph-name="uniFEF9" unicode="&#xfedf;&#xfe88;" horiz-adv-x="1308" arabic-form="isolated" 
d="M1255 455c0 -26 -1.16602 -54.335 -3.49902 -85.002s-7.83301 -62 -16.5 -94s-21.5 -63.167 -38.5 -93.5s-40.5 -57.833 -70.5 -82.5s-62.833 -43.667 -98.5 -57s-71.5 -23.166 -107.5 -29.499s-70.833 -10.166 -104.5 -11.499s-63.834 -2 -90.501 -2h-688v275h252
l-211 1159h401l211 -1151c21.333 5.33301 41.333 13 60 23s35.667 25.333 51 46c12 16 21.5 32.833 28.5 50.5s12.333 35.5 16 53.5s6 35.667 7 53s1.5 34 1.5 50v877h401v-981zM229.001 -361.002l170.005 -0.00195312c11.333 0 17 3.66699 17 11
c0 5.33301 -2.16699 8.5 -6.5 9.5s-9.16602 3.16699 -14.499 6.5l-117 35c-9.33301 3.33301 -16.5 7.16602 -21.5 11.499s-9.16699 8.5 -12.5 12.5c-7.33301 9.33301 -12.333 20.5 -15 33.5s-4 25.167 -4 36.5s1.16699 22.833 3.5 34.5s8.16602 22.167 17.499 31.5
c5.33301 5.33301 11.666 9.66602 18.999 12.999s18.666 5 33.999 5h201v-80h-172c-2.66699 -2.66699 -4 -6 -4 -10s2.66699 -7.33301 8 -10s10.666 -4.66699 15.999 -6l105 -29c7.33301 -3.33301 14.666 -6 21.999 -8s13.666 -6.66699 18.999 -14
c11.333 -11.333 17.833 -23.666 19.5 -36.999s2.5 -25.666 2.5 -36.999c0 -9.33301 -0.5 -19.666 -1.5 -30.999s-5.16699 -21.666 -12.5 -30.999c-9.33301 -12 -19.5 -19 -30.5 -21s-22.167 -3 -33.5 -3h-209v77z" />
    <glyph glyph-name="uniFEFA" unicode="&#xfee0;&#xfe88;" horiz-adv-x="1397" arabic-form="final" 
d="M37 0v274.999h252l-211 1159h401l211 -1151c21.333 5.33301 41.333 13 60 23s35.667 25.333 51 46c12 16 21.5 32.833 28.5 50.5s12.333 35.5 16 53.5s6 35.667 7 53s1.5 34 1.5 50v877h401v-981c0 -25.333 -1 -53.666 -3 -84.999s-7.66699 -63 -17 -95h172v-275h-1370z
M229 -361.001l170.005 -0.00195312c11.333 0 17 3.66699 17 11c0 5.33301 -2.16699 8.5 -6.5 9.5s-9.16602 3.16699 -14.499 6.5l-117 35c-9.33301 3.33301 -16.5 7.16602 -21.5 11.499s-9.16699 8.5 -12.5 12.5c-7.33301 9.33301 -12.333 20.5 -15 33.5s-4 25.167 -4 36.5
s1.16699 22.833 3.5 34.5s8.16602 22.167 17.499 31.5c5.33301 5.33301 11.666 9.66602 18.999 12.999s18.666 5 33.999 5h201v-80h-172c-2.66699 -2.66699 -4 -6 -4 -10s2.66699 -7.33301 8 -10s10.666 -4.66699 15.999 -6l105 -29c7.33301 -3.33301 14.666 -6 21.999 -8
s13.666 -6.66699 18.999 -14c11.333 -11.333 17.833 -23.666 19.5 -36.999s2.5 -25.666 2.5 -36.999c0 -9.33301 -0.5 -19.666 -1.5 -30.999s-5.16699 -21.666 -12.5 -30.999c-9.33301 -12 -19.5 -19 -30.5 -21s-22.167 -3 -33.5 -3h-209v77z" />
    <glyph glyph-name="uniFEFB" unicode="&#xfedf;&#xfe8e;" horiz-adv-x="1308" arabic-form="isolated" 
d="M1256 455c0 -25.333 -1.16797 -53.5 -3.50098 -84.5s-7.83301 -62.333 -16.5 -94s-21.667 -62.667 -39 -93s-40.666 -57.833 -69.999 -82.5c-30 -24.667 -62.833 -43.834 -98.5 -57.501s-71.5 -23.834 -107.5 -30.501s-71 -10.667 -105 -12s-64.333 -2 -91 -2h-689v276
h253l-212 1159h402l211 -1151c21.333 4.66699 41.333 12.334 60 23.001s35.667 26.334 51 47.001c12 16 21.5 32.667 28.5 50s12.333 35 16 53s6 35.833 7 53.5s1.5 34.5 1.5 50.5v875h402v-980z" />
    <glyph glyph-name="uniFEFC" unicode="&#xfee0;&#xfe8e;" horiz-adv-x="1397" arabic-form="final" 
d="M36 -1l-0.000976562 275.998h253l-212 1159h402l211 -1151c21.333 4.66699 41.333 12.334 60 23.001s35.667 26.334 51 47.001c12 16 21.5 32.667 28.5 50s12.333 35 16 53s6 35.833 7 53.5s1.5 34.5 1.5 50.5v875h402v-980c0 -26 -1.16699 -54.667 -3.5 -86
s-8.16602 -63 -17.499 -95h172v-274z" />
    <glyph glyph-name="afii57410" unicode="&#x622;" horiz-adv-x="621" arabic-form="isolated" 
d="M109 1434h401v-1434h-401v1434zM82 1690h455v-121h-455v121z" />
    <glyph glyph-name="afii57411" unicode="&#x623;" horiz-adv-x="621" arabic-form="isolated" 
d="M109 1434h401v-1434h-401v1434zM168 1649l170.003 -0.000976562c10.667 0 16 3.33301 16 10c0 4 -2 6.66699 -6 8s-8.66699 3.33301 -14 6l-119 35c-8 2.66699 -14.833 6.33398 -20.5 11.001s-10.5 9.33398 -14.5 14.001c-6.66699 10.667 -11 22.5 -13 35.5
s-3 24.833 -3 35.5c0 11.333 1 22.333 3 33s7 21 15 31c7.33301 5.33301 14.666 10 21.999 14s18 6 32 6h202v-80h-155c-8.66699 0 -15 -0.666992 -19 -2c-2.66699 -2.66699 -4 -5.33398 -4 -8.00098c0 -5.33301 2.66699 -9 8 -11s11.666 -3.66699 18.999 -5l102 -31
c6.66699 -1.33301 14.167 -3.66602 22.5 -6.99902s15.166 -8.33301 20.499 -15c11.333 -10 18 -21.833 20 -35.5s3 -25.834 3 -36.501c0 -10 -1 -20.333 -3 -31s-6.66699 -21.667 -14 -33c-8 -12 -17.5 -19 -28.5 -21s-21.833 -3 -32.5 -3h-209v80z" />
    <glyph glyph-name="afii57412" unicode="&#x624;" horiz-adv-x="1253" arabic-form="isolated" 
d="M113 -106l483.002 -0.00292969c22 0 47 1 75 3c28.667 2 52.667 10.333 72 25c24.667 20.667 40.667 46.667 48 78h-347c-28.667 0 -57.834 1.16699 -87.501 3.5s-58.5 8 -86.5 17s-54.833 22.667 -80.5 41s-48.5 43.5 -68.5 75.5c-30 46.667 -51.5 103.167 -64.5 169.5
s-19.5 146.5 -19.5 240.5c0 106 8.33301 189 25 249c8.66699 30.667 20.167 59 34.5 85s31.166 50.333 50.499 73c41.333 48 88 81.667 140 101c52 20 120.333 30 205 30h446c16 0 32.167 -0.333008 48.5 -1s32.833 -2.66699 49.5 -6s32.667 -8.16602 48 -14.499
s30 -15.5 44 -27.5c27.333 -23.333 44.666 -50.666 51.999 -81.999c8 -31.333 12 -58.666 12 -81.999v-751c0 -37.333 -1.16699 -72.166 -3.5 -104.499s-6.66602 -62.833 -12.999 -91.5s-15 -55.334 -26 -80.001s-25.5 -48 -43.5 -70c-42 -52 -95.667 -89 -161 -111
s-140 -33 -224 -33h-608v263zM422.002 1294l259.998 0.00195312c10.667 0 17.5 1.83301 20.5 5.5s4.5 6.83398 4.5 9.50098c0 6.66699 -3.5 11.667 -10.5 15s-13.833 6.33301 -20.5 9l-178 53c-15.333 3.33301 -26.666 8.66602 -33.999 15.999s-14 14.333 -20 21
c-10.667 15.333 -17.667 32.5 -21 51.5s-5 38.167 -5 57.5c0 14.667 1.33301 30.667 4 48s10.667 32.666 24 45.999c8.66699 9.33301 19.5 17.166 32.5 23.499s28.833 9.5 47.5 9.5h308v-123h-263c-4 -4 -6 -8.66699 -6 -14c0 -8.66699 4.5 -14.667 13.5 -18
s17.5 -6.33301 25.5 -9l158 -45c10.667 -2.66699 21.834 -6.33398 33.501 -11.001s21.5 -12 29.5 -22c8 -7.33301 14.167 -15.666 18.5 -24.999s7.5 -19 9.5 -29s3.33301 -19.833 4 -29.5s1 -18.5 1 -26.5c0 -14 -1 -29.833 -3 -47.5s-8.33301 -34.167 -19 -49.5
c-7.33301 -9.33301 -14.833 -16.5 -22.5 -21.5s-15.667 -8.5 -24 -10.5s-16.5 -3.16699 -24.5 -3.5s-16 -0.5 -24 -0.5h-319v120zM791 708.999c0 14.667 -1.83398 27.5 -5.50098 38.5s-12.167 21.167 -25.5 30.5c-11.333 6.66699 -22 11.167 -32 13.5s-20.667 3.5 -32 3.5
h-45c-14 0 -28.333 -0.5 -43 -1.5s-29 -3.5 -43 -7.5s-27.5 -10 -40.5 -18s-24.833 -19 -35.5 -33c-9.33301 -12 -19 -32 -29 -60c-9.33301 -30 -14 -77.667 -14 -143c0 -93.333 15.333 -155.333 46 -186c25.333 -30 55 -46.667 89 -50
c17.333 -1.33301 33.833 -2.5 49.5 -3.5s30.834 -1.5 45.501 -1.5h115v418z" />
    <glyph glyph-name="afii57413" unicode="&#x625;" horiz-adv-x="621" arabic-form="isolated" 
d="M109 1434h401v-1434h-401v1434zM168 -360l170.003 0.00390625c10.667 0 16 3.33301 16 10c0 5.33301 -2 8.66602 -6 9.99902s-8.66699 3.33301 -14 6l-119 35c-8 2.66699 -14.833 6.33398 -20.5 11.001s-10.5 9.33398 -14.5 14.001c-6.66699 9.33301 -11 20.5 -13 33.5
s-3 24.833 -3 35.5c0 11.333 1 22.666 3 33.999s7 22 15 32c7.33301 5.33301 14.666 9.66602 21.999 12.999s18 5 32 5h202v-80h-174c-2.66699 -2.66699 -4 -6 -4 -10s2.66699 -7.33301 8 -10s11.666 -4.66699 18.999 -6l102 -29
c6.66699 -2.66699 14.167 -5.33398 22.5 -8.00098s15.166 -7.66699 20.499 -15c11.333 -10.667 18 -22.834 20 -36.501s3 -25.834 3 -36.501c0 -10 -1 -20.333 -3 -31s-6.66699 -21 -14 -31c-8 -12 -17.5 -19 -28.5 -21s-21.833 -3 -32.5 -3h-209v78z" />
    <glyph glyph-name="afii57414" unicode="&#x626;" horiz-adv-x="1653" arabic-form="isolated" 
d="M1071 37c22 0 40.834 0.333984 56.501 1.00098s28.167 3 37.5 7c19.333 8 32.666 18 39.999 30s10.666 24.667 9.99902 38s-4.66699 26.5 -12 39.5s-16.333 24.833 -27 35.5l-159 62l-159 63c-50 16.667 -94.5 38.334 -133.5 65.001s-68.833 57 -89.5 91
s-35.334 69 -44.001 105s-13 72 -13 108s3.33301 72.333 10 109s14.667 73.334 24 110.001c11.333 28.667 27.5 54.334 48.5 77.001s44.833 42 71.5 58s54.834 28.167 84.501 36.5s59.167 12.5 88.5 12.5h641v-278h-506c-18 0 -32.5 -2.16699 -43.5 -6.5
s-19.667 -10.333 -26 -18s-10.666 -16.5 -12.999 -26.5s-3.5 -20.333 -3.5 -31c0 -8 2.5 -17.167 7.5 -27.5s10.833 -16.833 17.5 -19.5c15.333 -12.667 33.666 -24.334 54.999 -35.001s45.666 -20.667 72.999 -30l82 -28l83 -28
c54.667 -18.667 107.334 -40.334 158.001 -65.001c48.667 -22.667 86 -53 112 -91c10.667 -15.333 20.5 -33.333 29.5 -54s16.333 -43.5 22 -68.5s9.83398 -51.333 12.501 -79s3 -55.834 1 -84.501c-3.33301 -58 -15.666 -113.667 -36.999 -167s-53 -98 -95 -134
c-30 -23.333 -60.5 -37.833 -91.5 -43.5s-60.833 -8.5 -89.5 -8.5h-819c-23.333 0 -49 1.33301 -77 4s-56.833 8.5 -86.5 17.5s-59 22 -88 39s-55.833 39.833 -80.5 68.5c-42.667 49.333 -69.334 107.333 -80.001 174c-5.33301 34 -9.33301 69.667 -12 107s-4 77 -4 119v280
h410v-272c0 -62.667 4 -107.334 12 -134.001c7.33301 -26 14 -44 20 -54c18.667 -30 43.667 -50 75 -60c32 -9.33301 61 -14 87 -14h420zM47.001 799.001l257.997 -0.00488281c11.333 0 18.666 1.66699 21.999 5s5 6.33301 5 9c0 8 -3.5 13.5 -10.5 16.5l-20.5 8.5l-178 53
c-15.333 2.66699 -26.666 7.83398 -33.999 15.501s-13.666 14.834 -18.999 21.501c-11.333 14.667 -18.666 31.667 -21.999 51s-5 38.333 -5 57c0 15.333 1.33301 31.833 4 49.5s11 33.5 25 47.5c8 8 18.5 15 31.5 21s29.167 9 48.5 9h307v-121h-238
c-12 0 -20 -0.666992 -24 -2c-4.66699 -4 -7 -8.66699 -7 -14c0 -6.66699 4.5 -12 13.5 -16l25.5 -11l158 -43c10.667 -2.66699 21.834 -6.66699 33.501 -12s21.834 -12.666 30.501 -21.999c7.33301 -8 13.166 -16.667 17.499 -26s7.5 -19 9.5 -29s3.33301 -19.833 4 -29.5
s1 -18.5 1 -26.5c0 -13.333 -1 -28.666 -3 -45.999s-8.33301 -33.333 -19 -48c-14 -19.333 -29.5 -30.666 -46.5 -33.999s-32.833 -5 -47.5 -5h-320v121z" />
    <glyph glyph-name="afii57415" unicode="&#x627;" horiz-adv-x="621" arabic-form="isolated" 
d="M109 1434h401v-1434h-401v1434z" />
    <glyph glyph-name="afii57416" unicode="&#x628;" horiz-adv-x="1872" arabic-form="isolated" 
d="M1231 274c26 0 54.998 4.66699 86.998 14c30.667 10 55.667 30 75 60c6 10 12.667 28 20 54c8 26.667 12 71.667 12 135v546h410v-555c0 -42 -1.5 -81.5 -4.5 -118.5s-7.16699 -72.5 -12.5 -106.5c-11.333 -67.333 -37.666 -125.333 -78.999 -174
c-24.667 -28.667 -51.667 -51.5 -81 -68.5s-58.833 -30 -88.5 -39s-58.5 -14.833 -86.5 -17.5s-53.333 -4 -76 -4h-938c-23.333 -0 -49.166 1.33301 -77.499 4s-57.166 8.5 -86.499 17.5s-58.5 22 -87.5 39s-55.833 39.833 -80.5 68.5
c-42.667 49.333 -69.334 107.333 -80.001 174c-5.33301 34 -9.33301 69.5 -12 106.5s-4 76.5 -4 118.5v281h410v-272c0 -63.333 4 -108.333 12 -135c7.33301 -26 14 -44 20 -54c18.667 -30 43.667 -50 75 -60c32 -9.33301 61 -14 87 -14h586zM732.998 -360v239h404v-239
h-404z" />
    <glyph glyph-name="afii57417" unicode="&#x629;" horiz-adv-x="1340" arabic-form="isolated" 
d="M663 1098c42.667 0 86.334 -1 131.001 -3s88.167 -6.66699 130.5 -14s82.5 -18.333 120.5 -33s72 -35 102 -61c34 -30 60.667 -65 80 -105s33.666 -80.667 42.999 -122s15 -81.166 17 -119.499s3 -70.833 3 -97.5c0 -27.333 -1 -60.166 -3 -98.499
s-7.66699 -78.166 -17 -119.499s-23.666 -82 -42.999 -122s-46 -75 -80 -105c-30 -25.333 -64 -45.333 -102 -60s-78.167 -25.667 -120.5 -33s-85.833 -12 -130.5 -14s-88.334 -3 -131.001 -3c-43.333 0 -87.166 0.833008 -131.499 2.5s-87.5 6.16699 -129.5 13.5
s-82 18.333 -120 33s-72 35 -102 61c-34 30 -60.667 65 -80 105s-33.666 80.667 -42.999 122s-15 81.166 -17 119.499s-3 71.166 -3 98.499c0 26.667 1 59.167 3 97.5s7.66699 78.166 17 119.499s23.666 82 42.999 122s46 75 80 105c30 26 64 46.5 102 61.5
s78 26.167 120 33.5s85.167 11.833 129.5 13.5s88.166 2.5 131.499 2.5zM447 543c0 -30 1.16797 -55.832 3.50098 -77.499s5.5 -40 9.5 -55s8.16699 -27 12.5 -36s8.5 -16.5 12.5 -22.5c1.33301 -2.66699 5.83301 -8 13.5 -16s18.667 -16.333 33 -25
s32.333 -16.334 54 -23.001s47.5 -10 77.5 -10c27.333 0 51 2.66699 71 8s37 11.833 51 19.5s25.5 15.667 34.5 24s15.833 15.833 20.5 22.5c16 23.333 26.833 51 32.5 83s8.5 68 8.5 108c0 28.667 -1 53.334 -3 74.001s-4.83301 38.667 -8.5 54
s-7.83398 28.166 -12.501 38.499s-9.66699 19.5 -15 27.5c-6 6.66699 -13.333 14.167 -22 22.5s-20 16 -34 23s-31 12.833 -51 17.5s-44 7 -72 7s-52 -2.33301 -72 -7s-36.833 -10.5 -50.5 -17.5s-24.834 -14.667 -33.501 -23s-16 -15.833 -22 -22.5
c-3.33301 -5.33301 -7.16602 -12.5 -11.499 -21.5s-8.5 -20.833 -12.5 -35.5s-7.33301 -33.167 -10 -55.5s-4 -49.5 -4 -81.5zM295.001 1383h170.002c11.333 0 17 3.33301 17 10c0 4 -2.16699 6.5 -6.5 7.5s-9.16602 3.16699 -14.499 6.5l-117 35
c-15.333 6.66699 -26.666 15 -33.999 25c-7.33301 11.333 -12.333 23.166 -15 35.499s-4 24.166 -4 35.499s1.16699 22.5 3.5 33.5s8.16602 21.167 17.499 30.5c5.33301 5.33301 11.666 10 18.999 14s18.666 6 33.999 6h201v-80h-156
c-9.33301 0 -14.666 -0.666992 -15.999 -2s-2.5 -2.66602 -3.5 -3.99902s-1.5 -2.66602 -1.5 -3.99902c0 -5.33301 2.83301 -9 8.5 -11s11.167 -3.66699 16.5 -5l104 -31c7.33301 -1.33301 14.666 -3.5 21.999 -6.5s13.666 -8.16699 18.999 -15.5
c11.333 -9.33301 18 -20.833 20 -34.5s3 -26.167 3 -37.5c0 -9.33301 -0.5 -19.5 -1.5 -30.5s-5.16699 -22.167 -12.5 -33.5c-9.33301 -12 -19.5 -19 -30.5 -21s-22.167 -3 -33.5 -3h-209v80z" />
    <glyph glyph-name="afii57418" unicode="&#x62a;" horiz-adv-x="1872" arabic-form="isolated" 
d="M1231 274c26 0 54.998 4.66699 86.998 14c30.667 10 55.667 30 75 60c6 10 12.667 28 20 54c8 26.667 12 71.667 12 135v546h410v-555c0 -42 -1.5 -81.5 -4.5 -118.5s-7.16699 -72.5 -12.5 -106.5c-11.333 -67.333 -37.666 -125.333 -78.999 -174
c-24.667 -28.667 -51.667 -51.5 -81 -68.5s-58.833 -30 -88.5 -39s-58.5 -14.833 -86.5 -17.5s-53.333 -4 -76 -4h-938c-23.333 -0 -49.166 1.33301 -77.499 4s-57.166 8.5 -86.499 17.5s-58.5 22 -87.5 39s-55.833 39.833 -80.5 68.5
c-42.667 49.333 -69.334 107.333 -80.001 174c-5.33301 34 -9.33301 69.5 -12 106.5s-4 76.5 -4 118.5v281h410v-272c0 -63.333 4 -108.333 12 -135c7.33301 -26 14 -44 20 -54c18.667 -30 43.667 -50 75 -60c32 -9.33301 61 -14 87 -14h586zM499.998 1194v240h401v-240
h-401zM984.998 1194v240h401v-240h-401z" />
    <glyph glyph-name="afii57419" unicode="&#x62b;" horiz-adv-x="1872" arabic-form="isolated" 
d="M1231 274c26 0 54.998 4.66699 86.998 14c30.667 10 55.667 30 75 60c6 10 12.667 28 20 54c8 26.667 12 71.667 12 135v546h410v-555c0 -42 -1.5 -81.5 -4.5 -118.5s-7.16699 -72.5 -12.5 -106.5c-11.333 -67.333 -37.666 -125.333 -78.999 -174
c-24.667 -28.667 -51.667 -51.5 -81 -68.5s-58.833 -30 -88.5 -39s-58.5 -14.833 -86.5 -17.5s-53.333 -4 -76 -4h-938c-23.333 -0 -49.166 1.33301 -77.499 4s-57.166 8.5 -86.499 17.5s-58.5 22 -87.5 39s-55.833 39.833 -80.5 68.5
c-42.667 49.333 -69.334 107.333 -80.001 174c-5.33301 34 -9.33301 69.5 -12 106.5s-4 76.5 -4 118.5v281h410v-272c0 -63.333 4 -108.333 12 -135c7.33301 -26 14 -44 20 -54c18.667 -30 43.667 -50 75 -60c32 -9.33301 61 -14 87 -14h586zM869.998 954v240h404v-240h-404
zM384.998 954v240h401v-240h-401zM628.998 1272v239h401v-239h-401z" />
    <glyph glyph-name="afii57420" unicode="&#x62c;" horiz-adv-x="1427" arabic-form="isolated" 
d="M537 -555c-36.667 0 -73.8379 2.33203 -111.505 6.99902s-74.334 12.667 -110.001 24s-69.167 26.333 -100.5 45s-58.666 41.834 -81.999 69.501s-41.833 60.167 -55.5 97.5s-20.5 80.666 -20.5 129.999c0 30 0.666992 59.667 2 89s5.5 58 12.5 86s17.667 55.333 32 82
s34.5 52.334 60.5 77.001c32.667 32 68.834 56.333 108.501 73s84.167 28.667 133.5 36s104.333 11.333 165 12s129 1 205 1h31v263c0 54 -7 101.667 -21 143c-5.33301 18 -12.666 34.833 -21.999 50.5s-21.833 29.5 -37.5 41.5s-35.5 21.5 -59.5 28.5s-53 10.5 -87 10.5
h-398v274h586c65.333 0 125.333 -7.83301 180 -23.5s103.334 -45.167 146.001 -88.5c28.667 -28.667 51 -60.667 67 -96s28 -72.333 36 -111s12.833 -78.167 14.5 -118.5s2.5 -80.166 2.5 -119.499v-254h146v-274l-717 2c-18 0 -41.333 -2.66699 -70 -8
c-27.333 -5.33301 -51.666 -19 -72.999 -41c-19.333 -22.667 -28.666 -42.334 -27.999 -59.001c1.33301 -18 0.333008 -32.667 -3 -44c0 -17.333 2.66699 -34.833 8 -52.5s15 -32.167 29 -43.5c19.333 -16 42.5 -25.833 69.5 -29.5s52.167 -5.5 75.5 -5.5h56v-274h-170z
M810.996 -360.001v239h401v-239h-401z" />
    <glyph glyph-name="afii57421" unicode="&#x62d;" horiz-adv-x="1427" arabic-form="isolated" 
d="M537 -555c-36.667 0 -73.8379 2.33203 -111.505 6.99902s-74.334 12.667 -110.001 24s-69.167 26.333 -100.5 45s-58.666 41.834 -81.999 69.501s-41.833 60.167 -55.5 97.5s-20.5 80.666 -20.5 129.999c0 30 0.666992 59.667 2 89s5.5 58 12.5 86s17.667 55.333 32 82
s34.5 52.334 60.5 77.001c32.667 32 68.834 56.333 108.501 73s84.167 28.667 133.5 36s104.333 11.333 165 12s129 1 205 1h31v263c0 54 -7 101.667 -21 143c-5.33301 18 -12.666 34.833 -21.999 50.5s-21.833 29.5 -37.5 41.5s-35.5 21.5 -59.5 28.5s-53 10.5 -87 10.5
h-398v274h586c65.333 0 125.333 -7.83301 180 -23.5s103.334 -45.167 146.001 -88.5c28.667 -28.667 51 -60.667 67 -96s28 -72.333 36 -111s12.833 -78.167 14.5 -118.5s2.5 -80.166 2.5 -119.499v-254h146v-274l-717 2c-18 0 -41.333 -2.66699 -70 -8
c-27.333 -5.33301 -51.666 -19 -72.999 -41c-19.333 -22.667 -28.666 -42.334 -27.999 -59.001c1.33301 -18 0.333008 -32.667 -3 -44c0 -17.333 2.66699 -34.833 8 -52.5s15 -32.167 29 -43.5c19.333 -16 42.5 -25.833 69.5 -29.5s52.167 -5.5 75.5 -5.5h580v-274h-694z
" />
    <glyph glyph-name="afii57422" unicode="&#x62e;" horiz-adv-x="1427" arabic-form="isolated" 
d="M537 -555c-36.667 0 -73.8379 2.33203 -111.505 6.99902s-74.334 12.667 -110.001 24s-69.167 26.333 -100.5 45s-58.666 41.834 -81.999 69.501s-41.833 60.167 -55.5 97.5s-20.5 80.666 -20.5 129.999c0 30 0.666992 59.667 2 89s5.5 58 12.5 86s17.667 55.333 32 82
s34.5 52.334 60.5 77.001c32.667 32 68.834 56.333 108.501 73s84.167 28.667 133.5 36s104.333 11.333 165 12s129 1 205 1h31v263c0 54 -7 101.667 -21 143c-5.33301 18 -12.666 34.833 -21.999 50.5s-21.833 29.5 -37.5 41.5s-35.5 21.5 -59.5 28.5s-53 10.5 -87 10.5
h-398v274h586c65.333 0 125.333 -7.83301 180 -23.5s103.334 -45.167 146.001 -88.5c28.667 -28.667 51 -60.667 67 -96s28 -72.333 36 -111s12.833 -78.167 14.5 -118.5s2.5 -80.166 2.5 -119.499v-254h146v-274l-717 2c-18 0 -41.333 -2.66699 -70 -8
c-27.333 -5.33301 -51.666 -19 -72.999 -41c-19.333 -22.667 -28.666 -42.334 -27.999 -59.001c1.33301 -18 0.333008 -32.667 -3 -44c0 -17.333 2.66699 -34.833 8 -52.5s15 -32.167 29 -43.5c19.333 -16 42.5 -25.833 69.5 -29.5s52.167 -5.5 75.5 -5.5h580v-274h-694z
M364.996 1194v240h403v-240h-403z" />
    <glyph glyph-name="afii57423" unicode="&#x62f;" horiz-adv-x="1128" arabic-form="isolated" 
d="M37 0l0.000976562 274.001h450c26 0 55 4.66699 87 14c30.667 10 55.667 30 75 60c6 10 12.667 28 20 54c8.66699 26 13 71 13 135c0 28 -1.33301 53.333 -4 76s-7.33398 45 -14.001 67c-10.667 34.667 -31 65.334 -61 92.001c-29.333 26 -78 39 -146 39h-398v274h584
c65.333 0 125.666 -7.83301 180.999 -23.5s104.333 -45.167 147 -88.5c28.667 -28.667 51.167 -60.667 67.5 -96s28.5 -72.333 36.5 -111s12.833 -78.334 14.5 -119.001s2.5 -80.334 2.5 -119.001c0 -42 -1.5 -81.5 -4.5 -118.5s-7.16699 -72.5 -12.5 -106.5
c-11.333 -68 -38 -126 -80 -174c-24.667 -28.667 -51.5 -51.5 -80.5 -68.5s-58.167 -30 -87.5 -39s-58.166 -14.833 -86.499 -17.5s-53.833 -4 -76.5 -4h-627z" />
    <glyph glyph-name="afii57424" unicode="&#x630;" horiz-adv-x="1128" arabic-form="isolated" 
d="M37 0l0.000976562 274.001h450c26 0 55 4.66699 87 14c30.667 10 55.667 30 75 60c6 10 12.667 28 20 54c8.66699 26 13 71 13 135c0 28 -1.33301 53.333 -4 76s-7.33398 45 -14.001 67c-10.667 34.667 -31 65.334 -61 92.001c-29.333 26 -78 39 -146 39h-398v274h584
c65.333 0 125.666 -7.83301 180.999 -23.5s104.333 -45.167 147 -88.5c28.667 -28.667 51.167 -60.667 67.5 -96s28.5 -72.333 36.5 -111s12.833 -78.334 14.5 -119.001s2.5 -80.334 2.5 -119.001c0 -42 -1.5 -81.5 -4.5 -118.5s-7.16699 -72.5 -12.5 -106.5
c-11.333 -68 -38 -126 -80 -174c-24.667 -28.667 -51.5 -51.5 -80.5 -68.5s-58.167 -30 -87.5 -39s-58.166 -14.833 -86.499 -17.5s-53.833 -4 -76.5 -4h-627zM223.001 1194v240h404v-240h-404z" />
    <glyph glyph-name="afii57425" unicode="&#x631;" horiz-adv-x="813" arabic-form="isolated" 
d="M43 -90c30 -0.666992 56.167 -0.330078 78.5 1.00293s41.5 3.66602 57.5 6.99902c33.333 7.33301 63 21.666 89 42.999s46 46.666 60 75.999c14.667 29.333 22 73 22 131v917h402v-1001c0 -24 -1.5 -51.667 -4.5 -83s-10 -63.166 -21 -95.499s-26.833 -64 -47.5 -95
s-49 -57.833 -85 -80.5c-51.333 -34.667 -120.333 -57 -207 -67c-43.333 -5.33301 -93.5 -8.83301 -150.5 -10.5s-121.5 -1.83398 -193.5 -0.500977v258z" />
    <glyph glyph-name="afii57426" unicode="&#x632;" horiz-adv-x="813" arabic-form="isolated" 
d="M43 -90c30 -0.666992 56.167 -0.330078 78.5 1.00293s41.5 3.66602 57.5 6.99902c33.333 7.33301 63 21.666 89 42.999s46 46.666 60 75.999c14.667 29.333 22 73 22 131v917h402v-1001c0 -24 -1.5 -51.667 -4.5 -83s-10 -63.166 -21 -95.499s-26.833 -64 -47.5 -95
s-49 -57.833 -85 -80.5c-51.333 -34.667 -120.333 -57 -207 -67c-43.333 -5.33301 -93.5 -8.83301 -150.5 -10.5s-121.5 -1.83398 -193.5 -0.500977v258zM350 1194v240h402v-240h-402z" />
    <glyph glyph-name="afii57427" unicode="&#x633;" horiz-adv-x="2712" arabic-form="isolated" 
d="M451 0c4 -15.333 9.66406 -29.3301 16.9971 -41.9971s18 -24.667 32 -36c10 -7.33301 21.167 -12.833 33.5 -16.5s24.833 -6.33398 37.5 -8.00098s25.334 -2.66699 38.001 -3s24.667 -0.5 36 -0.5h166c22 0 47 1 75 3c28.667 2 52.667 10.333 72 25
c24 20 40.667 46 50 78v1083h399v-809h229v811h398v-811h170c6.66699 0 15.167 1.83301 25.5 5.5s17.5 8.16699 21.5 13.5c2.66699 5.33301 4.66699 13.166 6 23.499s2 20.166 2 29.499v739h397v-892c0 -11.333 -0.333008 -23 -1 -35s-2.33398 -24.333 -5 -37
c-2.66699 -12.667 -6.66699 -25 -12 -37s-13 -23 -23 -33c-20.667 -24 -46.667 -38.667 -78 -44c-15.333 -2.66699 -30.166 -4.5 -44.499 -5.5s-28.833 -1.5 -43.5 -1.5h-1046c-4 -44 -12.167 -84.5 -24.5 -121.5s-30.833 -71.5 -55.5 -103.5c-42 -52 -95.667 -89 -161 -111
s-140 -33 -224 -33h-418c-84 0 -158.667 11 -224 33s-119 59 -161 111c-18 22 -32.5 45.333 -43.5 70s-19.667 51.334 -26 80.001s-10.666 59.167 -12.999 91.5s-3.5 67.166 -3.5 104.499v682h402v-803z" />
    <glyph glyph-name="afii57428" unicode="&#x634;" horiz-adv-x="2712" arabic-form="isolated" 
d="M451 0c4 -15.333 9.66406 -29.3301 16.9971 -41.9971s18 -24.667 32 -36c10 -7.33301 21.167 -12.833 33.5 -16.5s24.833 -6.33398 37.5 -8.00098s25.334 -2.66699 38.001 -3s24.667 -0.5 36 -0.5h166c22 0 47 1 75 3c28.667 2 52.667 10.333 72 25
c24 20 40.667 46 50 78v1083h399v-809h229v811h398v-811h170c6.66699 0 15.167 1.83301 25.5 5.5s17.5 8.16699 21.5 13.5c2.66699 5.33301 4.66699 13.166 6 23.499s2 20.166 2 29.499v739h397v-892c0 -11.333 -0.333008 -23 -1 -35s-2.33398 -24.333 -5 -37
c-2.66699 -12.667 -6.66699 -25 -12 -37s-13 -23 -23 -33c-20.667 -24 -46.667 -38.667 -78 -44c-15.333 -2.66699 -30.166 -4.5 -44.499 -5.5s-28.833 -1.5 -43.5 -1.5h-1046c-4 -44 -12.167 -84.5 -24.5 -121.5s-30.833 -71.5 -55.5 -103.5c-42 -52 -95.667 -89 -161 -111
s-140 -33 -224 -33h-418c-84 0 -158.667 11 -224 33s-119 59 -161 111c-18 22 -32.5 45.333 -43.5 70s-19.667 51.334 -26 80.001s-10.666 59.167 -12.999 91.5s-3.5 67.166 -3.5 104.499v682h402v-803zM1634 1194v240h402v-240h-402zM1008 1194v240h401v-240h-401z
M2251 1194v240h401v-240h-401z" />
    <glyph glyph-name="afii57429" unicode="&#x635;" horiz-adv-x="2828" arabic-form="isolated" 
d="M449 0c4 -15.333 9.66406 -29.335 16.9971 -42.002s18 -24.667 32 -36c10 -7.33301 21.167 -12.833 33.5 -16.5s24.833 -6.33398 37.5 -8.00098s25.334 -2.66699 38.001 -3s24.667 -0.5 36 -0.5h168c10.667 0 22.5 0.166992 35.5 0.5s25.833 1.33301 38.5 3
s25.167 4.33398 37.5 8.00098s23.5 9.16699 33.5 16.5c24 20 40.667 46 50 78v1083h401v-122c20.667 24 43.5 44 68.5 60s51.5 28.833 79.5 38.5s57.833 16.334 89.5 20.001s65.167 5.5 100.5 5.5h600c65.333 0 125.333 -7.83301 180 -23.5s103.334 -45.167 146 -88.5
c28.667 -28.667 51 -60.667 67 -96s28 -72.333 36 -111s12.833 -78.167 14.5 -118.5s2.5 -80.166 2.5 -119.499c0 -42 -1.33301 -81.5 -4 -118.5s-6.66699 -72.5 -12 -106.5c-11.333 -68 -38 -126 -80 -174c-24.667 -28.667 -51.5 -51.5 -80.5 -68.5s-58.167 -30 -87.5 -39
s-58.166 -14.833 -86.5 -17.5c-28.333 -2.66699 -54.166 -4 -77.499 -4h-962c-4 -44 -12.167 -84.5 -24.5 -121.5s-30.833 -71.5 -55.5 -103.5c-42.667 -52 -96.5 -89 -161.5 -111s-139.5 -33 -223.5 -33h-418c-84 0 -158.667 11 -224 33s-119 59 -161 111
c-18 22 -32.5 45.333 -43.5 70s-19.667 51.334 -26 80.001s-10.666 59.167 -12.999 91.5s-3.5 67.166 -3.5 104.499v682h402v-803zM1407 273.998h780.001c26 0 55 4.66699 87 14c30.667 10 55.667 30 75 60c4.66699 8.66699 11.667 26.667 21 54c9.33301 28 14 73 14 135
c0 54 -7 101.667 -21 143c-5.33301 18 -12.666 34.833 -22 50.5c-9.33301 15.667 -21.833 29.5 -37.5 41.5s-35.5 21.5 -59.5 28.5s-53 10.5 -87 10.5l-426 2c-90.667 -2.66699 -165 -23.667 -223 -63c-58.667 -39.333 -92.334 -89.333 -101.001 -150v-326z" />
    <glyph glyph-name="afii57430" unicode="&#x636;" horiz-adv-x="2828" arabic-form="isolated" 
d="M449 0c4 -15.333 9.66406 -29.335 16.9971 -42.002s18 -24.667 32 -36c10 -7.33301 21.167 -12.833 33.5 -16.5s24.833 -6.33398 37.5 -8.00098s25.334 -2.66699 38.001 -3s24.667 -0.5 36 -0.5h168c10.667 0 22.5 0.166992 35.5 0.5s25.833 1.33301 38.5 3
s25.167 4.33398 37.5 8.00098s23.5 9.16699 33.5 16.5c24 20 40.667 46 50 78v1083h401v-122c20.667 24 43.5 44 68.5 60s51.5 28.833 79.5 38.5s57.833 16.334 89.5 20.001s65.167 5.5 100.5 5.5h600c65.333 0 125.333 -7.83301 180 -23.5s103.334 -45.167 146 -88.5
c28.667 -28.667 51 -60.667 67 -96s28 -72.333 36 -111s12.833 -78.167 14.5 -118.5s2.5 -80.166 2.5 -119.499c0 -42 -1.33301 -81.5 -4 -118.5s-6.66699 -72.5 -12 -106.5c-11.333 -68 -38 -126 -80 -174c-24.667 -28.667 -51.5 -51.5 -80.5 -68.5s-58.167 -30 -87.5 -39
s-58.166 -14.833 -86.5 -17.5c-28.333 -2.66699 -54.166 -4 -77.499 -4h-962c-4 -44 -12.167 -84.5 -24.5 -121.5s-30.833 -71.5 -55.5 -103.5c-42.667 -52 -96.5 -89 -161.5 -111s-139.5 -33 -223.5 -33h-418c-84 0 -158.667 11 -224 33s-119 59 -161 111
c-18 22 -32.5 45.333 -43.5 70s-19.667 51.334 -26 80.001s-10.666 59.167 -12.999 91.5s-3.5 67.166 -3.5 104.499v682h402v-803zM1407 273.998h780.001c26 0 55 4.66699 87 14c30.667 10 55.667 30 75 60c4.66699 8.66699 11.667 26.667 21 54c9.33301 28 14 73 14 135
c0 54 -7 101.667 -21 143c-5.33301 18 -12.666 34.833 -22 50.5c-9.33301 15.667 -21.833 29.5 -37.5 41.5s-35.5 21.5 -59.5 28.5s-53 10.5 -87 10.5l-426 2c-90.667 -2.66699 -165 -23.667 -223 -63c-58.667 -39.333 -92.334 -89.333 -101.001 -150v-326zM1632 1194v240
h402v-240h-402z" />
    <glyph glyph-name="afii57431" unicode="&#x637;" horiz-adv-x="2023" arabic-form="isolated" 
d="M84 274l101.999 -0.00195312v1160h404v-473c20.667 24 43.5 44 68.5 60s51.5 28.833 79.5 38.5s57.833 16.334 89.5 20.001s65.167 5.5 100.5 5.5h598c65.333 0 125.666 -7.83301 180.999 -23.5s104 -45.167 146 -88.5c28.667 -29.333 51.167 -61.5 67.5 -96.5
s28.5 -71.833 36.5 -110.5s12.833 -78.167 14.5 -118.5s2.5 -80.166 2.5 -119.499c0 -42 -1.33301 -81.5 -4 -118.5s-6.66699 -72.5 -12 -106.5c-11.333 -68 -38 -126 -80 -174c-24.667 -28.667 -51.5 -51.5 -80.5 -68.5s-58.167 -30 -87.5 -39
s-58.166 -14.833 -86.499 -17.5s-54.166 -4 -77.499 -4h-1462v274zM589.999 273.998l780 -0.000976562c26 0 55 4.66699 87 14c30.667 10 55.667 30 75 60c6 10 12.667 28 20 54c8.66699 26 13 71 13 135c0 28 -1.5 53.333 -4.5 76s-7.83301 45 -14.5 67
c-11.333 35.333 -31.333 66 -60 92c-29.333 26 -78.333 39 -147 39l-428 2c-90 -3.33301 -163.333 -24.666 -220 -63.999c-56.667 -38.667 -89.667 -89 -99 -151h-2v-324z" />
    <glyph glyph-name="afii57432" unicode="&#x638;" horiz-adv-x="2023" arabic-form="isolated" 
d="M84 274l101.999 -0.00195312v1160h404v-473c20.667 24 43.5 44 68.5 60s51.5 28.833 79.5 38.5s57.833 16.334 89.5 20.001s65.167 5.5 100.5 5.5h598c65.333 0 125.666 -7.83301 180.999 -23.5s104 -45.167 146 -88.5c28.667 -29.333 51.167 -61.5 67.5 -96.5
s28.5 -71.833 36.5 -110.5s12.833 -78.167 14.5 -118.5s2.5 -80.166 2.5 -119.499c0 -42 -1.33301 -81.5 -4 -118.5s-6.66699 -72.5 -12 -106.5c-11.333 -68 -38 -126 -80 -174c-24.667 -28.667 -51.5 -51.5 -80.5 -68.5s-58.167 -30 -87.5 -39
s-58.166 -14.833 -86.499 -17.5s-54.166 -4 -77.499 -4h-1462v274zM589.999 273.998l780 -0.000976562c26 0 55 4.66699 87 14c30.667 10 55.667 30 75 60c6 10 12.667 28 20 54c8.66699 26 13 71 13 135c0 28 -1.5 53.333 -4.5 76s-7.83301 45 -14.5 67
c-11.333 35.333 -31.333 66 -60 92c-29.333 26 -78.333 39 -147 39l-428 2c-90 -3.33301 -163.333 -24.666 -220 -63.999c-56.667 -38.667 -89.667 -89 -99 -151h-2v-324zM917.999 1194v240h403v-240h-403z" />
    <glyph glyph-name="afii57433" unicode="&#x639;" horiz-adv-x="1247" arabic-form="isolated" 
d="M514 -555c-36.667 0 -73.8311 2.33496 -111.498 7.00195s-74.167 12.667 -109.5 24s-68.5 26.333 -99.5 45s-58 41.834 -81 69.501s-41.333 60.334 -55 98.001s-20.5 80.834 -20.5 129.501c0 58.667 5.66699 115.667 17 171c12 53.333 41 107.666 87 162.999
c27.333 31.333 56 55 86 71c-8 18 -15 39.5 -21 64.5s-11 51.333 -15 79s-7.16699 55.5 -9.5 83.5s-3.5 54 -3.5 78c0 39.333 0.833008 79.166 2.5 119.499s6.5 79.833 14.5 118.5s20.167 75.667 36.5 111s38.833 67.333 67.5 96c42 43.333 90.667 72.833 146 88.5
s116 23.5 182 23.5h583v-274h-397c-68.667 0 -117.334 -13 -146.001 -39c-30 -26.667 -50.333 -57.334 -61 -92.001c-6.66699 -22 -11.334 -44.333 -14.001 -67s-4 -48 -4 -76c0 -63.333 4 -108.333 12 -135c8 -27.333 15 -45.333 21 -54
c14.667 -24.667 34.667 -42.334 60 -53.001s50.333 -17.667 75 -21h454v-274l-587 2c-9.33301 0 -20 -0.666992 -32 -2s-25 -3.33301 -39 -6c-27.333 -4.66699 -52.333 -18.334 -75 -41.001c-13.333 -15.333 -21.333 -30.833 -24 -46.5s-4 -28.167 -4 -37.5
c0 -6.66699 -1 -13 -3 -19c0 -17.333 3.16699 -34.833 9.5 -52.5s15.5 -32.167 27.5 -43.5c10 -8 21 -14.333 33 -19s24.667 -8.16699 38 -10.5s26.5 -3.83301 39.5 -4.5s25.5 -1 37.5 -1h577v-274h-694z" />
    <glyph glyph-name="afii57434" unicode="&#x63a;" horiz-adv-x="1247" arabic-form="isolated" 
d="M514 -555c-36.667 0 -73.8311 2.33496 -111.498 7.00195s-74.167 12.667 -109.5 24s-68.5 26.333 -99.5 45s-58 41.834 -81 69.501s-41.333 60.334 -55 98.001s-20.5 80.834 -20.5 129.501c0 58.667 5.66699 115.667 17 171c12 53.333 41 107.666 87 162.999
c27.333 31.333 56 55 86 71c-8 18 -15 39.5 -21 64.5s-11 51.333 -15 79s-7.16699 55.5 -9.5 83.5s-3.5 54 -3.5 78c0 39.333 0.833008 79.166 2.5 119.499s6.5 79.833 14.5 118.5s20.167 75.667 36.5 111s38.833 67.333 67.5 96c42 43.333 90.667 72.833 146 88.5
s116 23.5 182 23.5h583v-274h-397c-68.667 0 -117.334 -13 -146.001 -39c-30 -26.667 -50.333 -57.334 -61 -92.001c-6.66699 -22 -11.334 -44.333 -14.001 -67s-4 -48 -4 -76c0 -63.333 4 -108.333 12 -135c8 -27.333 15 -45.333 21 -54
c14.667 -24.667 34.667 -42.334 60 -53.001s50.333 -17.667 75 -21h454v-274l-587 2c-9.33301 0 -20 -0.666992 -32 -2s-25 -3.33301 -39 -6c-27.333 -4.66699 -52.333 -18.334 -75 -41.001c-13.333 -15.333 -21.333 -30.833 -24 -46.5s-4 -28.167 -4 -37.5
c0 -6.66699 -1 -13 -3 -19c0 -17.333 3.16699 -34.833 9.5 -52.5s15.5 -32.167 27.5 -43.5c10 -8 21 -14.333 33 -19s24.667 -8.16699 38 -10.5s26.5 -3.83301 39.5 -4.5s25.5 -1 37.5 -1h577v-274h-694zM552.003 1194v240h404v-240h-404z" />
    <glyph glyph-name="afii57441" unicode="&#x641;" horiz-adv-x="1964" arabic-form="isolated" 
d="M481 0c-23.333 0 -49.1699 1.33203 -77.5029 3.99902s-57.166 8.5 -86.499 17.5s-58.5 22 -87.5 39s-55.5 39.833 -79.5 68.5c-43.333 48.667 -70.333 106.667 -81 174c-5.33301 34 -9.33301 69.5 -12 106.5s-4 76.5 -4 118.5v281h410v-272c0 -63.333 4 -108.333 12 -135
c8 -27.333 15 -45.333 21 -54c19.333 -30 44 -50 74 -60c32 -9.33301 61 -14 87 -14h109c-10.667 36 -17.5 73.667 -20.5 113s-4.5 81 -4.5 125c0 35.333 1 72.833 3 112.5s6.5 79 13.5 118s17 76.5 30 112.5s30.5 68.333 52.5 97c18.667 26 40.5 47.5 65.5 64.5
s50.833 30.667 77.5 41s52.5 17.5 77.5 21.5s46.833 6 65.5 6h347c65.333 0 125.666 -7.83301 180.999 -23.5s104 -45.167 146 -88.5c28.667 -28.667 51.167 -60.667 67.5 -96s28.5 -72.333 36.5 -111s12.833 -78.167 14.5 -118.5s2.5 -80.166 2.5 -119.499
c0 -42 -1.5 -81.5 -4.5 -118.5s-7.16699 -72.5 -12.5 -106.5c-11.333 -67.333 -37.666 -125.333 -78.999 -174c-24.667 -28.667 -51.5 -51.5 -80.5 -68.5s-58.167 -30 -87.5 -39s-58.166 -14.833 -86.499 -17.5s-54.166 -4 -77.499 -4h-1012zM1366 278.999
c22 2.66699 42.834 9.33301 62.501 20s36.5 27 50.5 49c6 10 12.667 28 20 54c8 26.667 12 71.667 12 135c0 28 -1.33301 53.333 -4 76s-7.33398 45 -14.001 67c-8 28 -22 53 -42 75s-51 38 -93 48c-40 0 -75.667 -5.5 -107 -16.5s-55.666 -32.833 -72.999 -65.5
c-12.667 -23.333 -20.334 -52.833 -23.001 -88.5s-4 -74.5 -4 -116.5c0 -28 1 -55.5 3 -82.5s8.66699 -52.167 20 -75.5c16 -34.667 37.667 -57.667 65 -69c26.667 -10 52 -15 76 -15zM1114 1194v240h404v-240h-404z" />
    <glyph glyph-name="afii57442" unicode="&#x642;" horiz-adv-x="1720" arabic-form="isolated" 
d="M364 301c6.66699 -79.333 24.4912 -146.008 53.4912 -200.008s64.333 -97 106 -129s87 -54 136 -66s96.833 -16 143.5 -12h264h35c12.667 0 25.5 0.833008 38.5 2.5s25.667 4.33398 38 8.00098s23.5 9.5 33.5 17.5c24 20 40.667 46 50 78h-348
c-28 0 -56.667 1.16699 -86 3.5s-58.166 8 -86.499 17s-55.333 22.667 -81 41s-48.5 43.5 -68.5 75.5c-32 46 -54 102.167 -66 168.5s-18 146.833 -18 241.5c0 53.333 2.16699 100.166 6.5 140.499s10.833 76.5 19.5 108.5s19.834 60.5 33.501 85.5
s29.834 49.167 48.501 72.5c20.667 24 42.334 44.333 65.001 61s47.834 30.334 75.501 41.001s58.334 18.334 92.001 23.001s71.834 7 114.501 7h444c16 0 32.333 -0.333008 49 -1s33.167 -2.66699 49.5 -6s32.166 -8.33301 47.499 -15s30 -16 44 -28
c14.667 -12 26.334 -25 35.001 -39s15.334 -28.167 20.001 -42.5s7.66699 -28.666 9 -42.999s2 -27.5 2 -39.5v-751c0 -37.333 -1.16699 -72.166 -3.5 -104.499s-6.5 -62.666 -12.5 -90.999s-14.667 -55 -26 -80s-26 -48.5 -44 -70.5
c-42 -52.667 -95.833 -89.834 -161.5 -111.501s-140.167 -32.5 -223.5 -32.5l-393 -6c-46.667 0 -90.167 0.5 -130.5 1.5s-78.666 3.5 -114.999 7.5s-71.333 10.167 -105 18.5s-67.167 19.833 -100.5 34.5c-35.333 14.667 -71.333 35.334 -108 62.001
s-69.667 58.334 -99 95.001s-53 78.334 -71 125.001s-25.667 97.334 -23 152.001zM1261.99 708.992c0 15.333 -2.16699 28.3369 -6.5 39.0039s-12.5 20.667 -24.5 30c-12.667 7.33301 -23.667 12 -33 14s-20.333 3 -33 3h-45c-14 0 -28.167 -0.5 -42.5 -1.5
s-28.666 -3.5 -42.999 -7.5s-28 -10 -41 -18s-24.833 -19 -35.5 -33c-4.66699 -5.33301 -9.5 -12.833 -14.5 -22.5s-9.66699 -22.334 -14 -38.001s-7.83301 -35 -10.5 -58s-4 -50.833 -4 -83.5c0 -48.667 4.16699 -87.834 12.5 -117.501s20.166 -52.834 35.499 -69.501
c12.667 -14.667 26.667 -25.834 42 -33.501s31 -13 47 -16s32 -4.66699 48 -5s31.667 -0.5 47 -0.5h115v418zM667.991 1194v240h401v-240h-401zM1152.99 1194v240h401v-240h-401z" />
    <glyph glyph-name="afii57443" unicode="&#x643;" horiz-adv-x="2184" arabic-form="isolated" 
d="M469 0c-23.333 0 -49 1.33496 -77 4.00195s-56.833 8.5 -86.5 17.5s-59 22 -88 39s-55.833 39.833 -80.5 68.5c-21.333 24.667 -38.166 51.5 -50.499 80.5s-22 60.167 -29 93.5s-11.5 68.833 -13.5 106.5s-3 77.167 -3 118.5v281h410v-272
c0 -31.333 1.16699 -57.833 3.5 -79.5s5.16602 -39.834 8.49902 -54.501s6.83301 -26.334 10.5 -35.001s6.83398 -15.334 9.50098 -20.001c10 -14.667 21.333 -26.667 34 -36s26.334 -16.833 41.001 -22.5s29.334 -9.5 44.001 -11.5s29 -3 43 -3h999
c14 0 26.333 3.5 37 10.5s19.834 16.667 27.501 29s13.834 26.5 18.501 42.5s8 33 10 51c-2 18 -5.16699 35.5 -9.5 52.5s-10.333 32.167 -18 45.5s-16.834 24.166 -27.501 32.499s-23.334 12.5 -38.001 12.5h-552c-51.333 0 -96.5 5.16699 -135.5 15.5
s-72.667 24.333 -101 42s-51.833 38.334 -70.5 62.001s-33.334 48.667 -44.001 75s-17.834 53.333 -21.501 81s-4.5 54.5 -2.5 80.5c1.33301 39.333 6.5 78.5 15.5 117.5s24.667 75.5 47 109.5s52.666 64 90.999 90s87.5 46 147.5 60l727 166v-344l-545 -115
c-31.333 -8 -53.333 -20.167 -66 -36.5s-19.334 -32.833 -20.001 -49.5c-1.33301 -15.333 2.5 -30.666 11.5 -45.999s25.167 -25.333 48.5 -30h559c124.667 0 221.5 -34.167 290.5 -102.5s105.167 -169.833 108.5 -304.5c-0.666992 -0.666992 -1.16699 -1.5 -1.5 -2.5
s-0.5 -3.16699 -0.5 -6.5v-44c-1.33301 -68 -11.333 -125.333 -30 -172s-45 -84.667 -79 -114s-75.167 -50.5 -123.5 -63.5s-103.166 -19.5 -164.499 -19.5h-1264z" />
    <glyph glyph-name="afii57444" unicode="&#x644;" horiz-adv-x="1496" arabic-form="isolated" 
d="M464 0c6.66699 -31.333 22.667 -57.333 48 -78c10 -8 21.333 -13.833 34 -17.5s25.5 -6.33398 38.5 -8.00098s25.833 -2.5 38.5 -2.5h36h166h35c13.333 0 26.5 0.833008 39.5 2.5s25.833 4.33398 38.5 8.00098s24 9.5 34 17.5c24.667 20.667 40.667 46.667 48 78v1433
h401v-1312c0 -36.667 -1.16699 -71.167 -3.5 -103.5s-6.5 -62.833 -12.5 -91.5s-14.667 -55.5 -26 -80.5s-26 -48.5 -44 -70.5c-41.333 -52.667 -95 -89.834 -161 -111.501s-140.667 -32.5 -224 -32.5h-416c-83.333 0 -158 10.833 -224 32.5s-119.667 58.834 -161 111.501
c-18 22 -32.667 45.5 -44 70.5s-20 51.833 -26 80.5s-10.167 59.167 -12.5 91.5s-3.5 66.833 -3.5 103.5v682h401v-803z" />
    <glyph glyph-name="afii57445" unicode="&#x645;" horiz-adv-x="1579" arabic-form="isolated" 
d="M899 1098c42.667 0 86.3359 -0.999023 131.003 -2.99902s88.167 -6.66699 130.5 -14s82.5 -18.333 120.5 -33s71.667 -35 101 -61c34.667 -30 61.667 -65 81 -105s33.666 -80.667 42.999 -122s15 -81.166 17 -119.499s3 -70.833 3 -97.5c0 -27.333 -1 -60.166 -3 -98.499
s-7.66699 -78.166 -17 -119.499s-23.666 -82 -42.999 -122s-46.333 -75 -81 -105c-29.333 -25.333 -63 -45.333 -101 -60s-78.167 -25.667 -120.5 -33s-85.833 -12 -130.5 -14s-88.334 -3 -131.001 -3c-32 0 -64.833 1.66699 -98.5 5s-67.5 5 -101.5 5
s-66.833 -3.33301 -98.5 -10s-59.834 -19.667 -84.501 -39c-12.667 -10 -24.167 -21.167 -34.5 -33.5s-19 -26.5 -26 -42.5s-12.333 -34.667 -16 -56s-5.5 -46.333 -5.5 -75v-211h-401v295c0 24 1.5 51.5 4.5 82.5s9.83301 62.667 20.5 95s26.334 64 47.001 95
s49 58.167 85 81.5c17.333 11.333 36.5 21.166 57.5 29.499s45.5 16.166 73.5 23.499c-11.333 27.333 -20.333 55.333 -27 84s-11.667 56.667 -15 84s-5.33301 53.166 -6 77.499s-1 45.833 -1 64.5c0 26.667 1 59.167 3 97.5s7.66699 78.166 17 119.499
s23.666 82 42.999 122s46.333 75 81 105c30 26 64 46.5 102 61.5s78 26.167 120 33.5s85.167 11.833 129.5 13.5s88.166 2.5 131.499 2.5zM682.002 543.001c0 -30 1.33203 -55.832 3.99902 -77.499s5.83398 -40 9.50098 -55s7.83398 -27 12.501 -36s9 -16.5 13 -22.5
c1.33301 -2.66699 5.66602 -8 12.999 -16s18.166 -16.333 32.499 -25s32.5 -16.334 54.5 -23.001s48 -10 78 -10c26.667 0 50.167 2.66699 70.5 8s37.5 11.833 51.5 19.5s25.333 15.667 34 24s15.334 15.833 20.001 22.5c16.667 23.333 27.667 51 33 83s8 68 8 108
c0 28.667 -1 53.334 -3 74.001s-4.66699 38.667 -8 54s-7.33301 28.166 -12 38.499s-10 19.5 -16 27.5c-5.33301 6.66699 -12.333 14.167 -21 22.5s-20 16 -34 23s-31 12.833 -51 17.5s-44 7 -72 7s-52 -2.33301 -72 -7s-37 -10.5 -51 -17.5s-25.333 -14.667 -34 -23
s-15.667 -15.833 -21 -22.5c-4 -5.33301 -8.16699 -12.5 -12.5 -21.5s-8.5 -20.833 -12.5 -35.5s-7.33301 -33.167 -10 -55.5s-4 -49.5 -4 -81.5z" />
    <glyph glyph-name="afii57446" unicode="&#x646;" horiz-adv-x="1480" arabic-form="isolated" 
d="M465 0c6 -30.667 21.667 -56.667 47 -78c10 -8 21.333 -13.833 34 -17.5s25.5 -6.33398 38.5 -8.00098s25.833 -2.5 38.5 -2.5h36h166h35c13.333 0 26.666 0.833008 39.999 2.5s26.333 4.33398 39 8.00098s24 9.5 34 17.5c12 10.667 22 22.5 30 35.5
s13.667 27.167 17 42.5v1083h401v-962c0 -37.333 -1.16699 -72.166 -3.5 -104.499s-6.5 -62.666 -12.5 -90.999s-14.667 -55 -26 -80s-26 -48.5 -44 -70.5c-41.333 -52.667 -95 -89.834 -161 -111.501s-140.667 -32.5 -224 -32.5h-416
c-83.333 0 -157.833 10.833 -223.5 32.5s-119.5 58.834 -161.5 111.501c-18 22 -32.5 45.5 -43.5 70.5s-19.667 51.667 -26 80s-10.666 58.666 -12.999 90.999s-3.5 67.166 -3.5 104.499v682h402v-803zM537 1194v240h401v-240h-401z" />
    <glyph glyph-name="afii57470" unicode="&#x647;" horiz-adv-x="1340" arabic-form="isolated" 
d="M663 1098c42.667 0 86.334 -1 131.001 -3s88.167 -6.66699 130.5 -14s82.5 -18.333 120.5 -33s72 -35 102 -61c34 -30 60.667 -65 80 -105s33.666 -80.667 42.999 -122s15 -81.166 17 -119.499s3 -70.833 3 -97.5c0 -27.333 -1 -60.166 -3 -98.499
s-7.66699 -78.166 -17 -119.499s-23.666 -82 -42.999 -122s-46 -75 -80 -105c-30 -25.333 -64 -45.333 -102 -60s-78.167 -25.667 -120.5 -33s-85.833 -12 -130.5 -14s-88.334 -3 -131.001 -3c-43.333 0 -87.166 0.833008 -131.499 2.5s-87.5 6.16699 -129.5 13.5
s-82 18.333 -120 33s-72 35 -102 61c-34 30 -60.667 65 -80 105s-33.666 80.667 -42.999 122s-15 81.166 -17 119.499s-3 71.166 -3 98.499c0 26.667 1 59.167 3 97.5s7.66699 78.166 17 119.499s23.666 82 42.999 122s46 75 80 105c30 26 64 46.5 102 61.5
s78 26.167 120 33.5s85.167 11.833 129.5 13.5s88.166 2.5 131.499 2.5zM447 543c0 -30 1.16797 -55.832 3.50098 -77.499s5.5 -40 9.5 -55s8.16699 -27 12.5 -36s8.5 -16.5 12.5 -22.5c1.33301 -2.66699 5.83301 -8 13.5 -16s18.667 -16.333 33 -25
s32.333 -16.334 54 -23.001s47.5 -10 77.5 -10c27.333 0 51 2.66699 71 8s37 11.833 51 19.5s25.5 15.667 34.5 24s15.833 15.833 20.5 22.5c16 23.333 26.833 51 32.5 83s8.5 68 8.5 108c0 28.667 -1 53.334 -3 74.001s-4.83301 38.667 -8.5 54
s-7.83398 28.166 -12.501 38.499s-9.66699 19.5 -15 27.5c-6 6.66699 -13.333 14.167 -22 22.5s-20 16 -34 23s-31 12.833 -51 17.5s-44 7 -72 7s-52 -2.33301 -72 -7s-36.833 -10.5 -50.5 -17.5s-24.834 -14.667 -33.501 -23s-16 -15.833 -22 -22.5
c-3.33301 -5.33301 -7.16602 -12.5 -11.499 -21.5s-8.5 -20.833 -12.5 -35.5s-7.33301 -33.167 -10 -55.5s-4 -49.5 -4 -81.5z" />
    <glyph glyph-name="afii57448" unicode="&#x648;" horiz-adv-x="1251" arabic-form="isolated" 
d="M113 -106l483.001 -0.00585938h35c13.333 0 26.5 0.833008 39.5 2.5s25.833 4.33398 38.5 8.00098s24 9.5 34 17.5c26 22 42 48 48 78h-347c-28 0 -56.833 1.16699 -86.5 3.5s-58.667 8 -87 17s-55.333 22.667 -81 41s-48.5 43.5 -68.5 75.5
c-30 46 -51.5 102.167 -64.5 168.5s-19.5 146.833 -19.5 241.5c0 52.667 2 99.334 6 140.001s10.5 77 19.5 109s20.333 60.667 34 86s30.5 49.333 50.5 72c20.667 24 42.167 44.333 64.5 61s47.166 30.334 74.499 41.001s57.666 18.334 90.999 23.001s71.333 7 114 7h447
c16 0 32.167 -0.333008 48.5 -1s32.833 -2.66699 49.5 -6s32.834 -8.33301 48.501 -15s30.5 -16 44.5 -28s25 -25 33 -39s14.333 -28.167 19 -42.5s7.66699 -28.666 9 -42.999s2 -27.5 2 -39.5v-751c0 -37.333 -1.16699 -72.166 -3.5 -104.499s-6.5 -62.666 -12.5 -90.999
s-14.667 -55 -26 -80s-26 -48.5 -44 -70.5c-41.333 -52.667 -95 -89.834 -161 -111.501s-140.667 -32.5 -224 -32.5h-608v263zM791.001 708.994c0 15.333 -1.83203 28.335 -5.49902 39.002s-12.167 20.667 -25.5 30c-11.333 7.33301 -22 12 -32 14s-20.667 3 -32 3h-45
c-14 0 -28.333 -0.5 -43 -1.5s-29 -3.5 -43 -7.5s-27.333 -10 -40 -18s-24.334 -19 -35.001 -33c-4.66699 -5.33301 -9.5 -12.833 -14.5 -22.5s-9.66699 -22.334 -14 -38.001s-7.83301 -35 -10.5 -58s-4 -50.833 -4 -83.5c0 -94.667 14.667 -157 44 -187
c12.667 -14.667 26.834 -25.834 42.501 -33.501s31.667 -13 48 -16s32.666 -4.66699 48.999 -5s31.5 -0.5 45.5 -0.5h115v418z" />
    <glyph glyph-name="afii57449" unicode="&#x649;" horiz-adv-x="1652" arabic-form="isolated" 
d="M1071 37c21.333 0 39.9961 0.333008 55.9961 1s28.667 3 38 7c18.667 8 31.834 18 39.501 30s11.167 24.667 10.5 38s-4.66699 26.666 -12 39.999s-16.333 25.333 -27 36l-159.5 61l-158.5 63c-49.333 16.667 -93.666 38.334 -132.999 65.001s-69.333 57 -90 91
s-35.5 69 -44.5 105s-13.5 72 -13.5 108s3.66699 72.333 11 109s15.666 73.334 24.999 110.001c10.667 28.667 26.5 54.5 47.5 77.5s44.833 42.5 71.5 58.5s55 28.167 85 36.5s59.333 12.5 88 12.5h641v-279h-506c-18 0 -32.5 -2.33301 -43.5 -7s-19.667 -10.667 -26 -18
s-10.666 -16 -12.999 -26s-3.5 -20.333 -3.5 -31c0 -8 2.33301 -17 7 -27s10.667 -16.667 18 -20c21.333 -16.667 47.666 -31.667 78.999 -45s65.166 -26.166 101.499 -38.499l112 -37c38.333 -12.333 74.833 -26 109.5 -41s66 -31.833 94 -50.5s50.333 -40.334 67 -65.001
c14.667 -20.667 27.334 -46.167 38.001 -76.5s18.167 -63.166 22.5 -98.499s5.5 -72.333 3.5 -111s-8 -76.334 -18 -113.001s-24.333 -71.167 -43 -103.5s-42.334 -60.5 -71.001 -84.5c-30 -23.333 -60.167 -37.833 -90.5 -43.5s-60.166 -8.5 -89.499 -8.5h-819
c-23.333 0 -49 1.33301 -77 4s-56.833 8.5 -86.5 17.5s-59 22 -88 39s-55.833 39.833 -80.5 68.5c-21.333 24.667 -38.166 51.667 -50.499 81s-22 60.666 -29 93.999s-11.5 68.833 -13.5 106.5s-3 77.167 -3 118.5v280h410v-272c0 -31.333 1.16699 -57.833 3.5 -79.5
s5.33301 -39.834 9 -54.501s7.33398 -26.167 11.001 -34.5s6.83398 -14.833 9.50098 -19.5c9.33301 -15.333 20.5 -27.666 33.5 -36.999s26.667 -16.833 41 -22.5s28.833 -9.5 43.5 -11.5s29 -3 43 -3h420z" />
    <glyph glyph-name="afii57450" unicode="&#x64a;" horiz-adv-x="1652" arabic-form="isolated" 
d="M1071 37c21.333 0 39.9961 0.333008 55.9961 1s28.667 3 38 7c18.667 8 31.834 18 39.501 30s11.167 24.667 10.5 38s-4.66699 26.666 -12 39.999s-16.333 25.333 -27 36l-159.5 61l-158.5 63c-49.333 16.667 -93.666 38.334 -132.999 65.001s-69.333 57 -90 91
s-35.5 69 -44.5 105s-13.5 72 -13.5 108s3.66699 72.333 11 109s15.666 73.334 24.999 110.001c10.667 28.667 26.5 54.5 47.5 77.5s44.833 42.5 71.5 58.5s55 28.167 85 36.5s59.333 12.5 88 12.5h641v-279h-506c-18 0 -32.5 -2.33301 -43.5 -7s-19.667 -10.667 -26 -18
s-10.666 -16 -12.999 -26s-3.5 -20.333 -3.5 -31c0 -8 2.33301 -17 7 -27s10.667 -16.667 18 -20c21.333 -16.667 47.666 -31.667 78.999 -45s65.166 -26.166 101.499 -38.499l112 -37c38.333 -12.333 74.833 -26 109.5 -41s66 -31.833 94 -50.5s50.333 -40.334 67 -65.001
c14.667 -20.667 27.334 -46.167 38.001 -76.5s18.167 -63.166 22.5 -98.499s5.5 -72.333 3.5 -111s-8 -76.334 -18 -113.001s-24.333 -71.167 -43 -103.5s-42.334 -60.5 -71.001 -84.5c-30 -23.333 -60.167 -37.833 -90.5 -43.5s-60.166 -8.5 -89.499 -8.5h-819
c-23.333 0 -49 1.33301 -77 4s-56.833 8.5 -86.5 17.5s-59 22 -88 39s-55.833 39.833 -80.5 68.5c-21.333 24.667 -38.166 51.667 -50.499 81s-22 60.666 -29 93.999s-11.5 68.833 -13.5 106.5s-3 77.167 -3 118.5v280h410v-272c0 -31.333 1.16699 -57.833 3.5 -79.5
s5.33301 -39.834 9 -54.501s7.33398 -26.167 11.001 -34.5s6.83398 -14.833 9.50098 -19.5c9.33301 -15.333 20.5 -27.666 33.5 -36.999s26.667 -16.833 41 -22.5s28.833 -9.5 43.5 -11.5s29 -3 43 -3h420z" />
    <glyph glyph-name="afii57506" unicode="&#x67e;" horiz-adv-x="1872" arabic-form="isolated" 
d="M1231 274c26 0 54.998 4.66699 86.998 14c30.667 10 55.667 30 75 60c6 10 12.667 28 20 54c8 26.667 12 71.667 12 135v546h410v-555c0 -42 -1.5 -81.5 -4.5 -118.5s-7.16699 -72.5 -12.5 -106.5c-11.333 -67.333 -37.666 -125.333 -78.999 -174
c-24.667 -28.667 -51.667 -51.5 -81 -68.5s-58.833 -30 -88.5 -39s-58.5 -14.833 -86.5 -17.5s-53.333 -4 -76 -4h-938c-23.333 -0 -49.166 1.33301 -77.499 4s-57.166 8.5 -86.499 17.5s-58.5 22 -87.5 39s-55.833 39.833 -80.5 68.5
c-42.667 49.333 -69.334 107.333 -80.001 174c-5.33301 34 -9.33301 69.5 -12 106.5s-4 76.5 -4 118.5v281h410v-272c0 -63.333 4 -108.333 12 -135c7.33301 -26 14 -44 20 -54c18.667 -30 43.667 -50 75 -60c32 -9.33301 61 -14 87 -14h586zM1396 -120v-240h-404v240h404z
M907.998 -120v-240h-401v240h401zM1152 -438v-239h-401v239h401z" />
    <glyph glyph-name="afii57507" unicode="&#x686;" horiz-adv-x="1427" arabic-form="isolated" 
d="M537 -555c-36.667 0 -73.8379 2.33203 -111.505 6.99902s-74.334 12.667 -110.001 24s-69.167 26.333 -100.5 45s-58.666 41.834 -81.999 69.501s-41.833 60.167 -55.5 97.5s-20.5 80.666 -20.5 129.999c0 30 0.666992 59.667 2 89s5.5 58 12.5 86s17.667 55.333 32 82
s34.5 52.334 60.5 77.001c32.667 32 68.834 56.333 108.501 73s84.167 28.667 133.5 36s104.333 11.333 165 12s129 1 205 1h31v263c0 54 -7 101.667 -21 143c-5.33301 18 -12.666 34.833 -21.999 50.5s-21.833 29.5 -37.5 41.5s-35.5 21.5 -59.5 28.5s-53 10.5 -87 10.5
h-398v274h586c65.333 0 125.333 -7.83301 180 -23.5s103.334 -45.167 146.001 -88.5c28.667 -28.667 51 -60.667 67 -96s28 -72.333 36 -111s12.833 -78.167 14.5 -118.5s2.5 -80.166 2.5 -119.499v-254h146v-274l-717 2c-18 0 -41.333 -2.66699 -70 -8
c-27.333 -5.33301 -51.666 -19 -72.999 -41c-19.333 -22.667 -28.666 -42.334 -27.999 -59.001c1.33301 -18 0.333008 -32.667 -3 -44c0 -17.333 2.66699 -34.833 8 -52.5s15 -32.167 29 -43.5c19.333 -16 42.5 -25.833 69.5 -29.5s52.167 -5.5 75.5 -5.5h65v-274h-179z
M1357 -152.001v-168h-282v168h282zM1016 -152.001v-168h-281v168h281zM1187 -374.001v-168h-281v168h281z" />
    <glyph glyph-name="afii57508" unicode="&#x698;" horiz-adv-x="813" arabic-form="isolated" 
d="M43 -90c30 -0.666992 56.167 -0.330078 78.5 1.00293s41.5 3.66602 57.5 6.99902c33.333 7.33301 63 21.666 89 42.999s46 46.666 60 75.999c14.667 29.333 22 73 22 131v917h402v-1001c0 -24 -1.5 -51.667 -4.5 -83s-10 -63.166 -21 -95.499s-26.833 -64 -47.5 -95
s-49 -57.833 -85 -80.5c-51.333 -34.667 -120.333 -57 -207 -67c-43.333 -5.33301 -93.5 -8.83301 -150.5 -10.5s-121.5 -1.83398 -193.5 -0.500977v258zM480 1193v168h282v-168h-282zM140 1193v168h281v-168h-281zM311 1416v167h281v-167h-281z" />
    <glyph glyph-name="afii57509" unicode="&#x6af;" horiz-adv-x="2184" arabic-form="isolated" 
d="M1011 1531l730 168v-162l-730 -174v168zM469 0c-23.333 0 -49 1.33496 -77 4.00195s-56.833 8.5 -86.5 17.5s-59 22 -88 39s-55.833 39.833 -80.5 68.5c-21.333 24.667 -38.166 51.5 -50.499 80.5s-22 60.167 -29 93.5s-11.5 68.833 -13.5 106.5s-3 77.167 -3 118.5v281
h410v-272c0 -31.333 1.16699 -57.833 3.5 -79.5s5.16602 -39.834 8.49902 -54.501s6.83301 -26.334 10.5 -35.001s6.83398 -15.334 9.50098 -20.001c10 -14.667 21.333 -26.667 34 -36s26.334 -16.833 41.001 -22.5s29.334 -9.5 44.001 -11.5s29 -3 43 -3h999
c14 0 26.333 3.5 37 10.5s19.834 16.667 27.501 29s13.834 26.5 18.501 42.5s8 33 10 51c-2 18 -5.16699 35.5 -9.5 52.5s-10.333 32.167 -18 45.5s-16.834 24.166 -27.501 32.499s-23.334 12.5 -38.001 12.5h-552c-51.333 0 -96.5 5.16699 -135.5 15.5
s-72.667 24.333 -101 42s-51.833 38.334 -70.5 62.001s-33.334 48.667 -44.001 75s-17.834 53.333 -21.501 81s-4.5 54.5 -2.5 80.5c1.33301 39.333 6.5 78.5 15.5 117.5s24.667 75.5 47 109.5s52.666 64 90.999 90s87.5 46 147.5 60l727 166v-344l-545 -115
c-31.333 -8 -53.333 -20.167 -66 -36.5s-19.334 -32.833 -20.001 -49.5c-1.33301 -15.333 2.5 -30.666 11.5 -45.999s25.167 -25.333 48.5 -30h559c124.667 0 221.5 -34.167 290.5 -102.5s105.167 -169.833 108.5 -304.5c-0.666992 -0.666992 -1.16699 -1.5 -1.5 -2.5
s-0.5 -3.16699 -0.5 -6.5v-44c-1.33301 -68 -11.333 -125.333 -30 -172s-45 -84.667 -79 -114s-75.167 -50.5 -123.5 -63.5s-103.166 -19.5 -164.499 -19.5h-1264z" />
    <glyph glyph-name="uniFB57" unicode="&#x67e;" horiz-adv-x="2105" arabic-form="final" 
d="M1825 707l1.99902 1.99805v-150c0 -15.333 0.666992 -31.666 2 -48.999s3.33301 -35.666 6 -54.999c4.66699 -36.667 19 -71 43 -103c12.667 -17.333 26.834 -31 42.501 -41s32.167 -17.833 49.5 -23.5s35.5 -9.33398 54.5 -11.001s38.5 -2.5 58.5 -2.5h33v-274h-160
c-22.667 0 -47.5 0.333008 -74.5 1s-55 2.66699 -84 6s-58.167 8.83301 -87.5 16.5s-58 18.167 -86 31.5c-56 -27.333 -114.333 -43.333 -175 -48c-30.667 -2.66699 -59 -4.5 -85 -5.5s-50 -1.5 -72 -1.5h-823c-23.333 0 -49.166 1.33301 -77.499 4
s-57.166 8.5 -86.499 17.5s-58.5 22 -87.5 39s-55.833 39.833 -80.5 68.5c-42.667 49.333 -69.334 107.333 -80.001 174c-5.33301 34 -9.33301 69.5 -12 106.5s-4 76.5 -4 118.5v281h410v-272c0 -63.333 4 -108.333 12 -135c7.33301 -26 14 -44 20 -54
c18.667 -30 43.667 -50 75 -60c32 -9.33301 61 -14 87 -14h520c20 0 39.5 0.833008 58.5 2.5s37.167 5.33398 54.5 11.001s33.666 13.5 48.999 23.5s29 23.667 41 41c23.333 32 38 66.5 44 103.5s9 71.5 9 103.5v524h404v-376zM1396 -120.002v-240h-404v240h404z
M907.999 -120.002v-240h-401v240h401zM1152 -438.002v-239h-401v239h401z" />
    <glyph glyph-name="uniFB58" unicode="&#x67e;" horiz-adv-x="989" arabic-form="initial" 
d="M931 455c0 -26 -1.16797 -54.5029 -3.50098 -85.5029s-7.66602 -62.333 -15.999 -94s-21.166 -62.667 -38.499 -93s-41 -57.833 -71 -82.5s-62.833 -43.667 -98.5 -57s-71.5 -23.166 -107.5 -29.499s-71 -10.166 -105 -11.499s-64 -2 -90 -2h-436v274h309
c20 0 39.333 0.833008 58 2.5s36.5 5.33398 53.5 11.001s33.167 13.5 48.5 23.5s29.666 23.667 42.999 41c23.333 32 38 66.5 44 103.5s9 71.5 9 103.5v524h401v-628zM923.999 -121.003v-240h-404v240h404zM435.999 -121.003v-240h-401v240h401zM679.999 -439.003v-239h-401
v239h401z" />
    <glyph glyph-name="uniFB59" unicode="&#x67e;" horiz-adv-x="961" arabic-form="medial" 
d="M678 707l1.99902 2v-150c0 -32 3 -66.5 9 -103.5s20.667 -71.5 44 -103.5c12.667 -17.333 26.834 -31 42.501 -41s32 -17.833 49 -23.5s34.833 -9.33398 53.5 -11.001s38 -2.5 58 -2.5h35v-274h-162c-22 0 -46 0.5 -72 1.5s-54.333 2.83301 -85 5.5
c-60.667 4.66699 -119 20.667 -175 48c-56 -27.333 -114 -43.333 -174 -48c-30 -2.66699 -58 -4.5 -84 -5.5s-50 -1.5 -72 -1.5h-155v274h28c20 0 39.333 0.833008 58 2.5s36.667 5.33398 54 11.001s33.5 13.5 48.5 23.5s29.167 23.667 42.5 41c23.333 32 38 66.5 44 103.5
s9 71.5 9 103.5v524h402v-376zM923.999 -122v-240h-404v240h404zM435.999 -122v-240h-401v240h401zM679.999 -440v-239h-401v239h401z" />
    <glyph glyph-name="uniFB7B" unicode="&#x686;" horiz-adv-x="1427" arabic-form="final" 
d="M537 -555c-36.667 0 -73.8379 2.33203 -111.505 6.99902s-74.334 12.667 -110.001 24s-69.167 26.333 -100.5 45s-58.666 41.834 -81.999 69.501s-41.833 60.167 -55.5 97.5s-20.5 80.666 -20.5 129.999c0 30 0.666992 59.667 2 89s5.5 58 12.5 86s17.667 55.333 32 82
s34.5 52.334 60.5 77.001c32.667 32 68.834 56.333 108.501 73s84.167 28.667 133.5 36s104.333 11.333 165 12s129 1 205 1h31v263c0 54 -7 101.667 -21 143c-5.33301 18 -12.666 34.833 -21.999 50.5s-21.833 29.5 -37.5 41.5s-35.5 21.5 -59.5 28.5s-53 10.5 -87 10.5
h-398v274h586c65.333 0 125.333 -7.83301 180 -23.5s103.334 -45.167 146.001 -88.5c28.667 -28.667 51 -60.667 67 -96s28 -72.333 36 -111s12.833 -78.167 14.5 -118.5s2.5 -80.166 2.5 -119.499v-254h226v-274l-797 2c-18 0 -41.333 -2.66699 -70 -8
c-27.333 -5.33301 -51.666 -19 -72.999 -41c-19.333 -22.667 -28.666 -42.334 -27.999 -59.001c1.33301 -18 0.333008 -32.667 -3 -44c0 -17.333 2.66699 -34.833 8 -52.5s15 -32.167 29 -43.5c19.333 -16 42.5 -25.833 69.5 -29.5s52.167 -5.5 75.5 -5.5h73v-274h-187z
M1387 -152.001v-168h-282v168h282zM1046 -152.001v-168h-281v168h281zM1217 -374.001v-168h-281v168h281z" />
    <glyph glyph-name="uniFB7C" unicode="&#x686;" horiz-adv-x="1444" arabic-form="initial" 
d="M-10 274l784.001 -0.00195312v263c0 28 -1.33301 53.333 -4 76s-7.33398 45 -14.001 67c-10.667 34.667 -31 65.334 -61 92.001c-29.333 26 -78 39 -146 39h-397v274h583c66 0 126.5 -7.83301 181.5 -23.5s103.833 -45.167 146.5 -88.5
c28.667 -28.667 51.167 -60.667 67.5 -96s28.5 -72.333 36.5 -111s12.833 -78.167 14.5 -118.5s2.5 -80.166 2.5 -119.499v-254h143v-274h-1337v274zM1052 -122.002v-240h-404v240h404zM564.001 -122.002v-240h-401v240h401zM808.001 -440.002v-239h-401v239h401z" />
    <glyph glyph-name="uniFB7D" unicode="&#x686;" horiz-adv-x="1380" arabic-form="medial" 
d="M-10 274l784.001 -0.00195312v263c0 28 -1.33301 53.333 -4 76s-7.33398 45 -14.001 67c-10.667 34.667 -31 65.334 -61 92.001c-29.333 26 -78 39 -146 39h-397v274h583c66 0 126.5 -7.83301 181.5 -23.5s103.833 -45.167 146.5 -88.5
c28.667 -28.667 51.167 -60.667 67.5 -96s28.5 -72.333 36.5 -111s12.833 -78.167 14.5 -118.5s2.5 -80.166 2.5 -119.499v-254h209v-274h-1403v274zM1052 -122.002v-240h-404v240h404zM564.001 -122.002v-240h-401v240h401zM808.001 -440.002v-239h-401v239h401z" />
    <glyph glyph-name="uniFB8B" unicode="&#x698;" horiz-adv-x="887" arabic-form="final" 
d="M39 -90c30 -0.666992 56.1689 -0.330078 78.502 1.00293s41.166 3.66602 56.499 6.99902c32.667 7.33301 62 21.666 88 42.999c28 22 48.333 47.333 61 76c14 30 21 73.667 21 131v917h404v-811h153v-274h-160c-4.66699 -44.667 -18.334 -92 -41.001 -142
c-21.333 -50 -58 -92.667 -110 -128c-51.333 -34.667 -120.333 -57 -207 -67c-43.333 -5.33301 -93.5 -8.83301 -150.5 -10.5s-121.5 -1.83398 -193.5 -0.500977v258zM520.002 1193v168h282v-168h-282zM180.002 1193v168h281v-168h-281zM351.002 1416v167h281v-167h-281z
" />
    <glyph glyph-name="uniFB8F" unicode="&#x6a9;" horiz-adv-x="2218" arabic-form="final" 
d="M469 0c-23.333 0 -48.999 1.33594 -76.999 4.00293s-56.833 8.5 -86.5 17.5s-59 22 -88 39s-55.833 39.833 -80.5 68.5c-21.333 24.667 -38.166 51.5 -50.499 80.5s-22 60.167 -29 93.5s-11.5 68.833 -13.5 106.5s-3 77.167 -3 118.5v281h410v-272
c0 -31.333 1.16699 -57.833 3.5 -79.5s5.16602 -39.834 8.49902 -54.501s6.83301 -26.334 10.5 -35.001s6.83398 -15.334 9.50098 -20.001c10 -14.667 21.333 -26.667 34 -36s26.334 -16.833 41.001 -22.5s29.334 -9.5 44.001 -11.5s29 -3 43 -3h999
c14 0 26.333 3.5 37 10.5s19.834 16.667 27.501 29s13.834 26.5 18.501 42.5s8 33 10 51c-2 18 -5.16699 35.5 -9.5 52.5s-10.333 32.167 -18 45.5s-16.834 24.166 -27.501 32.499s-23.334 12.5 -38.001 12.5h-552c-51.333 0 -96.5 5.16699 -135.5 15.5
s-72.667 24.333 -101 42s-51.833 38.334 -70.5 62.001s-33.334 48.667 -44.001 75s-17.834 53.333 -21.501 81s-4.5 54.5 -2.5 80.5c1.33301 39.333 6.5 78.5 15.5 117.5s24.667 75.5 47 109.5s52.666 64 90.999 90s87.5 46 147.5 60l727 166v-344l-545 -115
c-31.333 -8 -53.333 -20.167 -66 -36.5s-19.334 -32.833 -20.001 -49.5c-1.33301 -15.333 2.5 -30.666 11.5 -45.999s25.167 -25.333 48.5 -30h559c124.667 0 221.5 -34.167 290.5 -102.5s105.167 -169.833 108.5 -304.5c-0.666992 -0.666992 -1.16699 -1.5 -1.5 -2.5
s-0.5 -3.16699 -0.5 -6.5v-44c-0.666992 -34.667 -3.66699 -66.334 -9 -95.001h109v-274h-1761z" />
    <glyph glyph-name="uniFB90" unicode="&#x6a9;" horiz-adv-x="1585" arabic-form="initial" 
d="M-10 275l1060 -0.000976562c14 0 26.333 3.5 37 10.5s19.834 16.667 27.501 29s13.834 26.5 18.501 42.5s8 33 10 51c-2 18 -5.16699 35.5 -9.5 52.5s-10.333 32.167 -18 45.5s-16.834 24.166 -27.501 32.499s-23.334 12.5 -38.001 12.5h-552
c-51.333 0 -96.5 5.16699 -135.5 15.5s-72.667 24.333 -101 42s-51.833 38.334 -70.5 62.001s-33.334 48.667 -44.001 75s-17.834 53.333 -21.501 81s-4.5 54.5 -2.5 80.5c1.33301 39.333 6.5 78.5 15.5 117.5s24.667 75.5 47 109.5s52.666 64 90.999 90s87.5 46 147.5 60
l727 166v-344l-545 -115c-31.333 -8 -53.333 -20.167 -66 -36.5s-19.334 -32.833 -20.001 -49.5c-1.33301 -15.333 2.5 -30.666 11.5 -45.999s25.167 -25.333 48.5 -30h559c124.667 0 221.5 -34.167 290.5 -102.5s105.167 -169.833 108.5 -304.5
c-0.666992 -0.666992 -1.16699 -1.5 -1.5 -2.5s-0.5 -3.16699 -0.5 -6.5v-16v-28c-1.33301 -68 -11.333 -125.333 -30 -172s-45 -84.667 -79 -114s-75.167 -50.5 -123.5 -63.5s-103.166 -19.5 -164.499 -19.5h-1149v275z" />
    <glyph glyph-name="uniFB91" unicode="&#x6a9;" horiz-adv-x="1632" arabic-form="medial" 
d="M1050 275c14 0 26.3369 3.49902 37.0039 10.499s19.834 16.667 27.501 29s13.834 26.5 18.501 42.5s8 33 10 51c-2 18 -5.16699 35.5 -9.5 52.5s-10.333 32.167 -18 45.5s-16.834 24.166 -27.501 32.499s-23.334 12.5 -38.001 12.5h-552
c-51.333 0 -96.5 5.16699 -135.5 15.5s-72.667 24.333 -101 42s-51.833 38.334 -70.5 62.001s-33.334 48.667 -44.001 75s-17.834 53.333 -21.501 81s-4.5 54.5 -2.5 80.5c1.33301 39.333 6.5 78.5 15.5 117.5s24.667 75.5 47 109.5s52.666 64 90.999 90s87.5 46 147.5 60
l727 166v-344l-545 -115c-31.333 -8 -53.333 -20.167 -66 -36.5s-19.334 -32.833 -20.001 -49.5c-1.33301 -15.333 2.5 -30.666 11.5 -45.999s25.167 -25.333 48.5 -30h559c124.667 0 221.5 -34.167 290.5 -102.5s105.167 -169.833 108.5 -304.5
c-0.666992 -0.666992 -1.16699 -1.5 -1.5 -2.5s-0.5 -3.16699 -0.5 -6.5v-16v-28c-0.666992 -34 -3.66699 -65.667 -9 -95h113v-274h-1650v275h1060z" />
    <glyph glyph-name="uniFB93" unicode="&#x6af;" horiz-adv-x="2218" arabic-form="final" 
d="M1011 1531l730 168v-162l-730 -174v168zM469 0c-23.333 0 -48.999 1.33594 -76.999 4.00293s-56.833 8.5 -86.5 17.5s-59 22 -88 39s-55.833 39.833 -80.5 68.5c-21.333 24.667 -38.166 51.5 -50.499 80.5s-22 60.167 -29 93.5s-11.5 68.833 -13.5 106.5
s-3 77.167 -3 118.5v281h410v-272c0 -31.333 1.16699 -57.833 3.5 -79.5s5.16602 -39.834 8.49902 -54.501s6.83301 -26.334 10.5 -35.001s6.83398 -15.334 9.50098 -20.001c10 -14.667 21.333 -26.667 34 -36s26.334 -16.833 41.001 -22.5s29.334 -9.5 44.001 -11.5
s29 -3 43 -3h999c14 0 26.333 3.5 37 10.5s19.834 16.667 27.501 29s13.834 26.5 18.501 42.5s8 33 10 51c-2 18 -5.16699 35.5 -9.5 52.5s-10.333 32.167 -18 45.5s-16.834 24.166 -27.501 32.499s-23.334 12.5 -38.001 12.5h-552c-51.333 0 -96.5 5.16699 -135.5 15.5
s-72.667 24.333 -101 42s-51.833 38.334 -70.5 62.001s-33.334 48.667 -44.001 75s-17.834 53.333 -21.501 81s-4.5 54.5 -2.5 80.5c1.33301 39.333 6.5 78.5 15.5 117.5s24.667 75.5 47 109.5s52.666 64 90.999 90s87.5 46 147.5 60l727 166v-344l-545 -115
c-31.333 -8 -53.333 -20.167 -66 -36.5s-19.334 -32.833 -20.001 -49.5c-1.33301 -15.333 2.5 -30.666 11.5 -45.999s25.167 -25.333 48.5 -30h559c124.667 0 221.5 -34.167 290.5 -102.5s105.167 -169.833 108.5 -304.5c-0.666992 -0.666992 -1.16699 -1.5 -1.5 -2.5
s-0.5 -3.16699 -0.5 -6.5v-44c-0.666992 -34.667 -3.66699 -66.334 -9 -95.001h109v-274h-1761z" />
    <glyph glyph-name="uniFB94" unicode="&#x6af;" horiz-adv-x="1585" arabic-form="initial" 
d="M-10 275l1060 -0.000976562c14 0 26.333 3.5 37 10.5s19.834 16.667 27.501 29s13.834 26.5 18.501 42.5s8 33 10 51c-2 18 -5.16699 35.5 -9.5 52.5s-10.333 32.167 -18 45.5s-16.834 24.166 -27.501 32.499s-23.334 12.5 -38.001 12.5h-552
c-51.333 0 -96.5 5.16699 -135.5 15.5s-72.667 24.333 -101 42s-51.833 38.334 -70.5 62.001s-33.334 48.667 -44.001 75s-17.834 53.333 -21.501 81s-4.5 54.5 -2.5 80.5c1.33301 39.333 6.5 78.5 15.5 117.5s24.667 75.5 47 109.5s52.666 64 90.999 90s87.5 46 147.5 60
l727 166v-344l-545 -115c-31.333 -8 -53.333 -20.167 -66 -36.5s-19.334 -32.833 -20.001 -49.5c-1.33301 -15.333 2.5 -30.666 11.5 -45.999s25.167 -25.333 48.5 -30h559c124.667 0 221.5 -34.167 290.5 -102.5s105.167 -169.833 108.5 -304.5
c-0.666992 -0.666992 -1.16699 -1.5 -1.5 -2.5s-0.5 -3.16699 -0.5 -6.5v-44c-1.33301 -68 -11.333 -125.333 -30 -172s-45 -84.667 -79 -114s-75.167 -50.5 -123.5 -63.5s-103.166 -19.5 -164.499 -19.5h-1149v275zM431.003 1531l730 168v-162l-730 -174v168z" />
    <glyph glyph-name="uniFB95" unicode="&#x6af;" horiz-adv-x="1632" arabic-form="medial" 
d="M1530 511c4.66699 -28 7.33691 -57.668 8.00391 -89.001c-0.666992 -0.666992 -1.16699 -1.5 -1.5 -2.5s-0.5 -3.16699 -0.5 -6.5v-44c-0.666992 -34 -3.66699 -65.667 -9 -95h113v-274h-1650v275h1060c14 0 26.333 3.5 37 10.5s19.834 16.667 27.501 29
s13.834 26.5 18.501 42.5s8 33 10 51c-2 18 -5.16699 35.5 -9.5 52.5s-10.333 32.167 -18 45.5s-16.834 24.166 -27.501 32.499s-23.334 12.5 -38.001 12.5h-552c-51.333 0 -96.5 5.16699 -135.5 15.5s-72.667 24.333 -101 42s-51.833 38.334 -70.5 62.001
s-33.334 48.667 -44.001 75s-17.834 53.333 -21.501 81s-4.5 54.5 -2.5 80.5c1.33301 39.333 6.5 78.5 15.5 117.5s24.667 75.5 47 109.5s52.666 64 90.999 90s87.5 46 147.5 60l727 166v-344l-545 -115c-31.333 -8 -53.333 -20.167 -66 -36.5
s-19.334 -32.833 -20.001 -49.5c-1.33301 -15.333 2.5 -30.666 11.5 -45.999s25.167 -25.333 48.5 -30h559c124.667 0 221.667 -34 291 -102c52.667 -52.667 86 -124.667 100 -216zM431.003 1531l730 168v-162l-730 -174v168z" />
    <glyph glyph-name="uniFBA5" unicode="&#x6c0;" horiz-adv-x="1340" arabic-form="final" 
d="M1188 275l163 0.000976562v-275h-923c-172.667 0 -286.667 69.667 -342 209c-21.333 52 -34.833 108.333 -40.5 169s-8.5 124.334 -8.5 191.001c0 33.333 0.666992 66.166 2 98.499s4.66602 63.666 9.99902 93.999s13.333 59.833 24 88.5s25.334 56 44.001 82
c23.333 33.333 49.833 60 79.5 80s60.5 35.5 92.5 46.5s64.167 18.333 96.5 22s62.833 5.5 91.5 5.5h309v196h402v-1007zM786 276.001l0.000976562 531.001h-176c-32.667 0 -59.5 -6.83301 -80.5 -20.5s-37.167 -28.5 -48.5 -44.5c-10 -14 -17.833 -29.333 -23.5 -46
s-10 -33.5 -13 -50.5s-4.83301 -34 -5.5 -51s-1 -32.833 -1 -47.5c0 -26 0.666992 -48.833 2 -68.5s3.16602 -37 5.49902 -52s5.33301 -28 9 -39s7.83398 -20.833 12.501 -29.5c10 -18 21.333 -32.167 34 -42.5s25.667 -18.333 39 -24s26.166 -9.33398 38.499 -11.001
s22.833 -2.5 31.5 -2.5zM295.001 1383h170.002c11.333 0 17 3.33301 17 10c0 4 -2.16699 6.5 -6.5 7.5s-9.16602 3.16699 -14.499 6.5l-117 35c-15.333 6.66699 -26.666 15 -33.999 25c-7.33301 11.333 -12.333 23.166 -15 35.499s-4 24.166 -4 35.499
s1.16699 22.5 3.5 33.5s8.16602 21.167 17.499 30.5c5.33301 5.33301 11.666 10 18.999 14s18.666 6 33.999 6h201v-80h-156c-9.33301 0 -14.666 -0.666992 -15.999 -2s-2.5 -2.66602 -3.5 -3.99902s-1.5 -2.66602 -1.5 -3.99902c0 -5.33301 2.83301 -9 8.5 -11
s11.167 -3.66699 16.5 -5l104 -31c7.33301 -1.33301 14.666 -3.5 21.999 -6.5s13.666 -8.16699 18.999 -15.5c11.333 -9.33301 18 -20.833 20 -34.5s3 -26.167 3 -37.5c0 -9.33301 -0.5 -19.5 -1.5 -30.5s-5.16699 -22.167 -12.5 -33.5c-9.33301 -12 -19.5 -19 -30.5 -21
s-22.167 -3 -33.5 -3h-209v80z" />
    <glyph glyph-name="uniFBFD" unicode="&#x6cc;" horiz-adv-x="1933" arabic-form="final" 
d="M1817 287c8 -7.33301 17.165 -11.667 27.498 -13s18.166 -2 23.499 -2h80v-272h-308c-16.667 0 -33.167 0.5 -49.5 1.5s-33.166 2.83301 -50.499 5.5c-34.667 5.33301 -66 22 -94 50c-23.333 23.333 -37.666 47.333 -42.999 72s-8 50.667 -8 78v536
c0 11.333 -1 21.333 -3 30s-8 16.667 -18 24c-6.66699 6.66699 -15.5 10.667 -26.5 12s-19.167 2 -24.5 2h-86c-6.66699 0 -15.167 -0.666992 -25.5 -2s-19.5 -5.33301 -27.5 -12c-10 -7.33301 -16 -15.333 -18 -24s-3 -18.667 -3 -30v-536
c0 -27.333 -2.66699 -53.333 -8 -78s-19.666 -48.667 -42.999 -72c-28 -28 -59.333 -44.667 -94 -50c-17.333 -2.66699 -34.166 -4.5 -50.499 -5.5s-32.833 -1.5 -49.5 -1.5h-642c-16.667 0 -33.167 0.5 -49.5 1.5s-33.166 2.83301 -50.499 5.5
c-34.667 5.33301 -66 22 -94 50c-23.333 23.333 -37.666 47.333 -42.999 72s-8 50.667 -8 78v596h401v-461c0 -12 1 -22.5 3 -31.5s8 -16.833 18 -23.5c8 -7.33301 17.167 -11.666 27.5 -12.999s18.166 -2 23.499 -2h186c5.33301 0 13.166 0.666992 23.499 2
s19.5 5.66602 27.5 12.999c10 6.66699 16 14.5 18 23.5s3 19.5 3 31.5v535c0 27.333 2.66699 53.166 8 77.499s19.666 48.166 42.999 71.499c29.333 29.333 60.666 46.333 93.999 51c17.333 2.66699 34.333 4.66699 51 6s33.334 2 50.001 2h542
c17.333 0 34.5 -0.666992 51.5 -2s33.833 -3.33301 50.5 -6c33.333 -5.33301 65 -22.333 95 -51c23.333 -23.333 37.333 -47.166 42 -71.499s7 -50.166 7 -77.499v-535c0 -12 1 -22.5 3 -31.5s8 -16.833 18 -23.5z" />
    <glyph glyph-name="uniFBFE" unicode="&#x6cc;" horiz-adv-x="1032" arabic-form="initial" 
d="M958 455c0 -26 -1.16602 -54.3359 -3.49902 -85.0029s-7.83301 -62 -16.5 -94s-21.5 -63.167 -38.5 -93.5s-40.5 -57.833 -70.5 -82.5s-62.833 -43.667 -98.5 -57s-71.5 -23.166 -107.5 -29.499s-70.833 -10.166 -104.5 -11.499s-63.834 -2 -90.501 -2h-432v275h305
c20 0 39.5 0.833008 58.5 2.5s37 5.33398 54 11.001s33.167 13.5 48.5 23.5s29.333 23.333 42 40c12 16 21.5 32.833 28.5 50.5s12.333 35.5 16 53.5s6 35.667 7 53s1.5 34 1.5 50v524h401v-628zM557.001 -361.003v240h404v-240h-404zM72.001 -361.003v240h401v-240h-401z
" />
    <glyph glyph-name="uniFBFF" unicode="&#x6cc;" horiz-adv-x="959" arabic-form="medial" 
d="M678 706l2.00293 3v-150c0 -16 0.5 -32.667 1.5 -50s3.33301 -35 7 -53s9 -35.833 16 -53.5s16.5 -34.5 28.5 -50.5c12.667 -16.667 26.667 -30 42 -40s31.666 -17.833 48.999 -23.5s35.333 -9.33398 54 -11.001s38 -2.5 58 -2.5h35v-275h-162
c-22 0 -46.333 0.333008 -73 1s-54.5 2.66699 -83.5 6s-58.5 8.66602 -88.5 15.999s-59 18 -87 32c-28 -14 -56.833 -24.667 -86.5 -32s-58.834 -12.666 -87.501 -15.999s-56.334 -5.33301 -83.001 -6s-51 -1 -73 -1h-155v275h28c20 0 39.5 0.833008 58.5 2.5
s37 5.33398 54 11.001s33.167 13.5 48.5 23.5s29.333 23.333 42 40c12 16 21.5 32.833 28.5 50.5s12.333 35.5 16 53.5s6 35.667 7 53s1.5 34 1.5 50v524h402v-377zM520.003 -361v240h404v-240h-404zM35.0029 -361v240h401v-240h-401z" />
    <glyph glyph-name="uniFE82" unicode="&#x622;" horiz-adv-x="823" arabic-form="final" 
d="M120 1434l401.999 0.00292969v-875c0 -32 3 -66.5 9 -103.5s20.667 -71.5 44 -103.5c12.667 -17.333 26.834 -31 42.501 -41s32 -17.833 49 -23.5s34.833 -9.33398 53.5 -11.001s38 -2.5 58 -2.5h61v-274h-188c-26.667 0 -57 0.666992 -91 2s-69 5.16602 -105 11.499
s-71.667 16.166 -107 29.499s-68 32.333 -98 57c-30 24 -53.667 51.333 -71 82s-30.333 62 -39 94s-14.167 63.5 -16.5 94.5s-3.5 59.167 -3.5 84.5v979zM119.999 1690h453v-121h-453v121z" />
    <glyph glyph-name="uniFE84" unicode="&#x623;" horiz-adv-x="834" arabic-form="final" 
d="M131 1434l401.999 0.00292969v-875c0 -32 3 -66.5 9 -103.5s20.667 -71.5 44 -103.5c12.667 -17.333 26.834 -31 42.501 -41s32 -17.833 49 -23.5s34.833 -9.33398 53.5 -11.001s38 -2.5 58 -2.5h61v-274h-188c-26.667 0 -57 0.666992 -91 2s-69 5.16602 -105 11.499
s-71.667 16.166 -107 29.499s-68 32.333 -98 57c-30 24 -53.667 51.333 -71 82s-30.333 62 -39 94s-14.167 63.5 -16.5 94.5s-3.5 59.167 -3.5 84.5v979zM192.999 1649l169.997 0.000976562c10.667 0 16 3.33301 16 10c0 4 -2 6.66699 -6 8s-8 3.33301 -12 6l-119 35
c-13.333 4.66699 -25 13 -35 25c-6.66699 10.667 -11 22.5 -13 35.5s-3 24.833 -3 35.5c0 11.333 0.666992 22.333 2 33s6.66602 21 15.999 31c6 5.33301 13 10 21 14s19 6 33 6h200v-80h-155c-10 0 -15.667 -0.666992 -17 -2c-2.66699 -2.66699 -4 -5.33398 -4 -8.00098
c0 -5.33301 2.83301 -9 8.5 -11s11.834 -3.66699 18.501 -5l102 -31c6.66699 -1.33301 13.834 -3.66602 21.501 -6.99902s14.167 -8.33301 19.5 -15c11.333 -10 18 -21.833 20 -35.5s3 -25.834 3 -36.501c0 -10 -0.666992 -20.333 -2 -31s-5.66602 -21.667 -12.999 -33
c-9.33301 -12 -19.166 -19 -29.499 -21s-20.833 -3 -31.5 -3h-211v80z" />
    <glyph glyph-name="uniFE86" unicode="&#x624;" horiz-adv-x="1329" arabic-form="final" 
d="M113 -106l483.002 -0.00292969c22 0 47 1 75 3c28.667 2 52.667 10.333 72 25c24.667 20.667 40.667 46.667 48 78h-347c-28.667 0 -57.834 1.16699 -87.501 3.5s-58.5 8 -86.5 17s-54.833 22.667 -80.5 41s-48.5 43.5 -68.5 75.5c-30 46.667 -51.5 103.167 -64.5 169.5
s-19.5 146.5 -19.5 240.5c0 106 8.33301 189 25 249c8.66699 30.667 20.167 59 34.5 85s31.166 50.333 50.499 73c41.333 48 88 81.667 140 101c52 20 120.333 30 205 30h446c16 0 32.167 -0.333008 48.5 -1s32.833 -2.66699 49.5 -6s32.667 -8.16602 48 -14.499
s30 -15.5 44 -27.5c27.333 -23.333 44.666 -50.666 51.999 -81.999c8 -31.333 12 -58.666 12 -81.999v-598h147v-274h-151c-5.33301 -44 -14.166 -84.5 -26.499 -121.5s-30.833 -71.5 -55.5 -103.5c-42 -52 -95.667 -89 -161 -111s-140 -33 -224 -33h-608v263z
M791.002 708.997c0 14.667 -1.83496 27.5 -5.50195 38.5s-12.167 21.167 -25.5 30.5c-11.333 6.66699 -22 11.167 -32 13.5s-20.667 3.5 -32 3.5h-45c-14 0 -28.333 -0.5 -43 -1.5s-29 -3.5 -43 -7.5s-27.5 -10 -40.5 -18s-24.833 -19 -35.5 -33
c-9.33301 -12 -19 -32 -29 -60c-9.33301 -30 -14 -77.667 -14 -143c0 -48 3.83301 -89.333 11.5 -124s19.167 -60 34.5 -76c24.667 -30 54.334 -47 89.001 -51c17.333 -1.33301 33.833 -2.5 49.5 -3.5s30.834 -1.5 45.501 -1.5h115v433zM422 1294l259.998 0.00195312
c10.667 0 17.5 1.83301 20.5 5.5s4.5 6.83398 4.5 9.50098c0 6.66699 -3.5 11.667 -10.5 15s-13.833 6.33301 -20.5 9l-178 53c-15.333 3.33301 -26.666 8.66602 -33.999 15.999s-14 14.333 -20 21c-10.667 15.333 -17.667 32.5 -21 51.5s-5 38.167 -5 57.5
c0 14.667 1.33301 30.667 4 48s10.667 32.666 24 45.999c8.66699 9.33301 19.5 17.166 32.5 23.499s28.833 9.5 47.5 9.5h308v-123h-263c-4 -4 -6 -8.66699 -6 -14c0 -8.66699 4.5 -14.667 13.5 -18s17.5 -6.33301 25.5 -9l158 -45
c10.667 -2.66699 21.834 -6.33398 33.501 -11.001s21.5 -12 29.5 -22c8 -7.33301 14.167 -15.666 18.5 -24.999s7.5 -19 9.5 -29s3.33301 -19.833 4 -29.5s1 -18.5 1 -26.5c0 -14 -1 -29.833 -3 -47.5s-8.33301 -34.167 -19 -49.5
c-7.33301 -9.33301 -14.833 -16.5 -22.5 -21.5s-15.667 -8.5 -24 -10.5s-16.5 -3.16699 -24.5 -3.5s-16 -0.5 -24 -0.5h-319v120z" />
    <glyph glyph-name="uniFE88" unicode="&#x625;" horiz-adv-x="829" arabic-form="final" 
d="M126 1434l401.999 0.00292969v-875c0 -32 3 -66.5 9 -103.5s20.667 -71.5 44 -103.5c12.667 -17.333 26.834 -31 42.501 -41s32 -17.833 49 -23.5s34.833 -9.33398 53.5 -11.001s38 -2.5 58 -2.5h61v-274h-188c-26.667 0 -57 0.666992 -91 2s-69 5.16602 -105 11.499
s-71.667 16.166 -107 29.499s-68 32.333 -98 57c-30 24 -53.667 51.333 -71 82s-30.333 62 -39 94s-14.167 63.5 -16.5 94.5s-3.5 59.167 -3.5 84.5v979zM230.999 -359.997l170.003 0.00390625c10.667 0 16 3.33301 16 10c0 5.33301 -2 8.66602 -6 9.99902
s-8.66699 3.33301 -14 6l-119 35c-8 2.66699 -14.833 6.33398 -20.5 11.001s-10.5 9.33398 -14.5 14.001c-6.66699 9.33301 -11 20.5 -13 33.5s-3 24.833 -3 35.5c0 11.333 1 22.666 3 33.999s7 22 15 32c7.33301 5.33301 14.666 9.66602 21.999 12.999s18 5 32 5h202v-80
h-174c-2.66699 -2.66699 -4 -6 -4 -10s2.66699 -7.33301 8 -10s11.666 -4.66699 18.999 -6l102 -29c6.66699 -2.66699 14.167 -5.33398 22.5 -8.00098s15.166 -7.66699 20.499 -15c11.333 -10.667 18 -22.834 20 -36.501s3 -25.834 3 -36.501c0 -10 -1 -20.333 -3 -31
s-6.66699 -21 -14 -31c-8 -12 -17.5 -19 -28.5 -21s-21.833 -3 -32.5 -3h-209v78z" />
    <glyph glyph-name="uniFE8A" unicode="&#x626;" horiz-adv-x="1933" arabic-form="final" 
d="M1817 287c8 -7.33301 17.165 -11.667 27.498 -13s18.166 -2 23.499 -2h80v-272h-308c-16.667 0 -33.167 0.5 -49.5 1.5s-33.166 2.83301 -50.499 5.5c-34.667 5.33301 -66 22 -94 50c-23.333 23.333 -37.666 47.333 -42.999 72s-8 50.667 -8 78v536
c0 11.333 -1 21.333 -3 30s-8 16.667 -18 24c-6.66699 6.66699 -15.5 10.667 -26.5 12s-19.167 2 -24.5 2h-86c-6.66699 0 -15.167 -0.666992 -25.5 -2s-19.5 -5.33301 -27.5 -12c-10 -7.33301 -16 -15.333 -18 -24s-3 -18.667 -3 -30v-536
c0 -27.333 -2.66699 -53.333 -8 -78s-19.666 -48.667 -42.999 -72c-28 -28 -59.333 -44.667 -94 -50c-17.333 -2.66699 -34.166 -4.5 -50.499 -5.5s-32.833 -1.5 -49.5 -1.5h-642c-16.667 0 -33.167 0.5 -49.5 1.5s-33.166 2.83301 -50.499 5.5
c-34.667 5.33301 -66 22 -94 50c-23.333 23.333 -37.666 47.333 -42.999 72s-8 50.667 -8 78v596h401v-461c0 -12 1 -22.5 3 -31.5s8 -16.833 18 -23.5c8 -7.33301 17.167 -11.666 27.5 -12.999s18.166 -2 23.499 -2h186c5.33301 0 13.166 0.666992 23.499 2
s19.5 5.66602 27.5 12.999c10 6.66699 16 14.5 18 23.5s3 19.5 3 31.5v535c0 27.333 2.66699 53.166 8 77.499s19.666 48.166 42.999 71.499c29.333 29.333 60.666 46.333 93.999 51c17.333 2.66699 34.333 4.66699 51 6s33.334 2 50.001 2h542
c17.333 0 34.5 -0.666992 51.5 -2s33.833 -3.33301 50.5 -6c33.333 -5.33301 65 -22.333 95 -51c23.333 -23.333 37.333 -47.166 42 -71.499s7 -50.166 7 -77.499v-535c0 -12 1 -22.5 3 -31.5s8 -16.833 18 -23.5zM222.998 1055l239.996 -0.00292969
c10.667 0 17.334 1.66699 20.001 5s4 6.33301 4 9c0 6.66699 -3 11.334 -9 14.001s-12.333 5.66699 -19 9l-166 49c-12.667 2.66699 -22.667 7 -30 13s-13.666 12.667 -18.999 20c-11.333 14.667 -18.333 30.834 -21 48.501s-4 34.834 -4 51.501
c0 14.667 1.33301 29.834 4 45.501s11 30.5 25 44.5c6.66699 6.66699 15.834 13.167 27.501 19.5s27.167 9.5 46.5 9.5h282v-113h-219c-11.333 0 -19 -0.666992 -23 -2c-4 -3.33301 -6 -7.33301 -6 -12c0 -7.33301 4.16699 -12.666 12.5 -15.999s16.5 -6.33301 24.5 -9
l146 -41c9.33301 -2.66699 19.5 -6.33398 30.5 -11.001s20.5 -11.334 28.5 -20.001c13.333 -13.333 21.5 -29.833 24.5 -49.5s4.5 -37.167 4.5 -52.5c0 -13.333 -0.666992 -28 -2 -44s-7.66602 -30.667 -18.999 -44c-12 -18 -25.833 -28.667 -41.5 -32s-31.167 -5 -46.5 -5
h-295v113z" />
    <glyph glyph-name="uniFE8B" unicode="&#x626;" horiz-adv-x="844" arabic-form="initial" 
d="M786 455c0 -26 -1.16797 -54.5029 -3.50098 -85.5029s-7.66602 -62.333 -15.999 -94s-21.166 -62.667 -38.499 -93s-41 -57.833 -71 -82.5s-62.833 -43.667 -98.5 -57s-71.5 -23.166 -107.5 -29.499s-71 -10.166 -105 -11.499s-64 -2 -90 -2h-266v274h139
c20 0 39.333 0.833008 58 2.5s36.5 5.33398 53.5 11.001s33.167 13.5 48.5 23.5s29.666 23.667 42.999 41c23.333 32 38 66.5 44 103.5s9 71.5 9 103.5v186h401v-290zM151.999 996.997l320.998 0.00195312c15.333 0 24.666 2.16699 27.999 6.5s5 8.5 5 12.5
c0 9.33301 -3.83301 15.666 -11.5 18.999s-16.167 6.33301 -25.5 9l-225 64c-16.667 4 -30.167 10.5 -40.5 19.5s-18.833 16.833 -25.5 23.5c-13.333 19.333 -22.166 40.166 -26.499 62.499s-6.5 44.5 -6.5 66.5c0 19.333 2.16699 39.5 6.5 60.5s14.5 39.833 30.5 56.5
c11.333 9.33301 24.5 17.833 39.5 25.5s35.5 11.5 61.5 11.5h381v-146h-293c-19.333 0 -29.666 -0.666992 -30.999 -2c-6.66699 -4 -10 -9.33301 -10 -16c0 -10 5.33301 -17.333 16 -22s21.667 -8.33398 33 -11.001l194 -51c14 -2.66699 28.167 -7.16699 42.5 -13.5
s26.833 -14.833 37.5 -25.5c10 -10 17.667 -20.667 23 -32s9.33301 -23 12 -35s4.33398 -23.667 5.00098 -35s1 -21.666 1 -30.999c0 -16.667 -1.33301 -35.5 -4 -56.5s-10.667 -40.5 -24 -58.5c-8 -12 -16.833 -21 -26.5 -27s-19.5 -10.333 -29.5 -13
s-20.167 -4.16699 -30.5 -4.5s-20.5 -0.5 -30.5 -0.5h-397v143z" />
    <glyph glyph-name="uniFE8C" unicode="&#x626;" horiz-adv-x="961" arabic-form="medial" 
d="M680 559c0 -32 2.99902 -66.5 8.99902 -103.5s20.667 -71.5 44 -103.5c12.667 -17.333 26.834 -31 42.501 -41s32 -17.833 49 -23.5s34.833 -9.33398 53.5 -11.001s38 -2.5 58 -2.5h35v-274h-162c-22 0 -46 0.5 -72 1.5s-54.333 2.83301 -85 5.5
c-60.667 4.66699 -119 20.667 -175 48c-56 -27.333 -114 -43.333 -174 -48c-30 -2.66699 -58 -4.5 -84 -5.5s-50 -1.5 -72 -1.5h-155v274h28c20 0 39.333 0.833008 58 2.5s36.667 5.33398 54 11.001s33.5 13.5 48.5 23.5s29.167 23.667 42.5 41c23.333 32 38 66.5 44 103.5
s9 71.5 9 103.5v170h402zM216.999 997l322 0.00292969c14.667 0 23.667 2.16699 27 6.5s5 8.5 5 12.5c0 9.33301 -3.66699 15.666 -11 18.999s-15.666 6.33301 -24.999 9l-226 64c-16 4 -29.167 10.5 -39.5 19.5s-18.833 16.833 -25.5 23.5
c-14 19.333 -22.667 40.166 -26 62.499s-5 44.5 -5 66.5c0 19.333 1.66699 39.5 5 60.5s14 39.833 32 56.5c9.33301 9.33301 21.833 17.833 37.5 25.5s35.834 11.5 60.501 11.5h381v-146h-293c-18.667 0 -28.667 -0.666992 -30 -2c-7.33301 -4 -11 -9.33301 -11 -16
c0 -10 5.5 -17.333 16.5 -22s21.833 -8.33398 32.5 -11.001l195 -51c13.333 -2.66699 27.666 -7.16699 42.999 -13.5s28.333 -14.833 39 -25.5c19.333 -20 30.666 -42.333 33.999 -67c1.33301 -12.667 2.5 -24.5 3.5 -35.5s1.5 -21.167 1.5 -30.5
c0 -16.667 -1.33301 -35.5 -4 -56.5s-11 -40.5 -25 -58.5c-8 -12 -16.667 -21 -26 -27s-19 -10.333 -29 -13s-20.333 -4.16699 -31 -4.5s-21 -0.5 -31 -0.5h-397v143z" />
    <glyph glyph-name="uniFE8E" unicode="&#x627;" horiz-adv-x="777" arabic-form="final" 
d="M110 1434l401.999 0.00292969v-875c0 -32 3 -66.5 9 -103.5s20.667 -71.5 44 -103.5c12.667 -17.333 26.834 -31 42.501 -41s32 -17.833 49 -23.5s34.833 -9.33398 53.5 -11.001s38 -2.5 58 -2.5h21v-274h-148c-26.667 0 -57 0.666992 -91 2s-69 5.16602 -105 11.499
s-71.667 16.166 -107 29.499s-68 32.333 -98 57c-30 24 -53.667 51.333 -71 82s-30.333 62 -39 94s-14.167 63.5 -16.5 94.5s-3.5 59.167 -3.5 84.5v979z" />
    <glyph glyph-name="uniFE90" unicode="&#x628;" horiz-adv-x="2105" arabic-form="final" 
d="M1825 707l1.99902 1.99805v-150c0 -15.333 0.666992 -31.666 2 -48.999s3.33301 -35.666 6 -54.999c4.66699 -36.667 19 -71 43 -103c12.667 -17.333 26.834 -31 42.501 -41s32.167 -17.833 49.5 -23.5s35.5 -9.33398 54.5 -11.001s38.5 -2.5 58.5 -2.5h33v-274h-160
c-22.667 0 -47.5 0.333008 -74.5 1s-55 2.66699 -84 6s-58.167 8.83301 -87.5 16.5s-58 18.167 -86 31.5c-56 -27.333 -114.333 -43.333 -175 -48c-30.667 -2.66699 -59 -4.5 -85 -5.5s-50 -1.5 -72 -1.5h-823c-23.333 0 -49.166 1.33301 -77.499 4
s-57.166 8.5 -86.499 17.5s-58.5 22 -87.5 39s-55.833 39.833 -80.5 68.5c-42.667 49.333 -69.334 107.333 -80.001 174c-5.33301 34 -9.33301 69.5 -12 106.5s-4 76.5 -4 118.5v281h410v-272c0 -63.333 4 -108.333 12 -135c7.33301 -26 14 -44 20 -54
c18.667 -30 43.667 -50 75 -60c32 -9.33301 61 -14 87 -14h520c20 0 39.5 0.833008 58.5 2.5s37.167 5.33398 54.5 11.001s33.666 13.5 48.999 23.5s29 23.667 41 41c23.333 32 38 66.5 44 103.5s9 71.5 9 103.5v524h404v-376zM708.999 -360.002v239h401v-239h-401z" />
    <glyph glyph-name="uniFE91" unicode="&#x628;" horiz-adv-x="844" arabic-form="initial" 
d="M786 455c0 -26 -1.16797 -54.5029 -3.50098 -85.5029s-7.66602 -62.333 -15.999 -94s-21.166 -62.667 -38.499 -93s-41 -57.833 -71 -82.5s-62.833 -43.667 -98.5 -57s-71.5 -23.166 -107.5 -29.499s-71 -10.166 -105 -11.499s-64 -2 -90 -2h-266v274h139
c20 0 39.333 0.833008 58 2.5s36.5 5.33398 53.5 11.001s33.167 13.5 48.5 23.5s29.666 23.667 42.999 41c23.333 32 38 66.5 44 103.5s9 71.5 9 103.5v524h401v-628zM142.999 -360.003v239h402v-239h-402z" />
    <glyph glyph-name="uniFE92" unicode="&#x628;" horiz-adv-x="961" arabic-form="medial" 
d="M678 707l1.99902 2v-150c0 -32 3 -66.5 9 -103.5s20.667 -71.5 44 -103.5c12.667 -17.333 26.834 -31 42.501 -41s32 -17.833 49 -23.5s34.833 -9.33398 53.5 -11.001s38 -2.5 58 -2.5h35v-274h-162c-22 0 -46 0.5 -72 1.5s-54.333 2.83301 -85 5.5
c-60.667 4.66699 -119 20.667 -175 48c-56 -27.333 -114 -43.333 -174 -48c-30 -2.66699 -58 -4.5 -84 -5.5s-50 -1.5 -72 -1.5h-155v274h28c20 0 39.333 0.833008 58 2.5s36.667 5.33398 54 11.001s33.5 13.5 48.5 23.5s29.167 23.667 42.5 41c23.333 32 38 66.5 44 103.5
s9 71.5 9 103.5v524h402v-376zM275.999 -360v239h402v-239h-402z" />
    <glyph glyph-name="uniFE96" unicode="&#x62a;" horiz-adv-x="2105" arabic-form="final" 
d="M1825 707l1.99902 1.99805v-150c0 -15.333 0.666992 -31.666 2 -48.999s3.33301 -35.666 6 -54.999c4.66699 -36.667 19 -71 43 -103c12.667 -17.333 26.834 -31 42.501 -41s32.167 -17.833 49.5 -23.5s35.5 -9.33398 54.5 -11.001s38.5 -2.5 58.5 -2.5h33v-274h-160
c-22.667 0 -47.5 0.333008 -74.5 1s-55 2.66699 -84 6s-58.167 8.83301 -87.5 16.5s-58 18.167 -86 31.5c-56 -27.333 -114.333 -43.333 -175 -48c-30.667 -2.66699 -59 -4.5 -85 -5.5s-50 -1.5 -72 -1.5h-823c-23.333 0 -49.166 1.33301 -77.499 4
s-57.166 8.5 -86.499 17.5s-58.5 22 -87.5 39s-55.833 39.833 -80.5 68.5c-42.667 49.333 -69.334 107.333 -80.001 174c-5.33301 34 -9.33301 69.5 -12 106.5s-4 76.5 -4 118.5v281h410v-272c0 -63.333 4 -108.333 12 -135c7.33301 -26 14 -44 20 -54
c18.667 -30 43.667 -50 75 -60c32 -9.33301 61 -14 87 -14h520c20 0 39.5 0.833008 58.5 2.5s37.167 5.33398 54.5 11.001s33.666 13.5 48.999 23.5s29 23.667 41 41c23.333 32 38 66.5 44 103.5s9 71.5 9 103.5v524h404v-376zM486.999 1194v240h404v-240h-404z
M974.999 1194v240h401v-240h-401z" />
    <glyph glyph-name="uniFE97" unicode="&#x62a;" horiz-adv-x="1016" arabic-form="initial" 
d="M958 455c0 -26 -1.16797 -54.5029 -3.50098 -85.5029s-7.66602 -62.333 -15.999 -94s-21.166 -62.667 -38.499 -93s-41 -57.833 -71 -82.5s-62.833 -43.667 -98.5 -57s-71.5 -23.166 -107.5 -29.499s-71 -10.166 -105 -11.499s-64 -2 -90 -2h-438v274h311
c20 0 39.333 0.833008 58 2.5s36.5 5.33398 53.5 11.001s33.167 13.5 48.5 23.5s29.666 23.667 42.999 41c23.333 32 38 66.5 44 103.5s9 71.5 9 103.5v524h401v-628zM556.999 1194v240h404v-240h-404zM71.999 1194v240h401v-240h-401z" />
    <glyph glyph-name="uniFE98" unicode="&#x62a;" horiz-adv-x="961" arabic-form="medial" 
d="M678 707l1.99902 2v-150c0 -32 3 -66.5 9 -103.5s20.667 -71.5 44 -103.5c12.667 -17.333 26.834 -31 42.501 -41s32 -17.833 49 -23.5s34.833 -9.33398 53.5 -11.001s38 -2.5 58 -2.5h35v-274h-162c-22 0 -46 0.5 -72 1.5s-54.333 2.83301 -85 5.5
c-60.667 4.66699 -119 20.667 -175 48c-56 -27.333 -114 -43.333 -174 -48c-30 -2.66699 -58 -4.5 -84 -5.5s-50 -1.5 -72 -1.5h-155v274h28c20 0 39.333 0.833008 58 2.5s36.667 5.33398 54 11.001s33.5 13.5 48.5 23.5s29.167 23.667 42.5 41c23.333 32 38 66.5 44 103.5
s9 71.5 9 103.5v524h402v-376zM521.999 1194v240h402v-240h-402zM36.999 1194v240h401v-240h-401z" />
    <glyph glyph-name="uniFE9A" unicode="&#x62b;" horiz-adv-x="2105" arabic-form="final" 
d="M1825 707l1.99902 1.99805v-150c0 -15.333 0.666992 -31.666 2 -48.999s3.33301 -35.666 6 -54.999c4.66699 -36.667 19 -71 43 -103c12.667 -17.333 26.834 -31 42.501 -41s32.167 -17.833 49.5 -23.5s35.5 -9.33398 54.5 -11.001s38.5 -2.5 58.5 -2.5h33v-274h-160
c-22.667 0 -47.5 0.333008 -74.5 1s-55 2.66699 -84 6s-58.167 8.83301 -87.5 16.5s-58 18.167 -86 31.5c-56 -27.333 -114.333 -43.333 -175 -48c-30.667 -2.66699 -59 -4.5 -85 -5.5s-50 -1.5 -72 -1.5h-823c-23.333 0 -49.166 1.33301 -77.499 4
s-57.166 8.5 -86.499 17.5s-58.5 22 -87.5 39s-55.833 39.833 -80.5 68.5c-42.667 49.333 -69.334 107.333 -80.001 174c-5.33301 34 -9.33301 69.5 -12 106.5s-4 76.5 -4 118.5v281h410v-272c0 -63.333 4 -108.333 12 -135c7.33301 -26 14 -44 20 -54
c18.667 -30 43.667 -50 75 -60c32 -9.33301 61 -14 87 -14h520c20 0 39.5 0.833008 58.5 2.5s37.167 5.33398 54.5 11.001s33.666 13.5 48.999 23.5s29 23.667 41 41c23.333 32 38 66.5 44 103.5s9 71.5 9 103.5v524h404v-376zM869.999 953.998v240h404v-240h-404z
M384.999 953.998v240h401v-240h-401zM628.999 1272v239h401v-239h-401z" />
    <glyph glyph-name="uniFE9B" unicode="&#x62b;" horiz-adv-x="1047" arabic-form="initial" 
d="M989 455c0 -26 -1.16602 -54.5029 -3.49902 -85.5029s-7.83301 -62.333 -16.5 -94s-21.5 -62.667 -38.5 -93s-40.5 -57.833 -70.5 -82.5s-62.833 -43.667 -98.5 -57s-71.5 -23.166 -107.5 -29.499s-71 -10.166 -105 -11.499s-64 -2 -90 -2h-469v274h342
c20 0 39.333 0.833008 58 2.5s36.5 5.33398 53.5 11.001s33.167 13.5 48.5 23.5s29.666 23.667 42.999 41c22.667 32 37.167 66.5 43.5 103.5s9.5 71.5 9.5 103.5v244h401v-348zM102.001 953.997v240h402v-240h-402zM588.001 953.997v240h401v-240h-401zM346.001 1272v239
h402v-239h-402z" />
    <glyph glyph-name="uniFE9C" unicode="&#x62b;" horiz-adv-x="961" arabic-form="medial" 
d="M678 707l1.99902 2v-150c0 -32 3 -66.5 9 -103.5s20.667 -71.5 44 -103.5c12.667 -17.333 26.834 -31 42.501 -41s32 -17.833 49 -23.5s34.833 -9.33398 53.5 -11.001s38 -2.5 58 -2.5h35v-274h-162c-22 0 -46 0.5 -72 1.5s-54.333 2.83301 -85 5.5
c-60.667 4.66699 -119 20.667 -175 48c-56 -27.333 -114 -43.333 -174 -48c-30 -2.66699 -58 -4.5 -84 -5.5s-50 -1.5 -72 -1.5h-155v274h28c20 0 39.333 0.833008 58 2.5s36.667 5.33398 54 11.001s33.5 13.5 48.5 23.5s29.167 23.667 42.5 41c23.333 32 38 66.5 44 103.5
s9 71.5 9 103.5v264h402v-116zM519.999 954v240h404v-240h-404zM278.999 1272v239h403v-239h-403zM34.999 954v240h401v-240h-401z" />
    <glyph glyph-name="uniFE9E" unicode="&#x62c;" horiz-adv-x="1427" arabic-form="final" 
d="M537 -555c-36.667 0 -73.8379 2.33203 -111.505 6.99902s-74.334 12.667 -110.001 24s-69.167 26.333 -100.5 45s-58.666 41.834 -81.999 69.501s-41.833 60.167 -55.5 97.5s-20.5 80.666 -20.5 129.999c0 30 0.666992 59.667 2 89s5.5 58 12.5 86s17.667 55.333 32 82
s34.5 52.334 60.5 77.001c32.667 32 68.834 56.333 108.501 73s84.167 28.667 133.5 36s104.333 11.333 165 12s129 1 205 1h31v263c0 54 -7 101.667 -21 143c-5.33301 18 -12.666 34.833 -21.999 50.5s-21.833 29.5 -37.5 41.5s-35.5 21.5 -59.5 28.5s-53 10.5 -87 10.5
h-398v274h586c65.333 0 125.333 -7.83301 180 -23.5s103.334 -45.167 146.001 -88.5c28.667 -28.667 51 -60.667 67 -96s28 -72.333 36 -111s12.833 -78.167 14.5 -118.5s2.5 -80.166 2.5 -119.499v-254h226v-274l-797 2c-18 0 -41.333 -2.66699 -70 -8
c-27.333 -5.33301 -51.666 -19 -72.999 -41c-19.333 -22.667 -28.666 -42.334 -27.999 -59.001c1.33301 -18 0.333008 -32.667 -3 -44c0 -17.333 2.66699 -34.833 8 -52.5s15 -32.167 29 -43.5c19.333 -16 42.5 -25.833 69.5 -29.5s52.167 -5.5 75.5 -5.5h56v-274h-170z
M810.996 -360.001v239h401v-239h-401z" />
    <glyph glyph-name="uniFE9F" unicode="&#x62c;" horiz-adv-x="1444" arabic-form="initial" 
d="M-10 274l784.001 -0.00195312v263c0 28 -1.33301 53.333 -4 76s-7.33398 45 -14.001 67c-10.667 34.667 -31 65.334 -61 92.001c-29.333 26 -78 39 -146 39h-397v274h583c66 0 126.5 -7.83301 181.5 -23.5s103.833 -45.167 146.5 -88.5
c28.667 -28.667 51.167 -60.667 67.5 -96s28.5 -72.333 36.5 -111s12.833 -78.167 14.5 -118.5s2.5 -80.166 2.5 -119.499v-254h143v-274h-1337v274zM375.001 -360.002v239h401v-239h-401z" />
    <glyph glyph-name="uniFEA0" unicode="&#x62c;" horiz-adv-x="1380" arabic-form="medial" 
d="M-10 274l784.001 -0.00195312v263c0 28 -1.33301 53.333 -4 76s-7.33398 45 -14.001 67c-10.667 34.667 -31 65.334 -61 92.001c-29.333 26 -78 39 -146 39h-397v274h583c66 0 126.5 -7.83301 181.5 -23.5s103.833 -45.167 146.5 -88.5
c28.667 -28.667 51.167 -60.667 67.5 -96s28.5 -72.333 36.5 -111s12.833 -78.167 14.5 -118.5s2.5 -80.166 2.5 -119.499v-254h209v-274h-1403v274zM375.001 -360.002v239h401v-239h-401z" />
    <glyph glyph-name="uniFEA2" unicode="&#x62d;" horiz-adv-x="1427" arabic-form="final" 
d="M537 -555c-36.667 0 -73.8379 2.33203 -111.505 6.99902s-74.334 12.667 -110.001 24s-69.167 26.333 -100.5 45s-58.666 41.834 -81.999 69.501s-41.833 60.167 -55.5 97.5s-20.5 80.666 -20.5 129.999c0 30 0.666992 59.667 2 89s5.5 58 12.5 86s17.667 55.333 32 82
s34.5 52.334 60.5 77.001c32.667 32 68.834 56.333 108.501 73s84.167 28.667 133.5 36s104.333 11.333 165 12s129 1 205 1h31v263c0 54 -7 101.667 -21 143c-5.33301 18 -12.666 34.833 -21.999 50.5s-21.833 29.5 -37.5 41.5s-35.5 21.5 -59.5 28.5s-53 10.5 -87 10.5
h-398v274h586c65.333 0 125.333 -7.83301 180 -23.5s103.334 -45.167 146.001 -88.5c28.667 -28.667 51 -60.667 67 -96s28 -72.333 36 -111s12.833 -78.167 14.5 -118.5s2.5 -80.166 2.5 -119.499v-254h226v-274l-797 2c-18 0 -41.333 -2.66699 -70 -8
c-27.333 -5.33301 -51.666 -19 -72.999 -41c-19.333 -22.667 -28.666 -42.334 -27.999 -59.001c1.33301 -18 0.333008 -32.667 -3 -44c0 -17.333 2.66699 -34.833 8 -52.5s15 -32.167 29 -43.5c19.333 -16 42.5 -25.833 69.5 -29.5s52.167 -5.5 75.5 -5.5h580v-274h-694z
" />
    <glyph glyph-name="uniFEA3" unicode="&#x62d;" horiz-adv-x="1444" arabic-form="initial" 
d="M-10 274l784.001 -0.00195312v263c0 28 -1.33301 53.333 -4 76s-7.33398 45 -14.001 67c-10.667 34.667 -31 65.334 -61 92.001c-29.333 26 -78 39 -146 39h-397v274h583c66 0 126.5 -7.83301 181.5 -23.5s103.833 -45.167 146.5 -88.5
c28.667 -28.667 51.167 -60.667 67.5 -96s28.5 -72.333 36.5 -111s12.833 -78.167 14.5 -118.5s2.5 -80.166 2.5 -119.499v-254h143v-274h-1337v274z" />
    <glyph glyph-name="uniFEA4" unicode="&#x62d;" horiz-adv-x="1380" arabic-form="medial" 
d="M-10 274l784.001 -0.00195312v263c0 28 -1.33301 53.333 -4 76s-7.33398 45 -14.001 67c-10.667 34.667 -31 65.334 -61 92.001c-29.333 26 -78 39 -146 39h-397v274h583c66 0 126.5 -7.83301 181.5 -23.5s103.833 -45.167 146.5 -88.5
c28.667 -28.667 51.167 -60.667 67.5 -96s28.5 -72.333 36.5 -111s12.833 -78.167 14.5 -118.5s2.5 -80.166 2.5 -119.499v-254h209v-274h-1403v274z" />
    <glyph glyph-name="uniFEA6" unicode="&#x62e;" horiz-adv-x="1427" arabic-form="final" 
d="M537 -555c-36.667 0 -73.8379 2.33203 -111.505 6.99902s-74.334 12.667 -110.001 24s-69.167 26.333 -100.5 45s-58.666 41.834 -81.999 69.501s-41.833 60.167 -55.5 97.5s-20.5 80.666 -20.5 129.999c0 30 0.666992 59.667 2 89s5.5 58 12.5 86s17.667 55.333 32 82
s34.5 52.334 60.5 77.001c32.667 32 68.834 56.333 108.501 73s84.167 28.667 133.5 36s104.333 11.333 165 12s129 1 205 1h31v263c0 54 -7 101.667 -21 143c-5.33301 18 -12.666 34.833 -21.999 50.5s-21.833 29.5 -37.5 41.5s-35.5 21.5 -59.5 28.5s-53 10.5 -87 10.5
h-398v274h586c65.333 0 125.333 -7.83301 180 -23.5s103.334 -45.167 146.001 -88.5c28.667 -28.667 51 -60.667 67 -96s28 -72.333 36 -111s12.833 -78.167 14.5 -118.5s2.5 -80.166 2.5 -119.499v-254h226v-274l-797 2c-18 0 -41.333 -2.66699 -70 -8
c-27.333 -5.33301 -51.666 -19 -72.999 -41c-19.333 -22.667 -28.666 -42.334 -27.999 -59.001c1.33301 -18 0.333008 -32.667 -3 -44c0 -17.333 2.66699 -34.833 8 -52.5s15 -32.167 29 -43.5c19.333 -16 42.5 -25.833 69.5 -29.5s52.167 -5.5 75.5 -5.5h580v-274h-694z
M364.996 1194v240h403v-240h-403z" />
    <glyph glyph-name="uniFEA7" unicode="&#x62e;" horiz-adv-x="1444" arabic-form="initial" 
d="M-10 274l784.001 -0.00195312v263c0 28 -1.33301 53.333 -4 76s-7.33398 45 -14.001 67c-10.667 34.667 -31 65.334 -61 92.001c-29.333 26 -78 39 -146 39h-397v274h583c66 0 126.5 -7.83301 181.5 -23.5s103.833 -45.167 146.5 -88.5
c28.667 -28.667 51.167 -60.667 67.5 -96s28.5 -72.333 36.5 -111s12.833 -78.167 14.5 -118.5s2.5 -80.166 2.5 -119.499v-254h143v-274h-1337v274zM334.001 1194v240h401v-240h-401z" />
    </font>
</defs>
</svg>
